0
SECTION
2
HEADER
9
$ACADVER
1
AC1015
9
$DWGCODEPAGE
3
ANSI_1252
9
$HANDSEED
5
305
9
$ANGBASE
50
0
9
$ANGDIR
70
0
9
$ATTMODE
70
1
9
$AUNITS
70
0
9
$AUPREC
70
0
9
$CECOLOR
62
256
9
$CELTSCALE
40
1
9
$CELTYPE
6
ByLayer
9
$CELWEIGHT
370
18
9
$CLAYER
8
0
9
$CMLJUST
70
0
9
$CMLSCALE
40
1
9
$CMLSTYLE
2
Standard
9
$DIMSTYLE
2
Standard
9
$TEXTSIZE
40
0.2
9
$TEXTSTYLE
7
Standard
9
$LUNITS
70
2
9
$LUPREC
70
4
9
$EXTNAMES
290
1
9
$INSUNITS
70
4
9
$LTSCALE
40
1
9
$LWDISPLAY
290
1
9
$PDMODE
70
0
9
$PDSIZE
40
0
9
$PLINEGEN
70
0
0
ENDSEC
0
SECTION
2
CLASSES
0
CLASS
1
RASTERVARIABLES
2
AcDbRasterVariables
3
ISM
90
0
280
0
281
0
0
ENDSEC
0
SECTION
2
TABLES
0
TABLE
2
VPORT
5
2fb
100
AcDbSymbolTable
0
VPORT
5
1
100
AcDbSymbolTableRecord
100
AcDbViewportTableRecord
2
*Active
70
0
10
0
20
0
11
1
21
1
12
-1
22
1
13
0
23
0
14
0.5
24
0.5
15
10
25
10
16
0
26
0
36
1
17
0
27
0
37
0
0
ENDTAB
0
TABLE
2
LTYPE
5
2fc
100
AcDbSymbolTable
0
LTYPE
5
14
100
AcDbSymbolTableRecord
100
AcDbLinetypeTableRecord
70
0
2
ByBlock
3

72
65
73
0
40
0
0
LTYPE
5
15
100
AcDbSymbolTableRecord
100
AcDbLinetypeTableRecord
70
0
2
ByLayer
3

72
65
73
0
40
0
0
LTYPE
5
16
100
AcDbSymbolTableRecord
100
AcDbLinetypeTableRecord
70
0
2
CONTINUOUS
3
Solid line
72
65
73
0
40
0
0
LTYPE
5
6A
100
AcDbSymbolTableRecord
100
AcDbLinetypeTableRecord
70
0
2
CENTER
3
____ _ ____ _ ____ _ ____
72
65
73
4
40
47.5
49
22
74
0
49
-8.5
74
0
49
8.5
74
0
49
-8.5
74
0
0
LTYPE
5
6B
100
AcDbSymbolTableRecord
100
AcDbLinetypeTableRecord
70
0
2
DASHED
3
__ __ __ __ __ __ __ __ __
72
65
73
2
40
25.72
49
12.86
74
0
49
-12.86
74
0
0
ENDTAB
0
TABLE
2
LAYER
5
2fd
100
AcDbSymbolTable
0
LAYER
5
10
100
AcDbSymbolTableRecord
100
AcDbLayerTableRecord
2
0
70
0
62
7
6
CONTINUOUS
290
1
370
-3
390
0
0
LAYER
5
6D
100
AcDbSymbolTableRecord
100
AcDbLayerTableRecord
2
80
70
0
62
-6
6
CONTINUOUS
290
1
370
-3
390
0
0
LAYER
5
6F
100
AcDbSymbolTableRecord
100
AcDbLayerTableRecord
2
81
70
0
62
-3
6
CONTINUOUS
290
1
370
-3
390
0
0
LAYER
5
73
100
AcDbSymbolTableRecord
100
AcDbLayerTableRecord
2
1
70
0
62
4
6
CONTINUOUS
290
1
370
-3
390
0
0
LAYER
5
243
100
AcDbSymbolTableRecord
100
AcDbLayerTableRecord
2
2
70
0
62
7
6
CONTINUOUS
290
1
370
-3
390
0
0
LAYER
5
2e8
100
AcDbSymbolTableRecord
100
AcDbLayerTableRecord
2
SK1
70
0
62
4
6
CONTINUOUS
290
1
370
-3
390
0
0
LAYER
5
2e9
100
AcDbSymbolTableRecord
100
AcDbLayerTableRecord
2
SK2
70
0
62
7
6
CONTINUOUS
290
1
370
-3
390
0
0
LAYER
5
2ea
100
AcDbSymbolTableRecord
100
AcDbLayerTableRecord
2
SK6
70
0
62
5
6
CONTINUOUS
290
1
370
-3
390
0
0
ENDTAB
0
TABLE
2
STYLE
5
2fe
100
AcDbSymbolTable
0
STYLE
5
11
100
AcDbSymbolTableRecord
100
AcDbTextStyleTableRecord
2
Standard
3
txt
70
0
71
0
40
0
41
1
42
0
50
0
0
STYLE
5
23D
100
AcDbSymbolTableRecord
100
AcDbTextStyleTableRecord
2
iso_b_vert
3
simplex.shx
70
0
71
0
40
0
41
1
42
0
50
0
0
STYLE
5
23E
100
AcDbSymbolTableRecord
100
AcDbTextStyleTableRecord
2
DWGDirectTextStyle
3
simplex
70
0
71
0
40
0
41
1
42
0
50
0
0
ENDTAB
0
TABLE
2
DIMSTYLE
5
2ff
100
AcDbSymbolTable
100
AcDbDimStyleTable
0
DIMSTYLE
105
27
100
AcDbSymbolTableRecord
100
AcDbDimStyleTableRecord
2
Standard
70
0
3
<>
41
0.18
42
0.0625
44
0.18
140
0.18
147
0.09
73
0
74
0
77
1
271
2
275
0
278
52
280
0
340
11
0
ENDTAB
0
TABLE
2
VIEW
5
300
100
AcDbSymbolTable
0
ENDTAB
0
TABLE
2
UCS
5
301
100
AcDbSymbolTable
0
ENDTAB
0
TABLE
2
APPID
5
302
100
AcDbSymbolTable
0
APPID
5
12
100
AcDbSymbolTableRecord
100
AcDbRegAppTableRecord
2
ACAD
70
0
0
ENDTAB
0
TABLE
2
BLOCK_RECORD
5
303
100
AcDbSymbolTable
0
BLOCK_RECORD
5
1F
100
AcDbSymbolTableRecord
100
AcDbBlockTableRecord
2
*Model_Space
340
0
70
0
0
BLOCK_RECORD
5
1B
100
AcDbSymbolTableRecord
100
AcDbBlockTableRecord
2
*Paper_Space
340
0
70
0
0
BLOCK_RECORD
5
23
100
AcDbSymbolTableRecord
100
AcDbBlockTableRecord
2
*Paper_Space0
340
0
70
0
0
BLOCK_RECORD
5
241
100
AcDbSymbolTableRecord
100
AcDbBlockTableRecord
2
DimnDraft3D1
340
0
70
0
0
BLOCK_RECORD
5
250
100
AcDbSymbolTableRecord
100
AcDbBlockTableRecord
2
_CLOSED
340
0
70
0
0
BLOCK_RECORD
5
257
100
AcDbSymbolTableRecord
100
AcDbBlockTableRecord
2
DimnDraft3D2
340
0
70
0
0
BLOCK_RECORD
5
265
100
AcDbSymbolTableRecord
100
AcDbBlockTableRecord
2
DimnDraft3D3
340
0
70
0
0
BLOCK_RECORD
5
273
100
AcDbSymbolTableRecord
100
AcDbBlockTableRecord
2
DimnDraft3D4
340
0
70
0
0
BLOCK_RECORD
5
281
100
AcDbSymbolTableRecord
100
AcDbBlockTableRecord
2
DimnDraft3D5
340
0
70
0
0
ENDTAB
0
ENDSEC
0
SECTION
2
BLOCKS
0
BLOCK
5
20
100
AcDbEntity
8
0
100
AcDbBlockBegin
2
*Model_Space
70
0
10
0
20
0
30
0
3
*Model_Space
0
ENDBLK
5
21
100
AcDbEntity
8
0
100
AcDbBlockEnd
0
BLOCK
5
1C
100
AcDbEntity
8
0
100
AcDbBlockBegin
2
*Paper_Space
70
0
10
0
20
0
30
0
3
*Paper_Space
0
ENDBLK
5
1D
100
AcDbEntity
8
0
100
AcDbBlockEnd
0
BLOCK
5
24
100
AcDbEntity
8
0
100
AcDbBlockBegin
2
*Paper_Space0
70
0
10
0
20
0
30
0
3
*Paper_Space0
0
ENDBLK
5
25
100
AcDbEntity
8
0
100
AcDbBlockEnd
0
BLOCK
5
24D
100
AcDbEntity
8
0
100
AcDbBlockBegin
2
DimnDraft3D1
70
0
10
0
20
0
30
0
3
DimnDraft3D1
0
MTEXT
5
242
100
AcDbEntity
8
2
62
256
6
ByLayer
370
18
48
1
60
0
100
AcDbMText
10
25.261555
20
33.499653
30
0
210
0
220
0
230
1
1
\W0.7208;56.1
40
3.5
41
0
44
1.084337
50
0
71
7
72
5
7
iso_b_vert
0
LINE
5
244
100
AcDbEntity
8
2
62
256
6
ByLayer
370
13
48
1
60
0
100
AcDbLine
10
0
20
18
30
0
11
0
21
34.624653
31
0
39
0
210
0
220
0
230
1
0
LINE
5
245
100
AcDbEntity
8
2
62
256
6
ByLayer
370
13
48
1
60
0
100
AcDbLine
10
56.1139
20
-15
30
0
11
56.1139
21
34.624653
31
0
39
0
210
0
220
0
230
1
0
LINE
5
246
100
AcDbEntity
8
2
62
256
6
ByLayer
370
13
48
1
60
0
100
AcDbLine
10
0
20
32.624653
30
0
11
56.1139
21
32.624653
31
0
39
0
210
0
220
0
230
1
0
LINE
5
247
100
AcDbEntity
8
2
62
256
6
ByLayer
370
13
48
1
60
0
100
AcDbLine
10
0
20
32.624653
30
0
11
3.174998
21
33.04265
31
0
39
0
210
0
220
0
230
1
0
LINE
5
248
100
AcDbEntity
8
2
62
256
6
ByLayer
370
13
48
1
60
0
100
AcDbLine
10
0
20
32.624653
30
0
11
3.175002
21
32.206656
31
0
39
0
210
0
220
0
230
1
0
LINE
5
249
100
AcDbEntity
8
2
62
256
6
ByLayer
370
13
48
1
60
0
100
AcDbLine
10
3.174998
20
33.04265
30
0
11
3.175002
21
32.206656
31
0
39
0
210
0
220
0
230
1
0
LINE
5
24A
100
AcDbEntity
8
2
62
256
6
ByLayer
370
13
48
1
60
0
100
AcDbLine
10
56.1139
20
32.624653
30
0
11
52.938902
21
32.206656
31
0
39
0
210
0
220
0
230
1
0
LINE
5
24B
100
AcDbEntity
8
2
62
256
6
ByLayer
370
13
48
1
60
0
100
AcDbLine
10
56.1139
20
32.624653
30
0
11
52.938898
21
33.04265
31
0
39
0
210
0
220
0
230
1
0
LINE
5
24C
100
AcDbEntity
8
2
62
256
6
ByLayer
370
13
48
1
60
0
100
AcDbLine
10
52.938902
20
32.206656
30
0
11
52.938898
21
33.04265
31
0
39
0
210
0
220
0
230
1
0
ENDBLK
5
24E
100
AcDbEntity
8
0
100
AcDbBlockEnd
0
BLOCK
5
251
100
AcDbEntity
8
0
100
AcDbBlockBegin
2
_CLOSED
70
0
10
0
20
0
30
0
3
_CLOSED
0
LINE
5
253
100
AcDbEntity
8
0
62
256
6
ByLayer
370
-2
48
1
60
0
100
AcDbLine
10
-1
20
0.166667
30
0
11
0
21
0
31
0
39
0
210
0
220
0
230
1
0
LINE
5
254
100
AcDbEntity
8
0
62
256
6
ByLayer
370
-2
48
1
60
0
100
AcDbLine
10
0
20
0
30
0
11
-1
21
-0.166667
31
0
39
0
210
0
220
0
230
1
0
LINE
5
255
100
AcDbEntity
8
0
62
256
6
ByLayer
370
-2
48
1
60
0
100
AcDbLine
10
-1
20
0.166667
30
0
11
-1
21
-0.166667
31
0
39
0
210
0
220
0
230
1
0
LINE
5
256
100
AcDbEntity
8
0
62
256
6
ByLayer
370
-2
48
1
60
0
100
AcDbLine
10
0
20
0
30
0
11
-1
21
0
31
0
39
0
210
0
220
0
230
1
0
ENDBLK
5
252
100
AcDbEntity
8
0
100
AcDbBlockEnd
0
BLOCK
5
262
100
AcDbEntity
8
0
100
AcDbBlockBegin
2
DimnDraft3D2
70
0
10
0
20
0
30
0
3
DimnDraft3D2
0
MTEXT
5
258
100
AcDbEntity
8
SK2
62
256
6
ByLayer
370
18
48
1
60
0
100
AcDbMText
10
-30.972284
20
39.499653
30
0
210
0
220
0
230
1
1
\W0.6217;170
40
3.5
41
0
44
1.084337
50
0
71
7
72
5
7
iso_b_vert
0
LINE
5
259
100
AcDbEntity
8
SK2
62
256
6
ByLayer
370
13
48
1
60
0
100
AcDbLine
10
-113.8861
20
18
30
0
11
-113.8861
21
40.624653
31
0
39
0
210
0
220
0
230
1
0
LINE
5
25A
100
AcDbEntity
8
SK2
62
256
6
ByLayer
370
13
48
1
60
0
100
AcDbLine
10
56.1139
20
-15
30
0
11
56.1139
21
40.624653
31
0
39
0
210
0
220
0
230
1
0
LINE
5
25B
100
AcDbEntity
8
SK2
62
256
6
ByLayer
370
13
48
1
60
0
100
AcDbLine
10
-113.8861
20
38.624653
30
0
11
56.1139
21
38.624653
31
0
39
0
210
0
220
0
230
1
0
LINE
5
25C
100
AcDbEntity
8
SK2
62
256
6
ByLayer
370
13
48
1
60
0
100
AcDbLine
10
-113.8861
20
38.624653
30
0
11
-110.711102
21
39.04265
31
0
39
0
210
0
220
0
230
1
0
LINE
5
25D
100
AcDbEntity
8
SK2
62
256
6
ByLayer
370
13
48
1
60
0
100
AcDbLine
10
-113.8861
20
38.624653
30
0
11
-110.711098
21
38.206656
31
0
39
0
210
0
220
0
230
1
0
LINE
5
25E
100
AcDbEntity
8
SK2
62
256
6
ByLayer
370
13
48
1
60
0
100
AcDbLine
10
-110.711102
20
39.04265
30
0
11
-110.711098
21
38.206656
31
0
39
0
210
0
220
0
230
1
0
LINE
5
25F
100
AcDbEntity
8
SK2
62
256
6
ByLayer
370
13
48
1
60
0
100
AcDbLine
10
56.1139
20
38.624653
30
0
11
52.938902
21
38.206656
31
0
39
0
210
0
220
0
230
1
0
LINE
5
260
100
AcDbEntity
8
SK2
62
256
6
ByLayer
370
13
48
1
60
0
100
AcDbLine
10
56.1139
20
38.624653
30
0
11
52.938898
21
39.04265
31
0
39
0
210
0
220
0
230
1
0
LINE
5
261
100
AcDbEntity
8
SK2
62
256
6
ByLayer
370
13
48
1
60
0
100
AcDbLine
10
52.938902
20
38.206656
30
0
11
52.938898
21
39.04265
31
0
39
0
210
0
220
0
230
1
0
ENDBLK
5
263
100
AcDbEntity
8
0
100
AcDbBlockEnd
0
BLOCK
5
270
100
AcDbEntity
8
0
100
AcDbBlockBegin
2
DimnDraft3D3
70
0
10
0
20
0
30
0
3
DimnDraft3D3
0
MTEXT
5
266
100
AcDbEntity
8
2
62
256
6
ByLayer
370
18
48
1
60
0
100
AcDbMText
10
38.398111
20
-29.237462
30
0
210
0
220
0
230
1
1
\W0.6740;33
40
3.5
41
0
44
1.084337
50
0
71
7
72
5
7
iso_b_vert
0
LINE
5
267
100
AcDbEntity
8
2
62
256
6
ByLayer
370
13
48
1
60
0
100
AcDbLine
10
56.1139
20
-19
30
0
11
56.1139
21
-32.112462
31
0
39
0
210
0
220
0
230
1
0
LINE
5
268
100
AcDbEntity
8
2
62
256
6
ByLayer
370
13
48
1
60
0
100
AcDbLine
10
23.1139
20
-18
30
0
11
23.1139
21
-32.112462
31
0
39
0
210
0
220
0
230
1
0
LINE
5
269
100
AcDbEntity
8
2
62
256
6
ByLayer
370
13
48
1
60
0
100
AcDbLine
10
56.1139
20
-30.112462
30
0
11
23.1139
21
-30.112462
31
0
39
0
210
0
220
0
230
1
0
LINE
5
26A
100
AcDbEntity
8
2
62
256
6
ByLayer
370
13
48
1
60
0
100
AcDbLine
10
56.1139
20
-30.112462
30
0
11
52.938902
21
-30.530459
31
0
39
0
210
0
220
0
230
1
0
LINE
5
26B
100
AcDbEntity
8
2
62
256
6
ByLayer
370
13
48
1
60
0
100
AcDbLine
10
56.1139
20
-30.112462
30
0
11
52.938898
21
-29.694465
31
0
39
0
210
0
220
0
230
1
0
LINE
5
26C
100
AcDbEntity
8
2
62
256
6
ByLayer
370
13
48
1
60
0
100
AcDbLine
10
52.938902
20
-30.530459
30
0
11
52.938898
21
-29.694465
31
0
39
0
210
0
220
0
230
1
0
LINE
5
26D
100
AcDbEntity
8
2
62
256
6
ByLayer
370
13
48
1
60
0
100
AcDbLine
10
23.1139
20
-30.112462
30
0
11
26.288898
21
-29.694465
31
0
39
0
210
0
220
0
230
1
0
LINE
5
26E
100
AcDbEntity
8
2
62
256
6
ByLayer
370
13
48
1
60
0
100
AcDbLine
10
23.1139
20
-30.112462
30
0
11
26.288902
21
-30.530459
31
0
39
0
210
0
220
0
230
1
0
LINE
5
26F
100
AcDbEntity
8
2
62
256
6
ByLayer
370
13
48
1
60
0
100
AcDbLine
10
26.288898
20
-29.694465
30
0
11
26.288902
21
-30.530459
31
0
39
0
210
0
220
0
230
1
0
ENDBLK
5
271
100
AcDbEntity
8
0
100
AcDbBlockEnd
0
BLOCK
5
27E
100
AcDbEntity
8
0
100
AcDbBlockBegin
2
DimnDraft3D4
70
0
10
0
20
0
30
0
3
DimnDraft3D4
0
MTEXT
5
274
100
AcDbEntity
8
2
62
256
6
ByLayer
370
18
48
1
60
0
100
AcDbMText
10
80.3389
20
-1.715789
30
0
210
0
220
0
230
1
1
\W0.6740;33
40
3.5
41
0
44
1.084337
50
90
71
7
72
5
7
iso_b_vert
0
LINE
5
275
100
AcDbEntity
8
2
62
256
6
ByLayer
370
13
48
1
60
0
100
AcDbLine
10
2
20
16
30
0
11
83.2139
21
16
31
0
39
0
210
0
220
0
230
1
0
LINE
5
276
100
AcDbEntity
8
2
62
256
6
ByLayer
370
13
48
1
60
0
100
AcDbLine
10
58.1139
20
-17
30
0
11
83.2139
21
-17
31
0
39
0
210
0
220
0
230
1
0
LINE
5
277
100
AcDbEntity
8
2
62
256
6
ByLayer
370
13
48
1
60
0
100
AcDbLine
10
81.2139
20
16
30
0
11
81.2139
21
-17
31
0
39
0
210
0
220
0
230
1
0
LINE
5
278
100
AcDbEntity
8
2
62
256
6
ByLayer
370
13
48
1
60
0
100
AcDbLine
10
81.2139
20
16
30
0
11
81.631897
21
12.825002
31
0
39
0
210
0
220
0
230
1
0
LINE
5
279
100
AcDbEntity
8
2
62
256
6
ByLayer
370
13
48
1
60
0
100
AcDbLine
10
81.2139
20
16
30
0
11
80.795903
21
12.824998
31
0
39
0
210
0
220
0
230
1
0
LINE
5
27A
100
AcDbEntity
8
2
62
256
6
ByLayer
370
13
48
1
60
0
100
AcDbLine
10
81.631897
20
12.825002
30
0
11
80.795903
21
12.824998
31
0
39
0
210
0
220
0
230
1
0
LINE
5
27B
100
AcDbEntity
8
2
62
256
6
ByLayer
370
13
48
1
60
0
100
AcDbLine
10
81.2139
20
-17
30
0
11
80.795903
21
-13.825002
31
0
39
0
210
0
220
0
230
1
0
LINE
5
27C
100
AcDbEntity
8
2
62
256
6
ByLayer
370
13
48
1
60
0
100
AcDbLine
10
81.2139
20
-17
30
0
11
81.631897
21
-13.824998
31
0
39
0
210
0
220
0
230
1
0
LINE
5
27D
100
AcDbEntity
8
2
62
256
6
ByLayer
370
13
48
1
60
0
100
AcDbLine
10
80.795903
20
-13.825002
30
0
11
81.631897
21
-13.824998
31
0
39
0
210
0
220
0
230
1
0
ENDBLK
5
27F
100
AcDbEntity
8
0
100
AcDbBlockEnd
0
BLOCK
5
28C
100
AcDbEntity
8
0
100
AcDbBlockBegin
2
DimnDraft3D5
70
0
10
0
20
0
30
0
3
DimnDraft3D5
0
MTEXT
5
282
100
AcDbEntity
8
2
62
256
6
ByLayer
370
18
48
1
60
0
100
AcDbMText
10
73.3389
20
-13.907895
30
0
210
0
220
0
230
1
1
\W0.5404;6
40
3.5
41
0
44
1.084337
50
90
71
7
72
5
7
iso_b_vert
0
LINE
5
283
100
AcDbEntity
8
2
62
256
6
ByLayer
370
13
48
1
60
0
100
AcDbLine
10
58.1139
20
-17
30
0
11
76.2139
21
-17
31
0
39
0
210
0
220
0
230
1
0
LINE
5
284
100
AcDbEntity
8
2
62
256
6
ByLayer
370
13
48
1
60
0
100
AcDbLine
10
58.1139
20
-11
30
0
11
76.2139
21
-11
31
0
39
0
210
0
220
0
230
1
0
LINE
5
285
100
AcDbEntity
8
2
62
256
6
ByLayer
370
13
48
1
60
0
100
AcDbLine
10
74.2139
20
-25.75
30
0
11
74.2139
21
-2.25
31
0
39
0
210
0
220
0
230
1
0
LINE
5
286
100
AcDbEntity
8
2
62
256
6
ByLayer
370
13
48
1
60
0
100
AcDbLine
10
74.2139
20
-17
30
0
11
74.631897
21
-20.174998
31
0
39
0
210
0
220
0
230
1
0
LINE
5
287
100
AcDbEntity
8
2
62
256
6
ByLayer
370
13
48
1
60
0
100
AcDbLine
10
74.2139
20
-17
30
0
11
73.795903
21
-20.175002
31
0
39
0
210
0
220
0
230
1
0
LINE
5
288
100
AcDbEntity
8
2
62
256
6
ByLayer
370
13
48
1
60
0
100
AcDbLine
10
74.631897
20
-20.174998
30
0
11
73.795903
21
-20.175002
31
0
39
0
210
0
220
0
230
1
0
LINE
5
289
100
AcDbEntity
8
2
62
256
6
ByLayer
370
13
48
1
60
0
100
AcDbLine
10
74.2139
20
-11
30
0
11
73.795903
21
-7.825002
31
0
39
0
210
0
220
0
230
1
0
LINE
5
28A
100
AcDbEntity
8
2
62
256
6
ByLayer
370
13
48
1
60
0
100
AcDbLine
10
74.2139
20
-11
30
0
11
74.631897
21
-7.824998
31
0
39
0
210
0
220
0
230
1
0
LINE
5
28B
100
AcDbEntity
8
2
62
256
6
ByLayer
370
13
48
1
60
0
100
AcDbLine
10
73.795903
20
-7.825002
30
0
11
74.631897
21
-7.824998
31
0
39
0
210
0
220
0
230
1
0
ENDBLK
5
28D
100
AcDbEntity
8
0
100
AcDbBlockEnd
0
ENDSEC
0
SECTION
2
ENTITIES
0
ARC
5
10C
100
AcDbEntity
8
SK1
62
256
6
ByLayer
370
18
48
1
60
0
100
AcDbCircle
39
0
10
1.227736
20
-17.45
30
0
40
1.59999999999857
210
0
220
0
230
-1
100
AcDbArc
50
90
51
134.816221
0
ARC
5
10D
100
AcDbEntity
8
1
62
256
6
ByLayer
370
18
48
1
60
0
100
AcDbCircle
39
0
10
1.227736
20
-17.45
30
0
40
1.60000000001232
210
0
220
0
230
-1
100
AcDbArc
50
134.816221
51
151.028468
0
ARC
5
10F
100
AcDbEntity
8
1
62
256
6
ByLayer
370
18
48
1
60
0
100
AcDbCircle
39
0
10
-23.1139
20
-9.725
30
0
40
1.6
210
0
220
0
230
-1
100
AcDbArc
50
270
51
0
0
ARC
5
110
100
AcDbEntity
8
1
62
256
6
ByLayer
370
18
48
1
60
0
100
AcDbCircle
39
0
10
-23.1139
20
-9.725
30
0
40
1.6
210
0
220
0
230
-1
100
AcDbArc
50
270
51
0
0
ARC
5
111
100
AcDbEntity
8
1
62
256
6
ByLayer
370
18
48
1
60
0
100
AcDbCircle
39
0
10
1.227736
20
-17.45
30
0
40
1.60000000000025
210
0
220
0
230
-1
100
AcDbArc
50
90
51
151.028468
0
CIRCLE
5
10E
100
AcDbEntity
8
1
62
256
6
ByLayer
370
18
48
1
60
0
100
AcDbCircle
10
-11.5139
20
-6.675
30
0
40
4.40000000000001
39
0
210
0
220
0
230
-1
0
CIRCLE
5
112
100
AcDbEntity
8
1
62
256
6
ByLayer
370
18
48
1
60
0
100
AcDbCircle
10
-11.5139
20
-6.675
30
0
40
4.40000000000001
39
0
210
0
220
0
230
-1
0
ELLIPSE
5
113
100
AcDbEntity
8
SK1
62
256
6
ByLayer
370
18
48
1
60
0
100
AcDbEllipse
10
-1.227736
20
16.006981
30
0
11
1.60000000000101
21
1.6170224881328E-15
31
0
210
0
220
0
230
-1
40
0.004363
41
0.788605704207669
42
1.5707963267949
0
ELLIPSE
5
114
100
AcDbEntity
8
1
62
256
6
ByLayer
370
18
48
1
60
0
100
AcDbEllipse
10
-1.227736
20
16.006981
30
0
11
1.59999999999607
21
1.61702248812781E-15
31
0
210
0
220
0
230
-1
40
0.004363
41
0.261799387799046
42
0.788605704208478
0
ELLIPSE
5
115
100
AcDbEntity
8
1
62
256
6
ByLayer
370
18
48
1
60
0
100
AcDbEllipse
10
50.870356
20
-14
30
0
11
2.67247564257992
21
-0.988910522111611
31
0
210
0
220
0
230
-1
40
0.055572
41
2.03810851835584
42
2.11293307191695
0
ELLIPSE
5
116
100
AcDbEntity
8
1
62
256
6
ByLayer
370
18
48
1
60
0
100
AcDbEllipse
10
48.266488
20
-14
30
0
11
2.01022273814839
21
2.03160960858737E-15
31
0
210
0
220
0
230
-1
40
0.497457
41
0.969678448663588
42
-0.969678448663558
0
ELLIPSE
5
117
100
AcDbEntity
8
1
62
256
6
ByLayer
370
18
48
1
60
0
100
AcDbEllipse
10
49.965178
20
-14
30
0
11
0.443603531968834
21
-0.985188736347057
31
0
210
0
220
0
230
-1
40
0.386547
41
2.20181390682355
42
2.71279988027175
0
ELLIPSE
5
118
100
AcDbEntity
8
1
62
256
6
ByLayer
370
18
48
1
60
0
100
AcDbEllipse
10
49.965178
20
-14
30
0
11
0.443603532060745
21
0.985188736454498
31
0
210
0
220
0
230
-1
40
0.386547
41
-2.71279988030385
42
-2.20181390689665
0
ELLIPSE
5
119
100
AcDbEntity
8
1
62
256
6
ByLayer
370
18
48
1
60
0
100
AcDbEllipse
10
50.14582
20
-14
30
0
11
1.60814287199191E-16
21
0.999999999784088
31
0
210
0
220
0
230
-1
40
0.451247
41
-1.74550750770309
42
-1.3960851458867
0
ELLIPSE
5
11A
100
AcDbEntity
8
1
62
256
6
ByLayer
370
18
48
1
60
0
100
AcDbEllipse
10
50.870355
20
-14
30
0
11
2.672473730333
21
0.988909896503035
31
0
210
0
220
0
230
-1
40
0.055572
41
-2.11293285043603
42
-2.0381082540412
0
ELLIPSE
5
11B
100
AcDbEntity
8
1
62
256
6
ByLayer
370
13
48
1
60
0
100
AcDbEllipse
10
54.050328
20
-16.280276
30
0
11
0.0344757044900429
21
0.298012459135378
31
0
210
0
220
0
230
1
40
0.004013
41
0.696394960496531
42
1.53612109567788
0
ELLIPSE
5
11C
100
AcDbEntity
8
1
62
256
6
ByLayer
370
13
48
1
60
0
100
AcDbEllipse
10
51.903528
20
-16.233555
30
0
11
-0.0230464571345714
21
0.299113458094992
31
0
210
0
220
0
230
1
40
0.565336
41
-1.58546383862664
42
-0.78853550442351
0
ELLIPSE
5
11D
100
AcDbEntity
8
1
62
256
6
ByLayer
370
13
48
1
60
0
100
AcDbEllipse
10
54.050328
20
-11.719724
30
0
11
0.0344757044900425
21
-0.298012459135378
31
0
210
0
220
0
230
1
40
0.004013
41
-1.53612109567612
42
-0.696394960494944
0
ELLIPSE
5
11E
100
AcDbEntity
8
1
62
256
6
ByLayer
370
13
48
1
60
0
100
AcDbEllipse
10
51.903528
20
-11.766445
30
0
11
-0.0230464571345715
21
-0.299113458094992
31
0
210
0
220
0
230
1
40
0.565336
41
0.788535504423619
42
1.58546383862666
0
ELLIPSE
5
11F
100
AcDbEntity
8
1
62
256
6
ByLayer
370
13
48
1
60
0
100
AcDbEllipse
10
50.747627
20
-15.326996
30
0
11
0.145654533590937
21
-0.137057494667044
31
0
210
0
220
0
230
1
40
0.824654
41
1.558296717356
42
2.27615066197122
0
ELLIPSE
5
120
100
AcDbEntity
8
1
62
256
6
ByLayer
370
13
48
1
60
0
100
AcDbEllipse
10
50.747621
20
-12.67301
30
0
11
-0.145655094548331
21
-0.137056898520712
31
0
210
0
220
0
230
1
40
0.824655
41
0.865445253601535
42
1.58330062290273
0
ELLIPSE
5
121
100
AcDbEntity
8
1
62
256
6
ByLayer
370
13
48
1
60
0
100
AcDbEllipse
10
50.060501
20
-15.374722
30
0
11
0.0356112644714498
21
0.196804059517949
31
0
210
0
220
0
230
1
40
0.337181
41
0.552952312024982
42
1.63173288093478
0
ELLIPSE
5
122
100
AcDbEntity
8
1
62
256
6
ByLayer
370
13
48
1
60
0
100
AcDbEllipse
10
50.060501
20
-12.625282
30
0
11
-0.0356101531982815
21
0.19680426059716
31
0
210
0
220
0
230
1
40
0.337181
41
1.50986167657773
42
2.58863944786989
0
ELLIPSE
5
123
100
AcDbEntity
8
1
62
256
6
ByLayer
370
13
48
1
60
0
100
AcDbEllipse
10
49.908467
20
-15.343613
30
0
11
-0.0446222323637904
21
-0.194958601705264
31
0
210
0
220
0
230
1
40
0.334374
41
-2.52315165181315
42
-1.49441356325141
0
ELLIPSE
5
124
100
AcDbEntity
8
1
62
256
6
ByLayer
370
13
48
1
60
0
100
AcDbEllipse
10
49.908468
20
-12.656389
30
0
11
0.0446208929096925
21
-0.194958908275415
31
0
210
0
220
0
230
1
40
0.334374
41
-1.64717679303883
42
-0.618441579563483
0
ELLIPSE
5
125
100
AcDbEntity
8
1
62
256
6
ByLayer
370
13
48
1
60
0
100
AcDbEllipse
10
49.908468
20
-12.656389
30
0
11
-0.189843150463844
21
0.0629251795544712
31
0
210
0
220
0
230
1
40
0.824862
41
0.783492188047426
42
1.83037412070838
0
ELLIPSE
5
126
100
AcDbEntity
8
1
62
256
6
ByLayer
370
13
48
1
60
0
100
AcDbEllipse
10
49.908468
20
-12.656389
30
0
11
0.181415923983447
21
0.0841918198237334
31
0
210
0
220
0
230
1
40
0.151449
41
1.88624128123227
42
2.72609499686297
0
ELLIPSE
5
127
100
AcDbEntity
8
1
62
256
6
ByLayer
370
13
48
1
60
0
100
AcDbEllipse
10
49.908467
20
-15.343613
30
0
11
-0.181415923982124
21
0.0841918198265858
31
0
210
0
220
0
230
1
40
0.151449
41
0.415497656646257
42
1.25535137230863
0
ELLIPSE
5
128
100
AcDbEntity
8
1
62
256
6
ByLayer
370
13
48
1
60
0
100
AcDbEllipse
10
49.908467
20
-15.343613
30
0
11
0.189843211592927
21
0.0629249951297819
31
0
210
0
220
0
230
1
40
0.824861
41
1.31121310851452
42
2.3581012668609
0
ELLIPSE
5
129
100
AcDbEntity
8
1
62
256
6
ByLayer
370
13
48
1
60
0
100
AcDbEllipse
10
49.332864
20
-11.416083
30
0
11
0.19537487702261
21
0.0540538505290002
31
0
210
0
220
0
230
-1
40
0.095151
41
-2.68744170644241
42
-1.90204354316837
0
ELLIPSE
5
12A
100
AcDbEntity
8
1
62
256
6
ByLayer
370
13
48
1
60
0
100
AcDbEllipse
10
49.332864
20
-16.583917
30
0
11
0.195374876887555
21
-0.054053850501671
31
0
210
0
220
0
230
-1
40
0.095151
41
1.90204354272956
42
2.68744170638809
0
ELLIPSE
5
12B
100
AcDbEntity
8
1
62
256
6
ByLayer
370
13
48
1
60
0
100
AcDbEllipse
10
49.909009
20
-13.416014
30
0
11
0.196520244347653
21
0.0371455725698095
31
0
210
0
220
0
230
1
40
0.382233
41
-2.69513202135759
42
-1.53760525501875
0
ELLIPSE
5
12C
100
AcDbEntity
8
1
62
256
6
ByLayer
370
13
48
1
60
0
100
AcDbEllipse
10
49.909008
20
-14.583986
30
0
11
-0.196520211828147
21
0.0371457446152335
31
0
210
0
220
0
230
1
40
0.382232
41
-1.60399008004386
42
-0.446460297603238
0
ELLIPSE
5
12D
100
AcDbEntity
8
1
62
256
6
ByLayer
370
13
48
1
60
0
100
AcDbEllipse
10
50.831575
20
-12.856903
30
0
11
-0.199367740021548
21
-0.0158903819557806
31
0
210
0
220
0
230
1
40
0.789046
41
1.51750942137651
42
2.1413276853026
0
ELLIPSE
5
12E
100
AcDbEntity
8
1
62
256
6
ByLayer
370
13
48
1
60
0
100
AcDbEllipse
10
50.831582
20
-15.1431
30
0
11
0.19936787908084
21
-0.0158886371601765
31
0
210
0
220
0
230
1
40
0.789045
41
1.00025908098126
42
1.62407577006617
0
ELLIPSE
5
12F
100
AcDbEntity
8
1
62
256
6
ByLayer
370
13
48
1
60
0
100
AcDbEllipse
10
49.332864
20
-11.416083
30
0
11
0.199990732027259
21
0.0330226536518772
31
0
210
0
220
0
230
-1
40
0.058305
41
-2.69563324467144
42
-1.91023508142011
0
ELLIPSE
5
130
100
AcDbEntity
8
1
62
256
6
ByLayer
370
13
48
1
60
0
100
AcDbEllipse
10
49.332864
20
-16.583917
30
0
11
0.199990731938018
21
-0.0330226536409692
31
0
210
0
220
0
230
-1
40
0.058305
41
1.91023508113119
42
2.69563324462567
0
ELLIPSE
5
131
100
AcDbEntity
8
1
62
256
6
ByLayer
370
13
48
1
60
0
100
AcDbEllipse
10
49.196918
20
-11.440846
30
0
11
-0.0181929836887863
21
0.0465726888261732
31
0
210
0
220
0
230
1
40
0.894204
41
1.23473760232676
42
1.55767207624744
0
ELLIPSE
5
132
100
AcDbEntity
8
1
62
256
6
ByLayer
370
13
48
1
60
0
100
AcDbEllipse
10
49.196918
20
-16.559154
30
0
11
-0.0181929836887895
21
-0.0465726888261719
31
0
210
0
220
0
230
1
40
0.894204
41
-1.55767207624744
42
-1.23473760232675
0
ELLIPSE
5
133
100
AcDbEntity
8
1
62
256
6
ByLayer
370
13
48
1
60
0
100
AcDbEllipse
10
55.053169
20
-11.751965
30
0
11
-0.0770752947303414
21
-0.184551886856328
31
0
210
0
220
0
230
1
40
0.173493
41
0.733007810210272
42
1.6059687894984
0
ELLIPSE
5
134
100
AcDbEntity
8
1
62
256
6
ByLayer
370
13
48
1
60
0
100
AcDbEllipse
10
55.053169
20
-16.248035
30
0
11
-0.0770752947303412
21
0.184551886856328
31
0
210
0
220
0
230
1
40
0.173493
41
-1.6059687894984
42
-0.733007810211565
0
ELLIPSE
5
135
100
AcDbEntity
8
1
62
256
6
ByLayer
370
13
48
1
60
0
100
AcDbEllipse
10
51.538998
20
-13.03172
30
0
11
0.0825713280238052
21
-0.288412856489417
31
0
210
0
220
0
230
1
40
0.558425
41
-2.51294443030682
42
-1.72932944862258
0
ELLIPSE
5
136
100
AcDbEntity
8
1
62
256
6
ByLayer
370
13
48
1
60
0
100
AcDbEllipse
10
54.992628
20
-11.676828
30
0
11
-0.00449393620032683
21
-0.299966339007275
31
0
210
0
220
0
230
1
40
0.224443
41
-1.42518632678385
42
-0.739818792193217
0
ELLIPSE
5
137
100
AcDbEntity
8
1
62
256
6
ByLayer
370
13
48
1
60
0
100
AcDbEllipse
10
51.538998
20
-14.96828
30
0
11
0.0825713280238051
21
0.288412856489417
31
0
210
0
220
0
230
1
40
0.558425
41
1.72932944862261
42
2.51294443030682
0
ELLIPSE
5
138
100
AcDbEntity
8
1
62
256
6
ByLayer
370
13
48
1
60
0
100
AcDbEllipse
10
51.005068
20
-13.108399
30
0
11
-0.122268173255619
21
-0.158273477906862
31
0
210
0
220
0
230
1
40
0.484684
41
1.08447344820018
42
1.92906217311902
0
ELLIPSE
5
139
100
AcDbEntity
8
1
62
256
6
ByLayer
370
13
48
1
60
0
100
AcDbEllipse
10
51.005073
20
-14.891603
30
0
11
0.122268826309627
21
-0.158272973412603
31
0
210
0
220
0
230
1
40
0.484683
41
1.21252848060908
42
2.0571153197321
0
ELLIPSE
5
13A
100
AcDbEntity
8
1
62
256
6
ByLayer
370
13
48
1
60
0
100
AcDbEllipse
10
54.250328
20
-11.698544
30
0
11
0.0261610012051277
21
-0.29885715988737
31
0
210
0
220
0
230
1
40
0.003045
41
-1.53602277096632
42
-0.693560700132995
0
ELLIPSE
5
13B
100
AcDbEntity
8
1
62
256
6
ByLayer
370
13
48
1
60
0
100
AcDbEllipse
10
54.992628
20
-16.323172
30
0
11
-0.00449393620032675
21
0.299966339007275
31
0
210
0
220
0
230
1
40
0.224443
41
0.739818792193536
42
1.4251863267839
0
ELLIPSE
5
13C
100
AcDbEntity
8
1
62
256
6
ByLayer
370
13
48
1
60
0
100
AcDbEllipse
10
54.250328
20
-16.301456
30
0
11
0.0261610012051277
21
0.29885715988737
31
0
210
0
220
0
230
1
40
0.003045
41
0.693560700109998
42
1.53602277096632
0
ELLIPSE
5
13D
100
AcDbEntity
8
1
62
256
6
ByLayer
370
13
48
1
60
0
100
AcDbEllipse
10
52.412494
20
-15.170425
30
0
11
0.0475300676839184
21
0.296210892213575
31
0
210
0
220
0
230
1
40
0.247095
41
1.61042446202158
42
2.50923124540585
0
ELLIPSE
5
13E
100
AcDbEntity
8
1
62
256
6
ByLayer
370
13
48
1
60
0
100
AcDbEllipse
10
49.193374
20
-16.558479
30
0
11
1.41637461308075E-17
21
0.05
31
0
210
0
220
0
230
1
40
0.906308
41
1.23482044578578
42
1.5707963267949
0
ELLIPSE
5
13F
100
AcDbEntity
8
1
62
256
6
ByLayer
370
13
48
1
60
0
100
AcDbEllipse
10
49.193374
20
-11.441521
30
0
11
1.41637461308075E-17
21
0.05
31
0
210
0
220
0
230
1
40
0.906308
41
1.5707963267949
42
1.90677220780387
0
ELLIPSE
5
140
100
AcDbEntity
8
1
62
256
6
ByLayer
370
13
48
1
60
0
100
AcDbEllipse
10
52.412494
20
-12.829575
30
0
11
0.0475300676839182
21
-0.296210892213575
31
0
210
0
220
0
230
1
40
0.247095
41
-2.50923124540524
42
-1.61042446202161
0
ELLIPSE
5
141
100
AcDbEntity
8
1
62
256
6
ByLayer
370
13
48
1
60
0
100
AcDbEllipse
10
51.252209
20
-13.332499
30
0
11
-0.147116653644524
21
-0.135486863645289
31
0
210
0
220
0
230
1
40
0.428574
41
1.29393973964909
42
2.00635086389122
0
ELLIPSE
5
142
100
AcDbEntity
8
1
62
256
6
ByLayer
370
13
48
1
60
0
100
AcDbEllipse
10
51.252209
20
-14.667506
30
0
11
0.147116931807192
21
-0.135486561605341
31
0
210
0
220
0
230
1
40
0.428573
41
1.13524090981085
42
1.84765347921674
0
ELLIPSE
5
143
100
AcDbEntity
8
1
62
256
6
ByLayer
370
13
48
1
60
0
100
AcDbEllipse
10
50.074276
20
-14.51716
30
0
11
-0.0689676156405001
21
0.187732437242114
31
0
210
0
220
0
230
1
40
0.223087
41
-1.29134485432442
42
-0.148829673704823
0
ELLIPSE
5
144
100
AcDbEntity
8
1
62
256
6
ByLayer
370
13
48
1
60
0
100
AcDbEllipse
10
50.319053
20
-14.131886
30
0
11
-0.199848046799084
21
-0.0077947540430166
31
0
210
0
220
0
230
1
40
0.083289
41
-1.69354097241417
42
-0.437958800565834
0
ELLIPSE
5
145
100
AcDbEntity
8
1
62
256
6
ByLayer
370
13
48
1
60
0
100
AcDbEllipse
10
50.074277
20
-13.48284
30
0
11
0.068967593414727
21
0.187732445407236
31
0
210
0
220
0
230
1
40
0.223086
41
-2.99276300629717
42
-1.85025134770709
0
ELLIPSE
5
146
100
AcDbEntity
8
1
62
256
6
ByLayer
370
13
48
1
60
0
100
AcDbEllipse
10
50.319053
20
-13.868114
30
0
11
0.199848033790471
21
-0.00779508756094034
31
0
210
0
220
0
230
1
40
0.083293
41
-2.70363371402334
42
-1.44805176546435
0
ELLIPSE
5
147
100
AcDbEntity
8
1
62
256
6
ByLayer
370
13
48
1
60
0
100
AcDbEllipse
10
49.909009
20
-13.416014
30
0
11
0.0817083505375213
21
0.182547926453405
31
0
210
0
220
0
230
1
40
0.256764
41
-2.96631956466346
42
-1.86992384235499
0
ELLIPSE
5
148
100
AcDbEntity
8
1
62
256
6
ByLayer
370
13
48
1
60
0
100
AcDbEllipse
10
50.064968
20
-13.47942
30
0
11
0.0689885705881153
21
0.187724737656518
31
0
210
0
220
0
230
1
40
0.223794
41
-2.99273803865082
42
-1.85208974570174
0
ELLIPSE
5
149
100
AcDbEntity
8
1
62
256
6
ByLayer
370
13
48
1
60
0
100
AcDbEllipse
10
49.909008
20
-14.583986
30
0
11
-0.0817084005627239
21
0.182547904062143
31
0
210
0
220
0
230
1
40
0.256765
41
-1.27167207778638
42
-0.175273159289537
0
ELLIPSE
5
14A
100
AcDbEntity
8
1
62
256
6
ByLayer
370
13
48
1
60
0
100
AcDbEllipse
10
50.064968
20
-14.52058
30
0
11
-0.0689885942162016
21
0.187724728973229
31
0
210
0
220
0
230
1
40
0.223795
41
-1.28950643621443
42
-0.148854643108266
0
ELLIPSE
5
14B
100
AcDbEntity
8
1
62
256
6
ByLayer
370
13
48
1
60
0
100
AcDbEllipse
10
55.944431
20
-15.503126
30
0
11
0.160247744810276
21
0.253615181492001
31
0
210
0
220
0
230
1
40
0.323223
41
-1.88751235157064
42
-1.36933681309585
0
ELLIPSE
5
14C
100
AcDbEntity
8
1
62
256
6
ByLayer
370
13
48
1
60
0
100
AcDbEllipse
10
55.72444
20
-15.453722
30
0
11
-0.00934290352952681
21
0.29985448163007
31
0
210
0
220
0
230
1
40
0.37445
41
-2.32799563318285
42
-1.58246296899163
0
ELLIPSE
5
14D
100
AcDbEntity
8
1
62
256
6
ByLayer
370
13
48
1
60
0
100
AcDbEllipse
10
55.72444
20
-12.546278
30
0
11
-0.00934290352952708
21
-0.29985448163007
31
0
210
0
220
0
230
1
40
0.37445
41
1.58246296899161
42
2.32799563318285
0
ELLIPSE
5
14E
100
AcDbEntity
8
1
62
256
6
ByLayer
370
13
48
1
60
0
100
AcDbEllipse
10
55.944431
20
-12.496874
30
0
11
0.160247744810276
21
-0.253615181492001
31
0
210
0
220
0
230
1
40
0.323223
41
1.36933681309573
42
1.88751235157074
0
ELLIPSE
5
14F
100
AcDbEntity
8
1
62
256
6
ByLayer
370
13
48
1
60
0
100
AcDbEllipse
10
56.061755
20
-15.574987
30
0
11
0.149040840011555
21
0.26035903673322
31
0
210
0
220
0
230
1
40
0.070614
41
-1.79230411601801
42
-1.5303960736476
0
ELLIPSE
5
150
100
AcDbEntity
8
1
62
256
6
ByLayer
370
13
48
1
60
0
100
AcDbEllipse
10
56.061755
20
-12.425013
30
0
11
0.149040840011555
21
-0.26035903673322
31
0
210
0
220
0
230
1
40
0.070614
41
1.53039607364769
42
1.79230411601804
0
ELLIPSE
5
151
100
AcDbEntity
8
1
62
256
6
ByLayer
370
13
48
1
60
0
100
AcDbEllipse
10
56.076259
20
-12.416425
30
0
11
0.15877234148459
21
-0.254541437843626
31
0
210
0
220
0
230
1
40
0.050686
41
1.56451084021991
42
1.77698417590529
0
ELLIPSE
5
152
100
AcDbEntity
8
1
62
256
6
ByLayer
370
13
48
1
60
0
100
AcDbEllipse
10
56.076259
20
-15.583575
30
0
11
0.15877234148459
21
0.254541437843626
31
0
210
0
220
0
230
1
40
0.050686
41
-1.77698417590448
42
-1.56451084021991
0
ELLIPSE
5
153
100
AcDbEntity
8
1
62
256
6
ByLayer
370
13
48
1
60
0
100
AcDbEllipse
10
56.094791
20
-12.407828
30
0
11
0.0998194591515971
21
-0.00600629458840042
31
0
210
0
220
0
230
1
40
0.02426
41
-1.61576796719726
42
-1.39458928037218
0
ELLIPSE
5
154
100
AcDbEntity
8
1
62
256
6
ByLayer
370
13
48
1
60
0
100
AcDbEllipse
10
56.969111
20
-12.425013
30
0
11
0.857472200871187
21
-2.10877620123331E-08
31
0
210
0
220
0
230
-1
40
0.466488
41
3.14159264212216
42
-3.10721600874074
0
ELLIPSE
5
155
100
AcDbEntity
8
1
62
256
6
ByLayer
370
13
48
1
60
0
100
AcDbEllipse
10
56.969111
20
-15.574987
30
0
11
0.857472200871187
21
2.10877622223463E-08
31
0
210
0
220
0
230
-1
40
0.466488
41
3.10721600874074
42
-3.14159264212216
0
ELLIPSE
5
156
100
AcDbEntity
8
1
62
256
6
ByLayer
370
13
48
1
60
0
100
AcDbEllipse
10
56.094791
20
-15.592172
30
0
11
0.0998194591515971
21
0.00600629458840058
31
0
210
0
220
0
230
1
40
0.02426
41
1.39458928037371
42
1.61576796719712
0
ELLIPSE
5
157
100
AcDbEntity
8
1
62
256
6
ByLayer
370
13
48
1
60
0
100
AcDbEllipse
10
55.136553
20
-12.530719
30
0
11
-0.00304278008350742
21
-0.299984568752067
31
0
210
0
220
0
230
1
40
0.37459
41
1.5745958208753
42
2.3520545023261
0
ELLIPSE
5
158
100
AcDbEntity
8
1
62
256
6
ByLayer
370
13
48
1
60
0
100
AcDbEllipse
10
55.136553
20
-15.469281
30
0
11
-0.00304278008350722
21
0.299984568752067
31
0
210
0
220
0
230
1
40
0.37459
41
-2.35205450232612
42
-1.5745958208753
0
ELLIPSE
5
159
100
AcDbEntity
8
1
62
256
6
ByLayer
370
13
48
1
60
0
100
AcDbEllipse
10
54.580586
20
-15.477428
30
0
11
-0.000603333593996458
21
0.299999393313677
31
0
210
0
220
0
230
1
40
0.176047
41
-2.42323398494293
42
-1.57115037716844
0
ELLIPSE
5
15A
100
AcDbEntity
8
1
62
256
6
ByLayer
370
13
48
1
60
0
100
AcDbEllipse
10
54.580586
20
-12.522572
30
0
11
-0.000603333593996598
21
-0.299999393313677
31
0
210
0
220
0
230
1
40
0.176047
41
1.57115037716842
42
2.42323398494293
0
ELLIPSE
5
15B
100
AcDbEntity
8
1
62
256
6
ByLayer
370
13
48
1
60
0
100
AcDbEllipse
10
54.3133
20
-12.546945
30
0
11
0.0450980026263403
21
-0.296590913817525
31
0
210
0
220
0
230
1
40
0.079678
41
1.55868151923577
42
2.448333113115
0
ELLIPSE
5
15C
100
AcDbEntity
8
1
62
256
6
ByLayer
370
13
48
1
60
0
100
AcDbEllipse
10
54.3133
20
-15.453055
30
0
11
0.0450980026263406
21
0.296590913817525
31
0
210
0
220
0
230
1
40
0.079678
41
-2.448333113115
42
-1.55868151923577
0
ELLIPSE
5
15D
100
AcDbEntity
8
1
62
256
6
ByLayer
370
18
48
1
60
0
100
AcDbEllipse
10
-1.227736
20
16.006981
30
0
11
1.59999999999997
21
1.61702248813175E-15
31
0
210
0
220
0
230
-1
40
0.004363
41
0.261799387799445
42
1.5707963267949
0
ELLIPSE
5
15E
100
AcDbEntity
8
1
62
256
6
ByLayer
370
18
48
1
60
0
100
AcDbEllipse
10
50.14582
20
-14
30
0
11
1.60814287199191E-16
21
0.999999999784088
31
0
210
0
220
0
230
-1
40
0.451247
41
-1.74550750770309
42
-1.3960851458867
0
ELLIPSE
5
15F
100
AcDbEntity
8
1
62
256
6
ByLayer
370
18
48
1
60
0
100
AcDbEllipse
10
49.965178
20
-14
30
0
11
0.443603531968834
21
-0.985188736347057
31
0
210
0
220
0
230
-1
40
0.386547
41
2.20181390682355
42
2.71279988027175
0
ELLIPSE
5
160
100
AcDbEntity
8
1
62
256
6
ByLayer
370
18
48
1
60
0
100
AcDbEllipse
10
49.965178
20
-14
30
0
11
0.443603532060745
21
0.985188736454498
31
0
210
0
220
0
230
-1
40
0.386547
41
-2.71279988030385
42
-2.20181390689665
0
ELLIPSE
5
161
100
AcDbEntity
8
1
62
256
6
ByLayer
370
18
48
1
60
0
100
AcDbEllipse
10
50.870355
20
-14
30
0
11
2.672473730333
21
0.988909896503035
31
0
210
0
220
0
230
-1
40
0.055572
41
-2.11293285043603
42
-2.0381082540412
0
ELLIPSE
5
162
100
AcDbEntity
8
1
62
256
6
ByLayer
370
18
48
1
60
0
100
AcDbEllipse
10
48.266488
20
-14
30
0
11
2.01022273814839
21
2.03160960858737E-15
31
0
210
0
220
0
230
-1
40
0.497457
41
0.969678448663588
42
-0.969678448663558
0
ELLIPSE
5
163
100
AcDbEntity
8
1
62
256
6
ByLayer
370
18
48
1
60
0
100
AcDbEllipse
10
50.870356
20
-14
30
0
11
2.67247564257992
21
-0.988910522111611
31
0
210
0
220
0
230
-1
40
0.055572
41
2.03810851835584
42
2.11293307191695
0
ELLIPSE
5
164
100
AcDbEntity
8
1
62
256
6
ByLayer
370
18
48
1
60
0
100
AcDbEllipse
10
54.981863
20
-11.055774
30
0
11
0.299993003393885
21
0.0212470571862404
31
0
210
0
220
0
230
-1
40
0.09643
41
-1.78738101643844
42
-1.38953797931092
0
ELLIPSE
5
165
100
AcDbEntity
8
1
62
256
6
ByLayer
370
18
48
1
60
0
100
AcDbEllipse
10
56.162716
20
-12.425014
30
0
11
3.37633464903198E-08
21
-0.400007102591305
31
0
210
0
220
0
230
-1
40
0.122039
41
1.57079701851245
42
1.60517310477199
0
ELLIPSE
5
166
100
AcDbEntity
8
1
62
256
6
ByLayer
370
18
48
1
60
0
100
AcDbEllipse
10
56.102222
20
-15.716385
30
0
11
0.00675223319011591
21
-1.76694423551316
31
0
210
0
220
0
230
-1
40
0.006919
41
-1.62500946868125
42
-1.60952570728831
0
ELLIPSE
5
167
100
AcDbEntity
8
1
62
256
6
ByLayer
370
18
48
1
60
0
100
AcDbEllipse
10
56.102303
20
-12.284153
30
0
11
0.00673277068347017
21
1.76088171167679
31
0
210
0
220
0
230
-1
40
0.006895
41
1.60935344123877
42
1.62489040741872
0
ELLIPSE
5
168
100
AcDbEntity
8
1
62
256
6
ByLayer
370
18
48
1
60
0
100
AcDbEllipse
10
51.819111
20
-11.1
30
0
11
0.203674870635643
21
2.49421540694359E-17
31
0
210
0
220
0
230
-1
40
0.981957
41
1.03927776944692
42
1.5707963267949
0
ELLIPSE
5
169
100
AcDbEntity
8
1
62
256
6
ByLayer
370
18
48
1
60
0
100
AcDbEllipse
10
54.981863
20
-16.944226
30
0
11
0.299993003333025
21
-0.021247057181543
31
0
210
0
220
0
230
-1
40
0.09643
41
1.38953797928717
42
1.78738101649664
0
ELLIPSE
5
16A
100
AcDbEntity
8
1
62
256
6
ByLayer
370
18
48
1
60
0
100
AcDbEllipse
10
51.819111
20
-16.9
30
0
11
-0.203674870635643
21
3.74132311041539E-17
31
0
210
0
220
0
230
-1
40
0.981957
41
1.5707963267949
42
2.10231488414288
0
ELLIPSE
5
16B
100
AcDbEntity
8
1
62
256
6
ByLayer
370
18
48
1
60
0
100
AcDbEllipse
10
56.162716
20
-15.574986
30
0
11
3.37633466588078E-08
21
0.400007102591305
31
0
210
0
220
0
230
-1
40
0.122039
41
-1.60517310477199
42
-1.57079701851245
0
POINT
5
6C
100
AcDbEntity
8
80
62
256
6
ByLayer
370
18
48
1
60
0
100
AcDbPoint
10
0
20
0
30
0
39
0
210
0
220
0
230
1
50
360
0
POINT
5
6E
100
AcDbEntity
8
81
62
256
6
ByLayer
370
18
48
1
60
0
100
AcDbPoint
10
56.1139
20
-17
30
0
39
0
210
0
220
0
230
1
50
360
0
SPLINE
5
16C
100
AcDbEntity
8
1
62
256
6
ByLayer
370
18
48
1
60
0
100
AcDbSpline
70
4
71
3
72
12
73
8
40
0
40
0
40
0
40
0
40
0.332414864304035
40
0.332414864304035
40
0.66545076911611
40
0.66545076911611
40
1
40
1
40
1
40
1
41
1
10
49.4443703189266
20
-14.3830267960718
30
0
41
1
10
49.4357610250486
20
-14.3865442870585
30
0
41
1
10
49.4276959778891
20
-14.3914327538691
30
0
41
1
10
49.4140780410711
20
-14.4032905167089
30
0
41
1
10
49.4083556422074
20
-14.4104230597918
30
0
41
1
10
49.3999910382746
20
-14.4258197715406
30
0
41
1
10
49.3972463988573
20
-14.4342791407528
30
0
41
1
10
49.3959812253612
20
-14.4427761170023
30
0
0
SPLINE
5
16D
100
AcDbEntity
8
1
62
256
6
ByLayer
370
18
48
1
60
0
100
AcDbSpline
70
4
71
3
72
14
73
10
40
0
40
0
40
0
40
0
40
0.265115496676697
40
0.265115496676697
40
0.530351997484569
40
0.530351997484569
40
0.794743006633926
40
0.794743006633926
40
1
40
1
40
1
40
1
41
1
10
49.6173740012552
20
-14.3129013006588
30
0
41
1
10
49.6317169193661
20
-14.3071318596757
30
0
41
1
10
49.645179833678
20
-14.2989238404007
30
0
41
1
10
49.6680755035228
20
-14.2787602045225
30
0
41
1
10
49.6778170011511
20
-14.2665326223768
30
0
41
1
10
49.6923767387746
20
-14.2398373170175
30
0
41
1
10
49.6974136438579
20
-14.2250274128519
30
0
41
1
10
49.7019089221196
20
-14.1980914114722
30
0
41
1
10
49.702402593791
20
-14.1858839843496
30
0
41
1
10
49.7014419938812
20
-14.173823722474
30
0
0
SPLINE
5
16E
100
AcDbEntity
8
1
62
256
6
ByLayer
370
18
48
1
60
0
100
AcDbSpline
70
4
71
3
72
14
73
10
40
0
40
0
40
0
40
0
40
0.27796482212783
40
0.27796482212783
40
0.556501573952999
40
0.556501573952999
40
0.827022564378601
40
0.827022564378601
40
1
40
1
40
1
40
1
41
1
10
49.7014419938801
20
-13.8261762775265
30
0
41
1
10
49.7027350105242
20
-13.809942547774
30
0
41
1
10
49.701365691138
20
-13.7933813056884
30
0
41
1
10
49.6932911623354
20
-13.7622725570883
30
0
41
1
10
49.6864501182782
20
-13.7472932769616
30
0
41
1
10
49.6683769848116
20
-13.7215296523844
30
0
41
1
10
49.6570148900931
20
-13.7102832137084
30
0
41
1
10
49.6358500249478
20
-13.6957171704782
30
0
41
1
10
49.6268131106968
20
-13.6908955825429
30
0
41
1
10
49.617374001256
20
-13.6870986993403
30
0
0
SPLINE
5
16F
100
AcDbEntity
8
1
62
256
6
ByLayer
370
18
48
1
60
0
100
AcDbSpline
70
4
71
3
72
12
73
8
40
0
40
0
40
0
40
0
40
0.341621324294061
40
0.341621324294061
40
0.684704153809027
40
0.684704153809027
40
1
40
1
40
1
40
1
41
1
10
49.3959812253621
20
-13.5572238829982
30
0
41
1
10
49.3972724269371
20
-13.5658956652873
30
0
41
1
10
49.4001073194713
20
-13.5745309814995
30
0
41
1
10
49.4088039737669
20
-13.5902564444747
30
0
41
1
10
49.4148057799651
20
-13.5975432484069
30
0
41
1
10
49.4285091122716
20
-13.6090601637123
30
0
41
1
10
49.4361922726717
20
-13.6136319073718
30
0
41
1
10
49.4443703189266
20
-13.6169732039286
30
0
0
SPLINE
5
170
100
AcDbEntity
8
1
62
256
6
ByLayer
370
18
48
1
60
0
100
AcDbSpline
70
4
71
3
72
10
73
6
40
0
40
0
40
0
40
0
40
0.897705894104923
40
0.897705894104923
40
1
40
1
40
1
40
1
41
1
10
42.5138999999997
20
-11.3000000000001
30
0
41
1
10
42.4756865361496
20
-11.3000000000001
30
0
41
1
10
42.4346420749072
20
-11.305665689475
30
0
41
1
10
42.389786061724
20
-11.3197122825701
30
0
41
1
10
42.3852037776586
20
-11.3212420965928
30
0
41
1
10
42.3806246984261
20
-11.3228664532681
30
0
0
SPLINE
5
171
100
AcDbEntity
8
1
62
256
6
ByLayer
370
13
48
1
60
0
100
AcDbSpline
70
4
71
2
72
6
73
3
40
0
40
0
40
0
40
1
40
1
40
1
41
0.981171512288507
10
49.7027998109198
20
-14.3292212401838
30
0
41
0.988994613313479
10
49.7424975512053
20
-14.3292212401838
30
0
41
1
10
49.7746948109089
20
-14.3292212401838
30
0
0
SPLINE
5
172
100
AcDbEntity
8
1
62
256
6
ByLayer
370
13
48
1
60
0
100
AcDbSpline
70
4
71
2
72
6
73
3
40
0
40
0
40
0
40
1
40
1
40
1
41
0.981783356870094
10
49.8241415871589
20
-14.1318857898187
30
0
41
0.989421609299976
10
49.8658511500832
20
-14.1318857898187
30
0
41
1
10
49.8999245871505
20
-14.1318857898188
30
0
0
SPLINE
5
173
100
AcDbEntity
8
1
62
256
6
ByLayer
370
13
48
1
60
0
100
AcDbSpline
70
4
71
2
72
6
73
3
40
0
40
0
40
0
40
1
40
1
40
1
41
0.981783356868348
10
49.8241415871493
20
-14.0000000000002
30
0
41
0.989421609298766
10
49.8658511500792
20
-14.0000000000002
30
0
41
1
10
49.8999245871505
20
-14.0000000000002
30
0
0
SPLINE
5
174
100
AcDbEntity
8
1
62
256
6
ByLayer
370
13
48
1
60
0
100
AcDbSpline
70
4
71
3
72
8
73
4
40
0
40
0
40
0
40
0
40
1
40
1
40
1
40
1
41
1
10
50.9498016088515
20
-12.9807158919083
30
0
41
1
10
50.942198768225
20
-12.9061740031731
30
0
41
1
10
50.9093578468314
20
-12.8430627878798
30
0
41
1
10
50.8624584035403
20
-12.7914021504357
30
0
0
SPLINE
5
175
100
AcDbEntity
8
1
62
256
6
ByLayer
370
13
48
1
60
0
100
AcDbSpline
70
4
71
3
72
12
73
8
40
0
40
0
40
0
40
0
40
0.160969670350478
40
0.160969670350478
40
0.981933655007004
40
0.981933655007004
40
1
40
1
40
1
40
1
41
1
10
50.8624584035401
20
-12.7914021504359
30
0
41
1
10
50.9163700593701
20
-12.7380840558905
30
0
41
1
10
50.9714882464297
20
-12.685951024433
30
0
41
1
10
51.3127536829984
20
-12.3790857212459
30
0
41
1
10
51.6376749365963
20
-12.1610923471314
30
0
41
1
10
51.9917861535156
20
-11.9937445159866
30
0
41
1
10
51.9995025044899
20
-11.9901250803917
30
0
41
1
10
52.0072288758354
20
-11.9865272620701
30
0
0
SPLINE
5
176
100
AcDbEntity
8
1
62
256
6
ByLayer
370
13
48
1
60
0
100
AcDbSpline
70
4
71
3
72
10
73
6
40
0
40
0
40
0
40
0
40
0.51838227864566
40
0.51838227864566
40
1
40
1
40
1
40
1
41
1
10
52.0072288758353
20
-11.9865272620702
30
0
41
1
10
52.3102426277495
20
-12.0224831354501
30
0
41
1
10
52.6628274122888
20
-12.0038682924098
30
0
41
1
10
53.3660911215128
20
-11.9909399107503
30
0
41
1
10
53.7246675288707
20
-11.9877728165471
30
0
41
1
10
54.0760095645936
20
-11.948436181456
30
0
0
SPLINE
5
177
100
AcDbEntity
8
1
62
256
6
ByLayer
370
13
48
1
60
0
100
AcDbSpline
70
4
71
3
72
8
73
4
40
0
40
0
40
0
40
0
40
1
40
1
40
1
40
1
41
1
10
54.0760095645936
20
-11.948436181456
30
0
41
1
10
54.1405681717124
20
-11.9412081298367
30
0
41
1
10
54.2051502214355
20
-11.9340816499891
30
0
41
1
10
54.2698636855257
20
-11.9284085967849
30
0
0
SPLINE
5
178
100
AcDbEntity
8
1
62
256
6
ByLayer
370
13
48
1
60
0
100
AcDbSpline
70
4
71
3
72
8
73
4
40
0
40
0
40
0
40
0
40
1
40
1
40
1
40
1
41
1
10
54.2698636855257
20
-11.9284085967849
30
0
41
1
10
54.4959343342515
20
-11.908590297206
30
0
41
1
10
54.7240060020601
20
-11.8991780475882
30
0
41
1
10
54.9439209264766
20
-11.8977007045267
30
0
0
SPLINE
5
179
100
AcDbEntity
8
1
62
256
6
ByLayer
370
13
48
1
60
0
100
AcDbSpline
70
4
71
3
72
8
73
4
40
0
40
0
40
0
40
0
40
1
40
1
40
1
40
1
41
1
10
54.9439209264765
20
-11.8977007045267
30
0
41
1
10
54.9683812091949
20
-11.8975363853972
30
0
41
1
10
54.992848476317
20
-11.897653592196
30
0
41
1
10
55.0173132847061
20
-11.8980650304571
30
0
0
SPLINE
5
17A
100
AcDbEntity
8
1
62
256
6
ByLayer
370
13
48
1
60
0
100
AcDbSpline
70
4
71
3
72
10
73
6
40
0
40
0
40
0
40
0
40
0.570501669014028
40
0.570501669014028
40
1
40
1
40
1
40
1
41
1
10
55.0173132847049
20
-11.8980650304526
30
0
41
1
10
55.1765475529974
20
-11.9653910368078
30
0
41
1
10
55.328111338696
20
-12.0505901253702
30
0
41
1
10
55.5903810300828
20
-12.2044158303198
30
0
41
1
10
55.7017177951008
20
-12.273178051337
30
0
41
1
10
55.8124587777234
20
-12.3428537414939
30
0
0
SPLINE
5
17B
100
AcDbEntity
8
1
62
256
6
ByLayer
370
13
48
1
60
0
100
AcDbSpline
70
4
71
3
72
8
73
4
40
0
40
0
40
0
40
0
40
1
40
1
40
1
40
1
41
1
10
55.8124587777248
20
-12.3428537414851
30
0
41
1
10
55.6149010686875
20
-12.3356322816661
30
0
41
1
10
55.4178447417106
20
-12.3284984046052
30
0
41
1
10
55.2184819300006
20
-12.3202875224229
30
0
0
SPLINE
5
17C
100
AcDbEntity
8
1
62
256
6
ByLayer
370
13
48
1
60
0
100
AcDbSpline
70
4
71
3
72
10
73
6
40
0
40
0
40
0
40
0
40
0.0684120488039617
40
0.0684120488039617
40
1
40
1
40
1
40
1
41
1
10
55.2184819300006
20
-12.3202875224229
30
0
41
1
10
55.2051082692693
20
-12.319736719835
30
0
41
1
10
55.1916987666318
20
-12.3191839159348
30
0
41
1
10
54.9960298896838
20
-12.311239691792
30
0
41
1
10
54.8073664393738
20
-12.3036812535206
30
0
41
1
10
54.6157995872124
20
-12.2967763542712
30
0
0
SPLINE
5
17D
100
AcDbEntity
8
1
62
256
6
ByLayer
370
13
48
1
60
0
100
AcDbSpline
70
4
71
3
72
10
73
6
40
0
40
0
40
0
40
0
40
0.468044400024023
40
0.468044400024023
40
1
40
1
40
1
40
1
41
1
10
54.6157995872124
20
-12.2967763542712
30
0
41
1
10
54.5656560104033
20
-12.2949689625332
30
0
41
1
10
54.515203333973
20
-12.2953034651417
30
0
41
1
10
54.4076177499149
20
-12.3010698232592
30
0
41
1
10
54.3504975367618
20
-12.3081336096011
30
0
41
1
10
54.2937141383267
20
-12.3165210133432
30
0
0
SPLINE
5
17E
100
AcDbEntity
8
1
62
256
6
ByLayer
370
13
48
1
60
0
100
AcDbSpline
70
4
71
3
72
12
73
8
40
0
40
0
40
0
40
0
40
0.0470115153722379
40
0.0470115153722379
40
0.465115903096302
40
0.465115903096302
40
1
40
1
40
1
40
1
41
1
10
54.2937141383267
20
-12.3165210133432
30
0
41
1
10
54.2900082124738
20
-12.3170684109492
30
0
41
1
10
54.2863015800763
20
-12.3176147721556
30
0
41
1
10
54.2496276585555
20
-12.3230107400724
30
0
41
1
10
54.2166049262582
20
-12.3277898733701
30
0
41
1
10
54.1413164309491
20
-12.3387765846111
30
0
41
1
10
54.0990810589731
20
-12.3453120981975
30
0
41
1
10
54.05676197138
20
-12.3512581202218
30
0
0
SPLINE
5
17F
100
AcDbEntity
8
1
62
256
6
ByLayer
370
13
48
1
60
0
100
AcDbSpline
70
4
71
3
72
12
73
8
40
0
40
0
40
0
40
0
40
0.590022741903274
40
0.590022741903274
40
0.970641250406561
40
0.970641250406561
40
1
40
1
40
1
40
1
41
1
10
54.05676197138
20
-12.3512581202218
30
0
41
1
10
53.8587099475353
20
-12.3790853197837
30
0
41
1
10
53.6606439547589
20
-12.4068716294797
30
0
41
1
10
53.334796826038
20
-12.4524590278665
30
0
41
1
10
53.2069873442258
20
-12.4702714825998
30
0
41
1
10
53.0693547439037
20
-12.4892551496003
30
0
41
1
10
53.0595021400093
20
-12.4906461226259
30
0
41
1
10
53.0496561156089
20
-12.4920831594143
30
0
0
SPLINE
5
180
100
AcDbEntity
8
1
62
256
6
ByLayer
370
13
48
1
60
0
100
AcDbSpline
70
4
71
3
72
10
73
6
40
0
40
0
40
0
40
0
40
0.0961233254681772
40
0.0961233254681772
40
1
40
1
40
1
40
1
41
1
10
53.0496561156089
20
-12.4920831594143
30
0
41
1
10
53.0262664859306
20
-12.4954968984981
30
0
41
1
10
53.0028831583805
20
-12.4989226533422
30
0
41
1
10
52.7609954639654
20
-12.5343698129399
30
0
41
1
10
52.54202599496
20
-12.5658122394171
30
0
41
1
10
52.330894639381
20
-12.5975831707501
30
0
0
SPLINE
5
181
100
AcDbEntity
8
1
62
256
6
ByLayer
370
13
48
1
60
0
100
AcDbSpline
70
4
71
3
72
12
73
8
40
0
40
0
40
0
40
0
40
0.33359647415066
40
0.33359647415066
40
0.666225407146582
40
0.666225407146582
40
1
40
1
40
1
40
1
41
1
10
52.3308946393809
20
-12.5975831707501
30
0
41
1
10
52.2168555215886
20
-12.6147437150507
30
0
41
1
10
52.1047577567947
20
-12.6352846172618
30
0
41
1
10
51.8866874682055
20
-12.6816030213273
30
0
41
1
10
51.7803519302228
20
-12.7074744466739
30
0
41
1
10
51.5740968156911
20
-12.763538216348
30
0
41
1
10
51.4741732084931
20
-12.7945916268395
30
0
41
1
10
51.3775021854567
20
-12.8255604436687
30
0
0
SPLINE
5
182
100
AcDbEntity
8
1
62
256
6
ByLayer
370
13
48
1
60
0
100
AcDbSpline
70
4
71
3
72
8
73
4
40
0
40
0
40
0
40
0
40
1
40
1
40
1
40
1
41
1
10
51.3775021854567
20
-12.8255604436687
30
0
41
1
10
51.2334966594485
20
-12.8716929931883
30
0
41
1
10
51.0906816280715
20
-12.9234878049001
30
0
41
1
10
50.9498016088485
20
-12.9807158919161
30
0
0
SPLINE
5
183
100
AcDbEntity
8
1
62
256
6
ByLayer
370
13
48
1
60
0
100
AcDbSpline
70
4
71
3
72
10
73
6
40
0
40
0
40
0
40
0
40
0.87060552001054
40
0.87060552001054
40
1
40
1
40
1
40
1
41
1
10
50.8624642137406
20
-15.2086035957861
30
0
41
1
10
50.9033126106606
20
-15.1636086472736
30
0
41
1
10
50.9335650255188
20
-15.1102241548986
30
0
41
1
10
50.9473978291678
20
-15.0386542843729
30
0
41
1
10
50.9488105065329
20
-15.0290704748296
30
0
41
1
10
50.94980829893
20
-15.0192868257196
30
0
0
SPLINE
5
184
100
AcDbEntity
8
1
62
256
6
ByLayer
370
13
48
1
60
0
100
AcDbSpline
70
4
71
3
72
8
73
4
40
0
40
0
40
0
40
0
40
1
40
1
40
1
40
1
41
1
10
51.3775021854567
20
-15.1744395563316
30
0
41
1
10
51.2334989377395
20
-15.1283077366685
30
0
41
1
10
51.0906861477314
20
-15.0765138350554
30
0
41
1
10
50.9498082989288
20
-15.0192868257148
30
0
0
SPLINE
5
185
100
AcDbEntity
8
1
62
256
6
ByLayer
370
13
48
1
60
0
100
AcDbSpline
70
4
71
3
72
12
73
8
40
0
40
0
40
0
40
0
40
0.33359647415066
40
0.33359647415066
40
0.666225407146582
40
0.666225407146582
40
1
40
1
40
1
40
1
41
1
10
52.3308946393809
20
-15.4024168292503
30
0
41
1
10
52.2168555215886
20
-15.3852562849497
30
0
41
1
10
52.1047577567947
20
-15.3647153827386
30
0
41
1
10
51.8866874682055
20
-15.3183969786731
30
0
41
1
10
51.7803519302228
20
-15.2925255533264
30
0
41
1
10
51.5740968156911
20
-15.2364617836524
30
0
41
1
10
51.4741732084931
20
-15.2054083731608
30
0
41
1
10
51.3775021854567
20
-15.1744395563316
30
0
0
SPLINE
5
186
100
AcDbEntity
8
1
62
256
6
ByLayer
370
13
48
1
60
0
100
AcDbSpline
70
4
71
3
72
10
73
6
40
0
40
0
40
0
40
0
40
0.0961233254681772
40
0.0961233254681772
40
1
40
1
40
1
40
1
41
1
10
53.0496561156089
20
-15.507916840586
30
0
41
1
10
53.0262664859306
20
-15.5045031015022
30
0
41
1
10
53.0028831583805
20
-15.5010773466581
30
0
41
1
10
52.7609954639654
20
-15.4656301870604
30
0
41
1
10
52.54202599496
20
-15.4341877605833
30
0
41
1
10
52.330894639381
20
-15.4024168292502
30
0
0
SPLINE
5
187
100
AcDbEntity
8
1
62
256
6
ByLayer
370
13
48
1
60
0
100
AcDbSpline
70
4
71
3
72
12
73
8
40
0
40
0
40
0
40
0
40
0.590022741903274
40
0.590022741903274
40
0.970641250406561
40
0.970641250406561
40
1
40
1
40
1
40
1
41
1
10
54.05676197138
20
-15.6487418797786
30
0
41
1
10
53.8587099475353
20
-15.6209146802166
30
0
41
1
10
53.6606439547589
20
-15.5931283705207
30
0
41
1
10
53.334796826038
20
-15.5475409721338
30
0
41
1
10
53.2069873442258
20
-15.5297285174005
30
0
41
1
10
53.0693547439037
20
-15.5107448504
30
0
41
1
10
53.0595021400093
20
-15.5093538773745
30
0
41
1
10
53.0496561156089
20
-15.507916840586
30
0
0
SPLINE
5
188
100
AcDbEntity
8
1
62
256
6
ByLayer
370
13
48
1
60
0
100
AcDbSpline
70
4
71
3
72
12
73
8
40
0
40
0
40
0
40
0
40
0.0470115153722379
40
0.0470115153722379
40
0.465115903096302
40
0.465115903096302
40
1
40
1
40
1
40
1
41
1
10
54.2937141383267
20
-15.6834789866572
30
0
41
1
10
54.2900082124738
20
-15.6829315890511
30
0
41
1
10
54.2863015800763
20
-15.6823852278447
30
0
41
1
10
54.2496276585555
20
-15.676989259928
30
0
41
1
10
54.2166049262582
20
-15.6722101266302
30
0
41
1
10
54.1413164309491
20
-15.6612234153892
30
0
41
1
10
54.0990810589731
20
-15.6546879018028
30
0
41
1
10
54.05676197138
20
-15.6487418797786
30
0
0
SPLINE
5
189
100
AcDbEntity
8
1
62
256
6
ByLayer
370
13
48
1
60
0
100
AcDbSpline
70
4
71
3
72
10
73
6
40
0
40
0
40
0
40
0
40
0.468044400024023
40
0.468044400024023
40
1
40
1
40
1
40
1
41
1
10
54.6157995872124
20
-15.7032236457291
30
0
41
1
10
54.5656560104033
20
-15.7050310374671
30
0
41
1
10
54.515203333973
20
-15.7046965348586
30
0
41
1
10
54.4076177499149
20
-15.6989301767411
30
0
41
1
10
54.3504975367618
20
-15.6918663903993
30
0
41
1
10
54.2937141383267
20
-15.6834789866572
30
0
0
SPLINE
5
18A
100
AcDbEntity
8
1
62
256
6
ByLayer
370
13
48
1
60
0
100
AcDbSpline
70
4
71
3
72
10
73
6
40
0
40
0
40
0
40
0
40
0.0684120488039617
40
0.0684120488039617
40
1
40
1
40
1
40
1
41
1
10
55.2184819300006
20
-15.6797124775775
30
0
41
1
10
55.2051082692693
20
-15.6802632801653
30
0
41
1
10
55.1916987666318
20
-15.6808160840655
30
0
41
1
10
54.9960298896838
20
-15.6887603082084
30
0
41
1
10
54.8073664393738
20
-15.6963187464797
30
0
41
1
10
54.6157995872124
20
-15.7032236457291
30
0
0
SPLINE
5
18B
100
AcDbEntity
8
1
62
256
6
ByLayer
370
13
48
1
60
0
100
AcDbSpline
70
4
71
3
72
8
73
4
40
0
40
0
40
0
40
0
40
1
40
1
40
1
40
1
41
1
10
55.8124587777248
20
-15.6571462585152
30
0
41
1
10
55.6149010686875
20
-15.6643677183342
30
0
41
1
10
55.4178447417106
20
-15.6715015953951
30
0
41
1
10
55.2184819300006
20
-15.6797124775775
30
0
0
SPLINE
5
18C
100
AcDbEntity
8
1
62
256
6
ByLayer
370
13
48
1
60
0
100
AcDbSpline
70
4
71
3
72
10
73
6
40
0
40
0
40
0
40
0
40
0.570501669014028
40
0.570501669014028
40
1
40
1
40
1
40
1
41
1
10
55.0173132847049
20
-16.1019349695477
30
0
41
1
10
55.1765475529974
20
-16.0346089631925
30
0
41
1
10
55.328111338696
20
-15.9494098746302
30
0
41
1
10
55.5903810300828
20
-15.7955841696806
30
0
41
1
10
55.7017177951008
20
-15.7268219486633
30
0
41
1
10
55.8124587777234
20
-15.6571462585064
30
0
0
SPLINE
5
18D
100
AcDbEntity
8
1
62
256
6
ByLayer
370
13
48
1
60
0
100
AcDbSpline
70
4
71
3
72
8
73
4
40
0
40
0
40
0
40
0
40
1
40
1
40
1
40
1
41
1
10
54.9439209264765
20
-16.1022992954736
30
0
41
1
10
54.9683812091949
20
-16.1024636146031
30
0
41
1
10
54.992848476317
20
-16.1023464078043
30
0
41
1
10
55.0173132847061
20
-16.1019349695432
30
0
0
SPLINE
5
18E
100
AcDbEntity
8
1
62
256
6
ByLayer
370
13
48
1
60
0
100
AcDbSpline
70
4
71
3
72
8
73
4
40
0
40
0
40
0
40
0
40
1
40
1
40
1
40
1
41
1
10
54.2698636855257
20
-16.0715914032154
30
0
41
1
10
54.4959343342515
20
-16.0914097027944
30
0
41
1
10
54.7240060020601
20
-16.1008219524121
30
0
41
1
10
54.9439209264766
20
-16.1022992954736
30
0
0
SPLINE
5
18F
100
AcDbEntity
8
1
62
256
6
ByLayer
370
13
48
1
60
0
100
AcDbSpline
70
4
71
3
72
8
73
4
40
0
40
0
40
0
40
0
40
1
40
1
40
1
40
1
41
1
10
54.0760095645936
20
-16.0515638185444
30
0
41
1
10
54.1405681717124
20
-16.0587918701636
30
0
41
1
10
54.2051502214355
20
-16.0659183500112
30
0
41
1
10
54.2698636855257
20
-16.0715914032154
30
0
0
SPLINE
5
190
100
AcDbEntity
8
1
62
256
6
ByLayer
370
13
48
1
60
0
100
AcDbSpline
70
4
71
3
72
10
73
6
40
0
40
0
40
0
40
0
40
0.51838227864566
40
0.51838227864566
40
1
40
1
40
1
40
1
41
1
10
52.0072288758353
20
-16.0134727379301
30
0
41
1
10
52.3102426277495
20
-15.9775168645502
30
0
41
1
10
52.6628274122888
20
-15.9961317075905
30
0
41
1
10
53.3660911215128
20
-16.00906008925
30
0
41
1
10
53.7246675288707
20
-16.0122271834533
30
0
41
1
10
54.0760095645936
20
-16.0515638185444
30
0
0
SPLINE
5
191
100
AcDbEntity
8
1
62
256
6
ByLayer
370
13
48
1
60
0
100
AcDbSpline
70
4
71
3
72
12
73
8
40
0
40
0
40
0
40
0
40
0.160964815992481
40
0.160964815992481
40
0.981933550480977
40
0.981933550480977
40
1
40
1
40
1
40
1
41
1
10
50.8624642137403
20
-15.2086035957859
30
0
41
1
10
50.9163740187666
20
-15.2619196891432
30
0
41
1
10
50.9714902714032
20
-15.3140507964201
30
0
41
1
10
51.3127536829984
20
-15.6209142787545
30
0
41
1
10
51.6376749365963
20
-15.838907652869
30
0
41
1
10
51.9917861535156
20
-16.0062554840137
30
0
41
1
10
51.9995025044899
20
-16.0098749196086
30
0
41
1
10
52.0072288758354
20
-16.0134727379302
30
0
0
SPLINE
5
192
100
AcDbEntity
8
1
62
256
6
ByLayer
370
13
48
1
60
0
100
AcDbSpline
70
4
71
3
72
14
73
10
40
0
40
0
40
0
40
0
40
0.46187092196456
40
0.46187092196456
40
0.784900183824898
40
0.784900183824898
40
0.964711008576954
40
0.964711008576954
40
1
40
1
40
1
40
1
41
1
10
51.2678525182225
20
-13.4301816717247
30
0
41
1
10
51.342364370233
20
-13.4988065553953
30
0
41
1
10
51.4164028669996
20
-13.5723153991816
30
0
41
1
10
51.527360324784
20
-13.7133908593703
30
0
41
1
10
51.5698337259581
20
-13.777368166743
30
0
41
1
10
51.6127972131724
20
-13.8882293709823
30
0
41
1
10
51.6234547742974
20
-13.9310973842182
30
0
41
1
10
51.6269464995451
20
-13.9828183804136
30
0
41
1
10
51.6272357765143
20
-13.9914372795155
30
0
41
1
10
51.6272346813236
20
-14.0000501923667
30
0
0
SPLINE
5
193
100
AcDbEntity
8
1
62
256
6
ByLayer
370
13
48
1
60
0
100
AcDbSpline
70
4
71
3
72
12
73
8
40
0
40
0
40
0
40
0
40
0.17060963201422
40
0.17060963201422
40
0.423062344273913
40
0.423062344273913
40
1
40
1
40
1
40
1
41
1
10
51.6272346813237
20
-14.0000501923667
30
0
41
1
10
51.6272294570516
20
-14.041135460091
30
0
41
1
10
51.6201569401509
20
-14.0826452599898
30
0
41
1
10
51.5899172652891
20
-14.1787997782288
30
0
41
1
10
51.5609853575979
20
-14.2321365654181
30
0
41
1
10
51.4541394690946
20
-14.3913815664312
30
0
41
1
10
51.360658644142
20
-14.4843489438737
30
0
41
1
10
51.2678521270619
20
-14.5698235150695
30
0
0
SPLINE
5
194
100
AcDbEntity
8
1
62
256
6
ByLayer
370
13
48
1
60
0
100
AcDbSpline
70
4
71
3
72
8
73
4
40
0
40
0
40
0
40
0
40
1
40
1
40
1
40
1
41
1
10
51.2678521270619
20
-14.5698235150695
30
0
41
1
10
51.1885745585373
20
-14.6428379583249
30
0
41
1
10
51.1033091098926
20
-14.7069953584998
30
0
41
1
10
51.0157459660843
20
-14.7652394834962
30
0
0
SPLINE
5
195
100
AcDbEntity
8
1
62
256
6
ByLayer
370
13
48
1
60
0
100
AcDbSpline
70
4
71
3
72
12
73
8
40
0
40
0
40
0
40
0
40
0.0772090170260868
40
0.0772090170260868
40
0.585567424894413
40
0.585567424894413
40
1
40
1
40
1
40
1
41
1
10
51.0157459660843
20
-14.7652394834962
30
0
41
1
10
51.0084755693699
20
-14.7700755124074
30
0
41
1
10
51.0013255779205
20
-14.7749979412753
30
0
41
1
10
50.9486459273608
20
-14.8125984296359
30
0
41
1
10
50.9079407199345
20
-14.849483424328
30
0
41
1
10
50.8548378784395
20
-14.9197419994362
30
0
41
1
10
50.8381339685163
20
-14.9534830778985
30
0
41
1
10
50.8334835665844
20
-14.9851664952347
30
0
0
SPLINE
5
196
100
AcDbEntity
8
1
62
256
6
ByLayer
370
13
48
1
60
0
100
AcDbSpline
70
4
71
3
72
10
73
6
40
0
40
0
40
0
40
0
40
0.126368939291459
40
0.126368939291459
40
1
40
1
40
1
40
1
41
1
10
50.8334835665844
20
-14.9851664952347
30
0
41
1
10
50.832254035518
20
-14.993543350927
30
0
41
1
10
50.830600122084
20
-15.0017327636395
30
0
41
1
10
50.8146011573228
20
-15.0639384378567
30
0
41
1
10
50.7814240870031
20
-15.1092949193255
30
0
41
1
10
50.7392542688248
20
-15.1466877516163
30
0
0
SPLINE
5
197
100
AcDbEntity
8
1
62
256
6
ByLayer
370
13
48
1
60
0
100
AcDbSpline
70
4
71
3
72
14
73
10
40
0
40
0
40
0
40
0
40
0.0736066511965389
40
0.0736066511965389
40
0.279115482337526
40
0.279115482337526
40
0.530737523610818
40
0.530737523610818
40
1
40
1
40
1
40
1
41
1
10
50.7392542688248
20
-15.1466877516163
30
0
41
1
10
50.7380314602746
20
-15.1477720407363
30
0
41
1
10
50.7366331244947
20
-15.1488229997695
30
0
41
1
10
50.7308331770581
20
-15.1526082491161
30
0
41
1
10
50.725401250999
20
-15.155089280898
30
0
41
1
10
50.7121727839647
20
-15.1598222923124
30
0
41
1
10
50.7039612580307
20
-15.1619742458512
30
0
41
1
10
50.6797772529569
20
-15.166987463617
30
0
41
1
10
50.6627164279864
20
-15.1690231765504
30
0
41
1
10
50.6458424296529
20
-15.1701071051449
30
0
0
SPLINE
5
198
100
AcDbEntity
8
1
62
256
6
ByLayer
370
13
48
1
60
0
100
AcDbSpline
70
4
71
3
72
10
73
6
40
0
40
0
40
0
40
0
40
0.676946846913182
40
0.676946846913182
40
1
40
1
40
1
40
1
41
1
10
50.6458424296529
20
-15.1701071051449
30
0
41
1
10
50.5128356554875
20
-15.1786510105628
30
0
41
1
10
50.3797374813151
20
-15.1860281502347
30
0
41
1
10
50.1830629176144
20
-15.1955183431303
30
0
41
1
10
50.1195133979921
20
-15.1983511680244
30
0
41
1
10
50.0559536790828
20
-15.2009399623701
30
0
0
SPLINE
5
199
100
AcDbEntity
8
1
62
256
6
ByLayer
370
13
48
1
60
0
100
AcDbSpline
70
4
71
3
72
10
73
6
40
0
40
0
40
0
40
0
40
0.626416619436475
40
0.626416619436475
40
1
40
1
40
1
40
1
41
1
10
50.0559536790828
20
-15.2009399623701
30
0
41
1
10
50.0247545968726
20
-15.1964146102644
30
0
41
1
10
49.9936114053822
20
-15.1914841041634
30
0
41
1
10
49.9440117971854
20
-15.1829447362911
30
0
41
1
10
49.9255066404268
20
-15.1796050256221
30
0
41
1
10
49.907030088778
20
-15.1761137055808
30
0
0
SPLINE
5
19A
100
AcDbEntity
8
1
62
256
6
ByLayer
370
13
48
1
60
0
100
AcDbSpline
70
4
71
3
72
12
73
8
40
0
40
0
40
0
40
0
40
0.0703164649150449
40
0.0703164649150449
40
0.581360051712833
40
0.581360051712833
40
1
40
1
40
1
40
1
41
1
10
49.907030088778
20
-15.1761137055808
30
0
41
1
10
49.9035064746123
20
-15.1648933614736
30
0
41
1
10
49.9002722461774
20
-15.1532476494842
30
0
41
1
10
49.8763315604251
20
-15.0551506624143
30
0
41
1
10
49.8705474511079
20
-14.9465099763034
30
0
41
1
10
49.8867792592849
20
-14.728667359506
30
0
41
1
10
49.9040985409605
20
-14.6208023138707
30
0
41
1
10
49.9297205888267
20
-14.5101443322452
30
0
0
SPLINE
5
19B
100
AcDbEntity
8
1
62
256
6
ByLayer
370
13
48
1
60
0
100
AcDbSpline
70
4
71
3
72
12
73
8
40
0
40
0
40
0
40
0
40
0.435431113819515
40
0.435431113819515
40
0.717532805798725
40
0.717532805798725
40
1
40
1
40
1
40
1
41
1
10
49.9297205888267
20
-14.5101443322452
30
0
41
1
10
49.9520724659011
20
-14.5012612462693
30
0
41
1
10
49.9745950871874
20
-14.4926756520227
30
0
41
1
10
50.0119537535312
20
-14.479017554719
30
0
41
1
10
50.026705940922
20
-14.4737717731151
30
0
41
1
10
50.056345551001
20
-14.4635215732385
30
0
41
1
10
50.0712344578463
20
-14.4585170144851
30
0
41
1
10
50.08617736979
20
-14.4536360072871
30
0
0
SPLINE
5
19C
100
AcDbEntity
8
1
62
256
6
ByLayer
370
13
48
1
60
0
100
AcDbSpline
70
4
71
3
72
8
73
4
40
0
40
0
40
0
40
0
40
1
40
1
40
1
40
1
41
1
10
50.08617736979
20
-14.4536360072871
30
0
41
1
10
50.0892874653811
20
-14.4526201143323
30
0
41
1
10
50.0923978788123
20
-14.4516044168587
30
0
41
1
10
50.0955086093229
20
-14.4505889160254
30
0
0
SPLINE
5
19D
100
AcDbEntity
8
1
62
256
6
ByLayer
370
13
48
1
60
0
100
AcDbSpline
70
4
71
3
72
14
73
10
40
0
40
0
40
0
40
0
40
0.187918734288723
40
0.187918734288723
40
0.467635128165853
40
0.467635128165853
40
0.738040419848296
40
0.738040419848296
40
1
40
1
40
1
40
1
41
1
10
50.0955086093232
20
-14.4505889160261
30
0
41
1
10
50.1224357651892
20
-14.4417985212535
30
0
41
1
10
50.1484832940142
20
-14.4303126094106
30
0
41
1
10
50.2085317773614
20
-14.3954897050856
30
0
41
1
10
50.2411539304642
20
-14.3685225056356
30
0
41
1
10
50.2930059845181
20
-14.3062363902229
30
0
41
1
10
50.3133773814665
20
-14.2702742944324
30
0
41
1
10
50.3387145615184
20
-14.1948085478607
30
0
41
1
10
50.34451639658
20
-14.1542438172548
30
0
41
1
10
50.3428770049333
20
-14.1144114916382
30
0
0
SPLINE
5
19E
100
AcDbEntity
8
1
62
256
6
ByLayer
370
13
48
1
60
0
100
AcDbSpline
70
4
71
3
72
8
73
4
40
0
40
0
40
0
40
0
40
1
40
1
40
1
40
1
41
1
10
50.3428770049334
20
-14.1144114916382
30
0
41
1
10
50.3397512531472
20
-14.0384650494357
30
0
41
1
10
50.3397513005739
20
-13.9615356649976
30
0
41
1
10
50.3428771490551
20
-13.8855892495848
30
0
0
SPLINE
5
19F
100
AcDbEntity
8
1
62
256
6
ByLayer
370
13
48
1
60
0
100
AcDbSpline
70
4
71
3
72
14
73
10
40
0
40
0
40
0
40
0
40
0.201099563909462
40
0.201099563909462
40
0.458157239793543
40
0.458157239793543
40
0.723216631469491
40
0.723216631469491
40
1
40
1
40
1
40
1
41
1
10
50.3428771490562
20
-13.8855892495846
30
0
41
1
10
50.344143999273
20
-13.8548095322033
30
0
41
1
10
50.3410309592394
20
-13.8236703527362
30
0
41
1
10
50.3246139234835
20
-13.7565977322746
30
0
41
1
10
50.308450904075
20
-13.7206308009097
30
0
41
1
10
50.2651433327384
20
-13.6567816109946
30
0
41
1
10
50.2370783841495
20
-13.628195202126
30
0
41
1
10
50.1725223460752
20
-13.581018432324
30
0
41
1
10
50.1348820083775
20
-13.5622650578581
30
0
41
1
10
50.0955089105287
20
-13.5494116569774
30
0
0
SPLINE
5
1A0
100
AcDbEntity
8
1
62
256
6
ByLayer
370
13
48
1
60
0
100
AcDbSpline
70
4
71
3
72
8
73
4
40
0
40
0
40
0
40
0
40
1
40
1
40
1
40
1
41
1
10
50.0955089105287
20
-13.5494116569774
30
0
41
1
10
50.0923981766566
20
-13.5483961537106
30
0
41
1
10
50.0892877598478
20
-13.5473804538005
30
0
41
1
10
50.0861776608635
20
-13.5463645584036
30
0
0
SPLINE
5
1A1
100
AcDbEntity
8
1
62
256
6
ByLayer
370
13
48
1
60
0
100
AcDbSpline
70
4
71
3
72
12
73
8
40
0
40
0
40
0
40
0
40
0.436615517044599
40
0.436615517044599
40
0.718508457790393
40
0.718508457790393
40
1
40
1
40
1
40
1
41
1
10
50.0861776608638
20
-13.5463645584029
30
0
41
1
10
50.0630815355809
20
-13.5388203459906
30
0
41
1
10
50.0401134736129
20
-13.5309806417769
30
0
41
1
10
50.0025602659705
20
-13.5175910803577
30
0
41
1
10
49.9878867464324
20
-13.5122135387958
30
0
41
1
10
49.9586931060677
20
-13.5012176416719
30
0
41
1
10
49.9441713793992
20
-13.4955991051675
30
0
41
1
10
49.9297206723638
20
-13.4898560988476
30
0
0
SPLINE
5
1A2
100
AcDbEntity
8
1
62
256
6
ByLayer
370
13
48
1
60
0
100
AcDbSpline
70
4
71
3
72
12
73
8
40
0
40
0
40
0
40
0
40
0.418641045368793
40
0.418641045368793
40
0.929686279124088
40
0.929686279124088
40
1
40
1
40
1
40
1
41
1
10
49.9297206723638
20
-13.4898560988476
30
0
41
1
10
49.9040986248803
20
-13.3791981543597
30
0
41
1
10
49.8867793261305
20
-13.2713331590392
30
0
41
1
10
49.8705475126928
20
-13.0534906307334
30
0
41
1
10
49.8763316672434
20
-12.9448499993459
30
0
41
1
10
49.9002724067099
20
-12.8467537669285
30
0
41
1
10
49.903506510401
20
-12.8351085616724
30
0
41
1
10
49.9070299777105
20
-12.8238886908215
30
0
0
SPLINE
5
1A3
100
AcDbEntity
8
1
62
256
6
ByLayer
370
13
48
1
60
0
100
AcDbSpline
70
4
71
3
72
10
73
6
40
0
40
0
40
0
40
0
40
0.37358636951691
40
0.37358636951691
40
1
40
1
40
1
40
1
41
1
10
49.9070299777105
20
-12.8238886908215
30
0
41
1
10
49.9255065612639
20
-12.8203975036688
30
0
41
1
10
49.9440117484368
20
-12.8170579231244
30
0
41
1
10
49.9936110376983
20
-12.808518963968
30
0
41
1
10
50.0247538752967
20
-12.8035887204924
30
0
41
1
10
50.0559525990651
20
-12.7990636119381
30
0
0
SPLINE
5
1A4
100
AcDbEntity
8
1
62
256
6
ByLayer
370
13
48
1
60
0
100
AcDbSpline
70
4
71
3
72
10
73
6
40
0
40
0
40
0
40
0
40
0.676948473610577
40
0.676948473610577
40
1
40
1
40
1
40
1
41
1
10
50.0559525990651
20
-12.7990636119381
30
0
41
1
10
50.1891359988617
20
-12.804489028602
30
0
41
1
10
50.3222774130494
20
-12.8109756890709
30
0
41
1
10
50.5188646362055
20
-12.822033840922
30
0
41
1
10
50.5823621823955
20
-12.8258210650543
30
0
41
1
10
50.6458363732113
20
-12.829898521832
30
0
0
SPLINE
5
1A5
100
AcDbEntity
8
1
62
256
6
ByLayer
370
13
48
1
60
0
100
AcDbSpline
70
4
71
3
72
14
73
10
40
0
40
0
40
0
40
0
40
0.205642447172662
40
0.205642447172662
40
0.552024857255131
40
0.552024857255131
40
0.779314767021146
40
0.779314767021146
40
1
40
1
40
1
40
1
41
1
10
50.6458363732117
20
-12.8298985218291
30
0
41
1
10
50.6533040291648
20
-12.8303782293131
30
0
41
1
10
50.6607649213431
20
-12.8310452800711
30
0
41
1
10
50.6804362510629
20
-12.833369637988
30
0
41
1
10
50.6926584523607
20
-12.8354066939455
30
0
41
1
10
50.7112818324611
20
-12.8400007205042
30
0
41
1
10
50.7183521846907
20
-12.8421774516242
30
0
41
1
10
50.7304409219451
20
-12.8472082745826
30
0
41
1
10
50.7356432118027
20
-12.8501214783547
30
0
41
1
10
50.7392481221192
20
-12.8533180448696
30
0
0
SPLINE
5
1A6
100
AcDbEntity
8
1
62
256
6
ByLayer
370
13
48
1
60
0
100
AcDbSpline
70
4
71
3
72
10
73
6
40
0
40
0
40
0
40
0
40
0.800695265608032
40
0.800695265608032
40
1
40
1
40
1
40
1
41
1
10
50.7392481221192
20
-12.8533180448696
30
0
41
1
10
50.7779260045433
20
-12.8876147160675
30
0
41
1
10
50.8090335289494
20
-12.9284571010777
30
0
41
1
10
50.828562756524
20
-12.9889752214253
30
0
41
1
10
50.8315449242412
20
-13.0016768761918
30
0
41
1
10
50.8334766360301
20
-13.0148367616715
30
0
0
SPLINE
5
1A7
100
AcDbEntity
8
1
62
256
6
ByLayer
370
13
48
1
60
0
100
AcDbSpline
70
4
71
3
72
12
73
8
40
0
40
0
40
0
40
0
40
0.366233000367022
40
0.366233000367022
40
0.431397556128611
40
0.431397556128611
40
1
40
1
40
1
40
1
41
1
10
50.8334766360299
20
-13.0148367616716
30
0
41
1
10
50.8376001095773
20
-13.0429281363751
30
0
41
1
10
50.8511602127441
20
-13.0726326596634
30
0
41
1
10
50.8742497416965
20
-13.1059212964429
30
0
41
1
10
50.8779823290738
20
-13.1109826111906
30
0
41
1
10
50.9154757774998
20
-13.1590659358653
30
0
41
1
10
50.9629186945112
20
-13.199627715728
30
0
41
1
10
51.0157406925716
20
-13.2347628455276
30
0
0
SPLINE
5
1A8
100
AcDbEntity
8
1
62
256
6
ByLayer
370
13
48
1
60
0
100
AcDbSpline
70
4
71
3
72
8
73
4
40
0
40
0
40
0
40
0
40
1
40
1
40
1
40
1
41
1
10
51.0157406925716
20
-13.2347628455276
30
0
41
1
10
51.1033057943151
20
-13.2930077307769
30
0
41
1
10
51.1885732080686
20
-13.3571659931445
30
0
41
1
10
51.2678525182225
20
-13.4301816717247
30
0
0
SPLINE
5
1A9
100
AcDbEntity
8
1
62
256
6
ByLayer
370
13
48
1
60
0
100
AcDbSpline
70
4
71
3
72
8
73
4
40
0
40
0
40
0
40
0
40
1
40
1
40
1
40
1
41
1
10
50.0605009007629
20
-15.3747221461501
30
0
41
1
10
50.2587711151019
20
-15.3695341654403
30
0
41
1
10
50.4569909311782
20
-15.3618658002281
30
0
41
1
10
50.6550735286764
20
-15.351802122658
30
0
0
SPLINE
5
1AA
100
AcDbEntity
8
1
62
256
6
ByLayer
370
13
48
1
60
0
100
AcDbSpline
70
4
71
3
72
12
73
8
40
0
40
0
40
0
40
0
40
0.0174209929473798
40
0.0174209929473798
40
0.813177174176632
40
0.813177174176632
40
1
40
1
40
1
40
1
41
1
10
51.9035279194015
20
-16.2335550382773
30
0
41
1
10
51.8954141353118
20
-16.229731890441
30
0
41
1
10
51.8873107189212
20
-16.2258866577571
30
0
41
1
10
51.5131960703197
20
-16.0470826989198
30
0
41
1
10
51.1695304233211
20
-15.8171528803117
30
0
41
1
10
50.7935159575699
20
-15.4850030176988
30
0
41
1
10
50.7233990867716
20
-15.4192798441837
30
0
41
1
10
50.6550735286764
20
-15.3518021226569
30
0
0
SPLINE
5
1AB
100
AcDbEntity
8
1
62
256
6
ByLayer
370
13
48
1
60
0
100
AcDbSpline
70
4
71
3
72
8
73
4
40
0
40
0
40
0
40
0
40
1
40
1
40
1
40
1
41
1
10
51.9291478209051
20
-16.7315215285373
30
0
41
1
10
51.9205327245045
20
-16.5655365808215
30
0
41
1
10
51.9119936487727
20
-16.3995476711743
30
0
41
1
10
51.9035279194006
20
-16.2335550382643
30
0
0
SPLINE
5
1AC
100
AcDbEntity
8
1
62
256
6
ByLayer
370
13
48
1
60
0
100
AcDbSpline
70
4
71
3
72
8
73
4
40
0
40
0
40
0
40
0
40
1
40
1
40
1
40
1
41
1
10
51.9291478209042
20
-11.26847847148
30
0
41
1
10
51.920532724504
20
-11.4344634191902
30
0
41
1
10
51.9119936487724
20
-11.6004523288317
30
0
41
1
10
51.9035279194006
20
-11.7664449617361
30
0
0
SPLINE
5
1AD
100
AcDbEntity
8
1
62
256
6
ByLayer
370
13
48
1
60
0
100
AcDbSpline
70
4
71
3
72
12
73
8
40
0
40
0
40
0
40
0
40
0.0174209007758012
40
0.0174209007758012
40
0.813172871791341
40
0.813172871791341
40
1
40
1
40
1
40
1
41
1
10
51.9035279194015
20
-11.766444961723
30
0
41
1
10
51.8954141353118
20
-11.7702681095594
30
0
41
1
10
51.8873107189212
20
-11.7741133422432
30
0
41
1
10
51.5131960703197
20
-11.9529173010806
30
0
41
1
10
51.1695304233211
20
-12.1828471196886
30
0
41
1
10
50.793513920914
20
-12.5149987813679
30
0
41
1
10
50.7233951180442
20
-12.5807238761129
30
0
41
1
10
50.6550677260422
20
-12.6482036079825
30
0
0
SPLINE
5
1AE
100
AcDbEntity
8
1
62
256
6
ByLayer
370
13
48
1
60
0
100
AcDbSpline
70
4
71
3
72
8
73
4
40
0
40
0
40
0
40
0
40
1
40
1
40
1
40
1
41
1
10
50.6550677260422
20
-12.6482036079825
30
0
41
1
10
50.4569870468132
20
-12.6381397454329
30
0
41
1
10
50.2587691770377
20
-12.6304706966426
30
0
41
1
10
50.0605009007629
20
-12.6252815313693
30
0
0
SPLINE
5
1AF
100
AcDbEntity
8
1
62
256
6
ByLayer
370
13
48
1
60
0
100
AcDbSpline
70
4
71
3
72
14
73
10
40
0
40
0
40
0
40
0
40
0.25556417273693
40
0.25556417273693
40
0.49418353017144
40
0.49418353017144
40
0.820252528573789
40
0.820252528573789
40
1
40
1
40
1
40
1
41
1
10
50.8624584035401
20
-12.7914021504358
30
0
41
1
10
50.8526064271176
20
-12.7811451436599
30
0
41
1
10
50.8399113454071
20
-12.7697644399286
30
0
41
1
10
50.8112555070669
20
-12.7467226587568
30
0
41
1
10
50.795353866837
20
-12.7349568116188
30
0
41
1
10
50.7547961225523
20
-12.7069573581193
30
0
41
1
10
50.7285113396219
20
-12.6902768488357
30
0
41
1
10
50.6862358178905
20
-12.6654186093888
30
0
41
1
10
50.6706988692583
20
-12.6566557534885
30
0
41
1
10
50.6550677260423
20
-12.6482036079822
30
0
0
SPLINE
5
1B0
100
AcDbEntity
8
1
62
256
6
ByLayer
370
13
48
1
60
0
100
AcDbSpline
70
4
71
3
72
16
73
12
40
0
40
0
40
0
40
0
40
0.350242859033379
40
0.350242859033379
40
0.423372547456697
40
0.423372547456697
40
0.679771193971581
40
0.679771193971581
40
0.911749531478506
40
0.911749531478506
40
1
40
1
40
1
40
1
41
1
10
50.6550735286764
20
-15.3518021226569
30
0
41
1
10
50.6852229274514
20
-15.3354996032563
30
0
41
1
10
50.715227515664
20
-15.3179061560748
30
0
41
1
10
50.748426161399
20
-15.2967638486366
30
0
41
1
10
50.7541297633719
20
-15.2930651450653
30
0
41
1
10
50.7791448409322
20
-15.2765383621362
30
0
41
1
10
50.7973263988363
20
-15.2636727849773
30
0
41
1
10
50.827739578051
20
-15.2403401903642
30
0
41
1
10
50.8405833134202
20
-15.2295981036792
30
0
41
1
10
50.8552736271354
20
-15.2158708857255
30
0
41
1
10
50.8590349886703
20
-15.2121737999467
30
0
41
1
10
50.8624642137407
20
-15.2086035957862
30
0
0
SPLINE
5
1B1
100
AcDbEntity
8
1
62
256
6
ByLayer
370
13
48
1
60
0
100
AcDbSpline
70
4
71
3
72
8
73
4
40
0
40
0
40
0
40
0
40
1
40
1
40
1
40
1
41
1
10
52.0729474001652
20
-16.2249145374821
30
0
41
1
10
52.0821355999362
20
-16.4204960308841
30
0
41
1
10
52.0914176399604
20
-16.6160731403654
30
0
41
1
10
52.1007975798563
20
-16.8116455319234
30
0
0
SPLINE
5
1B2
100
AcDbEntity
8
1
62
256
6
ByLayer
370
13
48
1
60
0
100
AcDbSpline
70
4
71
3
72
10
73
6
40
0
40
0
40
0
40
0
40
0.480374533063216
40
0.480374533063216
40
1
40
1
40
1
40
1
41
1
10
54.0503283337288
20
-16.2698058478481
30
0
41
1
10
53.7173888340512
20
-16.2279902109198
30
0
41
1
10
53.3766115407837
20
-16.2283746773455
30
0
41
1
10
52.7073202711031
20
-16.2198219198144
30
0
41
1
10
52.3709174116715
20
-16.1993784482855
30
0
41
1
10
52.0729474001659
20
-16.224914537495
30
0
0
SPLINE
5
1B3
100
AcDbEntity
8
1
62
256
6
ByLayer
370
13
48
1
60
0
100
AcDbSpline
70
4
71
3
72
8
73
4
40
0
40
0
40
0
40
0
40
1
40
1
40
1
40
1
41
1
10
52.0729474001652
20
-11.7750854625183
30
0
41
1
10
52.0821355999362
20
-11.5795039691162
30
0
41
1
10
52.0914176399604
20
-11.3839268596349
30
0
41
1
10
52.1007975798563
20
-11.188354468077
30
0
0
SPLINE
5
1B4
100
AcDbEntity
8
1
62
256
6
ByLayer
370
13
48
1
60
0
100
AcDbSpline
70
4
71
3
72
10
73
6
40
0
40
0
40
0
40
0
40
0.480374533063216
40
0.480374533063216
40
1
40
1
40
1
40
1
41
1
10
54.0503283337288
20
-11.7301941521523
30
0
41
1
10
53.7173888340512
20
-11.7720097890806
30
0
41
1
10
53.3766115407837
20
-11.7716253226548
30
0
41
1
10
52.7073202711031
20
-11.780178080186
30
0
41
1
10
52.3709174116715
20
-11.8006215517148
30
0
41
1
10
52.0729474001659
20
-11.7750854625053
30
0
0
SPLINE
5
1B5
100
AcDbEntity
8
1
62
256
6
ByLayer
370
18
48
1
60
0
100
AcDbSpline
70
4
71
3
72
10
73
6
40
0
40
0
40
0
40
0
40
0.491597105971594
40
0.491597105971594
40
1
40
1
40
1
40
1
41
1
10
42.3863913678664
20
-16.6790970273026
30
0
41
1
10
42.4075291819642
20
-16.686198728755
30
0
41
1
10
42.4288576710831
20
-16.6914272435561
30
0
41
1
10
42.4715215142472
20
-16.6983605601037
30
0
41
1
10
42.4930739726227
20
-16.7000000000002
30
0
41
1
10
42.5138999999996
20
-16.7000000000002
30
0
0
SPLINE
5
1B6
100
AcDbEntity
8
1
62
256
6
ByLayer
370
18
48
1
60
0
100
AcDbSpline
70
4
71
3
72
13
73
9
40
0
40
0
40
0
40
0
40
0.0066933084954129
40
0.0259916000197413
40
0.0356407457819055
40
0.334764264408996
40
0.643536928798252
40
1
40
1
40
1
40
1
41
1
10
48.8719378892017
20
-16.7000000000002
30
0
41
1
10
48.8725639128966
20
-16.7000000000002
30
0
41
1
10
48.8749824984297
20
-16.7000000000002
30
0
41
1
10
48.8782664118633
20
-16.7000000000002
30
0
41
1
10
48.9088584990021
20
-16.7000000000002
30
0
41
1
10
48.9664325928786
20
-16.7000000000002
30
0
41
1
10
49.0563403417793
20
-16.7000000000002
30
0
41
1
10
49.1183606389966
20
-16.7000000000002
30
0
41
1
10
49.1515938891774
20
-16.7000000000002
30
0
0
SPLINE
5
1B7
100
AcDbEntity
8
1
62
256
6
ByLayer
370
18
48
1
60
0
100
AcDbSpline
70
4
71
2
72
9
73
6
40
0
40
0
40
0
40
0.0492648277051109
40
0.135695297913737
40
0.135695297913737
40
1
40
1
40
1
41
1
10
48.8729529396162
20
-11.3000000000001
30
0
41
1
10
48.8798208475336
20
-11.3000000000001
30
0
41
1
10
48.8982349647744
20
-11.3000000000001
30
0
41
1
10
48.9107714379781
20
-11.3000000000001
30
0
41
1
10
48.9291816599136
20
-11.3000000000001
30
0
41
1
10
49.1516029396163
20
-11.3000000000001
30
0
0
SPLINE
5
1B8
100
AcDbEntity
8
1
62
256
6
ByLayer
370
13
48
1
60
0
100
AcDbSpline
70
4
71
3
72
8
73
4
40
0
40
0
40
0
40
0
40
1
40
1
40
1
40
1
41
1
10
49.1480585894642
20
-16.5584793093786
30
0
41
1
10
49.1492438534344
20
-16.5584793093786
30
0
41
1
10
49.1504335048261
20
-16.5586969075513
30
0
41
1
10
49.1516029396162
20
-16.559153731252
30
0
0
SPLINE
5
1B9
100
AcDbEntity
8
1
62
256
6
ByLayer
370
13
48
1
60
0
100
AcDbSpline
70
4
71
3
72
10
73
6
40
0
40
0
40
0
40
0
40
0.299090051335098
40
0.299090051335098
40
1
40
1
40
1
40
1
41
1
10
48.8770507503686
20
-16.558108034078
30
0
41
1
10
48.9043739699089
20
-16.5570848608718
30
0
41
1
10
48.9310001671806
20
-16.5584794490095
30
0
41
1
10
49.0213727640394
20
-16.5584790216971
30
0
41
1
10
49.0847156312269
20
-16.5584793093786
30
0
41
1
10
49.1480585894642
20
-16.5584793093786
30
0
0
SPLINE
5
1BA
100
AcDbEntity
8
1
62
256
6
ByLayer
370
13
48
1
60
0
100
AcDbSpline
70
4
71
3
72
14
73
10
40
0
40
0
40
0
40
0
40
0.0136716899694139
40
0.0136716899694139
40
0.637192393526295
40
0.637192393526295
40
0.700909948663941
40
0.700909948663941
40
1
40
1
40
1
40
1
41
1
10
49.1480585894642
20
-11.4415206906217
30
0
41
1
10
49.1468230451715
20
-11.4415206906217
30
0
41
1
10
49.1455875008788
20
-11.4415206906217
30
0
41
1
10
49.0880028550207
20
-11.4415206906217
30
0
41
1
10
49.0316537534553
20
-11.4415206906217
30
0
41
1
10
48.9695463395107
20
-11.4415206906217
30
0
41
1
10
48.963788032006
20
-11.441520706023
30
0
41
1
10
48.9310001671805
20
-11.4415205509908
30
0
41
1
10
48.9043739699086
20
-11.4429151391285
30
0
41
1
10
48.8770507503684
20
-11.4418919659223
30
0
0
SPLINE
5
1BB
100
AcDbEntity
8
1
62
256
6
ByLayer
370
13
48
1
60
0
100
AcDbSpline
70
4
71
3
72
8
73
4
40
0
40
0
40
0
40
0
40
1
40
1
40
1
40
1
41
1
10
49.1516029396163
20
-11.4408462687481
30
0
41
1
10
49.1504335048262
20
-11.4413030924488
30
0
41
1
10
49.1492438534344
20
-11.4415206906217
30
0
41
1
10
49.1480585894642
20
-11.4415206906217
30
0
0
SPLINE
5
1BC
100
AcDbEntity
8
1
62
256
6
ByLayer
370
13
48
1
60
0
100
AcDbSpline
70
4
71
3
72
10
73
6
40
0
40
0
40
0
40
0
40
0.373709297613223
40
0.373709297613223
40
1
40
1
40
1
40
1
41
1
10
49.8400629787251
20
-15.3436131143347
30
0
41
1
10
49.8589188253557
20
-15.3479288509188
30
0
41
1
10
49.8778090232253
20
-15.3520778719105
30
0
41
1
10
49.9284363046546
20
-15.3627399069871
30
0
41
1
10
49.9602321288576
20
-15.3689562904984
30
0
41
1
10
49.9920968720977
20
-15.3747221461501
30
0
0
SPLINE
5
1BD
100
AcDbEntity
8
1
62
256
6
ByLayer
370
13
48
1
60
0
100
AcDbSpline
70
4
71
3
72
10
73
6
40
0
40
0
40
0
40
0
40
0.626287703218406
40
0.626287703218406
40
1
40
1
40
1
40
1
41
1
10
49.9920968720977
20
-12.6252815313693
30
0
41
1
10
49.9602325274091
20
-12.6310471290883
30
0
41
1
10
49.9284370964034
20
-12.6372632341886
30
0
41
1
10
49.8778101896301
20
-12.6479248435883
30
0
41
1
10
49.8589199784624
20
-12.6520737344735
30
0
41
1
10
49.8400641168764
20
-12.656389338146
30
0
0
SPLINE
5
1BE
100
AcDbEntity
8
1
62
256
6
ByLayer
370
13
48
1
60
0
100
AcDbSpline
70
4
71
3
72
8
73
4
40
0
40
0
40
0
40
0
40
1
40
1
40
1
40
1
41
1
10
49.1505922172742
20
-11.4580052228849
30
0
41
1
10
49.1520641510863
20
-11.4577403612486
30
0
41
1
10
49.1535521400634
20
-11.4572423602439
30
0
41
1
10
49.1550376655997
20
-11.4565018935242
30
0
0
SPLINE
5
1BF
100
AcDbEntity
8
1
62
256
6
ByLayer
370
13
48
1
60
0
100
AcDbSpline
70
4
71
3
72
8
73
4
40
0
40
0
40
0
40
0
40
1
40
1
40
1
40
1
41
1
10
49.1550376655997
20
-16.5434981064761
30
0
41
1
10
49.1535521400634
20
-16.5427576397564
30
0
41
1
10
49.1520641510863
20
-16.5422596387517
30
0
41
1
10
49.1505922172742
20
-16.5419947771155
30
0
0
SPLINE
5
1C0
100
AcDbEntity
8
1
62
256
6
ByLayer
370
13
48
1
60
0
100
AcDbSpline
70
4
71
3
72
12
73
8
40
0
40
0
40
0
40
0
40
0.0707113849956165
40
0.0707113849956165
40
0.582686810203343
40
0.582686810203343
40
1
40
1
40
1
40
1
41
1
10
49.7373410993733
20
-12.7223274672008
30
0
41
1
10
49.7330976307909
20
-12.7351298692008
30
0
41
1
10
49.7291532954151
20
-12.7484168102649
30
0
41
1
10
49.6995730948321
20
-12.8601364746103
30
0
41
1
10
49.6892574112629
20
-12.9837604421985
30
0
41
1
10
49.6990574406285
20
-13.2322865871556
30
0
41
1
10
49.7139400197118
20
-13.3552874642868
30
0
41
1
10
49.7378816481902
20
-13.4819516762822
30
0
0
SPLINE
5
1C1
100
AcDbEntity
8
1
62
256
6
ByLayer
370
13
48
1
60
0
100
AcDbSpline
70
4
71
3
72
12
73
8
40
0
40
0
40
0
40
0
40
0.41731214513514
40
0.41731214513514
40
0.92928586889468
40
0.92928586889468
40
1
40
1
40
1
40
1
41
1
10
49.7378810325736
20
-14.5180483237182
30
0
41
1
10
49.7139392759945
20
-14.6447126058102
30
0
41
1
10
49.6990565790991
20
-14.7677135756777
30
0
41
1
10
49.6892562827874
20
-15.0162398854576
30
0
41
1
10
49.6995717794345
20
-15.1398639592403
30
0
41
1
10
49.7291518487444
20
-15.2515845182344
30
0
41
1
10
49.7330963265132
20
-15.2648720404364
30
0
41
1
10
49.7373399612217
20
-15.2776749852792
30
0
0
SPLINE
5
1C2
100
AcDbEntity
8
1
62
256
6
ByLayer
370
13
48
1
60
0
100
AcDbSpline
70
4
71
2
72
6
73
3
40
0
40
0
40
0
40
1
40
1
40
1
41
1
10
49.5130138396651
20
-13.4819516762822
30
0
41
1
10
49.3105684399708
20
-12.8423073922345
30
0
41
1
10
49.1081230402766
20
-12.2026631081868
30
0
0
SPLINE
5
1C3
100
AcDbEntity
8
1
62
256
6
ByLayer
370
13
48
1
60
0
100
AcDbSpline
70
4
71
3
72
10
73
6
40
0
40
0
40
0
40
0
40
0.292742959368827
40
0.292742959368827
40
1
40
1
40
1
40
1
41
1
10
48.8820426122256
20
-11.4584368688079
30
0
41
1
10
48.9085050001787
20
-11.4592200644023
30
0
41
1
10
48.9343448032249
20
-11.4580050870892
30
0
41
1
10
49.0239063820189
20
-11.4580055105652
30
0
41
1
10
49.0872492541216
20
-11.4580052228849
30
0
41
1
10
49.1505922172742
20
-11.4580052228849
30
0
0
SPLINE
5
1C4
100
AcDbEntity
8
1
62
256
6
ByLayer
370
13
48
1
60
0
100
AcDbSpline
70
4
71
3
72
14
73
10
40
0
40
0
40
0
40
0
40
0.0093983253738636
40
0.0093983253738636
40
0.638565273553826
40
0.638565273553826
40
0.707257040630811
40
0.707257040630811
40
1
40
1
40
1
40
1
41
1
10
49.1505922172742
20
-16.5419947771155
30
0
41
1
10
49.149750489665
20
-16.5419947771155
30
0
41
1
10
49.1489087620559
20
-16.5419947771155
30
0
41
1
10
49.0917179328814
20
-16.5419947771155
30
0
41
1
10
49.0353688313159
20
-16.5419947771155
30
0
41
1
10
48.9728675957725
20
-16.5419947771155
30
0
41
1
10
48.9667154672583
20
-16.5419947598522
30
0
41
1
10
48.9343448032249
20
-16.5419949129111
30
0
41
1
10
48.9085050001786
20
-16.540779935598
30
0
41
1
10
48.8820426122254
20
-16.5415631311924
30
0
0
SPLINE
5
1C5
100
AcDbEntity
8
1
62
256
6
ByLayer
370
13
48
1
60
0
100
AcDbSpline
70
4
71
2
72
6
73
3
40
0
40
0
40
0
40
1
40
1
40
1
41
1
10
49.5130138396651
20
-14.5180483237182
30
0
41
1
10
49.3105684399708
20
-15.1576926077658
30
0
41
1
10
49.1081230402766
20
-15.7973368918136
30
0
0
SPLINE
5
1C6
100
AcDbEntity
8
1
62
256
6
ByLayer
370
13
48
1
60
0
100
AcDbSpline
70
4
71
3
72
10
73
6
40
0
40
0
40
0
40
0
40
0.543339987341644
40
0.543339987341644
40
1
40
1
40
1
40
1
41
1
10
56.1142004601923
20
-12.3465457329602
30
0
41
1
10
55.9332074892226
20
-12.2311251026076
30
0
41
1
10
55.7521449878383
20
-12.1156409827923
30
0
41
1
10
55.4119781146637
20
-11.9157311057952
30
0
41
1
10
55.2537730567055
20
-11.8281225836814
30
0
41
1
10
55.0878782123926
20
-11.7588391196328
30
0
0
SPLINE
5
1C7
100
AcDbEntity
8
1
62
256
6
ByLayer
370
13
48
1
60
0
100
AcDbSpline
70
4
71
3
72
10
73
6
40
0
40
0
40
0
40
0
40
0.234782437765391
40
0.234782437765391
40
1
40
1
40
1
40
1
41
1
10
55.0878782123926
20
-11.7588391196328
30
0
41
1
10
55.0832978590628
20
-11.7569262045774
30
0
41
1
10
55.0787613765135
20
-11.7549008775611
30
0
41
1
10
55.0598272202287
20
-11.7457641550668
30
0
41
1
10
55.0456484564289
20
-11.7373955927024
30
0
41
1
10
55.0339263771112
20
-11.7263397075745
30
0
0
SPLINE
5
1C8
100
AcDbEntity
8
1
62
256
6
ByLayer
370
13
48
1
60
0
100
AcDbSpline
70
4
71
3
72
10
73
6
40
0
40
0
40
0
40
0
40
0.234782437765391
40
0.234782437765391
40
1
40
1
40
1
40
1
41
1
10
55.0878782123926
20
-16.2411608803675
30
0
41
1
10
55.0832978590628
20
-16.243073795423
30
0
41
1
10
55.0787613765135
20
-16.2450991224393
30
0
41
1
10
55.0598272202287
20
-16.2542358449335
30
0
41
1
10
55.0456484564289
20
-16.2626044072979
30
0
41
1
10
55.0339263771112
20
-16.2736602924258
30
0
0
SPLINE
5
1C9
100
AcDbEntity
8
1
62
256
6
ByLayer
370
13
48
1
60
0
100
AcDbSpline
70
4
71
3
72
10
73
6
40
0
40
0
40
0
40
0
40
0.543339987341528
40
0.543339987341528
40
1
40
1
40
1
40
1
41
1
10
56.114200460192
20
-15.6534542670403
30
0
41
1
10
55.9332074892223
20
-15.7688748973928
30
0
41
1
10
55.7521449878382
20
-15.8843590172081
30
0
41
1
10
55.4119781146637
20
-16.0842688942051
30
0
41
1
10
55.2537730567055
20
-16.171877416319
30
0
41
1
10
55.0878782123926
20
-16.2411608803675
30
0
0
SPLINE
5
1CA
100
AcDbEntity
8
1
62
256
6
ByLayer
370
13
48
1
60
0
100
AcDbSpline
70
4
71
3
72
12
73
8
40
0
40
0
40
0
40
0
40
0.0484239545861539
40
0.0484239545861539
40
0.787342760202595
40
0.787342760202595
40
1
40
1
40
1
40
1
41
1
10
56.1141941805367
20
-12.3479404616062
30
0
41
1
10
56.113267996065
20
-12.3480785327535
30
0
41
1
10
56.1123413193324
20
-12.3482164649579
30
0
41
1
10
56.0972809106243
20
-12.3504567050493
30
0
41
1
10
56.0830247049823
20
-12.3525442565665
30
0
41
1
10
56.0646227023093
20
-12.35523227517
30
0
41
1
10
56.0605029316178
20
-12.3558336472838
30
0
41
1
10
56.0563814286889
20
-12.3564355702013
30
0
0
SPLINE
5
1CB
100
AcDbEntity
8
1
62
256
6
ByLayer
370
13
48
1
60
0
100
AcDbSpline
70
4
71
3
72
8
73
4
40
0
40
0
40
0
40
0
40
1
40
1
40
1
40
1
41
1
10
56.056381428689
20
-12.3564355702021
30
0
41
1
10
56.0532483176736
20
-12.3568931439093
30
0
41
1
10
56.0500974646698
20
-12.3572275978289
30
0
41
1
10
56.0469460166644
20
-12.3575450165268
30
0
0
SPLINE
5
1CC
100
AcDbEntity
8
1
62
256
6
ByLayer
370
13
48
1
60
0
100
AcDbSpline
70
4
71
3
72
8
73
4
40
0
40
0
40
0
40
0
40
1
40
1
40
1
40
1
41
1
10
56.0469460166644
20
-12.3575450165268
30
0
41
1
10
56.0218947760488
20
-12.360068216073
30
0
41
1
10
55.9967469726039
20
-12.3641214540689
30
0
41
1
10
55.9724199070217
20
-12.3686666666237
30
0
0
SPLINE
5
1CD
100
AcDbEntity
8
1
62
256
6
ByLayer
370
13
48
1
60
0
100
AcDbSpline
70
4
71
3
72
10
73
6
40
0
40
0
40
0
40
0
40
0.365019426424878
40
0.365019426424878
40
1
40
1
40
1
40
1
41
1
10
55.9724199070217
20
-12.3686666666237
30
0
41
1
10
55.9531240542626
20
-12.3722718590347
30
0
41
1
10
55.9328374811639
20
-12.3708379765895
30
0
41
1
10
55.8790335246495
20
-12.3632665006517
30
0
41
1
10
55.8453968249901
20
-12.3537267174987
30
0
41
1
10
55.8124587777264
20
-12.3428537414914
30
0
0
SPLINE
5
1CE
100
AcDbEntity
8
1
62
256
6
ByLayer
370
13
48
1
60
0
100
AcDbSpline
70
4
71
3
72
10
73
6
40
0
40
0
40
0
40
0
40
0.365019426424878
40
0.365019426424878
40
1
40
1
40
1
40
1
41
1
10
55.9724199070217
20
-15.6313333333767
30
0
41
1
10
55.9531240542626
20
-15.6277281409656
30
0
41
1
10
55.9328374811639
20
-15.6291620234108
30
0
41
1
10
55.8790335246495
20
-15.6367334993486
30
0
41
1
10
55.8453968249901
20
-15.6462732825016
30
0
41
1
10
55.8124587777264
20
-15.6571462585089
30
0
0
SPLINE
5
1CF
100
AcDbEntity
8
1
62
256
6
ByLayer
370
13
48
1
60
0
100
AcDbSpline
70
4
71
3
72
8
73
4
40
0
40
0
40
0
40
0
40
1
40
1
40
1
40
1
41
1
10
56.0469460166644
20
-15.6424549834736
30
0
41
1
10
56.0218947760488
20
-15.6399317839274
30
0
41
1
10
55.9967469726039
20
-15.6358785459314
30
0
41
1
10
55.9724199070217
20
-15.6313333333767
30
0
0
SPLINE
5
1D0
100
AcDbEntity
8
1
62
256
6
ByLayer
370
13
48
1
60
0
100
AcDbSpline
70
4
71
3
72
8
73
4
40
0
40
0
40
0
40
0
40
1
40
1
40
1
40
1
41
1
10
56.056381428689
20
-15.6435644297982
30
0
41
1
10
56.0532483176736
20
-15.643106856091
30
0
41
1
10
56.0500974646698
20
-15.6427724021714
30
0
41
1
10
56.0469460166644
20
-15.6424549834735
30
0
0
SPLINE
5
1D1
100
AcDbEntity
8
1
62
256
6
ByLayer
370
13
48
1
60
0
100
AcDbSpline
70
4
71
3
72
12
73
8
40
0
40
0
40
0
40
0
40
0.048423954882324
40
0.048423954882324
40
0.787342760268783
40
0.787342760268783
40
1
40
1
40
1
40
1
41
1
10
56.1141941804902
20
-15.6520595384101
30
0
41
1
10
56.1132679959645
20
-15.651921467272
30
0
41
1
10
56.1123413193381
20
-15.6517835350433
30
0
41
1
10
56.0972809106243
20
-15.6495432949511
30
0
41
1
10
56.0830247049823
20
-15.6474557434338
30
0
41
1
10
56.0646227023093
20
-15.6447677248303
30
0
41
1
10
56.0605029316178
20
-15.6441663527165
30
0
41
1
10
56.0563814286889
20
-15.643564429799
30
0
0
SPLINE
5
1D2
100
AcDbEntity
8
1
62
256
6
ByLayer
370
13
48
1
60
0
100
AcDbSpline
70
4
71
3
72
12
73
8
40
0
40
0
40
0
40
0
40
0.585953603913908
40
0.585953603913908
40
0.932562389653932
40
0.932562389653932
40
1
40
1
40
1
40
1
41
1
10
51.1197830934707
20
-13.1083987488164
30
0
41
1
10
51.0741112724376
20
-13.0902520392067
30
0
41
1
10
51.0314125134989
20
-13.0681259403228
30
0
41
1
10
50.9795905223001
20
-13.0265278609517
30
0
41
1
10
50.9636083450442
20
-13.0092945558384
30
0
41
1
10
50.9526123558146
20
-12.9878617481834
30
0
41
1
10
50.9510603851934
20
-12.984296115207
30
0
41
1
10
50.9498016088408
20
-12.9807158919166
30
0
0
SPLINE
5
1D3
100
AcDbEntity
8
1
62
256
6
ByLayer
370
13
48
1
60
0
100
AcDbSpline
70
4
71
3
72
8
73
4
40
0
40
0
40
0
40
0
40
1
40
1
40
1
40
1
41
1
10
51.1197830934708
20
-13.1083987488162
30
0
41
1
10
51.201752614275
20
-13.0809403874147
30
0
41
1
10
51.2841705240858
20
-13.0554125875348
30
0
41
1
10
51.3669247822471
20
-13.0317204086244
30
0
0
SPLINE
5
1D4
100
AcDbEntity
8
1
62
256
6
ByLayer
370
13
48
1
60
0
100
AcDbSpline
70
4
71
3
72
12
73
8
40
0
40
0
40
0
40
0
40
0.397348218557931
40
0.397348218557931
40
0.918192388004562
40
0.918192388004562
40
1
40
1
40
1
40
1
41
1
10
50.9498082989184
20
-15.019286825711
30
0
41
1
10
50.9570888439987
20
-14.9985785131516
30
0
41
1
10
50.9742756193541
20
-14.9783138618107
30
0
41
1
10
51.0242520488146
20
-14.936967111733
30
0
41
1
10
51.061053015887
20
-14.916601289303
30
0
41
1
10
51.1069740548544
20
-14.8967977587491
30
0
41
1
10
51.1133424535552
20
-14.8941642867625
30
0
41
1
10
51.1197884944382
20
-14.8916030604109
30
0
0
SPLINE
5
1D5
100
AcDbEntity
8
1
62
256
6
ByLayer
370
13
48
1
60
0
100
AcDbSpline
70
4
71
3
72
8
73
4
40
0
40
0
40
0
40
0
40
1
40
1
40
1
40
1
41
1
10
51.1197884944382
20
-14.8916030604111
30
0
41
1
10
51.2017562343343
20
-14.9190607339079
30
0
41
1
10
51.2841723413179
20
-14.9445879327311
30
0
41
1
10
51.3669247822471
20
-14.9682795913759
30
0
0
SPLINE
5
1D6
100
AcDbEntity
8
1
62
256
6
ByLayer
370
13
48
1
60
0
100
AcDbSpline
70
4
71
3
72
8
73
4
40
0
40
0
40
0
40
0
40
1
40
1
40
1
40
1
41
1
10
54.9153946002934
20
-11.6868761273597
30
0
41
1
10
54.697717377525
20
-11.683437102719
30
0
41
1
10
54.4725311492447
20
-11.6876191163441
30
0
41
1
10
54.2503283337292
20
-11.7090139486585
30
0
0
SPLINE
5
1D7
100
AcDbEntity
8
1
62
256
6
ByLayer
370
13
48
1
60
0
100
AcDbSpline
70
4
71
3
72
10
73
6
40
0
40
0
40
0
40
0
40
0.89617120816834
40
0.89617120816834
40
1
40
1
40
1
40
1
41
1
10
54.925362821383
20
-11.7193542776097
30
0
41
1
10
54.9222770286767
20
-11.7097082473475
30
0
41
1
10
54.9192823050074
20
-11.6999890042615
30
0
41
1
10
54.9160596379683
20
-11.6891315582946
30
0
41
1
10
54.9157264345888
20
-11.6880039381229
30
0
41
1
10
54.9153946003016
20
-11.6868761273329
30
0
0
SPLINE
5
1D8
100
AcDbEntity
8
1
62
256
6
ByLayer
370
13
48
1
60
0
100
AcDbSpline
70
4
71
3
72
10
73
6
40
0
40
0
40
0
40
0
40
0.89617120816834
40
0.89617120816834
40
1
40
1
40
1
40
1
41
1
10
54.925362821383
20
-16.2806457223906
30
0
41
1
10
54.9222770286767
20
-16.2902917526528
30
0
41
1
10
54.9192823050138
20
-16.3000109957408
30
0
41
1
10
54.9160596379676
20
-16.3108684417055
30
0
41
1
10
54.9157264345888
20
-16.3119960618774
30
0
41
1
10
54.9153946003016
20
-16.3131238726674
30
0
0
SPLINE
5
1D9
100
AcDbEntity
8
1
62
256
6
ByLayer
370
13
48
1
60
0
100
AcDbSpline
70
4
71
3
72
8
73
4
40
0
40
0
40
0
40
0
40
1
40
1
40
1
40
1
41
1
10
54.9153946002934
20
-16.3131238726407
30
0
41
1
10
54.697717377525
20
-16.3165628972813
30
0
41
1
10
54.4725311492447
20
-16.3123808836563
30
0
41
1
10
54.2503283337292
20
-16.2909860513419
30
0
0
SPLINE
5
1DA
100
AcDbEntity
8
1
62
256
6
ByLayer
370
13
48
1
60
0
100
AcDbSpline
70
4
71
3
72
16
73
12
40
0
40
0
40
0
40
0
40
5.49005868016E-05
40
5.49005868016E-05
40
0.336585103415494
40
0.336585103415494
40
0.668681511902148
40
0.668681511902148
40
0.999945099413196
40
0.999945099413196
40
1
40
1
40
1
40
1
41
1
10
51.3669247822471
20
-14.9682795913759
30
0
41
1
10
51.3669408119081
20
-14.9682837229352
30
0
41
1
10
51.366956841698
20
-14.9682878543811
30
0
41
1
10
51.4652328833757
20
-14.9936183577031
30
0
41
1
10
51.5675280850692
20
-15.0204825619719
30
0
41
1
10
51.7779882219194
20
-15.0692777722507
30
0
41
1
10
51.886257138259
20
-15.0922957956621
30
0
41
1
10
52.1079208878317
20
-15.1344136345695
30
0
41
1
10
52.2217139156934
20
-15.153689945255
30
0
41
1
10
52.3374382286557
20
-15.1704190561138
30
0
41
1
10
52.3374574062944
20
-15.1704218282993
30
0
41
1
10
52.3374765839733
20
-15.1704246005474
30
0
0
SPLINE
5
1DB
100
AcDbEntity
8
1
62
256
6
ByLayer
370
13
48
1
60
0
100
AcDbSpline
70
4
71
3
72
16
73
12
40
0
40
0
40
0
40
0
40
5.49005868016E-05
40
5.49005868016E-05
40
0.336585103415494
40
0.336585103415494
40
0.668681511902148
40
0.668681511902148
40
0.999945099413196
40
0.999945099413196
40
1
40
1
40
1
40
1
41
1
10
51.3669247822471
20
-13.0317204086244
30
0
41
1
10
51.3669408119891
20
-13.0317162770277
30
0
41
1
10
51.366956841698
20
-13.0317121456193
30
0
41
1
10
51.4652328833757
20
-13.0063816422972
30
0
41
1
10
51.5675280850692
20
-12.9795174380285
30
0
41
1
10
51.7779882219194
20
-12.9307222277496
30
0
41
1
10
51.886257138259
20
-12.9077042043382
30
0
41
1
10
52.1079208878317
20
-12.8655863654308
30
0
41
1
10
52.2217139156934
20
-12.8463100547453
30
0
41
1
10
52.3374382286557
20
-12.8295809438865
30
0
41
1
10
52.3374574062985
20
-12.8295781715689
30
0
41
1
10
52.3374765839733
20
-12.8295753994529
30
0
0
SPLINE
5
1DC
100
AcDbEntity
8
1
62
256
6
ByLayer
370
13
48
1
60
0
100
AcDbSpline
70
4
71
3
72
14
73
10
40
0
40
0
40
0
40
0
40
7.60921707146E-05
40
7.60921707146E-05
40
0.558418932331044
40
0.558418932331044
40
0.8175350131134
40
0.8175350131134
40
1
40
1
40
1
40
1
41
1
10
51.3669247822471
20
-14.6675058932932
30
0
41
1
10
51.3669366680547
20
-14.6674921287831
30
0
41
1
10
51.3669485539511
20
-14.6674783642157
30
0
41
1
10
51.4541747516222
20
-14.5664625344065
30
0
41
1
10
51.5405797916591
20
-14.4562523165383
30
0
41
1
10
51.6376303062097
20
-14.272277567867
30
0
41
1
10
51.6639662281194
20
-14.2092982162643
30
0
41
1
10
51.6916718223723
20
-14.0968866355637
30
0
41
1
10
51.6980279769681
20
-14.0482283685777
30
0
41
1
10
51.6980229339399
20
-13.9999411265052
30
0
0
SPLINE
5
1DD
100
AcDbEntity
8
1
62
256
6
ByLayer
370
13
48
1
60
0
100
AcDbSpline
70
4
71
3
72
9
73
5
40
0
40
0
40
0
40
0
40
0.218499821058687
40
1
40
1
40
1
40
1
41
1
10
51.6980229630371
20
-14.0000588734905
30
0
41
1
10
51.7426172982934
20
-14.0000371050192
30
0
41
1
10
51.9467105329709
20
-13.9999374780667
30
0
41
1
10
52.1660571575862
20
-13.9999725731704
30
0
41
1
10
52.3374765839733
20
-14.0000000000002
30
0
0
SPLINE
5
1DE
100
AcDbEntity
8
1
62
256
6
ByLayer
370
13
48
1
60
0
100
AcDbSpline
70
4
71
3
72
10
73
6
40
0
40
0
40
0
40
0
40
0.895874350650011
40
0.895874350650011
40
1
40
1
40
1
40
1
41
1
10
54.946892979478
20
-16.3020640433175
30
0
41
1
10
54.9374084653759
20
-16.3053363592416
30
0
41
1
10
54.9279728812378
20
-16.3086436716689
30
0
41
1
10
54.9175592855549
20
-16.3123511047198
30
0
41
1
10
54.9164762547401
20
-16.312737389022
30
0
41
1
10
54.9153946002934
20
-16.3131238726407
30
0
0
SPLINE
5
1DF
100
AcDbEntity
8
1
62
256
6
ByLayer
370
13
48
1
60
0
100
AcDbSpline
70
4
71
3
72
14
73
10
40
0
40
0
40
0
40
0
40
0.229848554188354
40
0.229848554188354
40
0.556132982262946
40
0.556132982262946
40
0.999924050949996
40
0.999924050949996
40
1
40
1
40
1
40
1
41
1
10
51.6980229342489
20
-14.000058873495
30
0
41
1
10
51.6980289378502
20
-13.9395318351967
30
0
41
1
10
51.6878446757333
20
-13.8783975057395
30
0
41
1
10
51.645779309498
20
-13.7399979880253
30
0
41
1
10
51.6070246863406
20
-13.6641673606602
30
0
41
1
10
51.5048514875061
20
-13.4994648494384
30
0
41
1
10
51.4365503723758
20
-13.41313168506
30
0
41
1
10
51.3669485539979
20
-13.3325268081921
30
0
41
1
10
51.3669366680778
20
-13.3325130436546
30
0
41
1
10
51.3669247822471
20
-13.3324992791743
30
0
0
SPLINE
5
1E0
100
AcDbEntity
8
1
62
256
6
ByLayer
370
13
48
1
60
0
100
AcDbSpline
70
4
71
3
72
8
73
4
40
0
40
0
40
0
40
0
40
1
40
1
40
1
40
1
41
1
10
55.0339263771113
20
-16.2736602924261
30
0
41
1
10
55.0052140489626
20
-16.2825694180153
30
0
41
1
10
54.9756201129096
20
-16.2921527020281
30
0
41
1
10
54.9468929794711
20
-16.3020640433123
30
0
0
SPLINE
5
1E1
100
AcDbEntity
8
1
62
256
6
ByLayer
370
13
48
1
60
0
100
AcDbSpline
70
4
71
3
72
8
73
4
40
0
40
0
40
0
40
0
40
1
40
1
40
1
40
1
41
1
10
54.9253628213752
20
-16.2806457224131
30
0
41
1
10
54.9323891520222
20
-16.2877004841417
30
0
41
1
10
54.9395944839942
20
-16.2948683884326
30
0
41
1
10
54.9468929794578
20
-16.3020640433319
30
0
0
SPLINE
5
1E2
100
AcDbEntity
8
1
62
256
6
ByLayer
370
13
48
1
60
0
100
AcDbSpline
70
4
71
3
72
8
73
4
40
0
40
0
40
0
40
0
40
1
40
1
40
1
40
1
41
1
10
54.9566945046471
20
-16.1963215370959
30
0
41
1
10
54.9458379533937
20
-16.2230688264587
30
0
41
1
10
54.9351332338792
20
-16.2517145201059
30
0
41
1
10
54.9253628213693
20
-16.280645722431
30
0
0
SPLINE
5
1E3
100
AcDbEntity
8
1
62
256
6
ByLayer
370
13
48
1
60
0
100
AcDbSpline
70
4
71
3
72
8
73
4
40
0
40
0
40
0
40
0
40
1
40
1
40
1
40
1
41
1
10
54.9253628213752
20
-11.7193542775872
30
0
41
1
10
54.9323891520222
20
-11.7122995158586
30
0
41
1
10
54.9395944839942
20
-11.7051316115677
30
0
41
1
10
54.9468929794578
20
-11.6979359566685
30
0
0
SPLINE
5
1E4
100
AcDbEntity
8
1
62
256
6
ByLayer
370
13
48
1
60
0
100
AcDbSpline
70
4
71
3
72
8
73
4
40
0
40
0
40
0
40
0
40
1
40
1
40
1
40
1
41
1
10
55.0339263771113
20
-11.7263397075742
30
0
41
1
10
55.0052140489626
20
-11.7174305819851
30
0
41
1
10
54.9756201129096
20
-11.7078472979722
30
0
41
1
10
54.9468929794711
20
-11.697935956688
30
0
0
SPLINE
5
1E5
100
AcDbEntity
8
1
62
256
6
ByLayer
370
13
48
1
60
0
100
AcDbSpline
70
4
71
3
72
10
73
6
40
0
40
0
40
0
40
0
40
0.895874350650011
40
0.895874350650011
40
1
40
1
40
1
40
1
41
1
10
54.946892979478
20
-11.6979359566828
30
0
41
1
10
54.9374084653762
20
-11.6946636407579
30
0
41
1
10
54.9279728812378
20
-11.6913563283314
30
0
41
1
10
54.9175592855549
20
-11.6876488952805
30
0
41
1
10
54.9164762547401
20
-11.6872626109783
30
0
41
1
10
54.9153946002934
20
-11.6868761273597
30
0
0
SPLINE
5
1E6
100
AcDbEntity
8
1
62
256
6
ByLayer
370
13
48
1
60
0
100
AcDbSpline
70
4
71
3
72
8
73
4
40
0
40
0
40
0
40
0
40
1
40
1
40
1
40
1
41
1
10
55.0339263771113
20
-16.2736602924261
30
0
41
1
10
55.0086547498992
20
-16.2460908007288
30
0
41
1
10
54.981541415841
20
-16.2189399439387
30
0
41
1
10
54.956694504647
20
-16.1963215370959
30
0
0
SPLINE
5
1E7
100
AcDbEntity
8
1
62
256
6
ByLayer
370
13
48
1
60
0
100
AcDbSpline
70
4
71
3
72
8
73
4
40
0
40
0
40
0
40
0
40
1
40
1
40
1
40
1
41
1
10
55.0339263771113
20
-11.7263397075742
30
0
41
1
10
55.0086547498992
20
-11.7539091992715
30
0
41
1
10
54.981541415841
20
-11.7810600560616
30
0
41
1
10
54.956694504647
20
-11.8036784629044
30
0
0
SPLINE
5
1E8
100
AcDbEntity
8
1
62
256
6
ByLayer
370
13
48
1
60
0
100
AcDbSpline
70
4
71
3
72
8
73
4
40
0
40
0
40
0
40
0
40
1
40
1
40
1
40
1
41
1
10
54.9566945046471
20
-11.8036784629045
30
0
41
1
10
54.9458379533937
20
-11.7769311735416
30
0
41
1
10
54.9351332338792
20
-11.7482854798944
30
0
41
1
10
54.9253628213693
20
-11.7193542775694
30
0
0
SPLINE
5
1E9
100
AcDbEntity
8
1
62
256
6
ByLayer
370
13
48
1
60
0
100
AcDbSpline
70
4
71
3
72
8
73
4
40
0
40
0
40
0
40
0
40
1
40
1
40
1
40
1
41
1
10
51.3669247822471
20
-13.3324992791743
30
0
41
1
10
51.2902475749173
20
-13.2492403280873
30
0
41
1
10
51.2064991652653
20
-13.1753879616046
30
0
41
1
10
51.1197830934707
20
-13.1083987488165
30
0
0
SPLINE
5
1EA
100
AcDbEntity
8
1
62
256
6
ByLayer
370
13
48
1
60
0
100
AcDbSpline
70
4
71
3
72
10
73
6
40
0
40
0
40
0
40
0
40
0.212029667990108
40
0.212029667990108
40
1
40
1
40
1
40
1
41
1
10
55.0173132847031
20
-16.1019349695561
30
0
41
1
10
55.0120853000147
20
-16.1074607869206
30
0
41
1
10
55.0070085566655
20
-16.1132500010078
30
0
41
1
10
54.9841328082272
20
-16.1414947814591
30
0
41
1
10
54.9683535780446
20
-16.1675970736252
30
0
41
1
10
54.9566945046444
20
-16.1963215371025
30
0
0
SPLINE
5
1EB
100
AcDbEntity
8
1
62
256
6
ByLayer
370
13
48
1
60
0
100
AcDbSpline
70
4
71
3
72
8
73
4
40
0
40
0
40
0
40
0
40
1
40
1
40
1
40
1
41
1
10
51.1197884944382
20
-14.8916030604109
30
0
41
1
10
51.206502670773
20
-14.8246147405717
30
0
41
1
10
51.2902492034937
20
-14.7507634190366
30
0
41
1
10
51.3669247822471
20
-14.6675058932932
30
0
0
SPLINE
5
1EC
100
AcDbEntity
8
1
62
256
6
ByLayer
370
13
48
1
60
0
100
AcDbSpline
70
4
71
3
72
10
73
6
40
0
40
0
40
0
40
0
40
0.212029667990108
40
0.212029667990108
40
1
40
1
40
1
40
1
41
1
10
55.0173132847031
20
-11.8980650304442
30
0
41
1
10
55.0120853000147
20
-11.8925392130797
30
0
41
1
10
55.0070085566655
20
-11.8867499989925
30
0
41
1
10
54.9841328082272
20
-11.8585052185413
30
0
41
1
10
54.9683535780446
20
-11.8324029263751
30
0
41
1
10
54.9566945046444
20
-11.8036784628978
30
0
0
SPLINE
5
1ED
100
AcDbEntity
8
1
62
256
6
ByLayer
370
13
48
1
60
0
100
AcDbSpline
70
4
71
3
72
8
73
4
40
0
40
0
40
0
40
0
40
1
40
1
40
1
40
1
41
1
10
54.2503283337289
20
-11.7090139486587
30
0
41
1
10
54.1835441178317
20
-11.7148600256047
30
0
41
1
10
54.1169235608223
20
-11.7224900535505
30
0
41
1
10
54.0503283337288
20
-11.7301941521523
30
0
0
SPLINE
5
1EE
100
AcDbEntity
8
1
62
256
6
ByLayer
370
13
48
1
60
0
100
AcDbSpline
70
4
71
3
72
8
73
4
40
0
40
0
40
0
40
0
40
1
40
1
40
1
40
1
41
1
10
54.2503283337289
20
-16.2909860513417
30
0
41
1
10
54.1835441178317
20
-16.2851399743957
30
0
41
1
10
54.1169235608223
20
-16.2775099464498
30
0
41
1
10
54.0503283337288
20
-16.2698058478481
30
0
0
SPLINE
5
1EF
100
AcDbEntity
8
1
62
256
6
ByLayer
370
13
48
1
60
0
100
AcDbSpline
70
4
71
3
72
8
73
4
40
0
40
0
40
0
40
0
40
1
40
1
40
1
40
1
41
1
10
51.6980229342543
20
-14.0000588734963
30
0
41
1
10
51.6760364911965
20
-14.000055911906
30
0
41
1
10
51.6518945562378
20
-14.000052951256
30
0
41
1
10
51.6272346813302
20
-14.0000501923678
30
0
0
SPLINE
5
1F0
100
AcDbEntity
8
1
62
256
6
ByLayer
370
13
48
1
60
0
100
AcDbSpline
70
4
71
3
72
18
73
14
40
0
40
0
40
0
40
0
40
0.0002320476331928
40
0.0002320476331928
40
0.275512896583265
40
0.275512896583265
40
0.549548193740028
40
0.549548193740028
40
0.82034827856401
40
0.82034827856401
40
0.999767952367583
40
0.999767952367583
40
1
40
1
40
1
40
1
41
1
10
50.1377910536754
20
-14.1318857898188
30
0
41
1
10
50.1377925498608
20
-14.1319054729956
30
0
41
1
10
50.1377940487919
20
-14.1319251559146
30
0
41
1
10
50.1395675055204
20
-14.1552951321106
30
0
41
1
10
50.1376464564305
20
-14.1790126971795
30
0
41
1
10
50.1263048683292
20
-14.2232737046989
30
0
41
1
10
50.1167240237107
20
-14.2444876260326
30
0
41
1
10
50.0905946646274
20
-14.2810945642145
30
0
41
1
10
50.0736143144877
20
-14.2971245170752
30
0
41
1
10
50.0413022012
20
-14.3175217795747
30
0
41
1
10
50.0270618975269
20
-14.3241941351326
30
0
41
1
10
50.0123185892742
20
-14.329208392444
30
0
41
1
10
50.0122996878338
20
-14.3292148147913
30
0
41
1
10
50.0122807874301
20
-14.3292212401838
30
0
0
SPLINE
5
1F1
100
AcDbEntity
8
1
62
256
6
ByLayer
370
13
48
1
60
0
100
AcDbSpline
70
4
71
3
72
18
73
14
40
0
40
0
40
0
40
0
40
0.0002327629213411
40
0.0002327629213411
40
0.265137580931158
40
0.265137580931158
40
0.524413902056763
40
0.524413902056763
40
0.787810378106243
40
0.787810378106243
40
0.999767237013987
40
0.999767237013987
40
1
40
1
40
1
40
1
41
1
10
50.0122814923705
20
-13.6707787598165
30
0
41
1
10
50.0123003927768
20
-13.6707851852058
30
0
41
1
10
50.01231929422
20
-13.6707916075497
30
0
41
1
10
50.0338474313845
20
-13.6781134071157
30
0
41
1
10
50.0544076835731
20
-13.6891301204779
30
0
41
1
10
50.0885194976178
20
-13.7168242684108
30
0
41
1
10
50.1027610419417
20
-13.7337836680376
30
0
41
1
10
50.1240948543779
20
-13.7712926501459
30
0
41
1
10
50.1314625642355
20
-13.792449620505
30
0
41
1
10
50.1383402017235
20
-13.8317139818967
30
0
41
1
10
50.1391680311179
20
-13.84997264303
30
0
41
1
10
50.1377942663066
20
-13.8680748441284
30
0
41
1
10
50.1377927673128
20
-13.868094527026
30
0
41
1
10
50.1377912710647
20
-13.8681142101816
30
0
0
SPLINE
5
1F2
100
AcDbEntity
8
1
62
256
6
ByLayer
370
13
48
1
60
0
100
AcDbSpline
70
4
71
3
72
16
73
12
40
0
40
0
40
0
40
0
40
0.0003234024746366
40
0.0003234024746366
40
0.282080396684608
40
0.282080396684608
40
0.564087672846331
40
0.564087672846331
40
0.999676597525353
40
0.999676597525353
40
1
40
1
40
1
40
1
41
1
10
49.8367255532622
20
-13.5994230366013
30
0
41
1
10
49.8367431394735
20
-13.5994309433068
30
0
41
1
10
49.8367607255771
20
-13.5994388502313
30
0
41
1
10
49.8521000012653
20
-13.6063351424403
30
0
41
1
10
49.8675112434704
20
-13.613081205663
30
0
41
1
10
49.898512220556
20
-13.6262920547331
30
0
41
1
10
49.9141038103743
20
-13.6327573145996
30
0
41
1
10
49.9539732534558
20
-13.6488413323393
30
0
41
1
10
49.9783631576173
20
-13.6582623221147
30
0
41
1
10
50.0029367141856
20
-13.6673450810681
30
0
41
1
10
50.0029549466882
20
-13.6673518196211
30
0
41
1
10
50.0029731791045
20
-13.6673585583832
30
0
0
SPLINE
5
1F3
100
AcDbEntity
8
1
62
256
6
ByLayer
370
13
48
1
60
0
100
AcDbSpline
70
4
71
3
72
16
73
12
40
0
40
0
40
0
40
0
40
0.0003234009625968
40
0.0003234009625968
40
0.281891295778052
40
0.281891295778052
40
0.563857518034444
40
0.563857518034444
40
0.999676599037414
40
0.999676599037414
40
1
40
1
40
1
40
1
41
1
10
50.0029724776756
20
-14.3326414416171
30
0
41
1
10
50.0029542452634
20
-14.3326481803802
30
0
41
1
10
50.002936012765
20
-14.3326549189341
30
0
41
1
10
49.9870438796103
20
-14.338528894359
30
0
41
1
10
49.9712395823254
20
-14.3445401018704
30
0
41
1
10
49.9397607502033
20
-14.3568575957034
30
0
41
1
10
49.9240848014624
20
-14.3631649257526
30
0
41
1
10
49.8843882686508
20
-14.3795851087316
30
0
41
1
10
49.8604753514892
20
-14.3898991503669
30
0
41
1
10
49.8367601099428
20
-14.4005611497661
30
0
41
1
10
49.836742523848
20
-14.400569056692
30
0
41
1
10
49.8367249376456
20
-14.400576963399
30
0
0
SPLINE
5
1F4
100
AcDbEntity
8
1
62
256
6
ByLayer
370
13
48
1
60
0
100
AcDbSpline
70
4
71
3
72
10
73
6
40
0
40
0
40
0
40
0
40
0.584811321004001
40
0.584811321004001
40
1
40
1
40
1
40
1
41
1
10
55.8368218619209
20
-15.4537221481195
30
0
41
1
10
55.8810269207746
20
-15.4523448013552
30
0
41
1
10
55.9259128950398
20
-15.455519484823
30
0
41
1
10
55.9995471034015
20
-15.4741234474758
30
0
41
1
10
56.029716893482
20
-15.4860047696417
30
0
41
1
10
56.0568134307964
20
-15.5031258227715
30
0
0
SPLINE
5
1F5
100
AcDbEntity
8
1
62
256
6
ByLayer
370
13
48
1
60
0
100
AcDbSpline
70
4
71
3
72
10
73
6
40
0
40
0
40
0
40
0
40
0.584811321004001
40
0.584811321004001
40
1
40
1
40
1
40
1
41
1
10
55.8368218619209
20
-12.5462778518809
30
0
41
1
10
55.8810269207746
20
-12.5476551986452
30
0
41
1
10
55.9259128950398
20
-12.5444805151773
30
0
41
1
10
55.9995471034015
20
-12.5258765525246
30
0
41
1
10
56.029716893482
20
-12.5139952303586
30
0
41
1
10
56.0568134307964
20
-12.4968741772289
30
0
0
SPLINE
5
1F6
100
AcDbEntity
8
1
62
256
6
ByLayer
370
13
48
1
60
0
100
AcDbSpline
70
4
71
2
72
6
73
3
40
0
40
0
40
0
40
1
40
1
40
1
41
1
10
49.7378816481902
20
-13.4819516762822
30
0
41
0.916194302198624
10
49.7640201860671
20
-13.5645387164005
30
0
41
1
10
49.8367255532622
20
-13.5994230366013
30
0
0
SPLINE
5
1F7
100
AcDbEntity
8
1
62
256
6
ByLayer
370
13
48
1
60
0
100
AcDbSpline
70
4
71
2
72
6
73
3
40
0
40
0
40
0
40
1
40
1
40
1
41
1
10
49.8367249376455
20
-14.400576963399
30
0
41
0.916194302198624
10
49.7640195704505
20
-14.4354612835999
30
0
41
1
10
49.7378810325736
20
-14.5180483237182
30
0
0
SPLINE
5
1F8
100
AcDbEntity
8
1
62
256
6
ByLayer
370
13
48
1
60
0
100
AcDbSpline
70
4
71
3
72
8
73
4
40
0
40
0
40
0
40
0
40
1
40
1
40
1
40
1
41
1
10
56.0568134307955
20
-15.5031258227719
30
0
41
1
10
56.0662662605098
20
-15.5270170525457
30
0
41
1
10
56.0757537680902
20
-15.5511948686657
30
0
41
1
10
56.0861442519056
20
-15.5749867286376
30
0
0
SPLINE
5
1F9
100
AcDbEntity
8
1
62
256
6
ByLayer
370
13
48
1
60
0
100
AcDbSpline
70
4
71
3
72
8
73
4
40
0
40
0
40
0
40
0
40
1
40
1
40
1
40
1
41
1
10
50.0029731791045
20
-13.6673585583833
30
0
41
1
10
50.0060756280062
20
-13.6684987038842
30
0
41
1
10
50.0091783994475
20
-13.6696387711984
30
0
41
1
10
50.0122814923703
20
-13.6707787598166
30
0
0
SPLINE
5
1FA
100
AcDbEntity
8
1
62
256
6
ByLayer
370
13
48
1
60
0
100
AcDbSpline
70
4
71
3
72
8
73
4
40
0
40
0
40
0
40
0
40
1
40
1
40
1
40
1
41
1
10
50.0122807874301
20
-14.3292212401838
30
0
41
1
10
50.0091776956556
20
-14.3303612287971
30
0
41
1
10
50.0060749253843
20
-14.3315012961112
30
0
41
1
10
50.0029724776754
20
-14.332641441617
30
0
0
SPLINE
5
1FB
100
AcDbEntity
8
1
62
256
6
ByLayer
370
13
48
1
60
0
100
AcDbSpline
70
4
71
3
72
8
73
4
40
0
40
0
40
0
40
0
40
1
40
1
40
1
40
1
41
1
10
56.0568134307955
20
-12.4968741772285
30
0
41
1
10
56.0662662605098
20
-12.4729829474546
30
0
41
1
10
56.0757537680902
20
-12.4488051313347
30
0
41
1
10
56.0861442519056
20
-12.4250132713627
30
0
0
SPLINE
5
1FC
100
AcDbEntity
8
1
62
256
6
ByLayer
370
13
48
1
60
0
100
AcDbSpline
70
4
71
2
72
6
73
3
40
0
40
0
40
0
40
1
40
1
40
1
41
1
10
49.611857744737
20
-13.5994230366013
30
0
41
1
10
49.7242916489996
20
-13.5994230366013
30
0
41
1
10
49.8367255532622
20
-13.5994230366013
30
0
0
SPLINE
5
1FD
100
AcDbEntity
8
1
62
256
6
ByLayer
370
13
48
1
60
0
100
AcDbSpline
70
4
71
2
72
6
73
3
40
0
40
0
40
0
40
1
40
1
40
1
41
1
10
49.611857744737
20
-13.5994230366013
30
0
41
0.916194302198624
10
49.5391523775419
20
-13.5645387164005
30
0
41
1
10
49.5130138396651
20
-13.4819516762822
30
0
0
SPLINE
5
1FE
100
AcDbEntity
8
1
62
256
6
ByLayer
370
13
48
1
60
0
100
AcDbSpline
70
4
71
2
72
6
73
3
40
0
40
0
40
0
40
1
40
1
40
1
41
1
10
49.611857744737
20
-14.400576963399
30
0
41
0.916194302198624
10
49.5391523775419
20
-14.4354612835999
30
0
41
1
10
49.5130138396651
20
-14.5180483237182
30
0
0
SPLINE
5
1FF
100
AcDbEntity
8
1
62
256
6
ByLayer
370
13
48
1
60
0
100
AcDbSpline
70
4
71
2
72
6
73
3
40
0
40
0
40
0
40
1
40
1
40
1
41
1
10
49.611857744737
20
-14.400576963399
30
0
41
1
10
49.7242913411913
20
-14.400576963399
30
0
41
1
10
49.8367249376456
20
-14.400576963399
30
0
0
SPLINE
5
200
100
AcDbEntity
8
1
62
256
6
ByLayer
370
13
48
1
60
0
100
AcDbSpline
70
4
71
3
72
12
73
8
40
0
40
0
40
0
40
0
40
0.222210269969675
40
0.222210269969675
40
0.98789629981278
40
0.98789629981278
40
1
40
1
40
1
40
1
41
1
10
56.0901578641564
20
-12.4099774444526
30
0
41
1
10
56.0919568600706
20
-12.4056989352843
30
0
41
1
10
56.0937523269254
20
-12.4014173301111
30
0
41
1
10
56.1017141103185
20
-12.3823759144141
30
0
41
1
10
56.107837735982
20
-12.3675832167469
30
0
41
1
10
56.1139844674866
20
-12.3525449788039
30
0
41
1
10
56.1140801280616
20
-12.3523108814912
30
0
41
1
10
56.1141757733594
20
-12.3520767811424
30
0
0
SPLINE
5
201
100
AcDbEntity
8
1
62
256
6
ByLayer
370
13
48
1
60
0
100
AcDbSpline
70
4
71
3
72
12
73
8
40
0
40
0
40
0
40
0
40
0.222210270055733
40
0.222210270055733
40
0.987896300195374
40
0.987896300195374
40
1
40
1
40
1
40
1
41
1
10
56.0901578641564
20
-15.5900225555477
30
0
41
1
10
56.0919568600706
20
-15.594301064716
30
0
41
1
10
56.0937523269254
20
-15.5985826698892
30
0
41
1
10
56.1017141103185
20
-15.6176240855862
30
0
41
1
10
56.107837735982
20
-15.6324167832534
30
0
41
1
10
56.1139844674836
20
-15.6474550211891
30
0
41
1
10
56.1140801280882
20
-15.647689118487
30
0
41
1
10
56.1141757733937
20
-15.6479232188262
30
0
0
SPLINE
5
202
100
AcDbEntity
8
1
62
256
6
ByLayer
370
13
48
1
60
0
100
AcDbSpline
70
4
71
3
72
8
73
4
40
0
40
0
40
0
40
0
40
1
40
1
40
1
40
1
41
1
10
56.0861442519071
20
-12.4250132713633
30
0
41
1
10
56.0874998826557
20
-12.420005465486
30
0
41
1
10
56.0888312509389
20
-12.4149913719448
30
0
41
1
10
56.0901578641504
20
-12.409977444451
30
0
0
SPLINE
5
203
100
AcDbEntity
8
1
62
256
6
ByLayer
370
13
48
1
60
0
100
AcDbSpline
70
4
71
3
72
8
73
4
40
0
40
0
40
0
40
0
40
1
40
1
40
1
40
1
41
1
10
56.0861442519071
20
-15.574986728637
30
0
41
1
10
56.0874998826557
20
-15.5799945345143
30
0
41
1
10
56.0888312509389
20
-15.5850086280556
30
0
41
1
10
56.0901578641504
20
-15.5900225555493
30
0
0
SPLINE
5
204
100
AcDbEntity
8
1
62
256
6
ByLayer
370
13
48
1
60
0
100
AcDbSpline
70
4
71
3
72
8
73
4
40
0
40
0
40
0
40
0
40
1
40
1
40
1
40
1
41
1
10
55.2489345308896
20
-15.4692806355139
30
0
41
1
10
55.4449472934741
20
-15.4672924541465
30
0
41
1
10
55.6408821791391
20
-15.4598272613183
30
0
41
1
10
55.8368218619209
20
-15.4537221481195
30
0
0
SPLINE
5
205
100
AcDbEntity
8
1
62
256
6
ByLayer
370
13
48
1
60
0
100
AcDbSpline
70
4
71
3
72
8
73
4
40
0
40
0
40
0
40
0
40
1
40
1
40
1
40
1
41
1
10
55.2489345308896
20
-12.5307193644865
30
0
41
1
10
55.4449472934741
20
-12.5327075458539
30
0
41
1
10
55.6408821791391
20
-12.540172738682
30
0
41
1
10
55.8368218619209
20
-12.5462778518809
30
0
0
SPLINE
5
206
100
AcDbEntity
8
1
62
256
6
ByLayer
370
13
48
1
60
0
100
AcDbSpline
70
4
71
2
72
6
73
3
40
0
40
0
40
0
40
1
40
1
40
1
41
1
10
49.7661783035125
20
-13.6673585583833
30
0
41
1
10
49.8845757413085
20
-13.6673585583833
30
0
41
1
10
50.0029731791045
20
-13.6673585583833
30
0
0
SPLINE
5
207
100
AcDbEntity
8
1
62
256
6
ByLayer
370
13
48
1
60
0
100
AcDbSpline
70
4
71
2
72
6
73
3
40
0
40
0
40
0
40
1
40
1
40
1
41
1
10
49.7661783035125
20
-13.6673585583833
30
0
41
0.999533107184472
10
49.6880769618956
20
-13.6359933157897
30
0
41
1
10
49.611857744737
20
-13.5994230366013
30
0
0
SPLINE
5
208
100
AcDbEntity
8
1
62
256
6
ByLayer
370
13
48
1
60
0
100
AcDbSpline
70
4
71
2
72
6
73
3
40
0
40
0
40
0
40
1
40
1
40
1
41
1
10
49.7661783035125
20
-14.3326414416171
30
0
41
1
10
49.884575390594
20
-14.3326414416171
30
0
41
1
10
50.0029724776756
20
-14.3326414416171
30
0
0
SPLINE
5
209
100
AcDbEntity
8
1
62
256
6
ByLayer
370
13
48
1
60
0
100
AcDbSpline
70
4
71
2
72
6
73
3
40
0
40
0
40
0
40
1
40
1
40
1
41
1
10
49.7661783035125
20
-14.3326414416171
30
0
41
0.999533107184472
10
49.6880769618956
20
-14.3640066842106
30
0
41
1
10
49.611857744737
20
-14.400576963399
30
0
0
SPLINE
5
20A
100
AcDbEntity
8
1
62
256
6
ByLayer
370
13
48
1
60
0
100
AcDbSpline
70
4
71
2
72
6
73
3
40
0
40
0
40
0
40
1
40
1
40
1
41
0.987111961357511
10
49.477897839662
20
-14.5180483237181
30
0
41
0.992892304591548
10
49.4966927263437
20
-14.5180483237181
30
0
41
1
10
49.5130138396651
20
-14.5180483237182
30
0
0
SPLINE
5
20B
100
AcDbEntity
8
1
62
256
6
ByLayer
370
13
48
1
60
0
100
AcDbSpline
70
4
71
3
72
8
73
4
40
0
40
0
40
0
40
0
40
1
40
1
40
1
40
1
41
1
10
50.1377912710646
20
-13.8681142101816
30
0
41
1
10
50.1343763080653
20
-13.9556659708926
30
0
41
1
10
50.134376235774
20
-14.0443339974211
30
0
41
1
10
50.1377910536754
20
-14.1318857898188
30
0
0
SPLINE
5
20C
100
AcDbEntity
8
1
62
256
6
ByLayer
370
13
48
1
60
0
100
AcDbSpline
70
4
71
2
72
6
73
3
40
0
40
0
40
0
40
1
40
1
40
1
41
0.987111961357511
10
49.477897839662
20
-13.4819516762822
30
0
41
0.992892304591548
10
49.4966927263437
20
-13.4819516762822
30
0
41
1
10
49.5130138396651
20
-13.4819516762822
30
0
0
SPLINE
5
20D
100
AcDbEntity
8
1
62
256
6
ByLayer
370
13
48
1
60
0
100
AcDbSpline
70
4
71
2
72
6
73
3
40
0
40
0
40
0
40
1
40
1
40
1
41
1
10
49.8999245871505
20
-14.1318857898188
30
0
41
0.819152044288999
10
49.8999245871506
20
-14.2789293728428
30
0
41
1
10
49.7746948109089
20
-14.3292212401838
30
0
0
SPLINE
5
20E
100
AcDbEntity
8
1
62
256
6
ByLayer
370
13
48
1
60
0
100
AcDbSpline
70
4
71
2
72
6
73
3
40
0
40
0
40
0
40
1
40
1
40
1
41
1
10
49.8999245871505
20
-14.1318857898188
30
0
41
1
10
50.018857820413
20
-14.1318857898188
30
0
41
1
10
50.1377910536754
20
-14.1318857898188
30
0
0
SPLINE
5
20F
100
AcDbEntity
8
1
62
256
6
ByLayer
370
13
48
1
60
0
100
AcDbSpline
70
4
71
2
72
6
73
3
40
0
40
0
40
0
40
1
40
1
40
1
41
1
10
49.8999245871505
20
-13.8681142101816
30
0
41
1
10
50.0188579291076
20
-13.8681142101816
30
0
41
1
10
50.1377912710647
20
-13.8681142101816
30
0
0
SPLINE
5
210
100
AcDbEntity
8
1
62
256
6
ByLayer
370
13
48
1
60
0
100
AcDbSpline
70
4
71
2
72
6
73
3
40
0
40
0
40
0
40
1
40
1
40
1
41
1
10
49.8999245871505
20
-13.8681142101816
30
0
41
0.819152044288999
10
49.8999245871506
20
-13.7210706271575
30
0
41
1
10
49.7746948109089
20
-13.6707787598165
30
0
0
SPLINE
5
211
100
AcDbEntity
8
1
62
256
6
ByLayer
370
13
48
1
60
0
100
AcDbSpline
70
4
71
3
72
10
73
6
40
0
40
0
40
0
40
0
40
0.0277062621811719
40
0.0277062621811719
40
1
40
1
40
1
40
1
41
1
10
53.0876540913002
20
-15.2781275779167
30
0
41
1
10
53.0968575524337
20
-15.2796494631796
30
0
41
1
10
53.1060671033022
20
-15.2811349888623
30
0
41
1
10
53.4386369993408
20
-15.3334003030664
30
0
41
1
10
53.7632640632665
20
-15.3758216353821
30
0
41
1
10
54.0876540913002
20
-15.41954412065
30
0
0
SPLINE
5
212
100
AcDbEntity
8
1
62
256
6
ByLayer
370
13
48
1
60
0
100
AcDbSpline
70
4
71
3
72
10
73
6
40
0
40
0
40
0
40
0
40
0.0277062621811719
40
0.0277062621811719
40
1
40
1
40
1
40
1
41
1
10
53.0876540913002
20
-12.7218724220836
30
0
41
1
10
53.0968575524337
20
-12.7203505368207
30
0
41
1
10
53.1060671033022
20
-12.7188650111381
30
0
41
1
10
53.4386369993408
20
-12.6665996969339
30
0
41
1
10
53.7632640632665
20
-12.6241783646183
30
0
41
1
10
54.0876540913002
20
-12.5804558793503
30
0
0
SPLINE
5
213
100
AcDbEntity
8
1
62
256
6
ByLayer
370
13
48
1
60
0
100
AcDbSpline
70
4
71
2
72
6
73
3
40
0
40
0
40
0
40
1
40
1
40
1
41
1
10
49.7746948109089
20
-13.6707787598165
30
0
41
1
10
49.7704365572107
20
-13.6690686590999
30
0
41
1
10
49.7661783035125
20
-13.6673585583833
30
0
0
SPLINE
5
214
100
AcDbEntity
8
1
62
256
6
ByLayer
370
13
48
1
60
0
100
AcDbSpline
70
4
71
2
72
6
73
3
40
0
40
0
40
0
40
1
40
1
40
1
41
1
10
49.7746948109089
20
-14.3292212401838
30
0
41
1
10
49.7704365572107
20
-14.3309313409004
30
0
41
1
10
49.7661783035125
20
-14.3326414416171
30
0
0
SPLINE
5
215
100
AcDbEntity
8
1
62
256
6
ByLayer
370
13
48
1
60
0
100
AcDbSpline
70
4
71
2
72
6
73
3
40
0
40
0
40
0
40
1
40
1
40
1
41
1
10
49.8999245871505
20
-14.0000000000002
30
0
41
1
10
49.8999245871505
20
-14.0659428949095
30
0
41
1
10
49.8999245871505
20
-14.1318857898188
30
0
0
SPLINE
5
216
100
AcDbEntity
8
1
62
256
6
ByLayer
370
13
48
1
60
0
100
AcDbSpline
70
4
71
3
72
10
73
6
40
0
40
0
40
0
40
0
40
0.931419946954144
40
0.931419946954144
40
1
40
1
40
1
40
1
41
1
10
54.6333999999996
20
-15.4774279123978
30
0
41
1
10
54.829192531012
20
-15.4770722568485
30
0
41
1
10
55.0224438810408
20
-15.4714522037403
30
0
41
1
10
55.221612839851
20
-15.4695339045209
30
0
41
1
10
55.2352934636662
20
-15.4694056085545
30
0
41
1
10
55.2489345308896
20
-15.4692806355139
30
0
0
SPLINE
5
217
100
AcDbEntity
8
1
62
256
6
ByLayer
370
13
48
1
60
0
100
AcDbSpline
70
4
71
3
72
10
73
6
40
0
40
0
40
0
40
0
40
0.903960670209891
40
0.903960670209891
40
1
40
1
40
1
40
1
41
1
10
52.3374765839733
20
-15.1704246005474
30
0
41
1
10
52.5581936078565
20
-15.2022992743826
30
0
41
1
10
52.7869936844324
20
-15.2336279590553
30
0
41
1
10
53.0389664073005
20
-15.2708918117997
30
0
41
1
10
53.0633118712313
20
-15.2745048691437
30
0
41
1
10
53.0876540913002
20
-15.2781275779167
30
0
0
SPLINE
5
218
100
AcDbEntity
8
1
62
256
6
ByLayer
370
13
48
1
60
0
100
AcDbSpline
70
4
71
2
72
6
73
3
40
0
40
0
40
0
40
1
40
1
40
1
41
1
10
49.8999245871505
20
-14.0000000000002
30
0
41
1
10
49.8999245871505
20
-13.9340571050909
30
0
41
1
10
49.8999245871505
20
-13.8681142101816
30
0
0
SPLINE
5
219
100
AcDbEntity
8
1
62
256
6
ByLayer
370
13
48
1
60
0
100
AcDbSpline
70
4
71
3
72
10
73
6
40
0
40
0
40
0
40
0
40
0.903960670209891
40
0.903960670209891
40
1
40
1
40
1
40
1
41
1
10
52.3374765839733
20
-12.8295753994529
30
0
41
1
10
52.5581936078565
20
-12.7977007256177
30
0
41
1
10
52.7869936844324
20
-12.766372040945
30
0
41
1
10
53.0389664073005
20
-12.7291081882006
30
0
41
1
10
53.0633118712313
20
-12.7254951308566
30
0
41
1
10
53.0876540913002
20
-12.7218724220836
30
0
0
SPLINE
5
21A
100
AcDbEntity
8
1
62
256
6
ByLayer
370
13
48
1
60
0
100
AcDbSpline
70
4
71
3
72
10
73
6
40
0
40
0
40
0
40
0
40
0.931419946954144
40
0.931419946954144
40
1
40
1
40
1
40
1
41
1
10
54.6333999999996
20
-12.5225720876025
30
0
41
1
10
54.829192531012
20
-12.5229277431518
30
0
41
1
10
55.0224438810408
20
-12.5285477962601
30
0
41
1
10
55.221612839851
20
-12.5304660954794
30
0
41
1
10
55.2352934636662
20
-12.5305943914459
30
0
41
1
10
55.2489345308896
20
-12.5307193644865
30
0
0
SPLINE
5
21B
100
AcDbEntity
8
1
62
256
6
ByLayer
370
13
48
1
60
0
100
AcDbSpline
70
4
71
3
72
14
73
10
40
0
40
0
40
0
40
0
40
0.0002001723396691
40
0.0002001723396691
40
0.544817124375757
40
0.544817124375757
40
0.999799827660401
40
0.999799827660401
40
1
40
1
40
1
40
1
41
1
10
54.3374765839733
20
-12.5469452886512
30
0
41
1
10
54.3374963346728
20
-12.5469425758104
30
0
41
1
10
54.3375160854016
20
-12.5469398631496
30
0
41
1
10
54.3912642128687
20
-12.5395574926335
30
0
41
1
10
54.4449277968247
20
-12.5318903733606
30
0
41
1
10
54.5436159139307
20
-12.5241844611167
30
0
41
1
10
54.5885917417907
20
-12.5224922685873
30
0
41
1
10
54.6333606247572
20
-12.5225720165155
30
0
41
1
10
54.6333803124039
20
-12.5225720519406
30
0
41
1
10
54.6333999999996
20
-12.5225720876025
30
0
0
SPLINE
5
21C
100
AcDbEntity
8
1
62
256
6
ByLayer
370
13
48
1
60
0
100
AcDbSpline
70
4
71
3
72
14
73
10
40
0
40
0
40
0
40
0
40
0.0002001723396691
40
0.0002001723396691
40
0.544817124375757
40
0.544817124375757
40
0.999799827660401
40
0.999799827660401
40
1
40
1
40
1
40
1
41
1
10
54.3374765839733
20
-15.4530547113492
30
0
41
1
10
54.3374963346938
20
-15.4530574241099
30
0
41
1
10
54.3375160854016
20
-15.4530601368507
30
0
41
1
10
54.3912642128687
20
-15.4604425073669
30
0
41
1
10
54.4449277968247
20
-15.4681096266397
30
0
41
1
10
54.5436159139307
20
-15.4758155388836
30
0
41
1
10
54.5885917417907
20
-15.4775077314131
30
0
41
1
10
54.6333606247572
20
-15.4774279834849
30
0
41
1
10
54.6333803123955
20
-15.4774279477835
30
0
41
1
10
54.6333999999996
20
-15.4774279123978
30
0
0
SPLINE
5
21D
100
AcDbEntity
8
1
62
256
6
ByLayer
370
13
48
1
60
0
100
AcDbSpline
70
4
71
3
72
12
73
8
40
0
40
0
40
0
40
0
40
0.540730446954289
40
0.540730446954289
40
0.953322112631191
40
0.953322112631191
40
1
40
1
40
1
40
1
41
1
10
54.0876540913002
20
-15.41954412065
30
0
41
1
10
54.1327962912312
20
-15.4250397369407
30
0
41
1
10
54.1778474368246
20
-15.4313437231659
30
0
41
1
10
54.2572231581349
20
-15.4421143023016
30
0
41
1
10
54.2915596889683
20
-15.4467654265192
30
0
41
1
10
54.3297206583499
20
-15.4519903946808
30
0
41
1
10
54.3335989730809
20
-15.4525221617899
30
0
41
1
10
54.3374765839733
20
-15.4530547113492
30
0
0
SPLINE
5
21E
100
AcDbEntity
8
1
62
256
6
ByLayer
370
13
48
1
60
0
100
AcDbSpline
70
4
71
3
72
8
73
4
40
0
40
0
40
0
40
0
40
1
40
1
40
1
40
1
41
1
10
54.3374765839733
20
-14.0000000000002
30
0
41
1
10
54.4361177226488
20
-14.0000000000002
30
0
41
1
10
54.5347588613242
20
-14.0000000000002
30
0
41
1
10
54.6333999999996
20
-14.0000000000002
30
0
0
SPLINE
5
21F
100
AcDbEntity
8
1
62
256
6
ByLayer
370
13
48
1
60
0
100
AcDbSpline
70
4
71
3
72
12
73
8
40
0
40
0
40
0
40
0
40
0.540730446954289
40
0.540730446954289
40
0.953322112631191
40
0.953322112631191
40
1
40
1
40
1
40
1
41
1
10
54.0876540913002
20
-12.5804558793503
30
0
41
1
10
54.1327962912312
20
-12.5749602630597
30
0
41
1
10
54.1778474368246
20
-12.5686562768344
30
0
41
1
10
54.2572231581349
20
-12.5578856976987
30
0
41
1
10
54.2915596889683
20
-12.5532345734811
30
0
41
1
10
54.3297206583499
20
-12.5480096053195
30
0
41
1
10
54.3335989730809
20
-12.5474778382105
30
0
41
1
10
54.3374765839733
20
-12.5469452886512
30
0
0
SPLINE
5
220
100
AcDbEntity
8
1
62
256
6
ByLayer
370
13
48
1
60
0
100
AcDbSpline
70
4
71
2
72
6
73
3
40
0
40
0
40
0
40
1
40
1
40
1
41
0.979740007748092
10
49.5429087447435
20
-13.5994230366013
30
0
41
0.98796823820289
10
49.5812700636337
20
-13.5994230366013
30
0
41
1
10
49.611857744737
20
-13.5994230366013
30
0
0
SPLINE
5
221
100
AcDbEntity
8
1
62
256
6
ByLayer
370
13
48
1
60
0
100
AcDbSpline
70
4
71
2
72
6
73
3
40
0
40
0
40
0
40
1
40
1
40
1
41
0.981129398985801
10
49.6945653035103
20
-13.6673585583833
30
0
41
0.988964974990788
10
49.7341161407822
20
-13.6673585583833
30
0
41
1
10
49.7661783035125
20
-13.6673585583833
30
0
0
SPLINE
5
222
100
AcDbEntity
8
1
62
256
6
ByLayer
370
13
48
1
60
0
100
AcDbSpline
70
4
71
2
72
6
73
3
40
0
40
0
40
0
40
1
40
1
40
1
41
0.981171512288507
10
49.7027998109198
20
-13.6707787598165
30
0
41
0.988994613313479
10
49.7424975512053
20
-13.6707787598165
30
0
41
1
10
49.7746948109089
20
-13.6707787598165
30
0
0
SPLINE
5
223
100
AcDbEntity
8
1
62
256
6
ByLayer
370
13
48
1
60
0
100
AcDbSpline
70
4
71
2
72
6
73
3
40
0
40
0
40
0
40
1
40
1
40
1
41
0.980539451560468
10
49.5466067447426
20
-14.400576963399
30
0
41
0.988546313763223
10
49.5827567005612
20
-14.400576963399
30
0
41
1
10
49.611857744737
20
-14.400576963399
30
0
0
SPLINE
5
224
100
AcDbEntity
8
1
62
256
6
ByLayer
370
13
48
1
60
0
100
AcDbSpline
70
4
71
2
72
6
73
3
40
0
40
0
40
0
40
1
40
1
40
1
41
0.981129398985801
10
49.6945653035103
20
-14.3326414416171
30
0
41
0.988964974990788
10
49.7341161407822
20
-14.3326414416171
30
0
41
1
10
49.7661783035125
20
-14.3326414416171
30
0
0
SPLINE
5
225
100
AcDbEntity
8
1
62
256
6
ByLayer
370
13
48
1
60
0
100
AcDbSpline
70
4
71
2
72
6
73
3
40
0
40
0
40
0
40
1
40
1
40
1
41
0.980456323433262
10
49.8166485871527
20
-13.8681142101816
30
0
41
0.988486790464035
10
49.8628049885789
20
-13.8681142101816
30
0
41
1
10
49.8999245871505
20
-13.8681142101816
30
0
0
SPLINE
5
226
100
AcDbEntity
8
1
62
256
6
ByLayer
370
18
48
1
60
0
100
AcDbSpline
70
4
71
3
72
14
73
10
40
0
40
0
40
0
40
0
40
0.265115496676697
40
0.265115496676697
40
0.530351997484569
40
0.530351997484569
40
0.794743006633926
40
0.794743006633926
40
1
40
1
40
1
40
1
41
1
10
49.6173740012552
20
-14.3129013006588
30
0
41
1
10
49.6317169193661
20
-14.3071318596757
30
0
41
1
10
49.645179833678
20
-14.2989238404007
30
0
41
1
10
49.6680755035228
20
-14.2787602045225
30
0
41
1
10
49.6778170011511
20
-14.2665326223768
30
0
41
1
10
49.6923767387746
20
-14.2398373170175
30
0
41
1
10
49.6974136438579
20
-14.2250274128519
30
0
41
1
10
49.7019089221196
20
-14.1980914114722
30
0
41
1
10
49.702402593791
20
-14.1858839843496
30
0
41
1
10
49.7014419938812
20
-14.173823722474
30
0
0
SPLINE
5
227
100
AcDbEntity
8
1
62
256
6
ByLayer
370
18
48
1
60
0
100
AcDbSpline
70
4
71
3
72
12
73
8
40
0
40
0
40
0
40
0
40
0.332414864304035
40
0.332414864304035
40
0.66545076911611
40
0.66545076911611
40
1
40
1
40
1
40
1
41
1
10
49.4443703189266
20
-14.3830267960718
30
0
41
1
10
49.4357610250486
20
-14.3865442870585
30
0
41
1
10
49.4276959778891
20
-14.3914327538691
30
0
41
1
10
49.4140780410711
20
-14.4032905167089
30
0
41
1
10
49.4083556422074
20
-14.4104230597918
30
0
41
1
10
49.3999910382746
20
-14.4258197715406
30
0
41
1
10
49.3972463988573
20
-14.4342791407528
30
0
41
1
10
49.3959812253612
20
-14.4427761170023
30
0
0
SPLINE
5
228
100
AcDbEntity
8
1
62
256
6
ByLayer
370
18
48
1
60
0
100
AcDbSpline
70
4
71
3
72
12
73
8
40
0
40
0
40
0
40
0
40
0.341621324294061
40
0.341621324294061
40
0.684704153809027
40
0.684704153809027
40
1
40
1
40
1
40
1
41
1
10
49.3959812253621
20
-13.5572238829982
30
0
41
1
10
49.3972724269371
20
-13.5658956652873
30
0
41
1
10
49.4001073194713
20
-13.5745309814995
30
0
41
1
10
49.4088039737669
20
-13.5902564444747
30
0
41
1
10
49.4148057799651
20
-13.5975432484069
30
0
41
1
10
49.4285091122716
20
-13.6090601637123
30
0
41
1
10
49.4361922726717
20
-13.6136319073718
30
0
41
1
10
49.4443703189266
20
-13.6169732039286
30
0
0
SPLINE
5
229
100
AcDbEntity
8
1
62
256
6
ByLayer
370
18
48
1
60
0
100
AcDbSpline
70
4
71
3
72
14
73
10
40
0
40
0
40
0
40
0
40
0.27796482212783
40
0.27796482212783
40
0.556501573952999
40
0.556501573952999
40
0.827022564378601
40
0.827022564378601
40
1
40
1
40
1
40
1
41
1
10
49.7014419938801
20
-13.8261762775265
30
0
41
1
10
49.7027350105242
20
-13.809942547774
30
0
41
1
10
49.701365691138
20
-13.7933813056884
30
0
41
1
10
49.6932911623354
20
-13.7622725570883
30
0
41
1
10
49.6864501182782
20
-13.7472932769616
30
0
41
1
10
49.6683769848116
20
-13.7215296523844
30
0
41
1
10
49.6570148900931
20
-13.7102832137084
30
0
41
1
10
49.6358500249478
20
-13.6957171704782
30
0
41
1
10
49.6268131106968
20
-13.6908955825429
30
0
41
1
10
49.617374001256
20
-13.6870986993403
30
0
0
SPLINE
5
22A
100
AcDbEntity
8
1
62
256
6
ByLayer
370
18
48
1
60
0
100
AcDbSpline
70
4
71
3
72
8
73
4
40
0
40
0
40
0
40
0
40
1
40
1
40
1
40
1
41
1
10
54.9153946002934
20
-11.0320877227792
30
0
41
1
10
54.6981191907706
20
-11.0521165795284
30
0
41
1
10
54.4736522052208
20
-11.0703114958318
30
0
41
1
10
54.2503283337289
20
-11.0859806381508
30
0
0
SPLINE
5
22B
100
AcDbEntity
8
1
62
256
6
ByLayer
370
18
48
1
60
0
100
AcDbSpline
70
4
71
3
72
16
73
12
40
0
40
0
40
0
40
0
40
0.210113811526245
40
0.210113811526245
40
0.420118783208566
40
0.420118783208566
40
0.631580723999394
40
0.631580723999394
40
0.841940850168462
40
0.841940850168462
40
1
40
1
40
1
40
1
41
1
10
56.1181883949484
20
-11.3963289060306
30
0
41
1
10
56.1183811057614
20
-11.3504111395831
30
0
41
1
10
56.1106828860951
20
-11.3038814044264
30
0
41
1
10
56.0810175295506
20
-11.2173205012967
30
0
41
1
10
56.0586524466941
20
-11.1760868343301
30
0
41
1
10
56.0023452222277
20
-11.1041915749974
30
0
41
1
10
55.9675337554998
20
-11.0726018952037
30
0
41
1
10
55.8906933730096
20
-11.0239479426127
30
0
41
1
10
55.8476115713389
20
-11.006131759319
30
0
41
1
10
55.7699754222228
20
-10.9891231368732
30
0
41
1
10
55.7352698383443
20
-10.9862582678379
30
0
41
1
10
55.701067066091
20
-10.9880739538818
30
0
0
SPLINE
5
22C
100
AcDbEntity
8
1
62
256
6
ByLayer
370
18
48
1
60
0
100
AcDbSpline
70
4
71
3
72
16
73
12
40
0
40
0
40
0
40
0
40
0.203997306331301
40
0.203997306331301
40
0.407770646706819
40
0.407770646706819
40
0.614879615558065
40
0.614879615558065
40
0.825469896972415
40
0.825469896972415
40
1
40
1
40
1
40
1
41
1
10
55.701067066091
20
-17.0119260461186
30
0
41
1
10
55.7449543430124
20
-17.0142558431192
30
0
41
1
10
55.7897963448997
20
-17.0088012295908
30
0
41
1
10
55.8738887275442
20
-16.9835605815366
30
0
41
1
10
55.9142968948307
20
-16.9634584594374
30
0
41
1
10
55.9860906259506
20
-16.9113463394796
30
0
41
1
10
56.0183027145375
20
-16.8784438296087
30
0
41
1
10
56.0701418734153
20
-16.8041445024616
30
0
41
1
10
56.090268760226
20
-16.761585921972
30
0
41
1
10
56.1130626476426
20
-16.680637065644
30
0
41
1
10
56.1183491523361
20
-16.6419752247188
30
0
41
1
10
56.1181883949484
20
-16.6036710939698
30
0
0
SPLINE
5
22D
100
AcDbEntity
8
1
62
256
6
ByLayer
370
18
48
1
60
0
100
AcDbSpline
70
4
71
3
72
8
73
4
40
0
40
0
40
0
40
0
40
1
40
1
40
1
40
1
41
1
10
56.1141757795247
20
-12.3520767837239
30
0
41
1
10
56.1141814186843
20
-12.3506978500308
30
0
41
1
10
56.1141875522351
20
-12.3493190464764
30
0
41
1
10
56.1141941807425
20
-12.3479404091267
30
0
0
SPLINE
5
22E
100
AcDbEntity
8
1
62
256
6
ByLayer
370
18
48
1
60
0
100
AcDbSpline
70
4
71
3
72
8
73
4
40
0
40
0
40
0
40
0
40
1
40
1
40
1
40
1
41
1
10
52.1855378217008
20
-11.1787330259321
30
0
41
1
10
52.156948090526
20
-11.1789956465901
30
0
41
1
10
52.1284834853094
20
-11.1822112340917
30
0
41
1
10
52.1007975798562
20
-11.1883544680767
30
0
0
SPLINE
5
22F
100
AcDbEntity
8
1
62
256
6
ByLayer
370
18
48
1
60
0
100
AcDbSpline
70
4
71
3
72
8
73
4
40
0
40
0
40
0
40
0
40
1
40
1
40
1
40
1
41
1
10
56.1141941807464
20
-15.6520595908741
30
0
41
1
10
56.1141875522401
20
-15.6506809535247
30
0
41
1
10
56.1141814186848
20
-15.6493021499712
30
0
41
1
10
56.1141757795252
20
-15.6479232162787
30
0
0
SPLINE
5
230
100
AcDbEntity
8
1
62
256
6
ByLayer
370
18
48
1
60
0
100
AcDbSpline
70
4
71
3
72
10
73
6
40
0
40
0
40
0
40
0
40
0.858584777727605
40
0.858584777727605
40
1
40
1
40
1
40
1
41
1
10
52.100797579857
20
-16.8116455319387
30
0
41
1
10
52.0764920283409
20
-16.8062523657176
30
0
41
1
10
52.0498654859779
20
-16.7971968080427
30
0
41
1
10
52.0200021283403
20
-16.7824067376347
30
0
41
1
10
52.0157325632759
20
-16.7801823804978
30
0
41
1
10
52.0114914368443
20
-16.7778600586629
30
0
0
SPLINE
5
231
100
AcDbEntity
8
1
62
256
6
ByLayer
370
18
48
1
60
0
100
AcDbSpline
70
4
71
3
72
8
73
4
40
0
40
0
40
0
40
0
40
1
40
1
40
1
40
1
41
1
10
54.2503283337289
20
-16.9140193618497
30
0
41
1
10
54.4736522052207
20
-16.9296885041686
30
0
41
1
10
54.6981191907705
20
-16.9478834204719
30
0
41
1
10
54.9153946002934
20
-16.9679122772211
30
0
0
SPLINE
5
232
100
AcDbEntity
8
1
62
256
6
ByLayer
370
18
48
1
60
0
100
AcDbSpline
70
4
71
3
72
14
73
10
40
0
40
0
40
0
40
0
40
0.293378665300578
40
0.293378665300578
40
0.586642161239459
40
0.586642161239459
40
0.825678920142814
40
0.825678920142814
40
1
40
1
40
1
40
1
41
1
10
54.0503283337288
20
-11.1000133004131
30
0
41
1
10
53.85861612092
20
-11.1134644640828
30
0
41
1
10
53.6661015625547
20
-11.1254357397851
30
0
41
1
10
53.2874307193597
20
-11.1459117265744
30
0
41
1
10
53.0999785946319
20
-11.1544876234616
30
0
41
1
10
52.7699337849079
20
-11.1667180648621
30
0
41
1
10
52.62466992129
20
-11.171018485962
30
0
41
1
10
52.3821871535134
20
-11.1762836880276
30
0
41
1
10
52.2823041313841
20
-11.177844146223
30
0
41
1
10
52.1855378217008
20
-11.178733025932
30
0
0
SPLINE
5
233
100
AcDbEntity
8
1
62
256
6
ByLayer
370
18
48
1
60
0
100
AcDbSpline
70
4
71
3
72
8
73
4
40
0
40
0
40
0
40
0
40
1
40
1
40
1
40
1
41
1
10
52.1007975798562
20
-16.8116455319236
30
0
41
1
10
52.1284834853094
20
-16.8177887659086
30
0
41
1
10
52.1569480905262
20
-16.8210043534103
30
0
41
1
10
52.1855378217009
20
-16.8212669740684
30
0
0
SPLINE
5
234
100
AcDbEntity
8
1
62
256
6
ByLayer
370
18
48
1
60
0
100
AcDbSpline
70
4
71
3
72
8
73
4
40
0
40
0
40
0
40
0
40
1
40
1
40
1
40
1
41
1
10
51.9291478209051
20
-11.268478471463
30
0
41
1
10
51.9566018986563
20
-11.252627852283
30
0
41
1
10
51.9844227095989
20
-11.2369620168734
30
0
41
1
10
52.0114914368443
20
-11.2221399413374
30
0
0
SPLINE
5
235
100
AcDbEntity
8
1
62
256
6
ByLayer
370
18
48
1
60
0
100
AcDbSpline
70
4
71
2
72
6
73
3
40
0
40
0
40
0
40
1
40
1
40
1
41
1
10
49.1515938966105
20
-11.3000000000001
30
0
41
1
10
49.186884628061
20
-11.3000000000001
30
0
41
1
10
49.2642724427432
20
-11.3000000000001
30
0
0
SPLINE
5
236
100
AcDbEntity
8
1
62
256
6
ByLayer
370
18
48
1
60
0
100
AcDbSpline
70
4
71
3
72
10
73
6
40
0
40
0
40
0
40
0
40
0.557511536136653
40
0.557511536136653
40
1
40
1
40
1
40
1
41
1
10
52.0114914368444
20
-16.7778600586629
30
0
41
1
10
51.9964230005819
20
-16.769609005761
30
0
41
1
10
51.9811432425147
20
-16.7611090469854
30
0
41
1
10
51.9536304309043
20
-16.7455785930628
30
0
41
1
10
51.9413642960355
20
-16.7385747137424
30
0
41
1
10
51.9291478209051
20
-16.7315215285373
30
0
0
SPLINE
5
237
100
AcDbEntity
8
1
62
256
6
ByLayer
370
18
48
1
60
0
100
AcDbSpline
70
4
71
3
72
8
73
4
40
0
40
0
40
0
40
0
40
1
40
1
40
1
40
1
41
1
10
56.1142004601804
20
-12.3465457329527
30
0
41
1
10
56.114198508842
20
-12.3470106840504
30
0
41
1
10
56.1141964155789
20
-12.3474755965023
30
0
41
1
10
56.1141941804905
20
-12.3479404615812
30
0
0
SPLINE
5
238
100
AcDbEntity
8
1
62
256
6
ByLayer
370
18
48
1
60
0
100
AcDbSpline
70
4
71
3
72
10
73
6
40
0
40
0
40
0
40
0
40
0.858760852437928
40
0.858760852437928
40
1
40
1
40
1
40
1
41
1
10
52.0114914368443
20
-11.2221399413374
30
0
41
1
10
52.036819976403
20
-11.208270743752
30
0
41
1
10
52.0635844354107
20
-11.1978927236396
30
0
41
1
10
52.0926100445457
20
-11.1902538056159
30
0
41
1
10
52.0967306919769
20
-11.1892568710657
30
0
41
1
10
52.1007975798595
20
-11.188354468076
30
0
0
SPLINE
5
239
100
AcDbEntity
8
1
62
256
6
ByLayer
370
18
48
1
60
0
100
AcDbSpline
70
4
71
3
72
12
73
8
40
0
40
0
40
0
40
0
40
0.223236979427623
40
0.223236979427623
40
0.515421340440797
40
0.515421340440797
40
1
40
1
40
1
40
1
41
1
10
52.1855378217009
20
-16.8212669740684
30
0
41
1
10
52.3096058834707
20
-16.8224066432672
30
0
41
1
10
52.4388600298709
20
-16.8246525888968
30
0
41
1
10
52.7456292652911
20
-16.832328732067
30
0
41
1
10
52.9268003102594
20
-16.8385594672861
30
0
41
1
10
53.4160442687766
20
-16.8596931726609
30
0
41
1
10
53.7348419682613
20
-16.8778511315115
30
0
41
1
10
54.050328333728
20
-16.8999866995865
30
0
0
SPLINE
5
23A
100
AcDbEntity
8
1
62
256
6
ByLayer
370
18
48
1
60
0
100
AcDbSpline
70
4
71
3
72
8
73
4
40
0
40
0
40
0
40
0
40
1
40
1
40
1
40
1
41
1
10
56.1141941804905
20
-15.65205953841
30
0
41
1
10
56.1141964155789
20
-15.6525244034919
30
0
41
1
10
56.1141985088419
20
-15.6529893159469
30
0
41
1
10
56.1142004601804
20
-15.6534542670476
30
0
0
SPLINE
5
23B
100
AcDbEntity
8
1
62
256
6
ByLayer
370
18
48
1
60
0
100
AcDbSpline
70
4
71
2
72
6
73
3
40
0
40
0
40
0
40
1
40
1
40
1
41
1
10
49.2642724427432
20
-16.7000000000002
30
0
41
1
10
49.186884628061
20
-16.7000000000002
30
0
41
1
10
49.1515938966105
20
-16.7000000000002
30
0
0
LINE
5
70
100
AcDbEntity
8
80
62
256
6
ByLayer
370
18
48
1
60
0
100
AcDbLine
10
0
20
0
30
0
11
-5
21
0
31
0
39
0
210
0
220
0
230
1
0
LINE
5
71
100
AcDbEntity
8
81
62
256
6
ByLayer
370
18
48
1
60
0
100
AcDbLine
10
56.1139
20
-17
30
0
11
61.1139
21
-17
31
0
39
0
210
0
220
0
230
1
0
LINE
5
72
100
AcDbEntity
8
1
62
256
6
ByLayer
370
13
48
1
60
0
100
AcDbLine
10
0.317745
20
-16.675
30
0
11
0.317745
21
16.005174
31
0
39
0
210
0
220
0
230
1
0
LINE
5
74
100
AcDbEntity
8
1
62
256
6
ByLayer
370
13
48
1
60
0
100
AcDbLine
10
30.5139
20
-16.675
30
0
11
30.5139
21
-11.325
31
0
39
0
210
0
220
0
230
1
0
LINE
5
75
100
AcDbEntity
8
1
62
256
6
ByLayer
370
13
48
1
60
0
100
AcDbLine
10
39.503075
20
-11.325
30
0
11
39.503075
21
-16.675
31
0
39
0
210
0
220
0
230
1
0
LINE
5
76
100
AcDbEntity
8
1
62
256
6
ByLayer
370
13
48
1
60
0
100
AcDbLine
10
44.503075
20
-16.675
30
0
11
44.503075
21
-11.325
31
0
39
0
210
0
220
0
230
1
0
LINE
5
77
100
AcDbEntity
8
SK1
62
256
6
ByLayer
370
13
48
1
60
0
100
AcDbLine
10
-1.227736
20
16
30
0
11
-1.227736
21
-15.85
31
0
39
0
210
0
220
0
230
1
0
LINE
5
79
100
AcDbEntity
8
SK1
62
256
6
ByLayer
370
18
48
1
60
0
100
AcDbLine
10
-113.8861
20
-15.85
30
0
11
-1.227736
21
-15.85
31
0
39
0
210
0
220
0
230
1
0
LINE
5
7A
100
AcDbEntity
8
SK1
62
256
6
ByLayer
370
18
48
1
60
0
100
AcDbLine
10
-0.1
20
-16.315006
30
0
11
-0.1
21
16.002029
31
0
39
0
210
0
220
0
230
1
0
LINE
5
7B
100
AcDbEntity
8
SK1
62
256
6
ByLayer
370
18
48
1
60
0
100
AcDbLine
10
-113.8861
20
-15.85
30
0
11
-113.8861
21
16
31
0
39
0
210
0
220
0
230
1
0
LINE
5
7C
100
AcDbEntity
8
SK1
62
256
6
ByLayer
370
18
48
1
60
0
100
AcDbLine
10
-113.8861
20
16
30
0
11
-1.227736
21
16
31
0
39
0
210
0
220
0
230
1
0
LINE
5
7D
100
AcDbEntity
8
1
62
256
6
ByLayer
370
18
48
1
60
0
100
AcDbLine
10
-0.1
20
-16.315006
30
0
11
-0.1
21
16.002029
31
0
39
0
210
0
220
0
230
1
0
LINE
5
7E
100
AcDbEntity
8
1
62
256
6
ByLayer
370
18
48
1
60
0
100
AcDbLine
10
44.503075
20
-16.675
30
0
11
48.841678
21
-16.675
31
0
39
0
210
0
220
0
230
1
0
LINE
5
7F
100
AcDbEntity
8
1
62
256
6
ByLayer
370
18
48
1
60
0
100
AcDbLine
10
39.503075
20
-11.325
30
0
11
44.503075
21
-11.325
31
0
39
0
210
0
220
0
230
1
0
LINE
5
80
100
AcDbEntity
8
1
62
256
6
ByLayer
370
18
48
1
60
0
100
AcDbLine
10
1.5139
20
-16.675
30
0
11
1.5139
21
16.024653
31
0
39
0
210
0
220
0
230
1
0
LINE
5
81
100
AcDbEntity
8
1
62
256
6
ByLayer
370
18
48
1
60
0
100
AcDbLine
10
30.5139
20
-16.675
30
0
11
25.5139
21
-16.675
31
0
39
0
210
0
220
0
230
1
0
LINE
5
82
100
AcDbEntity
8
1
62
256
6
ByLayer
370
18
48
1
60
0
100
AcDbLine
10
49.4034
20
-14.824704
30
0
11
48.841678
21
-16.675
31
0
39
0
210
0
220
0
230
1
0
LINE
5
83
100
AcDbEntity
8
1
62
256
6
ByLayer
370
18
48
1
60
0
100
AcDbLine
10
44.503075
20
-11.325
30
0
11
48.841678
21
-11.325
31
0
39
0
210
0
220
0
230
1
0
LINE
5
84
100
AcDbEntity
8
1
62
256
6
ByLayer
370
18
48
1
60
0
100
AcDbLine
10
39.503075
20
-16.675
30
0
11
30.5139
21
-16.675
31
0
39
0
210
0
220
0
230
1
0
LINE
5
85
100
AcDbEntity
8
1
62
256
6
ByLayer
370
18
48
1
60
0
100
AcDbLine
10
25.5139
20
-11.325
30
0
11
23.1139
21
-11.325
31
0
39
0
210
0
220
0
230
1
0
LINE
5
86
100
AcDbEntity
8
1
62
256
6
ByLayer
370
18
48
1
60
0
100
AcDbLine
10
25.5139
20
-11.325
30
0
11
25.5139
21
-16.675
31
0
39
0
210
0
220
0
230
1
0
LINE
5
87
100
AcDbEntity
8
1
62
256
6
ByLayer
370
18
48
1
60
0
100
AcDbLine
10
0.172041
20
-16.675
30
0
11
0.317745
21
-16.675
31
0
39
0
210
0
220
0
230
1
0
LINE
5
88
100
AcDbEntity
8
1
62
256
6
ByLayer
370
18
48
1
60
0
100
AcDbLine
10
0.317745
20
16.005174
30
0
11
1.5139
21
16.024653
31
0
39
0
210
0
220
0
230
1
0
LINE
5
89
100
AcDbEntity
8
1
62
256
6
ByLayer
370
18
48
1
60
0
100
AcDbLine
10
48.841678
20
-11.325
30
0
11
49.4034
21
-13.175296
31
0
39
0
210
0
220
0
230
1
0
LINE
5
8A
100
AcDbEntity
8
1
62
256
6
ByLayer
370
18
48
1
60
0
100
AcDbLine
10
0.317745
20
-16.675
30
0
11
1.5139
21
-16.675
31
0
39
0
210
0
220
0
230
1
0
LINE
5
8B
100
AcDbEntity
8
1
62
256
6
ByLayer
370
18
48
1
60
0
100
AcDbLine
10
2.4876
20
16.024653
30
0
11
1.5139
21
16.024653
31
0
39
0
210
0
220
0
230
1
0
LINE
5
8C
100
AcDbEntity
8
1
62
256
6
ByLayer
370
18
48
1
60
0
100
AcDbLine
10
39.503075
20
-16.675
30
0
11
44.503075
21
-16.675
31
0
39
0
210
0
220
0
230
1
0
LINE
5
8D
100
AcDbEntity
8
1
62
256
6
ByLayer
370
18
48
1
60
0
100
AcDbLine
10
30.5139
20
-11.325
30
0
11
39.503075
21
-11.325
31
0
39
0
210
0
220
0
230
1
0
LINE
5
8E
100
AcDbEntity
8
1
62
256
6
ByLayer
370
18
48
1
60
0
100
AcDbLine
10
25.5139
20
-16.675
30
0
11
1.5139
21
-16.675
31
0
39
0
210
0
220
0
230
1
0
LINE
5
8F
100
AcDbEntity
8
1
62
256
6
ByLayer
370
18
48
1
60
0
100
AcDbLine
10
21.5139
20
-1.81
30
0
11
2.4876
21
16.024653
31
0
39
0
210
0
220
0
230
1
0
LINE
5
90
100
AcDbEntity
8
1
62
256
6
ByLayer
370
18
48
1
60
0
100
AcDbLine
10
21.5139
20
-9.725
30
0
11
21.5139
21
-1.81
31
0
39
0
210
0
220
0
230
1
0
LINE
5
91
100
AcDbEntity
8
1
62
256
6
ByLayer
370
18
48
1
60
0
100
AcDbLine
10
30.5139
20
-11.325
30
0
11
25.5139
21
-11.325
31
0
39
0
210
0
220
0
230
1
0
LINE
5
92
100
AcDbEntity
8
1
62
256
6
ByLayer
370
13
48
1
60
0
100
AcDbLine
10
44.675616
20
-16.7
30
0
11
44.675616
21
-16.675
31
0
39
0
210
0
220
0
230
1
0
LINE
5
93
100
AcDbEntity
8
1
62
256
6
ByLayer
370
13
48
1
60
0
100
AcDbLine
10
44.675616
20
-11.325
30
0
11
44.675616
21
-11.3
31
0
39
0
210
0
220
0
230
1
0
LINE
5
94
100
AcDbEntity
8
1
62
256
6
ByLayer
370
13
48
1
60
0
100
AcDbLine
10
44.602598
20
-16.674999
30
0
11
44.602598
21
-16.7
31
0
39
0
210
0
220
0
230
1
0
LINE
5
95
100
AcDbEntity
8
1
62
256
6
ByLayer
370
13
48
1
60
0
100
AcDbLine
10
39.503075
20
-11.325
30
0
11
39.503075
21
-16.675
31
0
39
0
210
0
220
0
230
1
0
LINE
5
96
100
AcDbEntity
8
1
62
256
6
ByLayer
370
13
48
1
60
0
100
AcDbLine
10
0.317745
20
-16.675
30
0
11
0.317745
21
16.005174
31
0
39
0
210
0
220
0
230
1
0
LINE
5
97
100
AcDbEntity
8
1
62
256
6
ByLayer
370
13
48
1
60
0
100
AcDbLine
10
30.5139
20
-16.675
30
0
11
30.5139
21
-11.325
31
0
39
0
210
0
220
0
230
1
0
LINE
5
98
100
AcDbEntity
8
1
62
256
6
ByLayer
370
13
48
1
60
0
100
AcDbLine
10
44.503075
20
-16.675
30
0
11
44.503075
21
-11.325
31
0
39
0
210
0
220
0
230
1
0
LINE
5
99
100
AcDbEntity
8
1
62
256
6
ByLayer
370
13
48
1
60
0
100
AcDbLine
10
-1.227736
20
16
30
0
11
-1.227736
21
-15.85
31
0
39
0
210
0
220
0
230
1
0
LINE
5
9A
100
AcDbEntity
8
1
62
256
6
ByLayer
370
13
48
1
60
0
100
AcDbLine
10
50.060501
20
-16.7
30
0
11
50.060501
21
-15.374722
31
0
39
0
210
0
220
0
230
1
0
LINE
5
9B
100
AcDbEntity
8
1
62
256
6
ByLayer
370
13
48
1
60
0
100
AcDbLine
10
50.060501
20
-12.625282
30
0
11
50.060501
21
-11.3
31
0
39
0
210
0
220
0
230
1
0
LINE
5
9C
100
AcDbEntity
8
1
62
256
6
ByLayer
370
13
48
1
60
0
100
AcDbLine
10
51.903528
20
-11.766445
30
0
11
52.007229
21
-11.986527
31
0
39
0
210
0
220
0
230
1
0
LINE
5
9D
100
AcDbEntity
8
1
62
256
6
ByLayer
370
13
48
1
60
0
100
AcDbLine
10
51.903528
20
-16.233555
30
0
11
52.007229
21
-16.013473
31
0
39
0
210
0
220
0
230
1
0
LINE
5
9E
100
AcDbEntity
8
1
62
256
6
ByLayer
370
13
48
1
60
0
100
AcDbLine
10
54.050328
20
-16.269806
30
0
11
54.050328
21
-16.899987
31
0
39
0
210
0
220
0
230
1
0
LINE
5
9F
100
AcDbEntity
8
1
62
256
6
ByLayer
370
13
48
1
60
0
100
AcDbLine
10
54.050328
20
-11.730194
30
0
11
54.050328
21
-11.100013
31
0
39
0
210
0
220
0
230
1
0
LINE
5
A0
100
AcDbEntity
8
1
62
256
6
ByLayer
370
13
48
1
60
0
100
AcDbLine
10
50.060501
20
-15.374722
30
0
11
50.055954
21
-15.20094
31
0
39
0
210
0
220
0
230
1
0
LINE
5
A1
100
AcDbEntity
8
1
62
256
6
ByLayer
370
13
48
1
60
0
100
AcDbLine
10
50.655074
20
-15.351802
30
0
11
50.645842
21
-15.170107
31
0
39
0
210
0
220
0
230
1
0
LINE
5
A2
100
AcDbEntity
8
1
62
256
6
ByLayer
370
13
48
1
60
0
100
AcDbLine
10
50.055953
20
-12.799064
30
0
11
50.060501
21
-12.625282
31
0
39
0
210
0
220
0
230
1
0
LINE
5
A3
100
AcDbEntity
8
1
62
256
6
ByLayer
370
13
48
1
60
0
100
AcDbLine
10
50.645836
20
-12.829899
30
0
11
50.655068
21
-12.648204
31
0
39
0
210
0
220
0
230
1
0
LINE
5
A4
100
AcDbEntity
8
1
62
256
6
ByLayer
370
13
48
1
60
0
100
AcDbLine
10
49.151603
20
-16.559154
30
0
11
49.151603
21
-16.7
31
0
39
0
210
0
220
0
230
1
0
LINE
5
A5
100
AcDbEntity
8
1
62
256
6
ByLayer
370
13
48
1
60
0
100
AcDbLine
10
49.151603
20
-11.3
30
0
11
49.151603
21
-11.440846
31
0
39
0
210
0
220
0
230
1
0
LINE
5
A6
100
AcDbEntity
8
1
62
256
6
ByLayer
370
13
48
1
60
0
100
AcDbLine
10
51.903528
20
-16.233555
30
0
11
52.072947
21
-16.224915
31
0
39
0
210
0
220
0
230
1
0
LINE
5
A7
100
AcDbEntity
8
1
62
256
6
ByLayer
370
13
48
1
60
0
100
AcDbLine
10
51.903528
20
-11.766445
30
0
11
52.072947
21
-11.775085
31
0
39
0
210
0
220
0
230
1
0
LINE
5
A8
100
AcDbEntity
8
1
62
256
6
ByLayer
370
13
48
1
60
0
100
AcDbLine
10
50.060501
20
-15.374722
30
0
11
49.992097
21
-15.374722
31
0
39
0
210
0
220
0
230
1
0
LINE
5
A9
100
AcDbEntity
8
1
62
256
6
ByLayer
370
13
48
1
60
0
100
AcDbLine
10
49.992097
20
-12.625282
30
0
11
50.060501
21
-12.625282
31
0
39
0
210
0
220
0
230
1
0
LINE
5
AA
100
AcDbEntity
8
1
62
256
6
ByLayer
370
13
48
1
60
0
100
AcDbLine
10
49.992097
20
-15.374722
30
0
11
49.992097
21
-16.7
31
0
39
0
210
0
220
0
230
1
0
LINE
5
AB
100
AcDbEntity
8
1
62
256
6
ByLayer
370
13
48
1
60
0
100
AcDbLine
10
49.992097
20
-11.3
30
0
11
49.992097
21
-12.625282
31
0
39
0
210
0
220
0
230
1
0
LINE
5
AC
100
AcDbEntity
8
1
62
256
6
ByLayer
370
13
48
1
60
0
100
AcDbLine
10
49.840064
20
-12.656389
30
0
11
49.26446
21
-11.416083
31
0
39
0
210
0
220
0
230
1
0
LINE
5
AD
100
AcDbEntity
8
1
62
256
6
ByLayer
370
13
48
1
60
0
100
AcDbLine
10
49.26446
20
-11.416083
30
0
11
49.26446
21
-11.3
31
0
39
0
210
0
220
0
230
1
0
LINE
5
AE
100
AcDbEntity
8
1
62
256
6
ByLayer
370
13
48
1
60
0
100
AcDbLine
10
49.26446
20
-16.7
30
0
11
49.26446
21
-16.583917
31
0
39
0
210
0
220
0
230
1
0
LINE
5
AF
100
AcDbEntity
8
1
62
256
6
ByLayer
370
13
48
1
60
0
100
AcDbLine
10
49.26446
20
-16.583917
30
0
11
49.840063
21
-15.343613
31
0
39
0
210
0
220
0
230
1
0
LINE
5
B0
100
AcDbEntity
8
1
62
256
6
ByLayer
370
13
48
1
60
0
100
AcDbLine
10
49.150592
20
-11.458005
30
0
11
49.737341
21
-12.722327
31
0
39
0
210
0
220
0
230
1
0
LINE
5
B1
100
AcDbEntity
8
1
62
256
6
ByLayer
370
13
48
1
60
0
100
AcDbLine
10
49.73734
20
-15.277675
30
0
11
49.150592
21
-16.541995
31
0
39
0
210
0
220
0
230
1
0
LINE
5
B2
100
AcDbEntity
8
1
62
256
6
ByLayer
370
13
48
1
60
0
100
AcDbLine
10
49.513014
20
-13.481952
30
0
11
49.737882
21
-13.481952
31
0
39
0
210
0
220
0
230
1
0
LINE
5
B3
100
AcDbEntity
8
1
62
256
6
ByLayer
370
13
48
1
60
0
100
AcDbLine
10
49.513014
20
-14.518048
30
0
11
49.737881
21
-14.518048
31
0
39
0
210
0
220
0
230
1
0
LINE
5
B4
100
AcDbEntity
8
1
62
256
6
ByLayer
370
13
48
1
60
0
100
AcDbLine
10
55.033926
20
-11.72634
30
0
11
55.033926
21
-11.02349
31
0
39
0
210
0
220
0
230
1
0
LINE
5
B5
100
AcDbEntity
8
1
62
256
6
ByLayer
370
13
48
1
60
0
100
AcDbLine
10
55.033926
20
-16.27366
30
0
11
55.033926
21
-16.97651
31
0
39
0
210
0
220
0
230
1
0
LINE
5
B6
100
AcDbEntity
8
1
62
256
6
ByLayer
370
13
48
1
60
0
100
AcDbLine
10
54.915395
20
-11.032088
30
0
11
54.915395
21
-11.686876
31
0
39
0
210
0
220
0
230
1
0
LINE
5
B7
100
AcDbEntity
8
1
62
256
6
ByLayer
370
13
48
1
60
0
100
AcDbLine
10
54.250328
20
-16.290986
30
0
11
54.250328
21
-16.914019
31
0
39
0
210
0
220
0
230
1
0
LINE
5
B8
100
AcDbEntity
8
1
62
256
6
ByLayer
370
13
48
1
60
0
100
AcDbLine
10
54.250328
20
-11.709014
30
0
11
54.250328
21
-11.085981
31
0
39
0
210
0
220
0
230
1
0
LINE
5
B9
100
AcDbEntity
8
1
62
256
6
ByLayer
370
13
48
1
60
0
100
AcDbLine
10
54.915395
20
-16.967912
30
0
11
54.915395
21
-16.313124
31
0
39
0
210
0
220
0
230
1
0
LINE
5
BA
100
AcDbEntity
8
1
62
256
6
ByLayer
370
13
48
1
60
0
100
AcDbLine
10
52.337477
20
-15.170425
30
0
11
52.337477
21
-14
31
0
39
0
210
0
220
0
230
1
0
LINE
5
BB
100
AcDbEntity
8
1
62
256
6
ByLayer
370
13
48
1
60
0
100
AcDbLine
10
51.366925
20
-14.96828
30
0
11
51.366925
21
-14.667506
31
0
39
0
210
0
220
0
230
1
0
LINE
5
BC
100
AcDbEntity
8
1
62
256
6
ByLayer
370
13
48
1
60
0
100
AcDbLine
10
52.337477
20
-12.829575
30
0
11
52.337477
21
-14
31
0
39
0
210
0
220
0
230
1
0
LINE
5
BD
100
AcDbEntity
8
1
62
256
6
ByLayer
370
13
48
1
60
0
100
AcDbLine
10
51.366925
20
-13.03172
30
0
11
51.366925
21
-13.332499
31
0
39
0
210
0
220
0
230
1
0
LINE
5
BE
100
AcDbEntity
8
1
62
256
6
ByLayer
370
13
48
1
60
0
100
AcDbLine
10
56.056813
20
-12.496874
30
0
11
56.056813
21
-15.503126
31
0
39
0
210
0
220
0
230
1
0
LINE
5
BF
100
AcDbEntity
8
1
62
256
6
ByLayer
370
13
48
1
60
0
100
AcDbLine
10
55.248935
20
-12.530719
30
0
11
55.248935
21
-15.469281
31
0
39
0
210
0
220
0
230
1
0
LINE
5
C0
100
AcDbEntity
8
1
62
256
6
ByLayer
370
13
48
1
60
0
100
AcDbLine
10
56.111639
20
-12.425013
30
0
11
56.086144
21
-12.425013
31
0
39
0
210
0
220
0
230
1
0
LINE
5
C1
100
AcDbEntity
8
1
62
256
6
ByLayer
370
13
48
1
60
0
100
AcDbLine
10
56.111639
20
-15.574987
30
0
11
56.111639
21
-12.425013
31
0
39
0
210
0
220
0
230
1
0
LINE
5
C2
100
AcDbEntity
8
1
62
256
6
ByLayer
370
13
48
1
60
0
100
AcDbLine
10
56.111639
20
-15.574987
30
0
11
56.086144
21
-15.574987
31
0
39
0
210
0
220
0
230
1
0
LINE
5
C3
100
AcDbEntity
8
1
62
256
6
ByLayer
370
13
48
1
60
0
100
AcDbLine
10
56.112146
20
-15.588735
30
0
11
56.114063
21
-15.620594
31
0
39
0
210
0
220
0
230
1
0
LINE
5
C4
100
AcDbEntity
8
1
62
256
6
ByLayer
370
13
48
1
60
0
100
AcDbLine
10
56.113929
20
-15.588735
30
0
11
56.112146
21
-15.588735
31
0
39
0
210
0
220
0
230
1
0
LINE
5
C5
100
AcDbEntity
8
1
62
256
6
ByLayer
370
13
48
1
60
0
100
AcDbLine
10
56.112146
20
-12.411265
30
0
11
56.114063
21
-12.379406
31
0
39
0
210
0
220
0
230
1
0
LINE
5
C6
100
AcDbEntity
8
1
62
256
6
ByLayer
370
13
48
1
60
0
100
AcDbLine
10
56.113929
20
-12.411265
30
0
11
56.112146
21
-12.411265
31
0
39
0
210
0
220
0
230
1
0
LINE
5
C7
100
AcDbEntity
8
1
62
256
6
ByLayer
370
13
48
1
60
0
100
AcDbLine
10
56.111639
20
-15.574987
30
0
11
56.1139
21
-15.574987
31
0
39
0
210
0
220
0
230
1
0
LINE
5
C8
100
AcDbEntity
8
1
62
256
6
ByLayer
370
13
48
1
60
0
100
AcDbLine
10
56.111639
20
-12.425013
30
0
11
56.1139
21
-12.425013
31
0
39
0
210
0
220
0
230
1
0
LINE
5
C9
100
AcDbEntity
8
1
62
256
6
ByLayer
370
13
48
1
60
0
100
AcDbLine
10
49.774695
20
-14.329221
30
0
11
50.012281
21
-14.329221
31
0
39
0
210
0
220
0
230
1
0
LINE
5
CA
100
AcDbEntity
8
1
62
256
6
ByLayer
370
13
48
1
60
0
100
AcDbLine
10
49.774695
20
-13.670779
30
0
11
50.012281
21
-13.670779
31
0
39
0
210
0
220
0
230
1
0
LINE
5
CB
100
AcDbEntity
8
1
62
256
6
ByLayer
370
13
48
1
60
0
100
AcDbLine
10
54.056762
20
-15.648742
30
0
11
54.087654
21
-15.419544
31
0
39
0
210
0
220
0
230
1
0
LINE
5
CC
100
AcDbEntity
8
1
62
256
6
ByLayer
370
13
48
1
60
0
100
AcDbLine
10
53.049656
20
-15.507917
30
0
11
53.087654
21
-15.278128
31
0
39
0
210
0
220
0
230
1
0
LINE
5
CD
100
AcDbEntity
8
1
62
256
6
ByLayer
370
13
48
1
60
0
100
AcDbLine
10
53.049656
20
-12.492083
30
0
11
53.087654
21
-12.721872
31
0
39
0
210
0
220
0
230
1
0
LINE
5
CE
100
AcDbEntity
8
1
62
256
6
ByLayer
370
13
48
1
60
0
100
AcDbLine
10
54.056762
20
-12.351258
30
0
11
54.087654
21
-12.580456
31
0
39
0
210
0
220
0
230
1
0
LINE
5
CF
100
AcDbEntity
8
1
62
256
6
ByLayer
370
13
48
1
60
0
100
AcDbLine
10
53.087654
20
-12.721872
30
0
11
53.087654
21
-15.278128
31
0
39
0
210
0
220
0
230
1
0
LINE
5
D0
100
AcDbEntity
8
1
62
256
6
ByLayer
370
13
48
1
60
0
100
AcDbLine
10
54.087654
20
-12.580456
30
0
11
54.087654
21
-15.419544
31
0
39
0
210
0
220
0
230
1
0
LINE
5
D1
100
AcDbEntity
8
1
62
256
6
ByLayer
370
13
48
1
60
0
100
AcDbLine
10
54.6334
20
-15.477428
30
0
11
54.6334
21
-14
31
0
39
0
210
0
220
0
230
1
0
LINE
5
D2
100
AcDbEntity
8
1
62
256
6
ByLayer
370
13
48
1
60
0
100
AcDbLine
10
54.6334
20
-12.522572
30
0
11
54.6334
21
-14
31
0
39
0
210
0
220
0
230
1
0
LINE
5
D3
100
AcDbEntity
8
1
62
256
6
ByLayer
370
13
48
1
60
0
100
AcDbLine
10
54.337477
20
-15.453055
30
0
11
54.337477
21
-14
31
0
39
0
210
0
220
0
230
1
0
LINE
5
D4
100
AcDbEntity
8
1
62
256
6
ByLayer
370
13
48
1
60
0
100
AcDbLine
10
54.337477
20
-12.546945
30
0
11
54.337477
21
-14
31
0
39
0
210
0
220
0
230
1
0
LINE
5
D5
100
AcDbEntity
8
1
62
256
6
ByLayer
370
13
48
1
60
0
100
AcDbLine
10
44.602598
20
-11.3
30
0
11
44.602598
21
-11.325001
31
0
39
0
210
0
220
0
230
1
0
LINE
5
D6
100
AcDbEntity
8
1
62
256
6
ByLayer
370
18
48
1
60
0
100
AcDbLine
10
39.503075
20
-11.325
30
0
11
44.503075
21
-11.325
31
0
39
0
210
0
220
0
230
1
0
LINE
5
D7
100
AcDbEntity
8
1
62
256
6
ByLayer
370
18
48
1
60
0
100
AcDbLine
10
44.503075
20
-11.325
30
0
11
48.841678
21
-11.325
31
0
39
0
210
0
220
0
230
1
0
LINE
5
D8
100
AcDbEntity
8
1
62
256
6
ByLayer
370
18
48
1
60
0
100
AcDbLine
10
30.5139
20
-11.325
30
0
11
25.5139
21
-11.325
31
0
39
0
210
0
220
0
230
1
0
LINE
5
D9
100
AcDbEntity
8
1
62
256
6
ByLayer
370
18
48
1
60
0
100
AcDbLine
10
44.503075
20
-16.675
30
0
11
48.841678
21
-16.675
31
0
39
0
210
0
220
0
230
1
0
LINE
5
DA
100
AcDbEntity
8
1
62
256
6
ByLayer
370
18
48
1
60
0
100
AcDbLine
10
39.503075
20
-16.675
30
0
11
44.503075
21
-16.675
31
0
39
0
210
0
220
0
230
1
0
LINE
5
DB
100
AcDbEntity
8
1
62
256
6
ByLayer
370
18
48
1
60
0
100
AcDbLine
10
39.503075
20
-16.675
30
0
11
30.5139
21
-16.675
31
0
39
0
210
0
220
0
230
1
0
LINE
5
DC
100
AcDbEntity
8
1
62
256
6
ByLayer
370
18
48
1
60
0
100
AcDbLine
10
30.5139
20
-16.675
30
0
11
25.5139
21
-16.675
31
0
39
0
210
0
220
0
230
1
0
LINE
5
DD
100
AcDbEntity
8
1
62
256
6
ByLayer
370
18
48
1
60
0
100
AcDbLine
10
30.5139
20
-11.325
30
0
11
39.503075
21
-11.325
31
0
39
0
210
0
220
0
230
1
0
LINE
5
DE
100
AcDbEntity
8
1
62
256
6
ByLayer
370
18
48
1
60
0
100
AcDbLine
10
25.5139
20
-11.325
30
0
11
23.1139
21
-11.325
31
0
39
0
210
0
220
0
230
1
0
LINE
5
DF
100
AcDbEntity
8
1
62
256
6
ByLayer
370
18
48
1
60
0
100
AcDbLine
10
25.5139
20
-16.675
30
0
11
1.5139
21
-16.675
31
0
39
0
210
0
220
0
230
1
0
LINE
5
E0
100
AcDbEntity
8
1
62
256
6
ByLayer
370
18
48
1
60
0
100
AcDbLine
10
21.5139
20
-9.725
30
0
11
21.5139
21
-1.81
31
0
39
0
210
0
220
0
230
1
0
LINE
5
E1
100
AcDbEntity
8
1
62
256
6
ByLayer
370
18
48
1
60
0
100
AcDbLine
10
25.5139
20
-11.325
30
0
11
25.5139
21
-16.675
31
0
39
0
210
0
220
0
230
1
0
LINE
5
E2
100
AcDbEntity
8
1
62
256
6
ByLayer
370
18
48
1
60
0
100
AcDbLine
10
49.4034
20
-14.824704
30
0
11
48.841678
21
-16.675
31
0
39
0
210
0
220
0
230
1
0
LINE
5
E3
100
AcDbEntity
8
1
62
256
6
ByLayer
370
18
48
1
60
0
100
AcDbLine
10
48.841678
20
-11.325
30
0
11
49.4034
21
-13.175296
31
0
39
0
210
0
220
0
230
1
0
LINE
5
E4
100
AcDbEntity
8
1
62
256
6
ByLayer
370
18
48
1
60
0
100
AcDbLine
10
0.172041
20
-16.675
30
0
11
0.317745
21
-16.675
31
0
39
0
210
0
220
0
230
1
0
LINE
5
E5
100
AcDbEntity
8
1
62
256
6
ByLayer
370
18
48
1
60
0
100
AcDbLine
10
1.5139
20
-16.675
30
0
11
1.5139
21
16.024653
31
0
39
0
210
0
220
0
230
1
0
LINE
5
E6
100
AcDbEntity
8
1
62
256
6
ByLayer
370
18
48
1
60
0
100
AcDbLine
10
-113.8861
20
-15.85
30
0
11
-113.8861
21
16
31
0
39
0
210
0
220
0
230
1
0
LINE
5
E7
100
AcDbEntity
8
1
62
256
6
ByLayer
370
18
48
1
60
0
100
AcDbLine
10
0.317745
20
-16.675
30
0
11
1.5139
21
-16.675
31
0
39
0
210
0
220
0
230
1
0
LINE
5
E8
100
AcDbEntity
8
1
62
256
6
ByLayer
370
18
48
1
60
0
100
AcDbLine
10
2.4876
20
16.024653
30
0
11
1.5139
21
16.024653
31
0
39
0
210
0
220
0
230
1
0
LINE
5
E9
100
AcDbEntity
8
1
62
256
6
ByLayer
370
18
48
1
60
0
100
AcDbLine
10
0.317745
20
16.005174
30
0
11
1.5139
21
16.024653
31
0
39
0
210
0
220
0
230
1
0
LINE
5
EA
100
AcDbEntity
8
1
62
256
6
ByLayer
370
18
48
1
60
0
100
AcDbLine
10
-113.8861
20
16
30
0
11
-1.227736
21
16
31
0
39
0
210
0
220
0
230
1
0
LINE
5
EB
100
AcDbEntity
8
1
62
256
6
ByLayer
370
18
48
1
60
0
100
AcDbLine
10
-113.8861
20
-15.85
30
0
11
-1.227736
21
-15.85
31
0
39
0
210
0
220
0
230
1
0
LINE
5
EC
100
AcDbEntity
8
1
62
256
6
ByLayer
370
18
48
1
60
0
100
AcDbLine
10
21.5139
20
-1.81
30
0
11
2.4876
21
16.024653
31
0
39
0
210
0
220
0
230
1
0
LINE
5
ED
100
AcDbEntity
8
1
62
256
6
ByLayer
370
18
48
1
60
0
100
AcDbLine
10
56.1139
20
-15.574987
30
0
11
56.1139
21
-12.425013
31
0
39
0
210
0
220
0
230
1
0
LINE
5
EE
100
AcDbEntity
8
1
62
256
6
ByLayer
370
18
48
1
60
0
100
AcDbLine
10
47.414997
20
-16.7
30
0
11
44.675616
21
-16.7
31
0
39
0
210
0
220
0
230
1
0
LINE
5
EF
100
AcDbEntity
8
1
62
256
6
ByLayer
370
18
48
1
60
0
100
AcDbLine
10
51.929148
20
-16.731522
30
0
11
51.922342
21
-16.727592
31
0
39
0
210
0
220
0
230
1
0
LINE
5
F0
100
AcDbEntity
8
1
62
256
6
ByLayer
370
18
48
1
60
0
100
AcDbLine
10
49.992097
20
-16.7
30
0
11
49.26446
21
-16.7
31
0
39
0
210
0
220
0
230
1
0
LINE
5
F1
100
AcDbEntity
8
1
62
256
6
ByLayer
370
18
48
1
60
0
100
AcDbLine
10
55.033926
20
-16.97651
30
0
11
55.701067
21
-17.011926
31
0
39
0
210
0
220
0
230
1
0
LINE
5
F2
100
AcDbEntity
8
1
62
256
6
ByLayer
370
18
48
1
60
0
100
AcDbLine
10
55.701067
20
-10.988074
30
0
11
55.033926
21
-11.02349
31
0
39
0
210
0
220
0
230
1
0
LINE
5
F3
100
AcDbEntity
8
1
62
256
6
ByLayer
370
18
48
1
60
0
100
AcDbLine
10
56.113929
20
-12.411265
30
0
11
56.114063
21
-12.379406
31
0
39
0
210
0
220
0
230
1
0
LINE
5
F4
100
AcDbEntity
8
1
62
256
6
ByLayer
370
18
48
1
60
0
100
AcDbLine
10
49.264084
20
-11.3
30
0
11
49.992097
21
-11.3
31
0
39
0
210
0
220
0
230
1
0
LINE
5
F5
100
AcDbEntity
8
1
62
256
6
ByLayer
370
18
48
1
60
0
100
AcDbLine
10
56.114063
20
-15.620594
30
0
11
56.113929
21
-15.588735
31
0
39
0
210
0
220
0
230
1
0
LINE
5
F6
100
AcDbEntity
8
1
62
256
6
ByLayer
370
18
48
1
60
0
100
AcDbLine
10
50.060501
20
-16.7
30
0
11
51.819111
21
-16.7
31
0
39
0
210
0
220
0
230
1
0
LINE
5
F7
100
AcDbEntity
8
1
62
256
6
ByLayer
370
18
48
1
60
0
100
AcDbLine
10
54.250328
20
-11.085981
30
0
11
54.050328
21
-11.100013
31
0
39
0
210
0
220
0
230
1
0
LINE
5
F8
100
AcDbEntity
8
1
62
256
6
ByLayer
370
18
48
1
60
0
100
AcDbLine
10
54.050328
20
-16.899987
30
0
11
54.250328
21
-16.914019
31
0
39
0
210
0
220
0
230
1
0
LINE
5
F9
100
AcDbEntity
8
1
62
256
6
ByLayer
370
18
48
1
60
0
100
AcDbLine
10
44.675616
20
-11.3
30
0
11
44.602598
21
-11.3
31
0
39
0
210
0
220
0
230
1
0
LINE
5
FA
100
AcDbEntity
8
1
62
256
6
ByLayer
370
18
48
1
60
0
100
AcDbLine
10
50.060501
20
-11.3
30
0
11
49.992097
21
-11.3
31
0
39
0
210
0
220
0
230
1
0
LINE
5
FB
100
AcDbEntity
8
1
62
256
6
ByLayer
370
18
48
1
60
0
100
AcDbLine
10
56.1142
20
-12.346546
30
0
11
56.118188
21
-11.396329
31
0
39
0
210
0
220
0
230
1
0
LINE
5
FC
100
AcDbEntity
8
1
62
256
6
ByLayer
370
18
48
1
60
0
100
AcDbLine
10
44.675616
20
-11.3
30
0
11
47.414997
21
-11.3
31
0
39
0
210
0
220
0
230
1
0
LINE
5
FD
100
AcDbEntity
8
1
62
256
6
ByLayer
370
18
48
1
60
0
100
AcDbLine
10
51.819111
20
-11.3
30
0
11
50.060501
21
-11.3
31
0
39
0
210
0
220
0
230
1
0
LINE
5
FE
100
AcDbEntity
8
1
62
256
6
ByLayer
370
18
48
1
60
0
100
AcDbLine
10
49.992097
20
-16.7
30
0
11
50.060501
21
-16.7
31
0
39
0
210
0
220
0
230
1
0
LINE
5
FF
100
AcDbEntity
8
1
62
256
6
ByLayer
370
18
48
1
60
0
100
AcDbLine
10
44.602598
20
-16.7
30
0
11
44.675616
21
-16.7
31
0
39
0
210
0
220
0
230
1
0
LINE
5
100
100
AcDbEntity
8
1
62
256
6
ByLayer
370
18
48
1
60
0
100
AcDbLine
10
51.922342
20
-11.272408
30
0
11
51.929148
21
-11.268478
31
0
39
0
210
0
220
0
230
1
0
LINE
5
101
100
AcDbEntity
8
1
62
256
6
ByLayer
370
18
48
1
60
0
100
AcDbLine
10
56.118188
20
-16.603671
30
0
11
56.1142
21
-15.653454
31
0
39
0
210
0
220
0
230
1
0
LINE
5
102
100
AcDbEntity
8
SK2
62
256
6
ByLayer
370
13
48
1
60
0
100
AcDbLine
10
-123.4861
20
-16
30
0
11
-123.4861
21
16
31
0
39
0
210
0
220
0
230
1
0
LINE
5
104
100
AcDbEntity
8
SK2
62
256
6
ByLayer
370
13
48
1
60
0
100
AcDbLine
10
-115.8861
20
16
30
0
11
-125.4861
21
16
31
0
39
0
210
0
220
0
230
1
0
LINE
5
105
100
AcDbEntity
8
SK2
62
256
6
ByLayer
370
13
48
1
60
0
100
AcDbLine
10
-115.8861
20
-16
30
0
11
-125.4861
21
-16
31
0
39
0
210
0
220
0
230
1
0
LINE
5
106
100
AcDbEntity
8
SK2
62
256
6
ByLayer
370
18
48
1
60
0
100
AcDbLine
10
-123.4861
20
16
30
0
11
-123.068103
21
12.825002
31
0
39
0
210
0
220
0
230
1
0
LINE
5
107
100
AcDbEntity
8
SK2
62
256
6
ByLayer
370
18
48
1
60
0
100
AcDbLine
10
-123.4861
20
16
30
0
11
-123.904097
21
12.824998
31
0
39
0
210
0
220
0
230
1
0
LINE
5
108
100
AcDbEntity
8
SK2
62
256
6
ByLayer
370
18
48
1
60
0
100
AcDbLine
10
-123.068103
20
12.825002
30
0
11
-123.904097
21
12.824998
31
0
39
0
210
0
220
0
230
1
0
LINE
5
109
100
AcDbEntity
8
SK2
62
256
6
ByLayer
370
18
48
1
60
0
100
AcDbLine
10
-123.4861
20
-16
30
0
11
-123.904097
21
-12.825002
31
0
39
0
210
0
220
0
230
1
0
LINE
5
10A
100
AcDbEntity
8
SK2
62
256
6
ByLayer
370
18
48
1
60
0
100
AcDbLine
10
-123.4861
20
-16
30
0
11
-123.068103
21
-12.824998
31
0
39
0
210
0
220
0
230
1
0
LINE
5
10B
100
AcDbEntity
8
SK2
62
256
6
ByLayer
370
18
48
1
60
0
100
AcDbLine
10
-123.904097
20
-12.825002
30
0
11
-123.068103
21
-12.824998
31
0
39
0
210
0
220
0
230
1
0
MTEXT
5
23C
100
AcDbEntity
8
SK6
62
256
6
ByLayer
370
18
48
1
60
0
100
AcDbMText
10
-60.5111
20
-51.368905
30
0
210
0
220
0
230
1
1
\W0.8012;QD-LFK33C3232A
40
3.5
41
0
44
1.084337
50
0
71
7
72
5
7
iso_b_vert
0
MTEXT
5
240
100
AcDbEntity
8
SK2
62
256
6
ByLayer
370
18
48
1
60
0
100
AcDbMText
10
-124.3611
20
-1.169737
30
0
210
0
220
0
230
1
1
\W0.6740;32
40
3.5
41
0
44
1.084337
50
89.9999999999999
71
7
72
5
7
iso_b_vert
0
DIMENSION
5
24F
100
AcDbEntity
8
2
62
256
6
ByLayer
370
13
48
1
60
0
100
AcDbDimension
2
DimnDraft3D1
10
56.1139
20
32.624653
30
0
11
24.386555
21
32.624653
31
0
70
32
71
5
72
1
41
1
210
0
220
0
230
1
3
Standard
100
AcDbAlignedDimension
13
0
23
18
33
0
14
56.1139
24
-15
34
0
50
0
100
AcDbRotatedDimension
1001
ACAD
1000
DSTYLE
1002
{
1070
   279
1070
     0
1070
   172
1070
     1
1070
   173
1070
     1
1070
   340
1005
23D
1070
   271
1070
     1
1070
    77
1070
     1
1070
    73
1070
     0
1070
   171
1070
     3
1070
   274
1070
     4
1070
   177
1070
     2
1070
   176
1070
     2
1070
   178
1070
     7
1070
    78
1070
     8
1070
    41
1041
3.175
1070
   147
1041
1.75
1070
    42
1041
2.0
1070
    44
1041
2.0
1070
   140
1041
3.5
1070
   343
1005
250
1070
   344
1005
250
1002
}
0
DIMENSION
5
264
100
AcDbEntity
8
SK2
62
256
6
ByLayer
370
13
48
1
60
0
100
AcDbDimension
2
DimnDraft3D2
10
56.1139
20
38.624653
30
0
11
-31.847284
21
38.624653
31
0
70
32
71
5
72
1
41
1
210
0
220
0
230
1
3
Standard
100
AcDbAlignedDimension
13
-113.8861
23
18
33
0
14
56.1139
24
-15
34
0
50
0
100
AcDbRotatedDimension
1001
ACAD
1000
DSTYLE
1002
{
1070
   279
1070
     0
1070
   172
1070
     1
1070
   173
1070
     1
1070
   340
1005
23D
1070
   271
1070
     1
1070
    77
1070
     1
1070
    73
1070
     0
1070
   171
1070
     3
1070
   274
1070
     4
1070
   177
1070
     2
1070
   176
1070
     2
1070
   178
1070
     7
1070
    78
1070
     8
1070
    41
1041
3.175
1070
   147
1041
1.75
1070
    42
1041
2.0
1070
    44
1041
2.0
1070
   140
1041
3.5
1070
   343
1005
250
1070
   344
1005
250
1002
}
0
DIMENSION
5
272
100
AcDbEntity
8
2
62
256
6
ByLayer
370
13
48
1
60
0
100
AcDbDimension
2
DimnDraft3D3
10
23.1139
20
-30.112462
30
0
11
37.523111
21
-30.112462
31
0
70
32
71
5
72
1
41
1
210
0
220
0
230
1
3
Standard
100
AcDbAlignedDimension
13
56.1139
23
-19
33
0
14
23.1139
24
-18
34
0
50
0
100
AcDbRotatedDimension
1001
ACAD
1000
DSTYLE
1002
{
1070
   279
1070
     0
1070
   172
1070
     1
1070
   173
1070
     1
1070
   340
1005
23D
1070
   271
1070
     1
1070
    77
1070
     1
1070
    73
1070
     0
1070
   171
1070
     3
1070
   274
1070
     4
1070
   177
1070
     2
1070
   176
1070
     2
1070
   178
1070
     7
1070
    78
1070
     8
1070
    41
1041
3.175
1070
   147
1041
1.75
1070
    42
1041
2.0
1070
    44
1041
2.0
1070
   140
1041
3.5
1070
   343
1005
250
1070
   344
1005
250
1002
}
0
DIMENSION
5
280
100
AcDbEntity
8
2
62
256
6
ByLayer
370
13
48
1
60
0
100
AcDbDimension
2
DimnDraft3D4
10
81.2139
20
-17
30
0
11
81.2139
21
-2.590789
31
0
70
32
71
5
72
1
41
1
210
0
220
0
230
1
3
Standard
100
AcDbAlignedDimension
13
2
23
16
33
0
14
58.1139
24
-17
34
0
50
90
100
AcDbRotatedDimension
1001
ACAD
1000
DSTYLE
1002
{
1070
    74
1070
     0
1070
   279
1070
     0
1070
   172
1070
     1
1070
   173
1070
     1
1070
   340
1005
23D
1070
   271
1070
     1
1070
    77
1070
     1
1070
    73
1070
     0
1070
   171
1070
     3
1070
   274
1070
     4
1070
   177
1070
     2
1070
   176
1070
     2
1070
   178
1070
     7
1070
    78
1070
     8
1070
    41
1041
3.175
1070
   147
1041
1.75
1070
    42
1041
2.0
1070
    44
1041
2.0
1070
   140
1041
3.5
1070
   343
1005
250
1070
   344
1005
250
1002
}
0
DIMENSION
5
28E
100
AcDbEntity
8
2
62
256
6
ByLayer
370
13
48
1
60
0
100
AcDbDimension
2
DimnDraft3D5
10
74.2139
20
-11
30
0
11
74.2139
21
-14.782895
31
0
70
32
71
5
72
1
41
1
210
0
220
0
230
1
3
Standard
100
AcDbAlignedDimension
13
58.1139
23
-17
33
0
14
58.1139
24
-11
34
0
50
90
100
AcDbRotatedDimension
1001
ACAD
1000
DSTYLE
1002
{
1070
    74
1070
     0
1070
   279
1070
     0
1070
   172
1070
     1
1070
   173
1070
     1
1070
   340
1005
23D
1070
   271
1070
     1
1070
    77
1070
     1
1070
    73
1070
     0
1070
   171
1070
     3
1070
   274
1070
     4
1070
   177
1070
     2
1070
   176
1070
     2
1070
   178
1070
     7
1070
    78
1070
     8
1070
    41
1041
3.175
1070
   147
1041
1.75
1070
    42
1041
2.0
1070
    44
1041
2.0
1070
   140
1041
3.5
1070
   343
1005
250
1070
   344
1005
250
1002
}
0
ENDSEC
0
SECTION
2
OBJECTS
0
DICTIONARY
5
2f8
330
0
100
AcDbDictionary
280
0
281
1
3
ACAD_GROUP
350
2f9
3
ACAD_MLINESTYLE
350
2fa
0
DICTIONARY
5
2f9
330
0
100
AcDbDictionary
280
0
281
1
0
DICTIONARY
5
2fa
330
0
100
AcDbDictionary
280
0
281
1
3
Standard
350
18
0
MLINESTYLE
5
18
330
2fa
100
AcDbMlineStyle
2
Standard
70
0
3

62
256
51
90
52
90
71
2
49
-0.5
62
256
6
ByLayer
49
0.5
62
256
6
ByLayer
0
RASTERVARIABLES
5
2e7
330

100
AcDbRasterVariables
90
0
70
1
71
1
72
1
0
ENDSEC
0
EOF
