0
SECTION
2
HEADER
9
$ACADVER
1
AC1015
9
$DWGCODEPAGE
3
ANSI_1252
9
$HANDSEED
5
2ec
9
$ANGBASE
50
0
9
$ANGDIR
70
0
9
$ATTMODE
70
1
9
$AUNITS
70
0
9
$AUPREC
70
0
9
$CECOLOR
62
256
9
$CELTSCALE
40
1
9
$CELTYPE
6
ByLayer
9
$CELWEIGHT
370
18
9
$CLAYER
8
0
9
$CMLJUST
70
0
9
$CMLSCALE
40
1
9
$CMLSTYLE
2
Standard
9
$DIMSTYLE
2
Standard
9
$TEXTSIZE
40
0.2
9
$TEXTSTYLE
7
Standard
9
$LUNITS
70
2
9
$LUPREC
70
4
9
$EXTNAMES
290
1
9
$INSUNITS
70
4
9
$LTSCALE
40
1
9
$LWDISPLAY
290
1
9
$PDMODE
70
0
9
$PDSIZE
40
0
9
$PLINEGEN
70
0
0
ENDSEC
0
SECTION
2
CLASSES
0
CLASS
1
RASTERVARIABLES
2
AcDbRasterVariables
3
ISM
90
0
280
0
281
0
0
ENDSEC
0
SECTION
2
TABLES
0
TABLE
2
VPORT
5
2e2
100
AcDbSymbolTable
0
VPORT
5
1
100
AcDbSymbolTableRecord
100
AcDbViewportTableRecord
2
*Active
70
0
10
0
20
0
11
1
21
1
12
-1
22
1
13
0
23
0
14
0.5
24
0.5
15
10
25
10
16
0
26
0
36
1
17
0
27
0
37
0
0
ENDTAB
0
TABLE
2
LTYPE
5
2e3
100
AcDbSymbolTable
0
LTYPE
5
14
100
AcDbSymbolTableRecord
100
AcDbLinetypeTableRecord
70
0
2
ByBlock
3

72
65
73
0
40
0
0
LTYPE
5
15
100
AcDbSymbolTableRecord
100
AcDbLinetypeTableRecord
70
0
2
ByLayer
3

72
65
73
0
40
0
0
LTYPE
5
16
100
AcDbSymbolTableRecord
100
AcDbLinetypeTableRecord
70
0
2
CONTINUOUS
3
Solid line
72
65
73
0
40
0
0
LTYPE
5
6A
100
AcDbSymbolTableRecord
100
AcDbLinetypeTableRecord
70
0
2
CENTER
3
____ _ ____ _ ____ _ ____
72
65
73
4
40
47.5
49
22
74
0
49
-8.5
74
0
49
8.5
74
0
49
-8.5
74
0
0
LTYPE
5
6B
100
AcDbSymbolTableRecord
100
AcDbLinetypeTableRecord
70
0
2
DASHED
3
__ __ __ __ __ __ __ __ __
72
65
73
2
40
25.72
49
12.86
74
0
49
-12.86
74
0
0
ENDTAB
0
TABLE
2
LAYER
5
2e4
100
AcDbSymbolTable
0
LAYER
5
10
100
AcDbSymbolTableRecord
100
AcDbLayerTableRecord
2
0
70
0
62
7
6
CONTINUOUS
290
1
370
-3
390
0
0
LAYER
5
6D
100
AcDbSymbolTableRecord
100
AcDbLayerTableRecord
2
80
70
0
62
-6
6
CONTINUOUS
290
1
370
-3
390
0
0
LAYER
5
6F
100
AcDbSymbolTableRecord
100
AcDbLayerTableRecord
2
81
70
0
62
-3
6
CONTINUOUS
290
1
370
-3
390
0
0
LAYER
5
73
100
AcDbSymbolTableRecord
100
AcDbLayerTableRecord
2
1
70
0
62
4
6
CONTINUOUS
290
1
370
-3
390
0
0
LAYER
5
22A
100
AcDbSymbolTableRecord
100
AcDbLayerTableRecord
2
2
70
0
62
7
6
CONTINUOUS
290
1
370
-3
390
0
0
LAYER
5
2cf
100
AcDbSymbolTableRecord
100
AcDbLayerTableRecord
2
SK1
70
0
62
4
6
CONTINUOUS
290
1
370
-3
390
0
0
LAYER
5
2d0
100
AcDbSymbolTableRecord
100
AcDbLayerTableRecord
2
SK2
70
0
62
7
6
CONTINUOUS
290
1
370
-3
390
0
0
LAYER
5
2d1
100
AcDbSymbolTableRecord
100
AcDbLayerTableRecord
2
SK6
70
0
62
5
6
CONTINUOUS
290
1
370
-3
390
0
0
ENDTAB
0
TABLE
2
STYLE
5
2e5
100
AcDbSymbolTable
0
STYLE
5
11
100
AcDbSymbolTableRecord
100
AcDbTextStyleTableRecord
2
Standard
3
txt
70
0
71
0
40
0
41
1
42
0
50
0
0
STYLE
5
224
100
AcDbSymbolTableRecord
100
AcDbTextStyleTableRecord
2
iso_b_vert
3
simplex.shx
70
0
71
0
40
0
41
1
42
0
50
0
0
STYLE
5
225
100
AcDbSymbolTableRecord
100
AcDbTextStyleTableRecord
2
DWGDirectTextStyle
3
simplex
70
0
71
0
40
0
41
1
42
0
50
0
0
ENDTAB
0
TABLE
2
DIMSTYLE
5
2e6
100
AcDbSymbolTable
100
AcDbDimStyleTable
0
DIMSTYLE
105
27
100
AcDbSymbolTableRecord
100
AcDbDimStyleTableRecord
2
Standard
70
0
3
<>
41
0.18
42
0.0625
44
0.18
140
0.18
147
0.09
73
0
74
0
77
1
271
2
275
0
278
52
280
0
340
11
0
ENDTAB
0
TABLE
2
VIEW
5
2e7
100
AcDbSymbolTable
0
ENDTAB
0
TABLE
2
UCS
5
2e8
100
AcDbSymbolTable
0
ENDTAB
0
TABLE
2
APPID
5
2e9
100
AcDbSymbolTable
0
APPID
5
12
100
AcDbSymbolTableRecord
100
AcDbRegAppTableRecord
2
ACAD
70
0
0
ENDTAB
0
TABLE
2
BLOCK_RECORD
5
2ea
100
AcDbSymbolTable
0
BLOCK_RECORD
5
1F
100
AcDbSymbolTableRecord
100
AcDbBlockTableRecord
2
*Model_Space
340
0
70
0
0
BLOCK_RECORD
5
1B
100
AcDbSymbolTableRecord
100
AcDbBlockTableRecord
2
*Paper_Space
340
0
70
0
0
BLOCK_RECORD
5
23
100
AcDbSymbolTableRecord
100
AcDbBlockTableRecord
2
*Paper_Space0
340
0
70
0
0
BLOCK_RECORD
5
228
100
AcDbSymbolTableRecord
100
AcDbBlockTableRecord
2
DimnDraft3D1
340
0
70
0
0
BLOCK_RECORD
5
237
100
AcDbSymbolTableRecord
100
AcDbBlockTableRecord
2
_CLOSED
340
0
70
0
0
BLOCK_RECORD
5
23E
100
AcDbSymbolTableRecord
100
AcDbBlockTableRecord
2
DimnDraft3D2
340
0
70
0
0
BLOCK_RECORD
5
24C
100
AcDbSymbolTableRecord
100
AcDbBlockTableRecord
2
DimnDraft3D3
340
0
70
0
0
BLOCK_RECORD
5
25A
100
AcDbSymbolTableRecord
100
AcDbBlockTableRecord
2
DimnDraft3D4
340
0
70
0
0
BLOCK_RECORD
5
268
100
AcDbSymbolTableRecord
100
AcDbBlockTableRecord
2
DimnDraft3D5
340
0
70
0
0
ENDTAB
0
ENDSEC
0
SECTION
2
BLOCKS
0
BLOCK
5
20
100
AcDbEntity
8
0
100
AcDbBlockBegin
2
*Model_Space
70
0
10
0
20
0
30
0
3
*Model_Space
0
ENDBLK
5
21
100
AcDbEntity
8
0
100
AcDbBlockEnd
0
BLOCK
5
1C
100
AcDbEntity
8
0
100
AcDbBlockBegin
2
*Paper_Space
70
0
10
0
20
0
30
0
3
*Paper_Space
0
ENDBLK
5
1D
100
AcDbEntity
8
0
100
AcDbBlockEnd
0
BLOCK
5
24
100
AcDbEntity
8
0
100
AcDbBlockBegin
2
*Paper_Space0
70
0
10
0
20
0
30
0
3
*Paper_Space0
0
ENDBLK
5
25
100
AcDbEntity
8
0
100
AcDbBlockEnd
0
BLOCK
5
234
100
AcDbEntity
8
0
100
AcDbBlockBegin
2
DimnDraft3D1
70
0
10
0
20
0
30
0
3
DimnDraft3D1
0
MTEXT
5
229
100
AcDbEntity
8
2
62
256
6
ByLayer
370
18
48
1
60
0
100
AcDbMText
10
11.717105
20
29.993324
30
0
210
0
220
0
230
1
1
\W0.7457;29.9
40
3.5
41
0
44
1.084337
50
0
71
7
72
5
7
iso_b_vert
0
LINE
5
22B
100
AcDbEntity
8
2
62
256
6
ByLayer
370
13
48
1
60
0
100
AcDbLine
10
0
20
14.5
30
0
11
0
21
31.118324
31
0
39
0
210
0
220
0
230
1
0
LINE
5
22C
100
AcDbEntity
8
2
62
256
6
ByLayer
370
13
48
1
60
0
100
AcDbLine
10
29.9
20
-11.5
30
0
11
29.9
21
31.118324
31
0
39
0
210
0
220
0
230
1
0
LINE
5
22D
100
AcDbEntity
8
2
62
256
6
ByLayer
370
13
48
1
60
0
100
AcDbLine
10
0
20
29.118324
30
0
11
29.9
21
29.118324
31
0
39
0
210
0
220
0
230
1
0
LINE
5
22E
100
AcDbEntity
8
2
62
256
6
ByLayer
370
13
48
1
60
0
100
AcDbLine
10
0
20
29.118324
30
0
11
3.174998
21
29.536321
31
0
39
0
210
0
220
0
230
1
0
LINE
5
22F
100
AcDbEntity
8
2
62
256
6
ByLayer
370
13
48
1
60
0
100
AcDbLine
10
0
20
29.118324
30
0
11
3.175002
21
28.700328
31
0
39
0
210
0
220
0
230
1
0
LINE
5
230
100
AcDbEntity
8
2
62
256
6
ByLayer
370
13
48
1
60
0
100
AcDbLine
10
3.174998
20
29.536321
30
0
11
3.175002
21
28.700328
31
0
39
0
210
0
220
0
230
1
0
LINE
5
231
100
AcDbEntity
8
2
62
256
6
ByLayer
370
13
48
1
60
0
100
AcDbLine
10
29.9
20
29.118324
30
0
11
26.725002
21
28.700328
31
0
39
0
210
0
220
0
230
1
0
LINE
5
232
100
AcDbEntity
8
2
62
256
6
ByLayer
370
13
48
1
60
0
100
AcDbLine
10
29.9
20
29.118324
30
0
11
26.724998
21
29.536321
31
0
39
0
210
0
220
0
230
1
0
LINE
5
233
100
AcDbEntity
8
2
62
256
6
ByLayer
370
13
48
1
60
0
100
AcDbLine
10
26.725002
20
28.700328
30
0
11
26.724998
21
29.536321
31
0
39
0
210
0
220
0
230
1
0
ENDBLK
5
235
100
AcDbEntity
8
0
100
AcDbBlockEnd
0
BLOCK
5
238
100
AcDbEntity
8
0
100
AcDbBlockBegin
2
_CLOSED
70
0
10
0
20
0
30
0
3
_CLOSED
0
LINE
5
23A
100
AcDbEntity
8
0
62
256
6
ByLayer
370
-2
48
1
60
0
100
AcDbLine
10
-1
20
0.166667
30
0
11
0
21
0
31
0
39
0
210
0
220
0
230
1
0
LINE
5
23B
100
AcDbEntity
8
0
62
256
6
ByLayer
370
-2
48
1
60
0
100
AcDbLine
10
0
20
0
30
0
11
-1
21
-0.166667
31
0
39
0
210
0
220
0
230
1
0
LINE
5
23C
100
AcDbEntity
8
0
62
256
6
ByLayer
370
-2
48
1
60
0
100
AcDbLine
10
-1
20
0.166667
30
0
11
-1
21
-0.166667
31
0
39
0
210
0
220
0
230
1
0
LINE
5
23D
100
AcDbEntity
8
0
62
256
6
ByLayer
370
-2
48
1
60
0
100
AcDbLine
10
0
20
0
30
0
11
-1
21
0
31
0
39
0
210
0
220
0
230
1
0
ENDBLK
5
239
100
AcDbEntity
8
0
100
AcDbBlockEnd
0
BLOCK
5
249
100
AcDbEntity
8
0
100
AcDbBlockBegin
2
DimnDraft3D2
70
0
10
0
20
0
30
0
3
DimnDraft3D2
0
MTEXT
5
23F
100
AcDbEntity
8
SK2
62
256
6
ByLayer
370
18
48
1
60
0
100
AcDbMText
10
-47.186184
20
35.993324
30
0
210
0
220
0
230
1
1
\W0.6217;150
40
3.5
41
0
44
1.084337
50
0
71
7
72
5
7
iso_b_vert
0
LINE
5
240
100
AcDbEntity
8
SK2
62
256
6
ByLayer
370
13
48
1
60
0
100
AcDbLine
10
-120.1
20
14.5
30
0
11
-120.1
21
37.118324
31
0
39
0
210
0
220
0
230
1
0
LINE
5
241
100
AcDbEntity
8
SK2
62
256
6
ByLayer
370
13
48
1
60
0
100
AcDbLine
10
29.9
20
-11.5
30
0
11
29.9
21
37.118324
31
0
39
0
210
0
220
0
230
1
0
LINE
5
242
100
AcDbEntity
8
SK2
62
256
6
ByLayer
370
13
48
1
60
0
100
AcDbLine
10
-120.1
20
35.118324
30
0
11
29.9
21
35.118324
31
0
39
0
210
0
220
0
230
1
0
LINE
5
243
100
AcDbEntity
8
SK2
62
256
6
ByLayer
370
13
48
1
60
0
100
AcDbLine
10
-120.1
20
35.118324
30
0
11
-116.925002
21
35.536321
31
0
39
0
210
0
220
0
230
1
0
LINE
5
244
100
AcDbEntity
8
SK2
62
256
6
ByLayer
370
13
48
1
60
0
100
AcDbLine
10
-120.1
20
35.118324
30
0
11
-116.924998
21
34.700328
31
0
39
0
210
0
220
0
230
1
0
LINE
5
245
100
AcDbEntity
8
SK2
62
256
6
ByLayer
370
13
48
1
60
0
100
AcDbLine
10
-116.925002
20
35.536321
30
0
11
-116.924998
21
34.700328
31
0
39
0
210
0
220
0
230
1
0
LINE
5
246
100
AcDbEntity
8
SK2
62
256
6
ByLayer
370
13
48
1
60
0
100
AcDbLine
10
29.9
20
35.118324
30
0
11
26.725002
21
34.700328
31
0
39
0
210
0
220
0
230
1
0
LINE
5
247
100
AcDbEntity
8
SK2
62
256
6
ByLayer
370
13
48
1
60
0
100
AcDbLine
10
29.9
20
35.118324
30
0
11
26.724998
21
35.536321
31
0
39
0
210
0
220
0
230
1
0
LINE
5
248
100
AcDbEntity
8
SK2
62
256
6
ByLayer
370
13
48
1
60
0
100
AcDbLine
10
26.725002
20
34.700328
30
0
11
26.724998
21
35.536321
31
0
39
0
210
0
220
0
230
1
0
ENDBLK
5
24A
100
AcDbEntity
8
0
100
AcDbBlockEnd
0
BLOCK
5
257
100
AcDbEntity
8
0
100
AcDbBlockBegin
2
DimnDraft3D3
70
0
10
0
20
0
30
0
3
DimnDraft3D3
0
MTEXT
5
24D
100
AcDbEntity
8
2
62
256
6
ByLayer
370
18
48
1
60
0
100
AcDbMText
10
18.684211
20
-25.725049
30
0
210
0
220
0
230
1
1
\W0.6740;20
40
3.5
41
0
44
1.084337
50
0
71
7
72
5
7
iso_b_vert
0
LINE
5
24E
100
AcDbEntity
8
2
62
256
6
ByLayer
370
13
48
1
60
0
100
AcDbLine
10
29.9
20
-15.5
30
0
11
29.9
21
-28.600049
31
0
39
0
210
0
220
0
230
1
0
LINE
5
24F
100
AcDbEntity
8
2
62
256
6
ByLayer
370
13
48
1
60
0
100
AcDbLine
10
9.9
20
-14.5
30
0
11
9.9
21
-28.600049
31
0
39
0
210
0
220
0
230
1
0
LINE
5
250
100
AcDbEntity
8
2
62
256
6
ByLayer
370
13
48
1
60
0
100
AcDbLine
10
29.9
20
-26.600049
30
0
11
9.9
21
-26.600049
31
0
39
0
210
0
220
0
230
1
0
LINE
5
251
100
AcDbEntity
8
2
62
256
6
ByLayer
370
13
48
1
60
0
100
AcDbLine
10
29.9
20
-26.600049
30
0
11
26.725002
21
-27.018045
31
0
39
0
210
0
220
0
230
1
0
LINE
5
252
100
AcDbEntity
8
2
62
256
6
ByLayer
370
13
48
1
60
0
100
AcDbLine
10
29.9
20
-26.600049
30
0
11
26.724998
21
-26.182052
31
0
39
0
210
0
220
0
230
1
0
LINE
5
253
100
AcDbEntity
8
2
62
256
6
ByLayer
370
13
48
1
60
0
100
AcDbLine
10
26.725002
20
-27.018045
30
0
11
26.724998
21
-26.182052
31
0
39
0
210
0
220
0
230
1
0
LINE
5
254
100
AcDbEntity
8
2
62
256
6
ByLayer
370
13
48
1
60
0
100
AcDbLine
10
9.9
20
-26.600049
30
0
11
13.074998
21
-26.182052
31
0
39
0
210
0
220
0
230
1
0
LINE
5
255
100
AcDbEntity
8
2
62
256
6
ByLayer
370
13
48
1
60
0
100
AcDbLine
10
9.9
20
-26.600049
30
0
11
13.075002
21
-27.018045
31
0
39
0
210
0
220
0
230
1
0
LINE
5
256
100
AcDbEntity
8
2
62
256
6
ByLayer
370
13
48
1
60
0
100
AcDbLine
10
13.074998
20
-26.182052
30
0
11
13.075002
21
-27.018045
31
0
39
0
210
0
220
0
230
1
0
ENDBLK
5
258
100
AcDbEntity
8
0
100
AcDbBlockEnd
0
BLOCK
5
265
100
AcDbEntity
8
0
100
AcDbBlockBegin
2
DimnDraft3D4
70
0
10
0
20
0
30
0
3
DimnDraft3D4
0
MTEXT
5
25B
100
AcDbEntity
8
2
62
256
6
ByLayer
370
18
48
1
60
0
100
AcDbMText
10
54.125
20
-1.715789
30
0
210
0
220
0
230
1
1
\W0.6740;26
40
3.5
41
0
44
1.084337
50
90
71
7
72
5
7
iso_b_vert
0
LINE
5
25C
100
AcDbEntity
8
2
62
256
6
ByLayer
370
13
48
1
60
0
100
AcDbLine
10
2
20
12.5
30
0
11
57
21
12.5
31
0
39
0
210
0
220
0
230
1
0
LINE
5
25D
100
AcDbEntity
8
2
62
256
6
ByLayer
370
13
48
1
60
0
100
AcDbLine
10
31.9
20
-13.5
30
0
11
57
21
-13.5
31
0
39
0
210
0
220
0
230
1
0
LINE
5
25E
100
AcDbEntity
8
2
62
256
6
ByLayer
370
13
48
1
60
0
100
AcDbLine
10
55
20
12.5
30
0
11
55
21
-13.5
31
0
39
0
210
0
220
0
230
1
0
LINE
5
25F
100
AcDbEntity
8
2
62
256
6
ByLayer
370
13
48
1
60
0
100
AcDbLine
10
55
20
12.5
30
0
11
55.417997
21
9.325002
31
0
39
0
210
0
220
0
230
1
0
LINE
5
260
100
AcDbEntity
8
2
62
256
6
ByLayer
370
13
48
1
60
0
100
AcDbLine
10
55
20
12.5
30
0
11
54.582003
21
9.324998
31
0
39
0
210
0
220
0
230
1
0
LINE
5
261
100
AcDbEntity
8
2
62
256
6
ByLayer
370
13
48
1
60
0
100
AcDbLine
10
55.417997
20
9.325002
30
0
11
54.582003
21
9.324998
31
0
39
0
210
0
220
0
230
1
0
LINE
5
262
100
AcDbEntity
8
2
62
256
6
ByLayer
370
13
48
1
60
0
100
AcDbLine
10
55
20
-13.5
30
0
11
54.582003
21
-10.325002
31
0
39
0
210
0
220
0
230
1
0
LINE
5
263
100
AcDbEntity
8
2
62
256
6
ByLayer
370
13
48
1
60
0
100
AcDbLine
10
55
20
-13.5
30
0
11
55.417997
21
-10.324998
31
0
39
0
210
0
220
0
230
1
0
LINE
5
264
100
AcDbEntity
8
2
62
256
6
ByLayer
370
13
48
1
60
0
100
AcDbLine
10
54.582003
20
-10.325002
30
0
11
55.417997
21
-10.324998
31
0
39
0
210
0
220
0
230
1
0
ENDBLK
5
266
100
AcDbEntity
8
0
100
AcDbBlockEnd
0
BLOCK
5
273
100
AcDbEntity
8
0
100
AcDbBlockBegin
2
DimnDraft3D5
70
0
10
0
20
0
30
0
3
DimnDraft3D5
0
MTEXT
5
269
100
AcDbEntity
8
2
62
256
6
ByLayer
370
18
48
1
60
0
100
AcDbMText
10
47.125
20
-24.445789
30
0
210
0
220
0
230
1
1
\W0.5404;2
40
3.5
41
0
44
1.084337
50
90
71
7
72
5
7
iso_b_vert
0
LINE
5
26A
100
AcDbEntity
8
2
62
256
6
ByLayer
370
13
48
1
60
0
100
AcDbLine
10
31.9
20
-13.5
30
0
11
50
21
-13.5
31
0
39
0
210
0
220
0
230
1
0
LINE
5
26B
100
AcDbEntity
8
2
62
256
6
ByLayer
370
13
48
1
60
0
100
AcDbLine
10
31.9
20
-11.5
30
0
11
50
21
-11.5
31
0
39
0
210
0
220
0
230
1
0
LINE
5
26C
100
AcDbEntity
8
2
62
256
6
ByLayer
370
13
48
1
60
0
100
AcDbLine
10
48
20
-2.75
30
0
11
48
21
-25.320789
31
0
39
0
210
0
220
0
230
1
0
LINE
5
26D
100
AcDbEntity
8
2
62
256
6
ByLayer
370
13
48
1
60
0
100
AcDbLine
10
48
20
-13.5
30
0
11
48.417997
21
-16.674998
31
0
39
0
210
0
220
0
230
1
0
LINE
5
26E
100
AcDbEntity
8
2
62
256
6
ByLayer
370
13
48
1
60
0
100
AcDbLine
10
48
20
-13.5
30
0
11
47.582003
21
-16.675002
31
0
39
0
210
0
220
0
230
1
0
LINE
5
26F
100
AcDbEntity
8
2
62
256
6
ByLayer
370
13
48
1
60
0
100
AcDbLine
10
48.417997
20
-16.674998
30
0
11
47.582003
21
-16.675002
31
0
39
0
210
0
220
0
230
1
0
LINE
5
270
100
AcDbEntity
8
2
62
256
6
ByLayer
370
13
48
1
60
0
100
AcDbLine
10
48
20
-11.5
30
0
11
47.582003
21
-8.325002
31
0
39
0
210
0
220
0
230
1
0
LINE
5
271
100
AcDbEntity
8
2
62
256
6
ByLayer
370
13
48
1
60
0
100
AcDbLine
10
48
20
-11.5
30
0
11
48.417997
21
-8.324998
31
0
39
0
210
0
220
0
230
1
0
LINE
5
272
100
AcDbEntity
8
2
62
256
6
ByLayer
370
13
48
1
60
0
100
AcDbLine
10
47.582003
20
-8.325002
30
0
11
48.417997
21
-8.324998
31
0
39
0
210
0
220
0
230
1
0
ENDBLK
5
274
100
AcDbEntity
8
0
100
AcDbBlockEnd
0
ENDSEC
0
SECTION
2
ENTITIES
0
ARC
5
135
100
AcDbEntity
8
SK1
62
256
6
ByLayer
370
18
48
1
60
0
100
AcDbCircle
39
0
10
1.227723
20
-13.975
30
0
40
1.59999999999944
210
0
220
0
230
-1
100
AcDbArc
50
90
51
134.815568
0
ARC
5
136
100
AcDbEntity
8
1
62
256
6
ByLayer
370
18
48
1
60
0
100
AcDbCircle
39
0
10
1.227723
20
-13.975
30
0
40
1.60000000013348
210
0
220
0
230
-1
100
AcDbArc
50
134.815568
51
153.055642
0
ARC
5
137
100
AcDbEntity
8
1
62
256
6
ByLayer
370
18
48
1
60
0
100
AcDbCircle
39
0
10
7.6
20
-10.15
30
0
40
1.6
210
0
220
0
230
1
100
AcDbArc
50
180
51
270
0
ARC
5
138
100
AcDbEntity
8
1
62
256
6
ByLayer
370
18
48
1
60
0
100
AcDbCircle
39
0
10
7.6
20
-10.15
30
0
40
1.6
210
0
220
0
230
1
100
AcDbArc
50
180
51
270
0
ARC
5
139
100
AcDbEntity
8
1
62
256
6
ByLayer
370
18
48
1
60
0
100
AcDbCircle
39
0
10
1.227723
20
-13.975
30
0
40
1.59999999999998
210
0
220
0
230
-1
100
AcDbArc
50
90
51
153.055642
0
ELLIPSE
5
13A
100
AcDbEntity
8
SK1
62
256
6
ByLayer
370
18
48
1
60
0
100
AcDbEllipse
10
-1.227723
20
12.506981
30
0
11
1.6000000000011
21
1.61702248813289E-15
31
0
210
0
220
0
230
-1
40
0.004363
41
0.788617102650185
42
1.5707963267949
0
ELLIPSE
5
13B
100
AcDbEntity
8
1
62
256
6
ByLayer
370
18
48
1
60
0
100
AcDbEllipse
10
-1.227723
20
12.506981
30
0
11
1.59999999992613
21
1.61702248805712E-15
31
0
210
0
220
0
230
-1
40
0.004363
41
0.261799387798639
42
0.7886171026663
0
ELLIPSE
5
13C
100
AcDbEntity
8
1
62
256
6
ByLayer
370
13
48
1
60
0
100
AcDbEllipse
10
21.974248
20
-11.630414
30
0
11
0.979582052813645
21
-0.301726209296602
31
0
210
0
220
0
230
-1
40
0.270086
41
1.9880759027959
42
2.11639244211167
0
ELLIPSE
5
13D
100
AcDbEntity
8
1
62
256
6
ByLayer
370
13
48
1
60
0
100
AcDbEllipse
10
21.974248
20
-13.369586
30
0
11
0.979582052121111
21
0.301726209207345
31
0
210
0
220
0
230
-1
40
0.270086
41
-2.11639244199748
42
-1.98807590260364
0
ELLIPSE
5
13E
100
AcDbEntity
8
1
62
256
6
ByLayer
370
13
48
1
60
0
100
AcDbEllipse
10
21.974248
20
-13.369586
30
0
11
0.998914191206393
21
0.226032306434755
31
0
210
0
220
0
230
-1
40
0.206112
41
-2.07998265368279
42
-1.87325735051603
0
ELLIPSE
5
13F
100
AcDbEntity
8
1
62
256
6
ByLayer
370
13
48
1
60
0
100
AcDbEllipse
10
21.974248
20
-11.630414
30
0
11
0.99891419103865
21
-0.226032306414415
31
0
210
0
220
0
230
-1
40
0.206112
41
1.87325735048806
42
2.07998265368814
0
ELLIPSE
5
140
100
AcDbEntity
8
1
62
256
6
ByLayer
370
13
48
1
60
0
100
AcDbEllipse
10
29.27413
20
-12.5
30
0
11
-6.1541317860938
21
7.53638888751072E-16
31
0
210
0
220
0
230
1
40
0.121869
41
1.12302990717099
42
1.18682389135614
0
ELLIPSE
5
141
100
AcDbEntity
8
1
62
256
6
ByLayer
370
13
48
1
60
0
100
AcDbEllipse
10
29.27413
20
-12.5
30
0
11
-6.1541317860938
21
7.53638888751072E-16
31
0
210
0
220
0
230
1
40
0.121869
41
-1.18682389135615
42
-1.12302990717099
0
ELLIPSE
5
142
100
AcDbEntity
8
1
62
256
6
ByLayer
370
13
48
1
60
0
100
AcDbEllipse
10
29.27413
20
-12.5
30
0
11
6.11757100421471
21
-1.03045062467393E-09
31
0
210
0
220
0
230
-1
40
0.073559
41
-2.06016834867194
42
-1.95476876356964
0
ELLIPSE
5
143
100
AcDbEntity
8
1
62
256
6
ByLayer
370
13
48
1
60
0
100
AcDbEllipse
10
29.27413
20
-12.5
30
0
11
6.11757104640044
21
3.04530330863573E-09
31
0
210
0
220
0
230
-1
40
0.073559
41
1.95476876608766
42
2.06016835057
0
ELLIPSE
5
144
100
AcDbEntity
8
1
62
256
6
ByLayer
370
13
48
1
60
0
100
AcDbEllipse
10
26.973627
20
-12.5
30
0
11
1.22363010761299
21
-1.31255083819018E-10
31
0
210
0
220
0
230
-1
40
0.367758
41
-2.41547853536019
42
-2.06016834785639
0
ELLIPSE
5
145
100
AcDbEntity
8
1
62
256
6
ByLayer
370
13
48
1
60
0
100
AcDbEllipse
10
26.686071
20
-12.5
30
0
11
0.899729549228212
21
0.0397735827990325
31
0
210
0
220
0
230
-1
40
0.498193
41
-1.09832266758605
42
-1.00525796856399
0
ELLIPSE
5
146
100
AcDbEntity
8
1
62
256
6
ByLayer
370
13
48
1
60
0
100
AcDbEllipse
10
26.686071
20
-12.5
30
0
11
0.899729535728529
21
-0.0397735758889474
31
0
210
0
220
0
230
-1
40
0.498193
41
1.00525797671418
42
1.09832267688389
0
ELLIPSE
5
147
100
AcDbEntity
8
1
62
256
6
ByLayer
370
13
48
1
60
0
100
AcDbEllipse
10
26.973627
20
-12.5
30
0
11
1.22363010706637
21
1.23664837517589E-15
31
0
210
0
220
0
230
-1
40
0.367758
41
2.06016834763588
42
2.41547853526137
0
ELLIPSE
5
148
100
AcDbEntity
8
1
62
256
6
ByLayer
370
13
48
1
60
0
100
AcDbEllipse
10
27.208716
20
-13.147616
30
0
11
-0.0309022559569112
21
-0.238002207083828
31
0
210
0
220
0
230
1
40
0.697921
41
1.71098898168884
42
2.36528722147388
0
ELLIPSE
5
149
100
AcDbEntity
8
1
62
256
6
ByLayer
370
13
48
1
60
0
100
AcDbEllipse
10
28.433781
20
-13.38078
30
0
11
0.0220590948837
21
0.238984092217269
31
0
210
0
220
0
230
1
40
0.006427
41
0.70483852440799
42
1.50127915029164
0
ELLIPSE
5
14A
100
AcDbEntity
8
1
62
256
6
ByLayer
370
13
48
1
60
0
100
AcDbEllipse
10
27.208716
20
-11.852384
30
0
11
0.0309022559561243
21
-0.238002207083931
31
0
210
0
220
0
230
1
40
0.697921
41
0.776305432118494
42
1.43060367190735
0
ELLIPSE
5
14B
100
AcDbEntity
8
1
62
256
6
ByLayer
370
13
48
1
60
0
100
AcDbEllipse
10
28.433781
20
-11.61922
30
0
11
0.0220590948836999
21
-0.238984092217269
31
0
210
0
220
0
230
1
40
0.006427
41
-1.50127915029161
42
-0.70483852440799
0
ELLIPSE
5
14C
100
AcDbEntity
8
1
62
256
6
ByLayer
370
13
48
1
60
0
100
AcDbEllipse
10
27.052761
20
-11.800476
30
0
11
-0.102096483414469
21
-0.282092729566714
31
0
210
0
220
0
230
1
40
0.694069
41
0.542728458704343
42
1.76594516923877
0
ELLIPSE
5
14D
100
AcDbEntity
8
1
62
256
6
ByLayer
370
13
48
1
60
0
100
AcDbEllipse
10
27.052761
20
-13.199524
30
0
11
0.10209648341447
21
-0.282092729566714
31
0
210
0
220
0
230
1
40
0.694069
41
1.375647484351
42
2.59886419488546
0
ELLIPSE
5
14E
100
AcDbEntity
8
1
62
256
6
ByLayer
370
13
48
1
60
0
100
AcDbEllipse
10
26.38984
20
-11.970423
30
0
11
0.0373781701033243
21
-0.145268277334479
31
0
210
0
220
0
230
1
40
0.332441
41
-1.65612709011245
42
-0.517494909403777
0
ELLIPSE
5
14F
100
AcDbEntity
8
1
62
256
6
ByLayer
370
13
48
1
60
0
100
AcDbEllipse
10
26.38984
20
-13.029577
30
0
11
0.0373781701033242
21
0.145268277334479
31
0
210
0
220
0
230
1
40
0.332441
41
0.517494909403288
42
1.65612709011235
0
ELLIPSE
5
150
100
AcDbEntity
8
1
62
256
6
ByLayer
370
13
48
1
60
0
100
AcDbEllipse
10
26.922324
20
-12.5
30
0
11
1.24191050856526
21
1.25512326287325E-15
31
0
210
0
220
0
230
-1
40
0.483127
41
2.06016834763924
42
2.41547853527115
0
ELLIPSE
5
151
100
AcDbEntity
8
1
62
256
6
ByLayer
370
13
48
1
60
0
100
AcDbEllipse
10
26.922324
20
-12.5
30
0
11
1.24191050853656
21
1.25512326284425E-15
31
0
210
0
220
0
230
-1
40
0.483127
41
-2.4154785352733
42
-2.06016834763289
0
ELLIPSE
5
152
100
AcDbEntity
8
1
62
256
6
ByLayer
370
13
48
1
60
0
100
AcDbEllipse
10
26.897945
20
-12.485184
30
0
11
0.84701770262622
21
-0.196304035370667
31
0
210
0
220
0
230
-1
40
0.854591
41
0.792533402151107
42
0.92200060687585
0
ELLIPSE
5
153
100
AcDbEntity
8
1
62
256
6
ByLayer
370
13
48
1
60
0
100
AcDbEllipse
10
26.897945
20
-12.514816
30
0
11
0.847017705633509
21
0.196304050247051
31
0
210
0
220
0
230
-1
40
0.854591
41
-0.922000590445273
42
-0.792533386374635
0
ELLIPSE
5
154
100
AcDbEntity
8
1
62
256
6
ByLayer
370
13
48
1
60
0
100
AcDbEllipse
10
27.06419
20
-11.804612
30
0
11
-0.102096483414469
21
-0.282092729566714
31
0
210
0
220
0
230
1
40
0.694069
41
0.542728458704489
42
1.76594516923877
0
ELLIPSE
5
155
100
AcDbEntity
8
1
62
256
6
ByLayer
370
13
48
1
60
0
100
AcDbEllipse
10
27.161247
20
-11.846705
30
0
11
0.136500727004937
21
0.267147059738871
31
0
210
0
220
0
230
1
40
0.677974
41
-1.35487317172658
42
-1.28974538225853
0
ELLIPSE
5
156
100
AcDbEntity
8
1
62
256
6
ByLayer
370
13
48
1
60
0
100
AcDbEllipse
10
27.161247
20
-13.153295
30
0
11
-0.136500727005176
21
0.267147059738748
31
0
210
0
220
0
230
1
40
0.677974
41
-1.85184727133183
42
-1.78671948186542
0
ELLIPSE
5
157
100
AcDbEntity
8
1
62
256
6
ByLayer
370
13
48
1
60
0
100
AcDbEllipse
10
27.06419
20
-13.195388
30
0
11
0.10209648341447
21
-0.282092729566714
31
0
210
0
220
0
230
1
40
0.694069
41
1.37564748435102
42
2.5988641948853
0
ELLIPSE
5
158
100
AcDbEntity
8
1
62
256
6
ByLayer
370
13
48
1
60
0
100
AcDbEllipse
10
26.044976
20
-12.101619
30
0
11
0.0716898187935411
21
-0.131759515335133
31
0
210
0
220
0
230
1
40
0.304525
41
-1.73499558697405
42
-0.893380334272368
0
ELLIPSE
5
159
100
AcDbEntity
8
1
62
256
6
ByLayer
370
13
48
1
60
0
100
AcDbEllipse
10
26.044976
20
-12.898381
30
0
11
0.0716898187946788
21
0.131759515334514
31
0
210
0
220
0
230
1
40
0.304525
41
0.893380334283835
42
1.73499558700915
0
ELLIPSE
5
15A
100
AcDbEntity
8
1
62
256
6
ByLayer
370
13
48
1
60
0
100
AcDbEllipse
10
27.168095
20
-13.13144
30
0
11
0.171518916221875
21
0.16787275353098
31
0
210
0
220
0
230
1
40
0.082052
41
0.518298817418325
42
0.779655640507418
0
ELLIPSE
5
15B
100
AcDbEntity
8
1
62
256
6
ByLayer
370
13
48
1
60
0
100
AcDbEllipse
10
27.202479
20
-13.146663
30
0
11
0.0417762271290194
21
0.236336088752574
31
0
210
0
220
0
230
1
40
0.675324
41
-1.34029986666137
42
-0.746155527792863
0
ELLIPSE
5
15C
100
AcDbEntity
8
1
62
256
6
ByLayer
370
13
48
1
60
0
100
AcDbEllipse
10
27.202479
20
-11.853337
30
0
11
-0.0417762271294201
21
0.236336088752503
31
0
210
0
220
0
230
1
40
0.675324
41
-2.39543712579804
42
-1.80129278693149
0
ELLIPSE
5
15D
100
AcDbEntity
8
1
62
256
6
ByLayer
370
13
48
1
60
0
100
AcDbEllipse
10
28.191288
20
-12.793452
30
0
11
-0.114657467550524
21
-0.383214907245139
31
0
210
0
220
0
230
1
40
0.149521
41
-1.52608952887372
42
-0.632305349725399
0
ELLIPSE
5
15E
100
AcDbEntity
8
1
62
256
6
ByLayer
370
13
48
1
60
0
100
AcDbEllipse
10
26.076259
20
-12.020757
30
0
11
0.111438992389702
21
0.278534290483538
31
0
210
0
220
0
230
1
40
0.391057
41
-2.99672437051169
42
-2.16330924043518
0
ELLIPSE
5
15F
100
AcDbEntity
8
1
62
256
6
ByLayer
370
13
48
1
60
0
100
AcDbEllipse
10
26.076259
20
-12.979243
30
0
11
-0.111438992389677
21
0.278534290483548
31
0
210
0
220
0
230
1
40
0.391057
41
-0.978283413154605
42
-0.144868283078238
0
ELLIPSE
5
160
100
AcDbEntity
8
1
62
256
6
ByLayer
370
13
48
1
60
0
100
AcDbEllipse
10
27.152499
20
-13.07058
30
0
11
0.29766898486033
21
0.0373252656014786
31
0
210
0
220
0
230
1
40
0.756445
41
0.856307358412566
42
1.39678515212256
0
ELLIPSE
5
161
100
AcDbEntity
8
1
62
256
6
ByLayer
370
13
48
1
60
0
100
AcDbEllipse
10
27.152499
20
-11.92942
30
0
11
-0.297668984860324
21
0.0373252656015258
31
0
210
0
220
0
230
1
40
0.756445
41
1.74480750146733
42
2.28528529517746
0
ELLIPSE
5
162
100
AcDbEntity
8
1
62
256
6
ByLayer
370
13
48
1
60
0
100
AcDbEllipse
10
28.191288
20
-12.206548
30
0
11
-0.114657467550524
21
0.383214907245139
31
0
210
0
220
0
230
1
40
0.149521
41
0.632305349725399
42
1.52608952887375
0
ELLIPSE
5
163
100
AcDbEntity
8
1
62
256
6
ByLayer
370
13
48
1
60
0
100
AcDbEllipse
10
25.948488
20
-12.883195
30
0
11
-0.0204696158072206
21
0.148596752416413
31
0
210
0
220
0
230
1
40
0.33919
41
0.36759050302926
42
1.52410589159643
0
ELLIPSE
5
164
100
AcDbEntity
8
1
62
256
6
ByLayer
370
13
48
1
60
0
100
AcDbEllipse
10
25.948488
20
-12.116805
30
0
11
0.0204696158039751
21
0.14859675241686
31
0
210
0
220
0
230
1
40
0.33919
41
1.61748676198877
42
2.77400215055226
0
ELLIPSE
5
165
100
AcDbEntity
8
1
62
256
6
ByLayer
370
13
48
1
60
0
100
AcDbEllipse
10
26.067717
20
-12.017337
30
0
11
0.111594752970791
21
0.278471921581671
31
0
210
0
220
0
230
1
40
0.394318
41
-2.99660724386008
42
-2.16841033890651
0
ELLIPSE
5
166
100
AcDbEntity
8
1
62
256
6
ByLayer
370
13
48
1
60
0
100
AcDbEllipse
10
26.067717
20
-12.982663
30
0
11
-0.111594752970814
21
0.278471921581661
31
0
210
0
220
0
230
1
40
0.394318
41
-0.973182314683526
42
-0.144985409729818
0
ELLIPSE
5
167
100
AcDbEntity
8
1
62
256
6
ByLayer
370
13
48
1
60
0
100
AcDbEllipse
10
25.914981
20
-12.106093
30
0
11
0.0722486702513559
21
0.131453906929048
31
0
210
0
220
0
230
1
40
0.303884
41
1.7362873549583
42
2.7191926110961
0
ELLIPSE
5
168
100
AcDbEntity
8
1
62
256
6
ByLayer
370
13
48
1
60
0
100
AcDbEllipse
10
25.914981
20
-12.893907
30
0
11
-0.0722486702265449
21
0.131453906942685
31
0
210
0
220
0
230
1
40
0.303884
41
0.422400042195432
42
1.40530529868891
0
ELLIPSE
5
169
100
AcDbEntity
8
1
62
256
6
ByLayer
370
13
48
1
60
0
100
AcDbEllipse
10
27.193937
20
-12.630996
30
0
11
0.288517367888856
21
-0.0822054038764276
31
0
210
0
220
0
230
1
40
0.201316
41
0.955679576570867
42
1.50320190071229
0
ELLIPSE
5
16A
100
AcDbEntity
8
1
62
256
6
ByLayer
370
13
48
1
60
0
100
AcDbEllipse
10
25.892833
20
-12.087446
30
0
11
0.122999586129777
21
0.0858551210581151
31
0
210
0
220
0
230
1
40
0.203946
41
1.85506502495939
42
2.61874247938671
0
ELLIPSE
5
16B
100
AcDbEntity
8
1
62
256
6
ByLayer
370
13
48
1
60
0
100
AcDbEllipse
10
25.892833
20
-12.912554
30
0
11
-0.122999586130244
21
0.0858551210574456
31
0
210
0
220
0
230
1
40
0.203946
41
0.522850174197525
42
1.28652762862994
0
ELLIPSE
5
16C
100
AcDbEntity
8
1
62
256
6
ByLayer
370
13
48
1
60
0
100
AcDbEllipse
10
27.193937
20
-12.369004
30
0
11
-0.288517367888757
21
-0.0822054038767749
31
0
210
0
220
0
230
1
40
0.201316
41
1.63839075288007
42
2.18591307702121
0
ELLIPSE
5
16D
100
AcDbEntity
8
1
62
256
6
ByLayer
370
13
48
1
60
0
100
AcDbEllipse
10
25.878252
20
-12.061581
30
0
11
0.136631968823999
21
0.0619007681315656
31
0
210
0
220
0
230
1
40
0.148534
41
1.88760878179936
42
2.74962710514713
0
ELLIPSE
5
16E
100
AcDbEntity
8
1
62
256
6
ByLayer
370
13
48
1
60
0
100
AcDbEllipse
10
25.878252
20
-12.938419
30
0
11
0.136631968824137
21
-0.0619007681312608
31
0
210
0
220
0
230
1
40
0.148534
41
-2.74962710515938
42
-1.88760878179977
0
ELLIPSE
5
16F
100
AcDbEntity
8
1
62
256
6
ByLayer
370
13
48
1
60
0
100
AcDbEllipse
10
25.738501
20
-13.225438
30
0
11
0.132407679423122
21
-0.0704855051041258
31
0
210
0
220
0
230
1
40
0.168583
41
-2.61018272665931
42
-1.87748899426534
0
ELLIPSE
5
170
100
AcDbEntity
8
1
62
256
6
ByLayer
370
13
48
1
60
0
100
AcDbEllipse
10
25.738501
20
-11.774562
30
0
11
0.132407679423122
21
0.0704855051041255
31
0
210
0
220
0
230
1
40
0.168583
41
1.87748899426489
42
2.61018272665848
0
ELLIPSE
5
171
100
AcDbEntity
8
1
62
256
6
ByLayer
370
13
48
1
60
0
100
AcDbEllipse
10
25.942406
20
-12.069126
30
0
11
-0.0486052519780795
21
-0.194003941919095
31
0
210
0
220
0
230
1
40
0.669878
41
-0.553928558803258
42
-0.205864067887627
0
ELLIPSE
5
172
100
AcDbEntity
8
1
62
256
6
ByLayer
370
13
48
1
60
0
100
AcDbEllipse
10
25.922373
20
-12.066064
30
0
11
5.665498452323E-17
21
0.2
31
0
210
0
220
0
230
1
40
0.909654
41
1.90677220781999
42
2.72521072930048
0
ELLIPSE
5
173
100
AcDbEntity
8
1
62
256
6
ByLayer
370
13
48
1
60
0
100
AcDbEllipse
10
25.922373
20
-12.933936
30
0
11
5.665498452323E-17
21
0.2
31
0
210
0
220
0
230
1
40
0.909654
41
0.416381924289343
42
1.23482044577494
0
ELLIPSE
5
174
100
AcDbEntity
8
1
62
256
6
ByLayer
370
13
48
1
60
0
100
AcDbEllipse
10
25.942406
20
-12.930874
30
0
11
-0.0486052519780804
21
0.194003941919095
31
0
210
0
220
0
230
1
40
0.669878
41
0.205864067887425
42
0.553928558476773
0
ELLIPSE
5
175
100
AcDbEntity
8
1
62
256
6
ByLayer
370
13
48
1
60
0
100
AcDbEllipse
10
25.738501
20
-13.225438
30
0
11
4.24912383924225E-17
21
0.15
31
0
210
0
220
0
230
1
40
0.848573
41
1.23482044578598
42
1.5707963267949
0
ELLIPSE
5
176
100
AcDbEntity
8
1
62
256
6
ByLayer
370
13
48
1
60
0
100
AcDbEllipse
10
25.738501
20
-11.774562
30
0
11
4.24912383924225E-17
21
0.15
31
0
210
0
220
0
230
1
40
0.848573
41
1.5707963267949
42
1.90677220780381
0
ELLIPSE
5
177
100
AcDbEntity
8
1
62
256
6
ByLayer
370
13
48
1
60
0
100
AcDbEllipse
10
25.434034
20
-12.066064
30
0
11
5.665498452323E-17
21
0.2
31
0
210
0
220
0
230
1
40
0.34202
41
1.90677220780374
42
2.72521072930073
0
ELLIPSE
5
178
100
AcDbEntity
8
1
62
256
6
ByLayer
370
13
48
1
60
0
100
AcDbEllipse
10
25.434034
20
-12.933936
30
0
11
-3.67381906146713E-17
21
-0.2
31
0
210
0
220
0
230
1
40
0.34202
41
-2.72521072930073
42
-1.90677220780374
0
ELLIPSE
5
179
100
AcDbEntity
8
1
62
256
6
ByLayer
370
13
48
1
60
0
100
AcDbEllipse
10
25.68303
20
-14.580141
30
0
11
-3.67381906146715E-16
21
-2.00000000000001
31
0
210
0
220
0
230
1
40
0.34202
41
-2.79252680319096
42
-2.72521072930063
0
ELLIPSE
5
17A
100
AcDbEntity
8
1
62
256
6
ByLayer
370
13
48
1
60
0
100
AcDbEllipse
10
25.68303
20
-10.419859
30
0
11
5.66549845232303E-16
21
2.00000000000001
31
0
210
0
220
0
230
1
40
0.34202
41
2.72521072930063
42
2.79252680319096
0
ELLIPSE
5
17B
100
AcDbEntity
8
1
62
256
6
ByLayer
370
13
48
1
60
0
100
AcDbEllipse
10
25.381103
20
-13.225438
30
0
11
-2.75536429610035E-17
21
-0.15
31
0
210
0
220
0
230
1
40
0.34202
41
-1.90677220780389
42
-1.5707963267949
0
ELLIPSE
5
17C
100
AcDbEntity
8
1
62
256
6
ByLayer
370
13
48
1
60
0
100
AcDbEllipse
10
25.381103
20
-11.774562
30
0
11
4.24912383924225E-17
21
0.15
31
0
210
0
220
0
230
1
40
0.34202
41
1.5707963267949
42
1.90677220780389
0
ELLIPSE
5
17D
100
AcDbEntity
8
1
62
256
6
ByLayer
370
13
48
1
60
0
100
AcDbEllipse
10
29.122654
20
-13.391305
30
0
11
0.00588101291965508
21
0.239927934361631
31
0
210
0
220
0
230
1
40
0.175234
41
0.750535400473582
42
1.50631558565104
0
ELLIPSE
5
17E
100
AcDbEntity
8
1
62
256
6
ByLayer
370
13
48
1
60
0
100
AcDbEllipse
10
29.122654
20
-11.608695
30
0
11
0.00588101291965487
21
-0.239927934361631
31
0
210
0
220
0
230
1
40
0.175234
41
-1.50631558565101
42
-0.750535400472603
0
ELLIPSE
5
17F
100
AcDbEntity
8
1
62
256
6
ByLayer
370
13
48
1
60
0
100
AcDbEllipse
10
25.427723
20
-12.5
30
0
11
5.94877337493915E-17
21
0.21
31
0
210
0
220
0
230
1
40
0.34202
41
-2.7925268031909
42
-0.349065850398889
0
ELLIPSE
5
180
100
AcDbEntity
8
1
62
256
6
ByLayer
370
13
48
1
60
0
100
AcDbEllipse
10
29.813506
20
-13.038045
30
0
11
-0.0833195870797989
21
0.0552977975045282
31
0
210
0
220
0
230
1
40
0.125168
41
-1.63384778655057
42
-1.00901921834456
0
ELLIPSE
5
181
100
AcDbEntity
8
1
62
256
6
ByLayer
370
13
48
1
60
0
100
AcDbEllipse
10
29.65209
20
-13.187793
30
0
11
-0.0532002340369041
21
0.0846742882959086
31
0
210
0
220
0
230
1
40
0.139782
41
-1.57684789387807
42
-0.739654044677236
0
ELLIPSE
5
182
100
AcDbEntity
8
1
62
256
6
ByLayer
370
13
48
1
60
0
100
AcDbEllipse
10
29.65209
20
-11.812207
30
0
11
-0.0532002340369042
21
-0.0846742882959085
31
0
210
0
220
0
230
1
40
0.139782
41
0.739654044676549
42
1.57684789387814
0
ELLIPSE
5
183
100
AcDbEntity
8
1
62
256
6
ByLayer
370
13
48
1
60
0
100
AcDbEllipse
10
29.813506
20
-11.961955
30
0
11
-0.0833195870797989
21
-0.0552977975045282
31
0
210
0
220
0
230
1
40
0.125168
41
1.00901921834427
42
1.63384778655101
0
ELLIPSE
5
184
100
AcDbEntity
8
1
62
256
6
ByLayer
370
13
48
1
60
0
100
AcDbEllipse
10
29.341387
20
-12.852129
30
0
11
0.0115886927836044
21
0.399832092508302
31
0
210
0
220
0
230
1
40
0.406594
41
-2.32325251776611
42
-1.55901218905987
0
ELLIPSE
5
185
100
AcDbEntity
8
1
62
256
6
ByLayer
370
13
48
1
60
0
100
AcDbEllipse
10
29.341387
20
-12.147871
30
0
11
0.0115886927836045
21
-0.399832092508302
31
0
210
0
220
0
230
1
40
0.406594
41
1.55901218905987
42
2.3232525177661
0
ELLIPSE
5
186
100
AcDbEntity
8
1
62
256
6
ByLayer
370
13
48
1
60
0
100
AcDbEllipse
10
29.498358
20
-13.300378
30
0
11
0.0768343605824262
21
-0.0640037579669329
31
0
210
0
220
0
230
1
40
0.131171
41
1.52167934605483
42
1.98237212656443
0
ELLIPSE
5
187
100
AcDbEntity
8
1
62
256
6
ByLayer
370
13
48
1
60
0
100
AcDbEllipse
10
29.498358
20
-11.699622
30
0
11
0.0768343605824262
21
0.0640037579669328
31
0
210
0
220
0
230
1
40
0.131171
41
-1.98237212656383
42
-1.52167934605483
0
ELLIPSE
5
188
100
AcDbEntity
8
1
62
256
6
ByLayer
370
13
48
1
60
0
100
AcDbEllipse
10
29.594545
20
-13.223676
30
0
11
-0.0526170259943807
21
0.0850379243367727
31
0
210
0
220
0
230
1
40
0.13982
41
-1.57588705481501
42
-0.737799907001283
0
ELLIPSE
5
189
100
AcDbEntity
8
1
62
256
6
ByLayer
370
13
48
1
60
0
100
AcDbEllipse
10
29.594545
20
-11.776324
30
0
11
-0.0526170259943807
21
-0.0850379243367726
31
0
210
0
220
0
230
1
40
0.13982
41
0.737799907000431
42
1.57588705481501
0
ELLIPSE
5
18A
100
AcDbEntity
8
1
62
256
6
ByLayer
370
13
48
1
60
0
100
AcDbEllipse
10
28.733781
20
-11.616497
30
0
11
-0.00779618045171942
21
-0.239873340682878
31
0
210
0
220
0
230
1
40
0.002272
41
0.730980747429423
42
1.50102006034647
0
ELLIPSE
5
18B
100
AcDbEntity
8
1
62
256
6
ByLayer
370
13
48
1
60
0
100
AcDbEllipse
10
28.733781
20
-13.383503
30
0
11
-0.00779618045171957
21
0.239873340682878
31
0
210
0
220
0
230
1
40
0.002272
41
-1.50102006034287
42
-0.730980747429493
0
ELLIPSE
5
18C
100
AcDbEntity
8
1
62
256
6
ByLayer
370
13
48
1
60
0
100
AcDbEllipse
10
29.835851
20
-13.003425
30
0
11
-0.0846406472330468
21
0.0532537401125117
31
0
210
0
220
0
230
1
40
0.065248
41
-1.67413113259343
42
-1.04586785899545
0
ELLIPSE
5
18D
100
AcDbEntity
8
1
62
256
6
ByLayer
370
13
48
1
60
0
100
AcDbEllipse
10
29.835851
20
-11.996575
30
0
11
-0.0846406472330468
21
-0.0532537401125116
31
0
210
0
220
0
230
1
40
0.065248
41
1.04586785899539
42
1.67413113259314
0
ELLIPSE
5
18E
100
AcDbEntity
8
1
62
256
6
ByLayer
370
18
48
1
60
0
100
AcDbEllipse
10
-1.227723
20
12.506981
30
0
11
1.60000000000039
21
1.61702248813217E-15
31
0
210
0
220
0
230
-1
40
0.004363
41
0.261799387799639
42
1.5707963267949
0
ELLIPSE
5
18F
100
AcDbEntity
8
1
62
256
6
ByLayer
370
18
48
1
60
0
100
AcDbEllipse
10
29.481337
20
-13.476087
30
0
11
0.239998275411547
21
-0.0147981977022157
31
0
210
0
220
0
230
-1
40
0.061458
41
1.44512847917793
42
1.74112318578032
0
ELLIPSE
5
190
100
AcDbEntity
8
1
62
256
6
ByLayer
370
18
48
1
60
0
100
AcDbEllipse
10
26.948461
20
-13.166924
30
0
11
0.057752929499109
21
0.191891975732293
31
0
210
-1.59650527093405E-15
220
-7.67208394159938E-18
230
1
40
0.998032
41
2.91077570167875
42
-2.91077570167872
0
ELLIPSE
5
191
100
AcDbEntity
8
1
62
256
6
ByLayer
370
18
48
1
60
0
100
AcDbEllipse
10
26.72387
20
-11.5
30
0
11
0.201490790302156
21
0
31
0
210
0
220
0
230
1
40
0.992601
41
-1.5707963267949
42
-1.04397591016874
0
ELLIPSE
5
192
100
AcDbEntity
8
1
62
256
6
ByLayer
370
18
48
1
60
0
100
AcDbEllipse
10
29.481337
20
-11.523913
30
0
11
0.239998277856977
21
0.0147981978483623
31
0
210
0
220
0
230
-1
40
0.061458
41
-1.74112318434395
42
-1.44512848077877
0
ELLIPSE
5
193
100
AcDbEntity
8
1
62
256
6
ByLayer
370
18
48
1
60
0
100
AcDbEllipse
10
27.063726
20
-13.356339
30
0
11
0.302024948174272
21
-0.0186199320950842
31
0
210
0
220
0
230
-1
40
0.060635
41
0.776166089238517
42
1.5627837121163
0
ELLIPSE
5
194
100
AcDbEntity
8
1
62
256
6
ByLayer
370
18
48
1
60
0
100
AcDbEllipse
10
26.948461
20
-11.833076
30
0
11
0.0577529294991086
21
-0.191891975732293
31
0
210
-1.62972770132427E-15
220
-2.32673269882162E-18
230
1
40
0.998032
41
2.91077570167872
42
-2.91077570167875
0
ELLIPSE
5
195
100
AcDbEntity
8
1
62
256
6
ByLayer
370
18
48
1
60
0
100
AcDbEllipse
10
29.948748
20
-13.003425
30
0
11
1.1330996904646E-16
21
0.4
31
0
210
0
220
0
230
1
40
0.121869
41
1.5707963267949
42
1.64009079051257
0
ELLIPSE
5
196
100
AcDbEntity
8
1
62
256
6
ByLayer
370
18
48
1
60
0
100
AcDbEllipse
10
27.063726
20
-11.643661
30
0
11
0.302024948133619
21
0.0186199320909976
31
0
210
0
220
0
230
-1
40
0.060635
41
-1.56278371220343
42
-0.776166089226882
0
ELLIPSE
5
197
100
AcDbEntity
8
1
62
256
6
ByLayer
370
18
48
1
60
0
100
AcDbEllipse
10
26.72387
20
-13.5
30
0
11
-0.201490790302156
21
2.46746902040712E-17
31
0
210
0
220
0
230
1
40
0.992601
41
-2.09761674342106
42
-1.5707963267949
0
ELLIPSE
5
198
100
AcDbEntity
8
1
62
256
6
ByLayer
370
18
48
1
60
0
100
AcDbEllipse
10
29.948748
20
-11.996575
30
0
11
1.1330996904646E-16
21
0.4
31
0
210
0
220
0
230
1
40
0.121869
41
1.50150186307722
42
1.5707963267949
0
POINT
5
6C
100
AcDbEntity
8
80
62
256
6
ByLayer
370
18
48
1
60
0
100
AcDbPoint
10
0
20
0
30
0
39
0
210
0
220
0
230
1
50
360
0
POINT
5
6E
100
AcDbEntity
8
81
62
256
6
ByLayer
370
18
48
1
60
0
100
AcDbPoint
10
29.9
20
-13.5
30
0
39
0
210
0
220
0
230
1
50
360
0
SPLINE
5
199
100
AcDbEntity
8
1
62
256
6
ByLayer
370
18
48
1
60
0
100
AcDbSpline
70
4
71
3
72
18
73
14
40
0
40
0
40
0
40
0
40
0.198736397824403
40
0.198736397824403
40
0.397253923725851
40
0.397253923725851
40
0.600307709585992
40
0.600307709585992
40
0.814575846948511
40
0.814575846948511
40
0.996239707891866
40
0.996239707891866
40
1
40
1
40
1
40
1
41
1
10
8.29999999999998
20
-10.1499999999995
30
0
41
1
10
8.29999999999998
20
-10.3212416901521
30
0
41
1
10
8.32836373022991
20
-10.4948412538961
30
0
41
1
10
8.43602497499023
20
-10.8176132254439
30
0
41
1
10
8.51663578067704
20
-10.9711586142986
30
0
41
1
10
8.71878044348949
20
-11.2427183792603
30
0
41
1
10
8.84374414029784
20
-11.363440980613
30
0
41
1
10
9.12578963963921
20
-11.5613405294224
30
0
41
1
10
9.28788163246705
20
-11.638436525677
30
0
41
1
10
9.59651845671291
20
-11.7278876935814
30
0
41
1
10
9.7444471595727
20
-11.7491452469047
30
0
41
1
10
9.89396319869459
20
-11.7499914589962
30
0
41
1
10
9.89698154486749
20
-11.7499999999994
30
0
41
1
10
9.89999999999998
20
-11.7499999999994
30
0
0
SPLINE
5
19A
100
AcDbEntity
8
1
62
256
6
ByLayer
370
13
48
1
60
0
100
AcDbSpline
70
4
71
3
72
10
73
6
40
0
40
0
40
0
40
0
40
0.807289382551453
40
0.807289382551453
40
1
40
1
40
1
40
1
41
1
10
27.3262120963125
20
-12.1239763527101
30
0
41
1
10
27.3302762008164
20
-12.0917266166074
30
0
41
1
10
27.3269568435098
20
-12.0625890561639
30
0
41
1
10
27.3156280417962
20
-12.0323687756727
30
0
41
1
10
27.3131204986914
20
-12.0267162536555
30
0
41
1
10
27.3102634152023
20
-12.0213569857359
30
0
0
SPLINE
5
19B
100
AcDbEntity
8
1
62
256
6
ByLayer
370
13
48
1
60
0
100
AcDbSpline
70
4
71
3
72
14
73
10
40
0
40
0
40
0
40
0
40
0.140335064029798
40
0.140335064029798
40
0.313324577863399
40
0.313324577863399
40
0.854437087129479
40
0.854437087129479
40
1
40
1
40
1
40
1
41
1
10
27.3102634152023
20
-12.0213569857359
30
0
41
1
10
27.3115615907815
20
-12.0199628877737
30
0
41
1
10
27.3130492807413
20
-12.0186570101209
30
0
41
1
10
27.3164306495378
20
-12.0161367259722
30
0
41
1
10
27.318387975026
20
-12.0149650781682
30
0
41
1
10
27.3261757331449
20
-12.0109713735448
30
0
41
1
10
27.3318897349344
20
-12.0094480946095
30
0
41
1
10
27.3386571441608
20
-12.0081580490781
30
0
41
1
10
27.3400859075475
20
-12.00792528395
30
0
41
1
10
27.341497419172
20
-12.0077279642513
30
0
0
SPLINE
5
19C
100
AcDbEntity
8
1
62
256
6
ByLayer
370
13
48
1
60
0
100
AcDbSpline
70
4
71
3
72
8
73
4
40
0
40
0
40
0
40
0
40
1
40
1
40
1
40
1
41
1
10
27.3414974191717
20
-12.0077279642516
30
0
41
1
10
27.3434065060312
20
-12.0074610869285
30
0
41
1
10
27.3452888609443
20
-12.0072523454912
30
0
41
1
10
27.3471477503402
20
-12.0070894641983
30
0
0
SPLINE
5
19D
100
AcDbEntity
8
1
62
256
6
ByLayer
370
13
48
1
60
0
100
AcDbSpline
70
4
71
3
72
12
73
8
40
0
40
0
40
0
40
0
40
0.271863792020762
40
0.271863792020762
40
0.680333498425164
40
0.680333498425164
40
1
40
1
40
1
40
1
41
1
10
27.3471477503394
20
-12.0070894641989
30
0
41
1
10
27.4254708389114
20
-12.0002265674811
30
0
41
1
10
27.5132950984392
20
-11.9878026478293
30
0
41
1
10
27.746593161407
20
-11.9479955102617
30
0
41
1
10
27.9026236458243
20
-11.915676082597
30
0
41
1
10
28.1875983266003
20
-11.8515250898514
30
0
41
1
10
28.3183646565651
20
-11.8173841140852
30
0
41
1
10
28.4495881472218
20
-11.8013496817015
30
0
0
SPLINE
5
19E
100
AcDbEntity
8
1
62
256
6
ByLayer
370
13
48
1
60
0
100
AcDbSpline
70
4
71
3
72
8
73
4
40
0
40
0
40
0
40
0
40
1
40
1
40
1
40
1
41
1
10
28.4495881472218
20
-11.8013496817015
30
0
41
1
10
28.5417788954044
20
-11.7900847297426
30
0
41
1
10
28.6354245830992
20
-11.7923835294104
30
0
41
1
10
28.7283398883331
20
-11.7950989996282
30
0
0
SPLINE
5
19F
100
AcDbEntity
8
1
62
256
6
ByLayer
370
13
48
1
60
0
100
AcDbSpline
70
4
71
3
72
8
73
4
40
0
40
0
40
0
40
0
40
1
40
1
40
1
40
1
41
1
10
28.7283398883331
20
-11.7950989996282
30
0
41
1
10
28.8522136636574
20
-11.798719237939
30
0
41
1
10
28.9768571353025
20
-11.7902043415041
30
0
41
1
10
29.0982800289245
20
-11.7848632937107
30
0
0
SPLINE
5
1A0
100
AcDbEntity
8
1
62
256
6
ByLayer
370
13
48
1
60
0
100
AcDbSpline
70
4
71
3
72
10
73
6
40
0
40
0
40
0
40
0
40
0.860053459941695
40
0.860053459941695
40
1
40
1
40
1
40
1
41
1
10
29.0982800289245
20
-11.7848632937107
30
0
41
1
10
29.2321716826563
20
-11.7789737806181
30
0
41
1
10
29.3692183325878
20
-11.7904163359077
30
0
41
1
10
29.5209193574704
20
-11.831586345119
30
0
41
1
10
29.5422592203893
20
-11.8379125996894
30
0
41
1
10
29.5636089363249
20
-11.8441969456024
30
0
0
SPLINE
5
1A1
100
AcDbEntity
8
1
62
256
6
ByLayer
370
13
48
1
60
0
100
AcDbSpline
70
4
71
3
72
8
73
4
40
0
40
0
40
0
40
0
40
1
40
1
40
1
40
1
41
1
10
29.5636089363248
20
-11.8441969456024
30
0
41
1
10
29.5827084170632
20
-11.8559815247944
30
0
41
1
10
29.6017609506473
20
-11.8678401691599
30
0
41
1
10
29.620768358368
20
-11.879768231866
30
0
0
SPLINE
5
1A2
100
AcDbEntity
8
1
62
256
6
ByLayer
370
13
48
1
60
0
100
AcDbSpline
70
4
71
3
72
10
73
6
40
0
40
0
40
0
40
0
40
0.776503433583243
40
0.776503433583243
40
1
40
1
40
1
40
1
41
1
10
29.6207683583679
20
-11.879768231866
30
0
41
1
10
29.5774725026343
20
-11.8780616853496
30
0
41
1
10
29.5344378625006
20
-11.8767795026365
30
0
41
1
10
29.4776224808541
20
-11.8725437813046
30
0
41
1
10
29.4648810790715
20
-11.8717412627006
30
0
41
1
10
29.4521447262338
20
-11.8711724239524
30
0
0
SPLINE
5
1A3
100
AcDbEntity
8
1
62
256
6
ByLayer
370
13
48
1
60
0
100
AcDbSpline
70
4
71
3
72
10
73
6
40
0
40
0
40
0
40
0
40
0.802218039223748
40
0.802218039223748
40
1
40
1
40
1
40
1
41
1
10
29.4521447262338
20
-11.8711724239524
30
0
41
1
10
29.3127836505348
20
-11.8649481947043
30
0
41
1
10
29.1644549248778
20
-11.8592836876205
30
0
41
1
10
28.9792703339537
20
-11.8520793322657
30
0
41
1
10
28.9422443273126
20
-11.8506438011772
30
0
41
1
10
28.9052430294063
20
-11.8493336707632
30
0
0
SPLINE
5
1A4
100
AcDbEntity
8
1
62
256
6
ByLayer
370
13
48
1
60
0
100
AcDbSpline
70
4
71
3
72
16
73
12
40
0
40
0
40
0
40
0
40
0.0308303102605419
40
0.0308303102605419
40
0.572662020821238
40
0.572662020821238
40
0.596525876635503
40
0.596525876635503
40
0.811742896024901
40
0.811742896024901
40
1
40
1
40
1
40
1
41
1
10
28.9052430294063
20
-11.8493336707632
30
0
41
1
10
28.8993536372725
20
-11.8491251410037
30
0
41
1
10
28.8934642432982
20
-11.8489164778457
30
0
41
1
10
28.7840753219571
20
-11.8450379089563
30
0
41
1
10
28.6804680881193
20
-11.841888831049
30
0
41
1
10
28.5725520075115
20
-11.8368311599413
30
0
41
1
10
28.5679952849823
20
-11.8366452775996
30
0
41
1
10
28.5223626957531
20
-11.8350463433743
30
0
41
1
10
28.4811924961802
20
-11.8354544070474
30
0
41
1
10
28.4042684809455
20
-11.838103805693
30
0
41
1
10
28.3684207998393
20
-11.8402170771321
30
0
41
1
10
28.3328798390933
20
-11.8447851112757
30
0
0
SPLINE
5
1A5
100
AcDbEntity
8
1
62
256
6
ByLayer
370
13
48
1
60
0
100
AcDbSpline
70
4
71
3
72
12
73
8
40
0
40
0
40
0
40
0
40
0.491351269778757
40
0.491351269778757
40
0.753050934981407
40
0.753050934981407
40
1
40
1
40
1
40
1
41
1
10
28.3328798390933
20
-11.8447851112757
30
0
41
1
10
28.287975282918
20
-11.8505566363416
30
0
41
1
10
28.2433932389101
20
-11.8584151362951
30
0
41
1
10
28.1762335559799
20
-11.8743804027661
30
0
41
1
10
28.1531371669221
20
-11.8814727409751
30
0
41
1
10
28.1083199167816
20
-11.8948196007531
30
0
41
1
10
28.0865899596689
20
-11.901191675911
30
0
41
1
10
28.0649336450022
20
-11.9075532698831
30
0
0
SPLINE
5
1A6
100
AcDbEntity
8
1
62
256
6
ByLayer
370
13
48
1
60
0
100
AcDbSpline
70
4
71
3
72
12
73
8
40
0
40
0
40
0
40
0
40
0.244915547318589
40
0.244915547318589
40
0.864563982028735
40
0.864563982028735
40
1
40
1
40
1
40
1
41
1
10
28.0649336450022
20
-11.9075532698831
30
0
41
1
10
27.9994204230127
20
-11.9267979347542
30
0
41
1
10
27.9343929566216
20
-11.9458728799882
30
0
41
1
10
27.7105405998204
20
-12.0114406626315
30
0
41
1
10
27.5555221571248
20
-12.056636014421
30
0
41
1
10
27.3855701545792
20
-12.1065036618152
30
0
41
1
10
27.355505723763
20
-12.1153418499744
30
0
41
1
10
27.3262120963125
20
-12.12397635271
30
0
0
SPLINE
5
1A7
100
AcDbEntity
8
1
62
256
6
ByLayer
370
13
48
1
60
0
100
AcDbSpline
70
4
71
3
72
8
73
4
40
0
40
0
40
0
40
0
40
1
40
1
40
1
40
1
41
1
10
27.3471477503394
20
-12.9929105358009
30
0
41
1
10
27.3452888609436
20
-12.9927476545079
30
0
41
1
10
27.3434065060322
20
-12.9925389130723
30
0
41
1
10
27.3414974191728
20
-12.9922720357491
30
0
0
SPLINE
5
1A8
100
AcDbEntity
8
1
62
256
6
ByLayer
370
13
48
1
60
0
100
AcDbSpline
70
4
71
3
72
14
73
10
40
0
40
0
40
0
40
0
40
0.538704325353333
40
0.538704325353333
40
0.684467013462083
40
0.684467013462083
40
0.858675811811913
40
0.858675811811913
40
1
40
1
40
1
40
1
41
1
10
27.3414974191717
20
-12.9922720357482
30
0
41
1
10
27.336304109803
20
-12.9915460465163
30
0
41
1
10
27.3308274196763
20
-12.9903958980996
30
0
41
1
10
27.3235066860403
20
-12.9875428251157
30
0
41
1
10
27.3219066564685
20
-12.9868393659515
30
0
41
1
10
27.3183879750259
20
-12.9850349218316
30
0
41
1
10
27.3164306495377
20
-12.9838632740275
30
0
41
1
10
27.3130492807491
20
-12.9813429898847
30
0
41
1
10
27.3115615907703
20
-12.9800371122811
30
0
41
1
10
27.3102634151937
20
-12.9786430143288
30
0
0
SPLINE
5
1A9
100
AcDbEntity
8
1
62
256
6
ByLayer
370
13
48
1
60
0
100
AcDbSpline
70
4
71
3
72
10
73
6
40
0
40
0
40
0
40
0
40
0.429405505457208
40
0.429405505457208
40
1
40
1
40
1
40
1
41
1
10
27.3102634152023
20
-12.9786430142639
30
0
41
1
10
27.3165911437521
20
-12.9667735702135
30
0
41
1
10
27.3213513498928
20
-12.9535492105345
30
0
41
1
10
27.3283387413341
20
-12.9201986354486
30
0
41
1
10
27.3290939581086
20
-12.8988919771566
30
0
41
1
10
27.3262120963125
20
-12.8760236472897
30
0
0
SPLINE
5
1AA
100
AcDbEntity
8
1
62
256
6
ByLayer
370
13
48
1
60
0
100
AcDbSpline
70
4
71
3
72
12
73
8
40
0
40
0
40
0
40
0
40
0.244915547318584
40
0.244915547318584
40
0.864563982028716
40
0.864563982028716
40
1
40
1
40
1
40
1
41
1
10
28.0649336450022
20
-13.0924467301167
30
0
41
1
10
27.9994204230127
20
-13.0732020652455
30
0
41
1
10
27.9343929566216
20
-13.0541271200115
30
0
41
1
10
27.7105405998204
20
-12.9885593373682
30
0
41
1
10
27.5555221571248
20
-12.9433639855787
30
0
41
1
10
27.3855701545792
20
-12.8934963381845
30
0
41
1
10
27.355505723763
20
-12.8846581500254
30
0
41
1
10
27.3262120963125
20
-12.8760236472897
30
0
0
SPLINE
5
1AB
100
AcDbEntity
8
1
62
256
6
ByLayer
370
13
48
1
60
0
100
AcDbSpline
70
4
71
3
72
12
73
8
40
0
40
0
40
0
40
0
40
0.491351269778757
40
0.491351269778757
40
0.753050934981407
40
0.753050934981407
40
1
40
1
40
1
40
1
41
1
10
28.3328798390933
20
-13.1552148887241
30
0
41
1
10
28.287975282918
20
-13.1494433636582
30
0
41
1
10
28.2433932389101
20
-13.1415848637046
30
0
41
1
10
28.1762335559799
20
-13.1256195972336
30
0
41
1
10
28.1531371669221
20
-13.1185272590246
30
0
41
1
10
28.1083199167816
20
-13.1051803992467
30
0
41
1
10
28.0865899596689
20
-13.0988083240888
30
0
41
1
10
28.0649336450022
20
-13.0924467301167
30
0
0
SPLINE
5
1AC
100
AcDbEntity
8
1
62
256
6
ByLayer
370
13
48
1
60
0
100
AcDbSpline
70
4
71
3
72
16
73
12
40
0
40
0
40
0
40
0
40
0.0308303102605419
40
0.0308303102605419
40
0.572662020821238
40
0.572662020821238
40
0.596525876635503
40
0.596525876635503
40
0.811742896024901
40
0.811742896024901
40
1
40
1
40
1
40
1
41
1
10
28.9052430294063
20
-13.1506663292366
30
0
41
1
10
28.8993536372725
20
-13.1508748589961
30
0
41
1
10
28.8934642432982
20
-13.1510835221541
30
0
41
1
10
28.7840753219571
20
-13.1549620910434
30
0
41
1
10
28.6804680881193
20
-13.1581111689507
30
0
41
1
10
28.5725520075115
20
-13.1631688400585
30
0
41
1
10
28.5679952849823
20
-13.1633547224001
30
0
41
1
10
28.5223626957531
20
-13.1649536566255
30
0
41
1
10
28.4811924961802
20
-13.1645455929524
30
0
41
1
10
28.4042684809455
20
-13.1618961943068
30
0
41
1
10
28.3684207998393
20
-13.1597829228676
30
0
41
1
10
28.3328798390933
20
-13.1552148887241
30
0
0
SPLINE
5
1AD
100
AcDbEntity
8
1
62
256
6
ByLayer
370
13
48
1
60
0
100
AcDbSpline
70
4
71
3
72
10
73
6
40
0
40
0
40
0
40
0
40
0.802218039223748
40
0.802218039223748
40
1
40
1
40
1
40
1
41
1
10
29.4521447262338
20
-13.1288275760474
30
0
41
1
10
29.3127836505348
20
-13.1350518052955
30
0
41
1
10
29.1644549248778
20
-13.1407163123793
30
0
41
1
10
28.9792703339537
20
-13.147920667734
30
0
41
1
10
28.9422443273126
20
-13.1493561988226
30
0
41
1
10
28.9052430294063
20
-13.1506663292366
30
0
0
SPLINE
5
1AE
100
AcDbEntity
8
1
62
256
6
ByLayer
370
13
48
1
60
0
100
AcDbSpline
70
4
71
3
72
10
73
6
40
0
40
0
40
0
40
0
40
0.776503433583243
40
0.776503433583243
40
1
40
1
40
1
40
1
41
1
10
29.6207683583679
20
-13.1202317681338
30
0
41
1
10
29.5774725026343
20
-13.1219383146501
30
0
41
1
10
29.5344378625006
20
-13.1232204973633
30
0
41
1
10
29.4776224808541
20
-13.1274562186952
30
0
41
1
10
29.4648810790715
20
-13.1282587372992
30
0
41
1
10
29.4521447262338
20
-13.1288275760474
30
0
0
SPLINE
5
1AF
100
AcDbEntity
8
1
62
256
6
ByLayer
370
13
48
1
60
0
100
AcDbSpline
70
4
71
3
72
8
73
4
40
0
40
0
40
0
40
0
40
1
40
1
40
1
40
1
41
1
10
29.5636089363248
20
-13.1558030543973
30
0
41
1
10
29.5827084170632
20
-13.1440184752053
30
0
41
1
10
29.6017609506473
20
-13.1321598308399
30
0
41
1
10
29.620768358368
20
-13.1202317681338
30
0
0
SPLINE
5
1B0
100
AcDbEntity
8
1
62
256
6
ByLayer
370
13
48
1
60
0
100
AcDbSpline
70
4
71
3
72
10
73
6
40
0
40
0
40
0
40
0
40
0.860053459941695
40
0.860053459941695
40
1
40
1
40
1
40
1
41
1
10
29.0982800289245
20
-13.2151367062891
30
0
41
1
10
29.2321716826563
20
-13.2210262193816
30
0
41
1
10
29.3692183325878
20
-13.2095836640921
30
0
41
1
10
29.5209193574704
20
-13.1684136548808
30
0
41
1
10
29.5422592203893
20
-13.1620874003104
30
0
41
1
10
29.5636089363249
20
-13.1558030543973
30
0
0
SPLINE
5
1B1
100
AcDbEntity
8
1
62
256
6
ByLayer
370
13
48
1
60
0
100
AcDbSpline
70
4
71
3
72
8
73
4
40
0
40
0
40
0
40
0
40
1
40
1
40
1
40
1
41
1
10
28.7283398883331
20
-13.2049010003715
30
0
41
1
10
28.8522136636574
20
-13.2012807620608
30
0
41
1
10
28.9768571353025
20
-13.2097956584956
30
0
41
1
10
29.0982800289245
20
-13.2151367062891
30
0
0
SPLINE
5
1B2
100
AcDbEntity
8
1
62
256
6
ByLayer
370
13
48
1
60
0
100
AcDbSpline
70
4
71
3
72
8
73
4
40
0
40
0
40
0
40
0
40
1
40
1
40
1
40
1
41
1
10
28.4495881472218
20
-13.1986503182982
30
0
41
1
10
28.5417788954044
20
-13.2099152702571
30
0
41
1
10
28.6354245830992
20
-13.2076164705893
30
0
41
1
10
28.7283398883331
20
-13.2049010003715
30
0
0
SPLINE
5
1B3
100
AcDbEntity
8
1
62
256
6
ByLayer
370
13
48
1
60
0
100
AcDbSpline
70
4
71
3
72
12
73
8
40
0
40
0
40
0
40
0
40
0.271863792020766
40
0.271863792020766
40
0.680333498425166
40
0.680333498425166
40
1
40
1
40
1
40
1
41
1
10
27.3471477503394
20
-12.9929105358009
30
0
41
1
10
27.4254708389114
20
-12.9997734325187
30
0
41
1
10
27.5132950984392
20
-13.0121973521705
30
0
41
1
10
27.746593161407
20
-13.0520044897381
30
0
41
1
10
27.9026236458243
20
-13.0843239174028
30
0
41
1
10
28.1875983266003
20
-13.1484749101484
30
0
41
1
10
28.3183646565651
20
-13.1826158859145
30
0
41
1
10
28.4495881472218
20
-13.1986503182982
30
0
0
SPLINE
5
1B4
100
AcDbEntity
8
1
62
256
6
ByLayer
370
13
48
1
60
0
100
AcDbSpline
70
4
71
3
72
18
73
14
40
0
40
0
40
0
40
0
40
0.447407316387175
40
0.447407316387175
40
0.605547053795674
40
0.605547053795674
40
0.784635535666972
40
0.784635535666972
40
0.885678387143329
40
0.885678387143329
40
0.977084410920521
40
0.977084410920521
40
1
40
1
40
1
40
1
41
1
10
26.3984332400777
20
-12.1028172974631
30
0
41
1
10
26.4440476624861
20
-12.0820135956953
30
0
41
1
10
26.4884120317077
20
-12.0537503383589
30
0
41
1
10
26.5394879059807
20
-12.002222548135
30
0
41
1
10
26.5521556621418
20
-11.9872714598307
30
0
41
1
10
26.576132722513
20
-11.952472554119
30
0
41
1
10
26.587234858325
20
-11.9319239733606
30
0
41
1
10
26.5999368895843
20
-11.8972707830009
30
0
41
1
10
26.6036086002949
20
-11.8841043123307
30
0
41
1
10
26.6083103046788
20
-11.8584618125185
30
0
41
1
10
26.6095747514646
20
-11.8459234788281
30
0
41
1
10
26.6097949440652
20
-11.8302504977695
30
0
41
1
10
26.6097712271323
20
-11.8270925441934
30
0
41
1
10
26.6096790521406
20
-11.8239377105635
30
0
0
SPLINE
5
1B5
100
AcDbEntity
8
1
62
256
6
ByLayer
370
13
48
1
60
0
100
AcDbSpline
70
4
71
3
72
18
73
14
40
0
40
0
40
0
40
0
40
0.0976852199958056
40
0.0976852199958056
40
0.212989397473362
40
0.212989397473362
40
0.394159987615223
40
0.394159987615223
40
0.774111539176557
40
0.774111539176557
40
0.851520792185893
40
0.851520792185893
40
1
40
1
40
1
40
1
41
1
10
26.6096790521406
20
-13.1760622894363
30
0
41
1
10
26.6100703037074
20
-13.1626710910367
30
0
41
1
10
26.6092072189939
20
-13.1491668954016
30
0
41
1
10
26.6048326306339
20
-13.1205541316321
30
0
41
1
10
26.6008494527307
20
-13.1053858827473
30
0
41
1
10
26.58752177695
20
-13.068610014984
30
0
41
1
10
26.5762967783069
20
-13.0477660524938
30
0
41
1
10
26.5367316649358
20
-12.9903420024371
30
0
41
1
10
26.5023540549561
20
-12.9593655543702
30
0
41
1
10
26.4587483922282
20
-12.9299451442389
30
0
41
1
10
26.4511702800925
20
-12.9251691192679
30
0
41
1
10
26.4287968496802
20
-12.9119556368086
30
0
41
1
10
26.4137301176241
20
-12.9041592608386
30
0
41
1
10
26.398433240088
20
-12.8971827025178
30
0
0
SPLINE
5
1B6
100
AcDbEntity
8
1
62
256
6
ByLayer
370
13
48
1
60
0
100
AcDbSpline
70
4
71
3
72
12
73
8
40
0
40
0
40
0
40
0
40
0.167536140690989
40
0.167536140690989
40
0.701521703333122
40
0.701521703333122
40
1
40
1
40
1
40
1
41
1
10
27.1514801084146
20
-12.1002383523381
30
0
41
1
10
27.1542826384416
20
-12.1026143658807
30
0
41
1
10
27.156923133606
20
-12.105119306968
30
0
41
1
10
27.1670778771217
20
-12.1161094684932
30
0
41
1
10
27.172872622145
20
-12.1260126173875
30
0
41
1
10
27.1767050040373
20
-12.1436484373411
30
0
41
1
10
27.1770407186254
20
-12.1505048862491
30
0
41
1
10
27.1762277573114
20
-12.1576517924053
30
0
0
SPLINE
5
1B7
100
AcDbEntity
8
1
62
256
6
ByLayer
370
13
48
1
60
0
100
AcDbSpline
70
4
71
3
72
14
73
10
40
0
40
0
40
0
40
0
40
0.418540706662839
40
0.418540706662839
40
0.495635548088754
40
0.495635548088754
40
0.9192675759406
40
0.9192675759406
40
1
40
1
40
1
40
1
41
1
10
27.1762277573115
20
-12.1576517924054
30
0
41
1
10
27.1729405983399
20
-12.186549866995
30
0
41
1
10
27.1733660154214
20
-12.2210401081715
30
0
41
1
10
27.1796751136804
20
-12.2648249165777
30
0
41
1
10
27.1808357853226
20
-12.2718179974982
30
0
41
1
10
27.1893735192745
20
-12.3171789590999
30
0
41
1
10
27.2018447500133
20
-12.3583893203366
30
0
41
1
10
27.2226367698617
20
-12.4060576575024
30
0
41
1
10
27.2261939220311
20
-12.4137548991069
30
0
41
1
10
27.2299358617498
20
-12.421402674886
30
0
0
SPLINE
5
1B8
100
AcDbEntity
8
1
62
256
6
ByLayer
370
13
48
1
60
0
100
AcDbSpline
70
4
71
3
72
14
73
10
40
0
40
0
40
0
40
0
40
0.335733568867722
40
0.335733568867722
40
0.507284823780995
40
0.507284823780995
40
0.847453801813234
40
0.847453801813234
40
1
40
1
40
1
40
1
41
1
10
27.2299358617497
20
-12.421402674886
30
0
41
1
10
27.237814020394
20
-12.4375040542222
30
0
41
1
10
27.2439375481741
20
-12.455017587227
30
0
41
1
10
27.2485739754979
20
-12.4823245290189
30
0
41
1
10
27.2493588445425
20
-12.4918282053234
30
0
41
1
10
27.2491329115973
20
-12.5197877948628
30
0
41
1
10
27.2455495425812
20
-12.5384819718119
30
0
41
1
10
27.2367872446761
20
-12.5635762144762
30
0
41
1
10
27.2335488022128
20
-12.5712131979923
30
0
41
1
10
27.2299358617498
20
-12.5785973251138
30
0
0
SPLINE
5
1B9
100
AcDbEntity
8
1
62
256
6
ByLayer
370
13
48
1
60
0
100
AcDbSpline
70
4
71
3
72
12
73
8
40
0
40
0
40
0
40
0
40
0.060976756616879
40
0.060976756616879
40
0.525861690105106
40
0.525861690105106
40
1
40
1
40
1
40
1
41
1
10
27.2299358617497
20
-12.5785973251138
30
0
41
1
10
27.2271003220153
20
-12.5843926007548
30
0
41
1
10
27.2243711082764
20
-12.5902157294687
30
0
41
1
10
27.2021069872871
20
-12.6398252601035
30
0
41
1
10
27.1884144324718
20
-12.6853500572246
30
0
41
1
10
27.1735997997306
20
-12.7696415491381
30
0
41
1
10
27.1725076756419
20
-12.8096442226345
30
0
41
1
10
27.1762277573115
20
-12.8423482075944
30
0
0
SPLINE
5
1BA
100
AcDbEntity
8
1
62
256
6
ByLayer
370
13
48
1
60
0
100
AcDbSpline
70
4
71
3
72
10
73
6
40
0
40
0
40
0
40
0
40
0.579743919086243
40
0.579743919086243
40
1
40
1
40
1
40
1
41
1
10
27.1762277573115
20
-12.8423482075944
30
0
41
1
10
27.1777925092618
20
-12.8561042561966
30
0
41
1
10
27.174921505156
20
-12.8687775496475
30
0
41
1
10
27.1645276574484
20
-12.8870236332862
30
0
41
1
10
27.1584959094318
20
-12.8938135799986
30
0
41
1
10
27.1514801084147
20
-12.8997616476618
30
0
0
SPLINE
5
1BB
100
AcDbEntity
8
1
62
256
6
ByLayer
370
13
48
1
60
0
100
AcDbSpline
70
4
71
3
72
8
73
4
40
0
40
0
40
0
40
0
40
1
40
1
40
1
40
1
41
1
10
26.0586453076088
20
-12.7987860265447
30
0
41
1
10
26.0709068417096
20
-12.795601627862
30
0
41
1
10
26.0832654919603
20
-12.7925397767043
30
0
41
1
10
26.0957009625836
20
-12.7895980628216
30
0
0
SPLINE
5
1BC
100
AcDbEntity
8
1
62
256
6
ByLayer
370
13
48
1
60
0
100
AcDbSpline
70
4
71
3
72
10
73
6
40
0
40
0
40
0
40
0
40
0.333728436493078
40
0.333728436493078
40
1
40
1
40
1
40
1
41
1
10
26.0957009625833
20
-12.7895980628203
30
0
41
1
10
26.0966662675297
20
-12.789369711916
30
0
41
1
10
26.0976317049565
20
-12.7891413834226
30
0
41
1
10
26.1005249812795
20
-12.7884572762572
30
0
41
1
10
26.1024532131263
20
-12.7880015643932
30
0
41
1
10
26.1043819600421
20
-12.7875459419709
30
0
0
SPLINE
5
1BD
100
AcDbEntity
8
1
62
256
6
ByLayer
370
13
48
1
60
0
100
AcDbSpline
70
4
71
3
72
28
73
24
40
0
40
0
40
0
40
0
40
0.120400997037726
40
0.120400997037726
40
0.267193145137956
40
0.267193145137956
40
0.387937930337117
40
0.387937930337117
40
0.465259875154669
40
0.465259875154669
40
0.495901986784595
40
0.495901986784595
40
0.581704825079178
40
0.581704825079178
40
0.603681926078793
40
0.603681926078793
40
0.705282320663386
40
0.705282320663386
40
0.836662945425109
40
0.836662945425109
40
0.962212936191202
40
0.962212936191202
40
1
40
1
40
1
40
1
41
1
10
26.1043819600418
20
-12.7875459419604
30
0
41
1
10
26.1386117615899
20
-12.7794599328693
30
0
41
1
10
26.1717745161216
20
-12.7684324037647
30
0
41
1
10
26.2403563386755
20
-12.7365353211853
30
0
41
1
10
26.2755506139921
20
-12.7136690286404
30
0
41
1
10
26.3293957511653
20
-12.660892476142
30
0
41
1
10
26.3505128568283
20
-12.6321078789163
30
0
41
1
10
26.3742896735613
20
-12.5787401636243
30
0
41
1
10
26.3810059815832
20
-12.5558064913008
30
0
41
1
10
26.3854587789871
20
-12.5230679722708
30
0
41
1
10
26.3861866916511
20
-12.5135688433267
30
0
41
1
10
26.3867918153238
20
-12.4779371058832
30
0
41
1
10
26.3827627697972
20
-12.4512806451341
30
0
41
1
10
26.373008547855
20
-12.420441633455
30
0
41
1
10
26.3707421946394
20
-12.4141744455803
30
0
41
1
10
26.3568990508134
20
-12.3801203715901
30
0
41
1
10
26.3406033083254
20
-12.3546564912361
30
0
41
1
10
26.2970837039401
20
-12.30459137895
30
0
41
1
10
26.2674044337148
20
-12.2813970461721
30
0
41
1
10
26.204685404423
20
-12.2451814331838
30
0
41
1
10
26.1712334060984
20
-12.2313901724935
30
0
41
1
10
26.1258807591637
20
-12.2178506325375
30
0
41
1
10
26.115191249574
20
-12.2150075058958
30
0
41
1
10
26.104381960042
20
-12.2124540580383
30
0
0
SPLINE
5
1BE
100
AcDbEntity
8
1
62
256
6
ByLayer
370
13
48
1
60
0
100
AcDbSpline
70
4
71
3
72
10
73
6
40
0
40
0
40
0
40
0
40
0.666271563875835
40
0.666271563875835
40
1
40
1
40
1
40
1
41
1
10
26.1043819600418
20
-12.2124540580394
30
0
41
1
10
26.102453213125
20
-12.2119984356169
30
0
41
1
10
26.1005249812773
20
-12.2115427237421
30
0
41
1
10
26.0976317049544
20
-12.2108586165767
30
0
41
1
10
26.0966662675287
20
-12.2106302880828
30
0
41
1
10
26.0957009625833
20
-12.2104019371788
30
0
0
SPLINE
5
1BF
100
AcDbEntity
8
1
62
256
6
ByLayer
370
13
48
1
60
0
100
AcDbSpline
70
4
71
3
72
8
73
4
40
0
40
0
40
0
40
0
40
1
40
1
40
1
40
1
41
1
10
26.0957009625832
20
-12.2104019371794
30
0
41
1
10
26.0832654919591
20
-12.2074602232966
30
0
41
1
10
26.070906841708
20
-12.2043983721374
30
0
41
1
10
26.0586453076065
20
-12.2012139734544
30
0
0
SPLINE
5
1C0
100
AcDbEntity
8
1
62
256
6
ByLayer
370
13
48
1
60
0
100
AcDbSpline
70
4
71
3
72
8
73
4
40
0
40
0
40
0
40
0
40
1
40
1
40
1
40
1
41
1
10
27.3731203716814
20
-13.1384795290668
30
0
41
1
10
27.3745825957789
20
-13.1375624116316
30
0
41
1
10
27.3760463384843
20
-13.136640691551
30
0
41
1
10
27.3775115598652
20
-13.1357144276868
30
0
0
SPLINE
5
1C1
100
AcDbEntity
8
1
62
256
6
ByLayer
370
13
48
1
60
0
100
AcDbSpline
70
4
71
3
72
12
73
8
40
0
40
0
40
0
40
0
40
0.334418366090769
40
0.334418366090769
40
0.734677033774883
40
0.734677033774883
40
1
40
1
40
1
40
1
41
1
10
28.4337805434613
20
-13.3640386726323
30
0
41
1
10
28.302267961703
20
-13.3499620637585
30
0
41
1
10
28.1723193598528
20
-13.315792719989
30
0
41
1
10
27.8995089617335
20
-13.244415035024
30
0
41
1
10
27.7541870739038
20
-13.2085496328173
30
0
41
1
10
27.5350503526796
20
-13.1617138401584
30
0
41
1
10
27.4522182729485
20
-13.1461422859047
30
0
41
1
10
27.3775115598653
20
-13.1357144276871
30
0
0
SPLINE
5
1C2
100
AcDbEntity
8
1
62
256
6
ByLayer
370
13
48
1
60
0
100
AcDbSpline
70
4
71
3
72
12
73
8
40
0
40
0
40
0
40
0
40
0.334418366090769
40
0.334418366090769
40
0.734677033774883
40
0.734677033774883
40
1
40
1
40
1
40
1
41
1
10
28.4337805434613
20
-11.6359613273675
30
0
41
1
10
28.302267961703
20
-11.6500379362413
30
0
41
1
10
28.1723193598528
20
-11.6842072800107
30
0
41
1
10
27.8995089617335
20
-11.7555849649757
30
0
41
1
10
27.7541870739038
20
-11.7914503671824
30
0
41
1
10
27.5350503526796
20
-11.8382861598414
30
0
41
1
10
27.4522182729485
20
-11.853857714095
30
0
41
1
10
27.3775115598653
20
-11.8642855723126
30
0
0
SPLINE
5
1C3
100
AcDbEntity
8
1
62
256
6
ByLayer
370
13
48
1
60
0
100
AcDbSpline
70
4
71
3
72
8
73
4
40
0
40
0
40
0
40
0
40
1
40
1
40
1
40
1
41
1
10
27.3775115598653
20
-11.8642855723126
30
0
41
1
10
27.3760463384844
20
-11.8633593084484
30
0
41
1
10
27.3745825957789
20
-11.8624375883682
30
0
41
1
10
27.3731203716814
20
-11.861520470933
30
0
0
SPLINE
5
1C4
100
AcDbEntity
8
1
62
256
6
ByLayer
370
13
48
1
60
0
100
AcDbSpline
70
4
71
3
72
18
73
14
40
0
40
0
40
0
40
0
40
0.0161194639884916
40
0.0161194639884916
40
0.0830400526233481
40
0.0830400526233481
40
0.164187348294867
40
0.164187348294867
40
0.329246171114526
40
0.329246171114526
40
0.49267383795864
40
0.49267383795864
40
1
40
1
40
1
40
1
41
1
10
26.5583760306418
20
-11.8239377105635
30
0
41
1
10
26.5583760306418
20
-11.8255219189402
30
0
41
1
10
26.5583070506514
20
-11.8271077316094
30
0
41
1
10
26.5576154305964
20
-11.8351450177349
30
0
41
1
10
26.5558959531471
20
-11.8415507935995
30
0
41
1
10
26.5503990140808
20
-11.8546716238384
30
0
41
1
10
26.5462332916851
20
-11.8613593148695
30
0
41
1
10
26.5320214661551
20
-11.879762195009
30
0
41
1
10
26.5201790807021
20
-11.8900656157794
30
0
41
1
10
26.4955030409141
20
-11.9079934703201
30
0
41
1
10
26.4824167868289
20
-11.9157470149174
30
0
41
1
10
26.4277159291731
20
-11.9442176405212
30
0
41
1
10
26.3832430916057
20
-11.958920018854
30
0
41
1
10
26.3385371190036
20
-11.9704230632842
30
0
0
SPLINE
5
1C5
100
AcDbEntity
8
1
62
256
6
ByLayer
370
13
48
1
60
0
100
AcDbSpline
70
4
71
3
72
16
73
12
40
0
40
0
40
0
40
0
40
0.17415962102223
40
0.17415962102223
40
0.671976092746537
40
0.671976092746537
40
0.83822694518602
40
0.83822694518602
40
0.929660782988591
40
0.929660782988591
40
1
40
1
40
1
40
1
41
1
10
26.3385371190036
20
-13.0295769367155
30
0
41
1
10
26.3539422148971
20
-13.033540736007
30
0
41
1
10
26.3692599827102
20
-13.0379230910721
30
0
41
1
10
26.4274830378249
20
-13.0566616328181
30
0
41
1
10
26.4706632046932
20
-13.0739590004228
30
0
41
1
10
26.5203257985212
20
-13.1100412053543
30
0
41
1
10
26.5323080918469
20
-13.1204830101197
30
0
41
1
10
26.5471462242706
20
-13.1398958219109
30
0
41
1
10
26.5517437069761
20
-13.1475989077423
30
0
41
1
10
26.5570278864055
20
-13.1622978887496
30
0
41
1
10
26.5583760306418
20
-13.1692209404175
30
0
41
1
10
26.5583760306418
20
-13.1760622894363
30
0
0
SPLINE
5
1C6
100
AcDbEntity
8
1
62
256
6
ByLayer
370
13
48
1
60
0
100
AcDbSpline
70
4
71
3
72
8
73
4
40
0
40
0
40
0
40
0
40
1
40
1
40
1
40
1
41
1
10
25.6871982348828
20
-13.2254379281352
30
0
41
1
10
25.7371072022262
20
-13.1316834670076
30
0
41
1
10
25.7829751479405
20
-13.0354809964408
30
0
41
1
10
25.8269486592888
20
-12.9384193990972
30
0
0
SPLINE
5
1C7
100
AcDbEntity
8
1
62
256
6
ByLayer
370
13
48
1
60
0
100
AcDbSpline
70
4
71
3
72
8
73
4
40
0
40
0
40
0
40
0
40
1
40
1
40
1
40
1
41
1
10
25.8269486592888
20
-12.9384193990972
30
0
41
1
10
25.8310517239117
20
-12.9293628103896
30
0
41
1
10
25.8358959391856
20
-12.9206252569403
30
0
41
1
10
25.8415296908639
20
-12.9125541120131
30
0
0
SPLINE
5
1C8
100
AcDbEntity
8
1
62
256
6
ByLayer
370
13
48
1
60
0
100
AcDbSpline
70
4
71
3
72
10
73
6
40
0
40
0
40
0
40
0
40
0.607627674029775
40
0.607627674029775
40
1
40
1
40
1
40
1
41
1
10
25.841529690864
20
-12.9125541120132
30
0
41
1
10
25.8449483939528
20
-12.9076563370191
30
0
41
1
10
25.8493450872493
20
-12.9034892047828
30
0
41
1
10
25.8571218081436
20
-12.8977432451204
30
0
41
1
10
25.8603603656148
20
-12.8957309081604
30
0
41
1
10
25.8636781743631
20
-12.8939074000141
30
0
0
SPLINE
5
1C9
100
AcDbEntity
8
1
62
256
6
ByLayer
370
13
48
1
60
0
100
AcDbSpline
70
4
71
3
72
8
73
4
40
0
40
0
40
0
40
0
40
1
40
1
40
1
40
1
41
1
10
25.863678174367
20
-12.89390740002
30
0
41
1
10
25.8740398294939
20
-12.888212508009
30
0
41
1
10
25.8856192161749
20
-12.8847883053545
30
0
41
1
10
25.8971847075066
20
-12.8831951267661
30
0
0
SPLINE
5
1CA
100
AcDbEntity
8
1
62
256
6
ByLayer
370
13
48
1
60
0
100
AcDbSpline
70
4
71
3
72
10
73
6
40
0
40
0
40
0
40
0
40
0.468522557911306
40
0.468522557911306
40
1
40
1
40
1
40
1
41
1
10
25.8971847075066
20
-12.8831951267661
30
0
41
1
10
25.9125073622826
20
-12.8810843884669
30
0
41
1
10
25.9281890938237
20
-12.8808088118436
30
0
41
1
10
25.9608326130716
20
-12.8848890210405
30
0
41
1
10
25.9781649337055
20
-12.8899435305122
30
0
41
1
10
25.9936729304055
20
-12.898381368724
30
0
0
SPLINE
5
1CB
100
AcDbEntity
8
1
62
256
6
ByLayer
370
13
48
1
60
0
100
AcDbSpline
70
4
71
3
72
10
73
6
40
0
40
0
40
0
40
0
40
0.39285874077214
40
0.39285874077214
40
1
40
1
40
1
40
1
41
1
10
25.9936729304044
20
-12.101618631276
30
0
41
1
10
25.9821344359051
20
-12.1078966794131
30
0
41
1
10
25.969596920594
20
-12.1123036927081
30
0
41
1
10
25.937371840694
20
-12.1191954049754
30
0
41
1
10
25.9169301631214
20
-12.1195248646453
30
0
41
1
10
25.8971847075166
20
-12.1168048732369
30
0
0
SPLINE
5
1CC
100
AcDbEntity
8
1
62
256
6
ByLayer
370
13
48
1
60
0
100
AcDbSpline
70
4
71
3
72
10
73
6
40
0
40
0
40
0
40
0
40
0.0840681653027228
40
0.0840681653027228
40
1
40
1
40
1
40
1
41
1
10
25.8971847075162
20
-12.1168048732354
30
0
41
1
10
25.8962010455789
20
-12.1166693710686
30
0
41
1
10
25.8952188661862
20
-12.1165210289348
30
0
41
1
10
25.8836819996079
20
-12.1146205393408
30
0
41
1
10
25.8731694732705
20
-12.1113091335963
30
0
41
1
10
25.8636781743698
20
-12.1060925999813
30
0
0
SPLINE
5
1CD
100
AcDbEntity
8
1
62
256
6
ByLayer
370
13
48
1
60
0
100
AcDbSpline
70
4
71
3
72
10
73
6
40
0
40
0
40
0
40
0
40
0.300964641608717
40
0.300964641608717
40
1
40
1
40
1
40
1
41
1
10
25.8636781743711
20
-12.1060925999725
30
0
41
1
10
25.8611279033247
20
-12.1046909399066
30
0
41
1
10
25.8586265623859
20
-12.1031785900876
30
0
41
1
10
25.8506729861664
20
-12.0977310030433
30
0
41
1
10
25.8454582450927
20
-12.093074096744
30
0
41
1
10
25.8415296908643
20
-12.0874458879869
30
0
0
SPLINE
5
1CE
100
AcDbEntity
8
1
62
256
6
ByLayer
370
13
48
1
60
0
100
AcDbSpline
70
4
71
3
72
8
73
4
40
0
40
0
40
0
40
0
40
1
40
1
40
1
40
1
41
1
10
25.8269486592881
20
-12.0615806009013
30
0
41
1
10
25.7829751479401
20
-11.9645190035581
30
0
41
1
10
25.737107202226
20
-11.8683165329917
30
0
41
1
10
25.6871982348828
20
-11.7745620718645
30
0
0
SPLINE
5
1CF
100
AcDbEntity
8
1
62
256
6
ByLayer
370
13
48
1
60
0
100
AcDbSpline
70
4
71
3
72
8
73
4
40
0
40
0
40
0
40
0
40
1
40
1
40
1
40
1
41
1
10
25.8415296908642
20
-12.0874458879871
30
0
41
1
10
25.8358959391855
20
-12.0793747430594
30
0
41
1
10
25.8310517239113
20
-12.0706371896095
30
0
41
1
10
25.8269486592881
20
-12.0615806009013
30
0
0
SPLINE
5
1D0
100
AcDbEntity
8
1
62
256
6
ByLayer
370
13
48
1
60
0
100
AcDbSpline
70
4
71
3
72
12
73
8
40
0
40
0
40
0
40
0
40
0.597224160982647
40
0.597224160982647
40
0.806459478729557
40
0.806459478729557
40
1
40
1
40
1
40
1
41
1
10
27.3674054923344
20
-11.8798638487589
30
0
41
1
10
27.3517404047312
20
-11.9020944335639
30
0
41
1
10
27.3345712719748
20
-11.9261400196396
30
0
41
1
10
27.3107775882302
20
-11.9582646899002
30
0
41
1
10
27.304453368985
20
-11.9666927725862
30
0
41
1
10
27.2922252793236
20
-11.9827153353981
30
0
41
1
10
27.2863036863561
20
-11.9903531973479
30
0
41
1
10
27.2803879305322
20
-11.9978378444513
30
0
0
SPLINE
5
1D1
100
AcDbEntity
8
1
62
256
6
ByLayer
370
13
48
1
60
0
100
AcDbSpline
70
4
71
3
72
12
73
8
40
0
40
0
40
0
40
0
40
0.0216552127699091
40
0.0216552127699091
40
0.549266071356395
40
0.549266071356395
40
1
40
1
40
1
40
1
41
1
10
27.1514801084141
20
-12.1002383523386
30
0
41
1
10
27.1524880633972
20
-12.0998121336732
30
0
41
1
10
27.1534955429719
20
-12.0993783684842
30
0
41
1
10
27.1789531871476
20
-12.0882233611289
30
0
41
1
10
27.2033813442807
20
-12.0728606149623
30
0
41
1
10
27.2454052205908
20
-12.0378036391494
30
0
41
1
10
27.2638645140883
20
-12.0187433626485
30
0
41
1
10
27.280387930535
20
-11.9978378444477
30
0
0
SPLINE
5
1D2
100
AcDbEntity
8
1
62
256
6
ByLayer
370
13
48
1
60
0
100
AcDbSpline
70
4
71
3
72
12
73
8
40
0
40
0
40
0
40
0
40
0.365727906004492
40
0.365727906004492
40
0.978437105133119
40
0.978437105133119
40
1
40
1
40
1
40
1
41
1
10
27.2803879305322
20
-13.0021621555485
30
0
41
1
10
27.2669233419134
20
-12.9851266832939
30
0
41
1
10
27.2521983132535
20
-12.9693310668445
30
0
41
1
10
27.2111353907575
20
-12.9321726096483
30
0
41
1
10
27.1828055733672
20
-12.9134646463879
30
0
41
1
10
27.1534955383431
20
-12.900621633883
30
0
41
1
10
27.1524880622417
20
-12.9001878669207
30
0
41
1
10
27.1514801084146
20
-12.8997616476617
30
0
0
SPLINE
5
1D3
100
AcDbEntity
8
1
62
256
6
ByLayer
370
13
48
1
60
0
100
AcDbSpline
70
4
71
3
72
12
73
8
40
0
40
0
40
0
40
0
40
0.597224160967102
40
0.597224160967102
40
0.806459478710096
40
0.806459478710096
40
1
40
1
40
1
40
1
41
1
10
27.3674054923344
20
-13.1201361512409
30
0
41
1
10
27.3517404047312
20
-13.0979055664358
30
0
41
1
10
27.3345712719747
20
-13.07385998036
30
0
41
1
10
27.3107775882299
20
-13.0417353100993
30
0
41
1
10
27.3044533689847
20
-13.0333072274132
30
0
41
1
10
27.2922252793233
20
-13.0172846646013
30
0
41
1
10
27.286303686356
20
-13.0096468026517
30
0
41
1
10
27.2803879305322
20
-13.0021621555485
30
0
0
SPLINE
5
1D4
100
AcDbEntity
8
1
62
256
6
ByLayer
370
13
48
1
60
0
100
AcDbSpline
70
4
71
3
72
8
73
4
40
0
40
0
40
0
40
0
40
1
40
1
40
1
40
1
41
1
10
27.2803879305321
20
-11.9978378444513
30
0
41
1
10
27.2917464413887
20
-12.0072477326729
30
0
41
1
10
27.3018184386868
20
-12.0151767999441
30
0
41
1
10
27.3102634151927
20
-12.0213569857517
30
0
0
SPLINE
5
1D5
100
AcDbEntity
8
1
62
256
6
ByLayer
370
13
48
1
60
0
100
AcDbSpline
70
4
71
3
72
12
73
8
40
0
40
0
40
0
40
0
40
0.488366722420296
40
0.488366722420296
40
0.942436355362905
40
0.942436355362905
40
1
40
1
40
1
40
1
41
1
10
27.3262120963125
20
-12.8760236472897
30
0
41
1
10
27.3283429607195
20
-12.8471478649686
30
0
41
1
10
27.3319548858697
20
-12.81053841002
30
0
41
1
10
27.3453657154376
20
-12.7321054153643
30
0
41
1
10
27.3548755278662
20
-12.6897761623978
30
0
41
1
10
27.3702301431231
20
-12.6419237977768
30
0
41
1
10
27.3720501662502
20
-12.6364601193148
30
0
41
1
10
27.3739430174867
20
-12.6309955418564
30
0
0
SPLINE
5
1D6
100
AcDbEntity
8
1
62
256
6
ByLayer
370
13
48
1
60
0
100
AcDbSpline
70
4
71
3
72
12
73
8
40
0
40
0
40
0
40
0
40
0.037828268420456
40
0.037828268420456
40
0.727108891322556
40
0.727108891322556
40
1
40
1
40
1
40
1
41
1
10
27.3739430174867
20
-12.6309955418564
30
0
41
1
10
27.3824023364264
20
-12.6326735103034
30
0
41
1
10
27.3909189581297
20
-12.634369446214
30
0
41
1
10
27.5536057521077
20
-12.6668895319116
30
0
41
1
10
27.7281123770015
20
-12.7038686630109
30
0
41
1
10
27.9808681739289
20
-12.7598467351306
30
0
41
1
10
28.0546315555727
20
-12.7764542597195
30
0
41
1
10
28.1289221872925
20
-12.7934518921109
30
0
0
SPLINE
5
1D7
100
AcDbEntity
8
1
62
256
6
ByLayer
370
13
48
1
60
0
100
AcDbSpline
70
4
71
3
72
24
73
20
40
0
40
0
40
0
40
0
40
0.0291918203657016
40
0.0291918203657016
40
0.136396538158131
40
0.136396538158131
40
0.265987867368488
40
0.265987867368488
40
0.377753358158994
40
0.377753358158994
40
0.50483938938664
40
0.50483938938664
40
0.632110922025969
40
0.632110922025969
40
0.762713398901978
40
0.762713398901978
40
0.901999958850298
40
0.901999958850298
40
1
40
1
40
1
40
1
41
1
10
25.9817115471212
20
-12.3026645496348
30
0
41
1
10
25.9860998093753
20
-12.3044474819119
30
0
41
1
10
25.990300333935
20
-12.3064103559004
30
0
41
1
10
26.0087793745321
20
-12.3161981058845
30
0
41
1
10
26.0208255768154
20
-12.3260127693964
30
0
41
1
10
26.0430843368215
20
-12.3509233846292
30
0
41
1
10
26.0527903934534
20
-12.3671107703067
30
0
41
1
10
26.066954912446
20
-12.4009440336934
30
0
41
1
10
26.07204803846
20
-12.4184320065069
30
0
41
1
10
26.0794867440361
20
-12.4577498440933
30
0
41
1
10
26.081458605176
20
-12.480486904728
30
0
41
1
10
26.0811100662915
20
-12.5251473318558
30
0
41
1
10
26.0787796342844
20
-12.547762995698
30
0
41
1
10
26.0700744334302
20
-12.5896465559556
30
0
41
1
10
26.0634978563533
20
-12.6094747545098
30
0
41
1
10
26.0457369932044
20
-12.6451667132345
30
0
41
1
10
26.0340799608659
20
-12.6612745536768
30
0
41
1
10
26.008701419119
20
-12.6835204602317
30
0
41
1
10
25.9962344198634
20
-12.6914348689801
30
0
41
1
10
25.9817115471212
20
-12.6973354503649
30
0
0
SPLINE
5
1D8
100
AcDbEntity
8
1
62
256
6
ByLayer
370
13
48
1
60
0
100
AcDbSpline
70
4
71
3
72
12
73
8
40
0
40
0
40
0
40
0
40
0.365724954919257
40
0.365724954919257
40
0.979118069631435
40
0.979118069631435
40
1
40
1
40
1
40
1
41
1
10
27.3102634152023
20
-12.9786430142639
30
0
41
1
10
27.2937361056157
20
-12.963975645064
30
0
41
1
10
27.2756371518841
20
-12.9508031460709
30
0
41
1
10
27.2250623637126
20
-12.9210449868478
30
0
41
1
10
27.1900751797186
20
-12.9075556766332
30
0
41
1
10
27.1538899332389
20
-12.9002276757454
30
0
41
1
10
27.1526851799038
20
-12.8999911977464
30
0
41
1
10
27.1514801084146
20
-12.8997616476617
30
0
0
SPLINE
5
1D9
100
AcDbEntity
8
1
62
256
6
ByLayer
370
13
48
1
60
0
100
AcDbSpline
70
4
71
3
72
12
73
8
40
0
40
0
40
0
40
0
40
0.0209717280275962
40
0.0209717280275962
40
0.549261945584352
40
0.549261945584352
40
1
40
1
40
1
40
1
41
1
10
27.1514801084148
20
-12.1002383523382
30
0
41
1
10
27.1526851798996
20
-12.1000088022477
30
0
41
1
10
27.1538899332219
20
-12.0997723242304
30
0
41
1
10
27.1853191773472
20
-12.0934074781976
30
0
41
1
10
27.2154975045281
20
-12.0825558639339
30
0
41
1
10
27.2672856302101
20
-12.0551191383897
30
0
41
1
10
27.2899815347171
20
-12.0393563962018
30
0
41
1
10
27.3102634152025
20
-12.0213569857362
30
0
0
SPLINE
5
1DA
100
AcDbEntity
8
1
62
256
6
ByLayer
370
13
48
1
60
0
100
AcDbSpline
70
4
71
3
72
12
73
8
40
0
40
0
40
0
40
0
40
0.49164663932398
40
0.49164663932398
40
0.875373657848572
40
0.875373657848572
40
1
40
1
40
1
40
1
41
1
10
27.3739430174867
20
-12.3690044581433
30
0
41
1
10
27.3580682635103
20
-12.3231747484124
30
0
41
1
10
27.3471504774152
20
-12.2768329878382
30
0
41
1
10
27.3341440987431
20
-12.2032740579305
30
0
41
1
10
27.3305268252361
20
-12.1733133611947
30
0
41
1
10
27.3274054244723
20
-12.1393950355195
30
0
41
1
10
27.3267634910172
20
-12.1314484158833
30
0
41
1
10
27.3262120963126
20
-12.12397635271
30
0
0
SPLINE
5
1DB
100
AcDbEntity
8
1
62
256
6
ByLayer
370
13
48
1
60
0
100
AcDbSpline
70
4
71
3
72
12
73
8
40
0
40
0
40
0
40
0
40
0.0378282684204534
40
0.0378282684204534
40
0.727108891322555
40
0.727108891322555
40
1
40
1
40
1
40
1
41
1
10
27.3739430174867
20
-12.3690044581433
30
0
41
1
10
27.3824023364264
20
-12.3673264896964
30
0
41
1
10
27.3909189581297
20
-12.3656305537858
30
0
41
1
10
27.5536057521077
20
-12.3331104680882
30
0
41
1
10
27.7281123770015
20
-12.2961313369889
30
0
41
1
10
27.9808681739289
20
-12.2401532648692
30
0
41
1
10
28.0546315555727
20
-12.2235457402803
30
0
41
1
10
28.1289221872925
20
-12.2065481078889
30
0
0
SPLINE
5
1DC
100
AcDbEntity
8
1
62
256
6
ByLayer
370
13
48
1
60
0
100
AcDbSpline
70
4
71
3
72
8
73
4
40
0
40
0
40
0
40
0
40
1
40
1
40
1
40
1
41
1
10
27.3775115598657
20
-11.8642855723111
30
0
41
1
10
27.3742211632921
20
-11.86941750341
30
0
41
1
10
27.3708498814567
20
-11.8746157947329
30
0
41
1
10
27.3674054923343
20
-11.8798638487594
30
0
0
SPLINE
5
1DD
100
AcDbEntity
8
1
62
256
6
ByLayer
370
13
48
1
60
0
100
AcDbSpline
70
4
71
3
72
8
73
4
40
0
40
0
40
0
40
0
40
1
40
1
40
1
40
1
41
1
10
27.3775115598653
20
-13.1357144276877
30
0
41
1
10
27.374221163292
20
-13.1305824965891
30
0
41
1
10
27.3708498814566
20
-13.1253842052669
30
0
41
1
10
27.3674054923344
20
-13.1201361512408
30
0
0
SPLINE
5
1DE
100
AcDbEntity
8
1
62
256
6
ByLayer
370
13
48
1
60
0
100
AcDbSpline
70
4
71
3
72
10
73
6
40
0
40
0
40
0
40
0
40
0.543977242056965
40
0.543977242056965
40
1
40
1
40
1
40
1
41
1
10
26.0586453076065
20
-12.7987860265476
30
0
41
1
10
26.0348598955802
20
-12.7797929243131
30
0
41
1
10
26.0082267241209
20
-12.7656303219968
30
0
41
1
10
25.9582400099704
20
-12.7499817752441
30
0
41
1
10
25.9345424108346
20
-12.7466335443042
30
0
41
1
10
25.9112725012789
20
-12.7470203643673
30
0
0
SPLINE
5
1DF
100
AcDbEntity
8
1
62
256
6
ByLayer
370
13
48
1
60
0
100
AcDbSpline
70
4
71
3
72
10
73
6
40
0
40
0
40
0
40
0
40
0.594671969867266
40
0.594671969867266
40
1
40
1
40
1
40
1
41
1
10
25.9112725012887
20
-12.2529796356323
30
0
41
1
10
25.9414272134588
20
-12.253480903056
30
0
41
1
10
25.9724285425085
20
-12.2476295699032
30
0
41
1
10
26.021404499001
20
-12.2270026290949
30
0
41
1
10
26.0407983096893
20
-12.2154651394923
30
0
41
1
10
26.0586453076066
20
-12.2012139734566
30
0
0
SPLINE
5
1E0
100
AcDbEntity
8
1
62
256
6
ByLayer
370
13
48
1
60
0
100
AcDbSpline
70
4
71
3
72
10
73
6
40
0
40
0
40
0
40
0
40
0.441584000439074
40
0.441584000439074
40
1
40
1
40
1
40
1
41
1
10
25.8682618588517
20
-12.2523779696846
30
0
41
1
10
25.8831578146863
20
-12.2597891362449
30
0
41
1
10
25.8983157146139
20
-12.2669852091049
30
0
41
1
10
25.9331615279672
20
-12.2827544954872
30
0
41
1
10
25.9530007239138
20
-12.2911945051658
30
0
41
1
10
25.9731579439907
20
-12.2992443482006
30
0
0
SPLINE
5
1E1
100
AcDbEntity
8
1
62
256
6
ByLayer
370
13
48
1
60
0
100
AcDbSpline
70
4
71
3
72
10
73
6
40
0
40
0
40
0
40
0
40
0.317001517206847
40
0.317001517206847
40
1
40
1
40
1
40
1
41
1
10
25.9112725012775
20
-12.2529796356309
30
0
41
1
10
25.9064777423953
20
-12.2536212052283
30
0
41
1
10
25.9017490867121
20
-12.2540404904654
30
0
41
1
10
25.8870718822178
20
-12.2546591626619
30
0
41
1
10
25.8773952454518
20
-12.2540353070503
30
0
41
1
10
25.8682618588517
20
-12.2523779696846
30
0
0
SPLINE
5
1E2
100
AcDbEntity
8
1
62
256
6
ByLayer
370
13
48
1
60
0
100
AcDbSpline
70
4
71
3
72
10
73
6
40
0
40
0
40
0
40
0
40
0.357650901073067
40
0.357650901073067
40
1
40
1
40
1
40
1
41
1
10
25.8682618588517
20
-12.7476220303151
30
0
41
1
10
25.8730683572599
20
-12.7467498467803
30
0
41
1
10
25.8780213367012
20
-12.746163306053
30
0
41
1
10
25.8921229263446
20
-12.7453357137272
30
0
41
1
10
25.9015680505855
20
-12.7457218464069
30
0
41
1
10
25.9112725012795
20
-12.7470203643672
30
0
0
SPLINE
5
1E3
100
AcDbEntity
8
1
62
256
6
ByLayer
370
13
48
1
60
0
100
AcDbSpline
70
4
71
3
72
10
73
6
40
0
40
0
40
0
40
0
40
0.558477308496816
40
0.558477308496816
40
1
40
1
40
1
40
1
41
1
10
25.9731579439905
20
-12.7007556517982
30
0
41
1
10
25.9529985124188
20
-12.7088063779997
30
0
41
1
10
25.9331571738854
20
-12.7172473570247
30
0
41
1
10
25.8983115077506
20
-12.733016787941
30
0
41
1
10
25.8831557478674
20
-12.7402118920567
30
0
41
1
10
25.8682618588517
20
-12.7476220303152
30
0
0
SPLINE
5
1E4
100
AcDbEntity
8
1
62
256
6
ByLayer
370
13
48
1
60
0
100
AcDbSpline
70
4
71
3
72
12
73
8
40
0
40
0
40
0
40
0
40
0.709988165001255
40
0.709988165001255
40
0.92220788847233
40
0.92220788847233
40
1
40
1
40
1
40
1
41
1
10
25.8327064157302
20
-12.2169921497357
30
0
41
1
10
25.849201252382
20
-12.2291773993892
30
0
41
1
10
25.8677573595242
20
-12.238907328806
30
0
41
1
10
25.8928332682202
20
-12.2478920543095
30
0
41
1
10
25.898736568945
20
-12.2497319513144
30
0
41
1
10
25.9068788977593
20
-12.2519095172148
30
0
41
1
10
25.9090724396469
20
-12.2524610612231
30
0
41
1
10
25.9112725012799
20
-12.2529796356247
30
0
0
SPLINE
5
1E5
100
AcDbEntity
8
1
62
256
6
ByLayer
370
13
48
1
60
0
100
AcDbSpline
70
4
71
3
72
10
73
6
40
0
40
0
40
0
40
0
40
0.735193443551149
40
0.735193443551149
40
1
40
1
40
1
40
1
41
1
10
25.9112725012795
20
-12.7470203643682
30
0
41
1
10
25.8906991613073
20
-12.7518696864525
30
0
41
1
10
25.8704915627688
20
-12.7597146502154
30
0
41
1
10
25.8454099006125
20
-12.7741789474351
30
0
41
1
10
25.8389206110604
20
-12.7784172305679
30
0
41
1
10
25.8327064157473
20
-12.7830078502173
30
0
0
SPLINE
5
1E6
100
AcDbEntity
8
1
62
256
6
ByLayer
370
13
48
1
60
0
100
AcDbSpline
70
4
71
3
72
10
73
6
40
0
40
0
40
0
40
0
40
0.333804371559252
40
0.333804371559252
40
1
40
1
40
1
40
1
41
1
10
25.9731579439905
20
-12.2992443482016
30
0
41
1
10
25.9741089610471
20
-12.2996248893469
30
0
41
1
10
25.975060222121
20
-12.3000054369527
30
0
41
1
10
25.9779107035582
20
-12.3011454865963
30
0
41
1
10
25.9798106484521
20
-12.3019050073211
30
0
41
1
10
25.9817115471212
20
-12.3026645496348
30
0
0
SPLINE
5
1E7
100
AcDbEntity
8
1
62
256
6
ByLayer
370
13
48
1
60
0
100
AcDbSpline
70
4
71
3
72
10
73
6
40
0
40
0
40
0
40
0
40
0.666195628071545
40
0.666195628071545
40
1
40
1
40
1
40
1
41
1
10
25.9817115471212
20
-12.6973354503649
30
0
41
1
10
25.9798106484532
20
-12.6980949926782
30
0
41
1
10
25.9779107035603
20
-12.6988545134026
30
0
41
1
10
25.9750602221231
20
-12.6999945630462
30
0
41
1
10
25.9741089610481
20
-12.7003751106529
30
0
41
1
10
25.9731579439904
20
-12.7007556517987
30
0
0
SPLINE
5
1E8
100
AcDbEntity
8
1
62
256
6
ByLayer
370
13
48
1
60
0
100
AcDbSpline
70
4
71
3
72
10
73
6
40
0
40
0
40
0
40
0
40
0.741839809293022
40
0.741839809293022
40
1
40
1
40
1
40
1
41
1
10
25.7775223795399
20
-12.1493043375585
30
0
41
1
10
25.7872637205793
20
-12.1686558486109
30
0
41
1
10
25.8004639767516
20
-12.1865073122959
30
0
41
1
10
25.8211300943468
20
-12.2071314552811
30
0
41
1
10
25.826795657145
20
-12.2122199747685
30
0
41
1
10
25.8327064157229
20
-12.2169921497451
30
0
0
SPLINE
5
1E9
100
AcDbEntity
8
1
62
256
6
ByLayer
370
13
48
1
60
0
100
AcDbSpline
70
4
71
3
72
10
73
6
40
0
40
0
40
0
40
0
40
0.344098564729953
40
0.344098564729953
40
1
40
1
40
1
40
1
41
1
10
25.8327064157477
20
-12.7830078502181
30
0
41
1
10
25.8248480305402
20
-12.7893524824229
30
0
41
1
10
25.8174164333952
20
-12.7962603246457
30
0
41
1
10
25.7974612534848
20
-12.8176220471631
30
0
41
1
10
25.7861446779715
20
-12.8335671682507
30
0
41
1
10
25.7775223795393
20
-12.8506956624421
30
0
0
SPLINE
5
1EA
100
AcDbEntity
8
1
62
256
6
ByLayer
370
13
48
1
60
0
100
AcDbSpline
70
4
71
3
72
8
73
4
40
0
40
0
40
0
40
0
40
1
40
1
40
1
40
1
41
1
10
25.7484695777327
20
-12.111034197691
30
0
41
1
10
25.756844178597
20
-12.1247435705185
30
0
41
1
10
25.7665807416807
20
-12.1376294334293
30
0
41
1
10
25.7775223795412
20
-12.1493043375574
30
0
0
SPLINE
5
1EB
100
AcDbEntity
8
1
62
256
6
ByLayer
370
13
48
1
60
0
100
AcDbSpline
70
4
71
3
72
8
73
4
40
0
40
0
40
0
40
0
40
1
40
1
40
1
40
1
41
1
10
25.7775223795389
20
-12.850695662442
30
0
41
1
10
25.766580741679
20
-12.8623705665696
30
0
41
1
10
25.7568441785981
20
-12.8752564294836
30
0
41
1
10
25.7484695777341
20
-12.8889658023104
30
0
0
SPLINE
5
1EC
100
AcDbEntity
8
1
62
256
6
ByLayer
370
13
48
1
60
0
100
AcDbSpline
70
4
71
3
72
8
73
4
40
0
40
0
40
0
40
0
40
1
40
1
40
1
40
1
41
1
10
25.7484695777333
20
-12.8889658023077
30
0
41
1
10
25.706994641852
20
-12.9854928089329
30
0
41
1
10
25.6641587550012
20
-13.0814898444522
30
0
41
1
10
25.6183319361237
20
-13.1759843313458
30
0
0
SPLINE
5
1ED
100
AcDbEntity
8
1
62
256
6
ByLayer
370
13
48
1
60
0
100
AcDbSpline
70
4
71
3
72
8
73
4
40
0
40
0
40
0
40
0
40
1
40
1
40
1
40
1
41
1
10
25.6183319361237
20
-11.824015668654
30
0
41
1
10
25.6641587550011
20
-11.9185101555472
30
0
41
1
10
25.7069946418517
20
-12.0145071910662
30
0
41
1
10
25.7484695777328
20
-12.111034197691
30
0
0
SPLINE
5
1EE
100
AcDbEntity
8
1
62
256
6
ByLayer
370
13
48
1
60
0
100
AcDbSpline
70
4
71
3
72
10
73
6
40
0
40
0
40
0
40
0
40
0.779724613001554
40
0.779724613001554
40
1
40
1
40
1
40
1
41
1
10
25.8487905068831
20
-12.2489756444469
30
0
41
1
10
25.8522814951948
20
-12.2489756444471
30
0
41
1
10
25.8570719807736
20
-12.249635909353
30
0
41
1
10
25.864621012228
20
-12.2514123707387
30
0
41
1
10
25.8664035390181
20
-12.2518685753746
30
0
41
1
10
25.8682618588517
20
-12.2523779696846
30
0
0
SPLINE
5
1EF
100
AcDbEntity
8
1
62
256
6
ByLayer
370
13
48
1
60
0
100
AcDbSpline
70
4
71
3
72
8
73
4
40
0
40
0
40
0
40
0
40
1
40
1
40
1
40
1
41
1
10
25.7775223795399
20
-12.1493043375584
30
0
41
1
10
25.7675268649006
20
-12.1435122809453
30
0
41
1
10
25.7585032631411
20
-12.1376815006273
30
0
41
1
10
25.7506142807835
20
-12.1320021197222
30
0
0
SPLINE
5
1F0
100
AcDbEntity
8
1
62
256
6
ByLayer
370
13
48
1
60
0
100
AcDbSpline
70
4
71
3
72
8
73
4
40
0
40
0
40
0
40
0
40
1
40
1
40
1
40
1
41
1
10
25.7506142807802
20
-12.8679978802797
30
0
41
1
10
25.7585032631378
20
-12.8623184993745
30
0
41
1
10
25.7675268648999
20
-12.8564877190549
30
0
41
1
10
25.7775223795391
20
-12.8506956624419
30
0
0
SPLINE
5
1F1
100
AcDbEntity
8
1
62
256
6
ByLayer
370
13
48
1
60
0
100
AcDbSpline
70
4
71
3
72
10
73
6
40
0
40
0
40
0
40
0
40
0.220275387008479
40
0.220275387008479
40
1
40
1
40
1
40
1
41
1
10
25.8682618588517
20
-12.7476220303151
30
0
41
1
10
25.866403539018
20
-12.7481314246252
30
0
41
1
10
25.8646210122277
20
-12.7485876292612
30
0
41
1
10
25.8570719807735
20
-12.7503640906467
30
0
41
1
10
25.8522814951945
20
-12.7510243555527
30
0
41
1
10
25.8487905068828
20
-12.7510243555528
30
0
0
SPLINE
5
1F2
100
AcDbEntity
8
1
62
256
6
ByLayer
370
13
48
1
60
0
100
AcDbSpline
70
4
71
3
72
10
73
6
40
0
40
0
40
0
40
0
40
0.491839191976824
40
0.491839191976824
40
1
40
1
40
1
40
1
41
1
10
27.3739430174867
20
-12.6309955418564
30
0
41
1
10
27.3840171195627
20
-12.5893988286916
30
0
41
1
10
27.389736079367
20
-12.5455961447976
30
0
41
1
10
27.3900896741381
20
-12.4572674285981
30
0
41
1
10
27.3843433987005
20
-12.4119484020194
30
0
41
1
10
27.3739430174867
20
-12.3690044581433
30
0
0
SPLINE
5
1F3
100
AcDbEntity
8
1
62
256
6
ByLayer
370
13
48
1
60
0
100
AcDbSpline
70
4
71
3
72
8
73
4
40
0
40
0
40
0
40
0
40
1
40
1
40
1
40
1
41
1
10
25.748469577733
20
-12.1110341976898
30
0
41
1
10
25.7491523507354
20
-12.1179636035523
30
0
41
1
10
25.7498660198605
20
-12.1249552689224
30
0
41
1
10
25.7506142807769
20
-12.1320021197178
30
0
0
SPLINE
5
1F4
100
AcDbEntity
8
1
62
256
6
ByLayer
370
13
48
1
60
0
100
AcDbSpline
70
4
71
3
72
8
73
4
40
0
40
0
40
0
40
0
40
1
40
1
40
1
40
1
41
1
10
25.7506142807768
20
-12.8679978802832
30
0
41
1
10
25.7498660198605
20
-12.8750447310774
30
0
41
1
10
25.7491523507355
20
-12.8820363964463
30
0
41
1
10
25.7484695777333
20
-12.8889658023077
30
0
0
SPLINE
5
1F5
100
AcDbEntity
8
1
62
256
6
ByLayer
370
13
48
1
60
0
100
AcDbSpline
70
4
71
3
72
10
73
6
40
0
40
0
40
0
40
0
40
0.484066971714709
40
0.484066971714709
40
1
40
1
40
1
40
1
41
1
10
29.5636089363249
20
-13.1558030543973
30
0
41
1
10
29.5463854867531
20
-13.1706675235357
30
0
41
1
10
29.5300210449059
20
-13.1867285583762
30
0
41
1
10
29.4997771424429
20
-13.2228211129402
30
0
41
1
10
29.485689560494
20
-13.2432007354708
30
0
41
1
10
29.4753143467793
20
-13.26553588596
30
0
0
SPLINE
5
1F6
100
AcDbEntity
8
1
62
256
6
ByLayer
370
13
48
1
60
0
100
AcDbSpline
70
4
71
3
72
8
73
4
40
0
40
0
40
0
40
0
40
1
40
1
40
1
40
1
41
1
10
29.4397600217523
20
-11.6561470996828
30
0
41
1
10
29.322055648593
20
-11.6316738094455
30
0
41
1
10
29.200878108611
20
-11.6222473193136
30
0
41
1
10
29.0810768987951
20
-11.6251838363331
30
0
0
SPLINE
5
1F7
100
AcDbEntity
8
1
62
256
6
ByLayer
370
13
48
1
60
0
100
AcDbSpline
70
4
71
3
72
16
73
12
40
0
40
0
40
0
40
0
40
0.565035752121982
40
0.565035752121982
40
0.802127499925978
40
0.802127499925978
40
0.909039374754918
40
0.909039374754918
40
0.963879000672096
40
0.963879000672096
40
1
40
1
40
1
40
1
41
1
10
29.4753143467793
20
-13.26553588596
30
0
41
1
10
29.4686286509486
20
-13.2799284591265
30
0
41
1
10
29.4618879302625
20
-13.294633830097
30
0
41
1
10
29.4523712685777
20
-13.3156562005702
30
0
41
1
10
29.4495577546969
20
-13.3219044171264
30
0
41
1
10
29.4454904861867
20
-13.3309860410468
30
0
41
1
10
29.4442279534699
20
-13.3338119993625
30
0
41
1
10
29.4423215351283
20
-13.3380898023808
30
0
41
1
10
29.4416757755847
20
-13.3395406698464
30
0
41
1
10
29.4406068513424
20
-13.3419453874196
30
0
41
1
10
29.4401828059207
20
-13.3428988877762
30
0
41
1
10
29.4397600217523
20
-13.343852900317
30
0
0
SPLINE
5
1F8
100
AcDbEntity
8
1
62
256
6
ByLayer
370
13
48
1
60
0
100
AcDbSpline
70
4
71
3
72
8
73
4
40
0
40
0
40
0
40
0
40
1
40
1
40
1
40
1
41
1
10
29.4397600217523
20
-13.343852900317
30
0
41
1
10
29.322055648593
20
-13.3683261905543
30
0
41
1
10
29.200878108611
20
-13.3777526806862
30
0
41
1
10
29.0810768987951
20
-13.3748161636666
30
0
0
SPLINE
5
1F9
100
AcDbEntity
8
1
62
256
6
ByLayer
370
13
48
1
60
0
100
AcDbSpline
70
4
71
3
72
16
73
12
40
0
40
0
40
0
40
0
40
0.565035752121982
40
0.565035752121982
40
0.802127499925977
40
0.802127499925977
40
0.909039374754918
40
0.909039374754918
40
0.963879000672096
40
0.963879000672096
40
1
40
1
40
1
40
1
41
1
10
29.4753143467793
20
-11.7344641140397
30
0
41
1
10
29.4686286509489
20
-11.7200715408731
30
0
41
1
10
29.4618879302625
20
-11.7053661699027
30
0
41
1
10
29.4523712685777
20
-11.6843437994296
30
0
41
1
10
29.4495577546969
20
-11.6780955828733
30
0
41
1
10
29.4454904861867
20
-11.669013958953
30
0
41
1
10
29.4442279534699
20
-11.6661880006373
30
0
41
1
10
29.4423215351283
20
-11.661910197619
30
0
41
1
10
29.4416757755847
20
-11.6604593301533
30
0
41
1
10
29.4406068513424
20
-11.6580546125802
30
0
41
1
10
29.4401828059207
20
-11.6571011122235
30
0
41
1
10
29.4397600217523
20
-11.6561470996828
30
0
0
SPLINE
5
1FA
100
AcDbEntity
8
1
62
256
6
ByLayer
370
13
48
1
60
0
100
AcDbSpline
70
4
71
3
72
10
73
6
40
0
40
0
40
0
40
0
40
0.484066971714713
40
0.484066971714713
40
1
40
1
40
1
40
1
41
1
10
29.5636089363249
20
-11.8441969456024
30
0
41
1
10
29.5463854867531
20
-11.8293324764641
30
0
41
1
10
29.5300210449059
20
-11.8132714416236
30
0
41
1
10
29.4997771424429
20
-11.7771788870596
30
0
41
1
10
29.485689560494
20
-11.756799264529
30
0
41
1
10
29.4753143467793
20
-11.7344641140397
30
0
0
SPLINE
5
1FB
100
AcDbEntity
8
1
62
256
6
ByLayer
370
13
48
1
60
0
100
AcDbSpline
70
4
71
3
72
10
73
6
40
0
40
0
40
0
40
0
40
0.176628710800224
40
0.176628710800224
40
1
40
1
40
1
40
1
41
1
10
29.8256635776615
20
-11.9688791127026
30
0
41
1
10
29.8183722025778
20
-11.9578928819912
30
0
41
1
10
29.8104894309625
20
-11.9472891300735
30
0
41
1
10
29.7638040682909
20
-11.8902344246772
30
0
41
1
10
29.7154493527108
20
-11.8513005332015
30
0
41
1
10
29.6642473322786
20
-11.8191306794599
30
0
0
SPLINE
5
1FC
100
AcDbEntity
8
1
62
256
6
ByLayer
370
13
48
1
60
0
100
AcDbSpline
70
4
71
3
72
8
73
4
40
0
40
0
40
0
40
0
40
1
40
1
40
1
40
1
41
1
10
29.6642473322786
20
-11.8191306794599
30
0
41
1
10
29.6451065349848
20
-11.8071046569662
30
0
41
1
10
29.625925565824
20
-11.7951424320706
30
0
41
1
10
29.6067026707552
20
-11.7832483086262
30
0
0
SPLINE
5
1FD
100
AcDbEntity
8
1
62
256
6
ByLayer
370
13
48
1
60
0
100
AcDbSpline
70
4
71
3
72
10
73
6
40
0
40
0
40
0
40
0
40
0.502273026272322
40
0.502273026272322
40
1
40
1
40
1
40
1
41
1
10
29.6067026707553
20
-11.7832483086262
30
0
41
1
10
29.5891255877276
20
-11.7723725277109
30
0
41
1
10
29.5719685584501
20
-11.7607479360962
30
0
41
1
10
29.539399813568
20
-11.7356622755025
30
0
41
1
10
29.5236090237988
20
-11.7222644862228
30
0
41
1
10
29.510515563742
20
-11.7065462274313
30
0
0
SPLINE
5
1FE
100
AcDbEntity
8
1
62
256
6
ByLayer
370
13
48
1
60
0
100
AcDbSpline
70
4
71
3
72
10
73
6
40
0
40
0
40
0
40
0
40
0.502273026272322
40
0.502273026272322
40
1
40
1
40
1
40
1
41
1
10
29.6067026707553
20
-13.2167516913736
30
0
41
1
10
29.5891255877276
20
-13.2276274722888
30
0
41
1
10
29.5719685584501
20
-13.2392520639036
30
0
41
1
10
29.539399813568
20
-13.2643377244973
30
0
41
1
10
29.5236090237988
20
-13.277735513777
30
0
41
1
10
29.510515563742
20
-13.2934537725685
30
0
0
SPLINE
5
1FF
100
AcDbEntity
8
1
62
256
6
ByLayer
370
13
48
1
60
0
100
AcDbSpline
70
4
71
3
72
8
73
4
40
0
40
0
40
0
40
0
40
1
40
1
40
1
40
1
41
1
10
29.6642473322786
20
-13.1808693205399
30
0
41
1
10
29.6451065349848
20
-13.1928953430335
30
0
41
1
10
29.625925565824
20
-13.2048575679291
30
0
41
1
10
29.6067026707552
20
-13.2167516913736
30
0
0
SPLINE
5
200
100
AcDbEntity
8
1
62
256
6
ByLayer
370
13
48
1
60
0
100
AcDbSpline
70
4
71
3
72
10
73
6
40
0
40
0
40
0
40
0
40
0.176628710800224
40
0.176628710800224
40
1
40
1
40
1
40
1
41
1
10
29.8256635776615
20
-13.0311208872972
30
0
41
1
10
29.8183722025778
20
-13.0421071180086
30
0
41
1
10
29.8104894309625
20
-13.0527108699263
30
0
41
1
10
29.7638040682909
20
-13.1097655753226
30
0
41
1
10
29.7154493527108
20
-13.1486994667982
30
0
41
1
10
29.6642473322786
20
-13.1808693205399
30
0
0
SPLINE
5
201
100
AcDbEntity
8
1
62
256
6
ByLayer
370
13
48
1
60
0
100
AcDbSpline
70
4
71
3
72
10
73
6
40
0
40
0
40
0
40
0
40
0.828685679108716
40
0.828685679108716
40
1
40
1
40
1
40
1
41
1
10
29.6207683583679
20
-13.1202317681338
30
0
41
1
10
29.6686097493866
20
-13.0948789414492
30
0
41
1
10
29.7147633392972
20
-13.0640732076022
30
0
41
1
10
29.7604070337687
20
-13.0171710550483
30
0
41
1
10
29.7679488590384
20
-13.0086600414273
30
0
41
1
10
29.7749800271743
20
-12.9997620498896
30
0
0
SPLINE
5
202
100
AcDbEntity
8
1
62
256
6
ByLayer
370
13
48
1
60
0
100
AcDbSpline
70
4
71
3
72
10
73
6
40
0
40
0
40
0
40
0
40
0.828685679108716
40
0.828685679108716
40
1
40
1
40
1
40
1
41
1
10
29.6207683583679
20
-11.879768231866
30
0
41
1
10
29.6686097493866
20
-11.9051210585506
30
0
41
1
10
29.7147633392972
20
-11.9359267923975
30
0
41
1
10
29.7604070337687
20
-11.9828289449514
30
0
41
1
10
29.7679488590384
20
-11.9913399585725
30
0
41
1
10
29.7749800271743
20
-12.0002379501102
30
0
0
SPLINE
5
203
100
AcDbEntity
8
1
62
256
6
ByLayer
370
13
48
1
60
0
100
AcDbSpline
70
4
71
3
72
12
73
8
40
0
40
0
40
0
40
0
40
0.0880792633922689
40
0.0880792633922689
40
0.576107189837383
40
0.576107189837383
40
1
40
1
40
1
40
1
41
1
10
29.504081816943
20
-12.8521290402488
30
0
41
1
10
29.5140661440235
20
-12.8524184249714
30
0
41
1
10
29.5240551161812
20
-12.8525607797163
30
0
41
1
10
29.5893799480028
20
-12.8524346063378
30
0
41
1
10
29.6447000295702
20
-12.8503756036338
30
0
41
1
10
29.7480735369365
20
-12.8477193102368
30
0
41
1
10
29.7961214732616
20
-12.8463032538922
30
0
41
1
10
29.8441651422481
20
-12.8447404067389
30
0
0
SPLINE
5
204
100
AcDbEntity
8
1
62
256
6
ByLayer
370
13
48
1
60
0
100
AcDbSpline
70
4
71
3
72
10
73
6
40
0
40
0
40
0
40
0
40
0.595894712070617
40
0.595894712070617
40
1
40
1
40
1
40
1
41
1
10
29.796439687712
20
-12.9719580408746
30
0
41
1
10
29.8128914645872
20
-12.9501903503931
30
0
41
1
10
29.8267183907984
20
-12.9257700986571
30
0
41
1
10
29.840810212682
20
-12.8820989810863
30
0
41
1
10
29.8440390421828
20
-12.8633404430765
30
0
41
1
10
29.8441651422482
20
-12.8447404067389
30
0
0
SPLINE
5
205
100
AcDbEntity
8
1
62
256
6
ByLayer
370
13
48
1
60
0
100
AcDbSpline
70
4
71
3
72
8
73
4
40
0
40
0
40
0
40
0
40
1
40
1
40
1
40
1
41
1
10
29.7749800271743
20
-12.9997620498896
30
0
41
1
10
29.7822263732841
20
-12.9905917491492
30
0
41
1
10
29.7893744966751
20
-12.9813061430797
30
0
41
1
10
29.796439687712
20
-12.9719580408746
30
0
0
SPLINE
5
206
100
AcDbEntity
8
1
62
256
6
ByLayer
370
13
48
1
60
0
100
AcDbSpline
70
4
71
3
72
8
73
4
40
0
40
0
40
0
40
0
40
1
40
1
40
1
40
1
41
1
10
29.7749800271743
20
-12.0002379501102
30
0
41
1
10
29.7822263732841
20
-12.0094082508506
30
0
41
1
10
29.7893744966751
20
-12.0186938569201
30
0
41
1
10
29.796439687712
20
-12.0280419591251
30
0
0
SPLINE
5
207
100
AcDbEntity
8
1
62
256
6
ByLayer
370
13
48
1
60
0
100
AcDbSpline
70
4
71
3
72
10
73
6
40
0
40
0
40
0
40
0
40
0.595894712070617
40
0.595894712070617
40
1
40
1
40
1
40
1
41
1
10
29.796439687712
20
-12.0280419591251
30
0
41
1
10
29.8128914645872
20
-12.0498096496067
30
0
41
1
10
29.8267183907984
20
-12.0742299013426
30
0
41
1
10
29.840810212682
20
-12.1179010189134
30
0
41
1
10
29.8440390421828
20
-12.1366595569233
30
0
41
1
10
29.8441651422482
20
-12.1552595932609
30
0
0
SPLINE
5
208
100
AcDbEntity
8
1
62
256
6
ByLayer
370
13
48
1
60
0
100
AcDbSpline
70
4
71
3
72
16
73
12
40
0
40
0
40
0
40
0
40
0.550547840515593
40
0.550547840515593
40
0.792876062772848
40
0.792876062772848
40
0.904227776395907
40
0.904227776395907
40
0.964015152759446
40
0.964015152759446
40
1
40
1
40
1
40
1
41
1
10
29.510515563742
20
-13.2934537725686
30
0
41
1
10
29.4975450008677
20
-13.3024905193636
30
0
41
1
10
29.4844768135886
20
-13.3117082826938
30
0
41
1
10
29.4657548110492
20
-13.3250725082357
30
0
41
1
10
29.460032266874
20
-13.3291789905535
30
0
41
1
10
29.4517104802333
20
-13.3351826967821
30
0
41
1
10
29.4490936305623
20
-13.3370752607353
30
0
41
1
10
29.4450796636703
20
-13.3399854982631
30
0
41
1
10
29.443678727348
20
-13.3410025790443
30
0
41
1
10
29.4414390369606
20
-13.3426307945084
30
0
41
1
10
29.4405990425508
20
-13.3432415669745
30
0
41
1
10
29.4397600217523
20
-13.3438529003171
30
0
0
SPLINE
5
209
100
AcDbEntity
8
1
62
256
6
ByLayer
370
13
48
1
60
0
100
AcDbSpline
70
4
71
3
72
12
73
8
40
0
40
0
40
0
40
0
40
0.0880792633922689
40
0.0880792633922689
40
0.576107189837383
40
0.576107189837383
40
1
40
1
40
1
40
1
41
1
10
29.504081816943
20
-12.147870959751
30
0
41
1
10
29.5140661440235
20
-12.1475815750284
30
0
41
1
10
29.5240551161812
20
-12.1474392202835
30
0
41
1
10
29.5893799480028
20
-12.1475653936619
30
0
41
1
10
29.6447000295702
20
-12.1496243963659
30
0
41
1
10
29.7480735369365
20
-12.152280689763
30
0
41
1
10
29.7961214732616
20
-12.1536967461075
30
0
41
1
10
29.8441651422481
20
-12.1552595932609
30
0
0
SPLINE
5
20A
100
AcDbEntity
8
1
62
256
6
ByLayer
370
13
48
1
60
0
100
AcDbSpline
70
4
71
3
72
16
73
12
40
0
40
0
40
0
40
0
40
0.550547840515593
40
0.550547840515593
40
0.792876062772848
40
0.792876062772848
40
0.904227776395907
40
0.904227776395907
40
0.964015152759446
40
0.964015152759446
40
1
40
1
40
1
40
1
41
1
10
29.510515563742
20
-11.7065462274312
30
0
41
1
10
29.4975450008677
20
-11.6975094806361
30
0
41
1
10
29.4844768135886
20
-11.688291717306
30
0
41
1
10
29.4657548110492
20
-11.674927491764
30
0
41
1
10
29.460032266874
20
-11.6708210094462
30
0
41
1
10
29.4517104802333
20
-11.6648173032177
30
0
41
1
10
29.4490936305623
20
-11.6629247392645
30
0
41
1
10
29.4450796636703
20
-11.6600145017366
30
0
41
1
10
29.443678727348
20
-11.6589974209554
30
0
41
1
10
29.4414390369606
20
-11.6573692054914
30
0
41
1
10
29.4405990425508
20
-11.6567584330253
30
0
41
1
10
29.4397600217523
20
-11.6561470996827
30
0
0
SPLINE
5
20B
100
AcDbEntity
8
1
62
256
6
ByLayer
370
13
48
1
60
0
100
AcDbSpline
70
4
71
3
72
8
73
4
40
0
40
0
40
0
40
0
40
1
40
1
40
1
40
1
41
1
10
29.0810768987951
20
-13.3748161636666
30
0
41
1
10
28.9666740375912
20
-13.3715081378724
30
0
41
1
10
28.8499584372937
20
-13.3625338394279
30
0
41
1
10
28.7337805434613
20
-13.3667617720499
30
0
0
SPLINE
5
20C
100
AcDbEntity
8
1
62
256
6
ByLayer
370
13
48
1
60
0
100
AcDbSpline
70
4
71
3
72
10
73
6
40
0
40
0
40
0
40
0
40
0.202374079532489
40
0.202374079532489
40
1
40
1
40
1
40
1
41
1
10
28.8939768523292
20
-12.8533326201232
30
0
41
1
10
28.9366335743464
20
-12.8521473391052
30
0
41
1
10
28.9793460209675
20
-12.8516530985142
30
0
41
1
10
29.1872289032592
20
-12.8488211110945
30
0
41
1
10
29.3524723046481
20
-12.8489066014578
30
0
41
1
10
29.504081816943
20
-12.8521290402488
30
0
0
SPLINE
5
20D
100
AcDbEntity
8
1
62
256
6
ByLayer
370
13
48
1
60
0
100
AcDbSpline
70
4
71
3
72
8
73
4
40
0
40
0
40
0
40
0
40
1
40
1
40
1
40
1
41
1
10
29.0810768987951
20
-11.6251838363331
30
0
41
1
10
28.9666740375912
20
-11.6284918621274
30
0
41
1
10
28.8499584372937
20
-11.6374661605719
30
0
41
1
10
28.7337805434613
20
-11.6332382279498
30
0
0
SPLINE
5
20E
100
AcDbEntity
8
1
62
256
6
ByLayer
370
13
48
1
60
0
100
AcDbSpline
70
4
71
3
72
10
73
6
40
0
40
0
40
0
40
0
40
0.202374079532489
40
0.202374079532489
40
1
40
1
40
1
40
1
41
1
10
28.8939768523292
20
-12.1466673798766
30
0
41
1
10
28.9366335743464
20
-12.1478526608946
30
0
41
1
10
28.9793460209675
20
-12.1483469014855
30
0
41
1
10
29.1872289032592
20
-12.1511788889052
30
0
41
1
10
29.3524723046481
20
-12.151093398542
30
0
41
1
10
29.504081816943
20
-12.147870959751
30
0
0
SPLINE
5
20F
100
AcDbEntity
8
1
62
256
6
ByLayer
370
13
48
1
60
0
100
AcDbSpline
70
4
71
3
72
8
73
4
40
0
40
0
40
0
40
0
40
1
40
1
40
1
40
1
41
1
10
28.7337805434613
20
-13.3667617720499
30
0
41
1
10
28.6338294385697
20
-13.3700103066635
30
0
41
1
10
28.5333593139737
20
-13.3732301528132
30
0
41
1
10
28.4337805434613
20
-13.3640386726323
30
0
0
SPLINE
5
210
100
AcDbEntity
8
1
62
256
6
ByLayer
370
13
48
1
60
0
100
AcDbSpline
70
4
71
3
72
8
73
4
40
0
40
0
40
0
40
0
40
1
40
1
40
1
40
1
41
1
10
28.7337805434613
20
-11.6332382279498
30
0
41
1
10
28.6338294385697
20
-11.6299896933363
30
0
41
1
10
28.5333593139737
20
-11.6267698471866
30
0
41
1
10
28.4337805434613
20
-11.6359613273675
30
0
0
SPLINE
5
211
100
AcDbEntity
8
1
62
256
6
ByLayer
370
13
48
1
60
0
100
AcDbSpline
70
4
71
3
72
10
73
6
40
0
40
0
40
0
40
0
40
0.412056726398416
40
0.412056726398416
40
1
40
1
40
1
40
1
41
1
10
29.8970257408962
20
-12.8447404067389
30
0
41
1
10
29.8970257408962
20
-12.8678599447049
30
0
41
1
10
29.89385361432
20
-12.8911532727637
30
0
41
1
10
29.8795476699584
20
-12.9452214635899
30
0
41
1
10
29.8654870839336
20
-12.975691201262
30
0
41
1
10
29.8480375085946
20
-13.0034252786718
30
0
0
SPLINE
5
212
100
AcDbEntity
8
1
62
256
6
ByLayer
370
13
48
1
60
0
100
AcDbSpline
70
4
71
3
72
16
73
12
40
0
40
0
40
0
40
0
40
0.144623406732697
40
0.144623406732697
40
0.340113210683642
40
0.340113210683642
40
0.361421053906806
40
0.361421053906806
40
0.96509055241744
40
0.96509055241744
40
1
40
1
40
1
40
1
41
1
10
28.3939768523293
20
-12.1503028902877
30
0
41
1
10
28.4176378728546
20
-12.1455711928759
30
0
41
1
10
28.4416309953235
20
-12.1423559652356
30
0
41
1
10
28.498193352456
20
-12.1375989059906
30
0
41
1
10
28.5308631318152
20
-12.1364437641577
30
0
41
1
10
28.5670552818254
20
-12.1364367502267
30
0
41
1
10
28.5706149406199
20
-12.1364528792925
30
0
41
1
10
28.6749938211815
20
-12.1374751896505
30
0
41
1
10
28.7757429102796
20
-12.1422564525768
30
0
41
1
10
28.8823238693043
20
-12.1462276837917
30
0
41
1
10
28.8881503958337
20
-12.1464466114652
30
0
41
1
10
28.8939768523292
20
-12.1466673798766
30
0
0
SPLINE
5
213
100
AcDbEntity
8
1
62
256
6
ByLayer
370
13
48
1
60
0
100
AcDbSpline
70
4
71
3
72
10
73
6
40
0
40
0
40
0
40
0
40
0.412056726398416
40
0.412056726398416
40
1
40
1
40
1
40
1
41
1
10
29.8970257408962
20
-12.1552595932609
30
0
41
1
10
29.8970257408962
20
-12.1321400552949
30
0
41
1
10
29.89385361432
20
-12.1088467272361
30
0
41
1
10
29.8795476699584
20
-12.0547785364099
30
0
41
1
10
29.8654870839336
20
-12.0243087987378
30
0
41
1
10
29.8480375085946
20
-11.996574721328
30
0
0
SPLINE
5
214
100
AcDbEntity
8
1
62
256
6
ByLayer
370
13
48
1
60
0
100
AcDbSpline
70
4
71
3
72
16
73
12
40
0
40
0
40
0
40
0
40
0.144623406732697
40
0.144623406732697
40
0.340113210683642
40
0.340113210683642
40
0.361421053906806
40
0.361421053906806
40
0.96509055241744
40
0.96509055241744
40
1
40
1
40
1
40
1
41
1
10
28.3939768523293
20
-12.849697109712
30
0
41
1
10
28.4176378728546
20
-12.8544288071238
30
0
41
1
10
28.4416309953235
20
-12.8576440347642
30
0
41
1
10
28.498193352456
20
-12.8624010940091
30
0
41
1
10
28.5308631318152
20
-12.8635562358421
30
0
41
1
10
28.5670552818254
20
-12.863563249773
30
0
41
1
10
28.5706149406199
20
-12.8635471207073
30
0
41
1
10
28.6749938211815
20
-12.8625248103493
30
0
41
1
10
28.7757429102796
20
-12.857743547423
30
0
41
1
10
28.8823238693043
20
-12.8537723162081
30
0
41
1
10
28.8881503958337
20
-12.8535533885346
30
0
41
1
10
28.8939768523292
20
-12.8533326201232
30
0
0
SPLINE
5
215
100
AcDbEntity
8
1
62
256
6
ByLayer
370
13
48
1
60
0
100
AcDbSpline
70
4
71
3
72
8
73
4
40
0
40
0
40
0
40
0
40
1
40
1
40
1
40
1
41
1
10
29.8480375085946
20
-11.996574721328
30
0
41
1
10
29.8406822121478
20
-11.9872224084122
30
0
41
1
10
29.8332278664848
20
-11.9779738840851
30
0
41
1
10
29.8256635776615
20
-11.9688791127026
30
0
0
SPLINE
5
216
100
AcDbEntity
8
1
62
256
6
ByLayer
370
13
48
1
60
0
100
AcDbSpline
70
4
71
3
72
8
73
4
40
0
40
0
40
0
40
0
40
1
40
1
40
1
40
1
41
1
10
29.8480375085946
20
-13.0034252786718
30
0
41
1
10
29.8406822121478
20
-13.0127775915876
30
0
41
1
10
29.8332278664848
20
-13.0220261159146
30
0
41
1
10
29.8256635776615
20
-13.0311208872972
30
0
0
SPLINE
5
217
100
AcDbEntity
8
1
62
256
6
ByLayer
370
13
48
1
60
0
100
AcDbSpline
70
4
71
3
72
16
73
12
40
0
40
0
40
0
40
0
40
0.0002204728141812
40
0.0002204728141812
40
0.28207049074326
40
0.28207049074326
40
0.563941110555105
40
0.563941110555105
40
0.999779527185927
40
0.999779527185927
40
1
40
1
40
1
40
1
41
1
10
28.1289221872925
20
-12.2065481078888
30
0
41
1
10
28.1289414547825
20
-12.2065436902226
30
0
41
1
10
28.1289607223292
20
-12.2065392728709
30
0
41
1
10
28.1536114636835
20
-12.2008875190502
30
0
41
1
10
28.1783272225085
20
-12.1952097446841
30
0
41
1
10
28.2278436851611
20
-12.1837294870882
30
0
41
1
10
28.2526291596669
20
-12.1778065022055
30
0
41
1
10
28.3159850762818
20
-12.1636141249572
30
0
41
1
10
28.3548717009099
20
-12.1562967453001
30
0
41
1
10
28.3939373139163
20
-12.1503089494873
30
0
41
1
10
28.393957083092
20
-12.1503059196862
30
0
41
1
10
28.3939768523293
20
-12.1503028902877
30
0
0
SPLINE
5
218
100
AcDbEntity
8
1
62
256
6
ByLayer
370
13
48
1
60
0
100
AcDbSpline
70
4
71
3
72
16
73
12
40
0
40
0
40
0
40
0
40
0.0002204728141812
40
0.0002204728141812
40
0.28207049074326
40
0.28207049074326
40
0.563941110555105
40
0.563941110555105
40
0.999779527185927
40
0.999779527185927
40
1
40
1
40
1
40
1
41
1
10
28.1289221872925
20
-12.793451892111
30
0
41
1
10
28.1289414547824
20
-12.7934563096307
30
0
41
1
10
28.1289607223292
20
-12.7934607271288
30
0
41
1
10
28.1536114636835
20
-12.7991124809496
30
0
41
1
10
28.1783272225085
20
-12.8047902553156
30
0
41
1
10
28.2278436851611
20
-12.8162705129116
30
0
41
1
10
28.2526291596669
20
-12.8221934977943
30
0
41
1
10
28.3159850762818
20
-12.8363858750426
30
0
41
1
10
28.3548717009099
20
-12.8437032546997
30
0
41
1
10
28.3939373139163
20
-12.8496910505124
30
0
41
1
10
28.3939570831494
20
-12.8496940799388
30
0
41
1
10
28.3939768523293
20
-12.849697109712
30
0
0
SPLINE
5
219
100
AcDbEntity
8
1
62
256
6
ByLayer
370
13
48
1
60
0
100
AcDbSpline
70
4
71
3
72
8
73
4
40
0
40
0
40
0
40
0
40
1
40
1
40
1
40
1
41
1
10
28.1289221872925
20
-12.4999999999999
30
0
41
1
10
28.2172737423047
20
-12.4999999999999
30
0
41
1
10
28.305625297317
20
-12.4999999999999
30
0
41
1
10
28.3939768523293
20
-12.4999999999999
30
0
0
SPLINE
5
21A
100
AcDbEntity
8
1
62
256
6
ByLayer
370
18
48
1
60
0
100
AcDbSpline
70
4
71
3
72
18
73
14
40
0
40
0
40
0
40
0
40
0.198736397824403
40
0.198736397824403
40
0.397253923725851
40
0.397253923725851
40
0.600307709585992
40
0.600307709585992
40
0.814575846948511
40
0.814575846948511
40
0.996239707891866
40
0.996239707891866
40
1
40
1
40
1
40
1
41
1
10
8.29999999999998
20
-10.1499999999995
30
0
41
1
10
8.29999999999998
20
-10.3212416901521
30
0
41
1
10
8.32836373022991
20
-10.4948412538961
30
0
41
1
10
8.43602497499023
20
-10.8176132254439
30
0
41
1
10
8.51663578067704
20
-10.9711586142986
30
0
41
1
10
8.71878044348949
20
-11.2427183792603
30
0
41
1
10
8.84374414029784
20
-11.363440980613
30
0
41
1
10
9.12578963963921
20
-11.5613405294224
30
0
41
1
10
9.28788163246705
20
-11.638436525677
30
0
41
1
10
9.59651845671291
20
-11.7278876935814
30
0
41
1
10
9.7444471595727
20
-11.7491452469047
30
0
41
1
10
9.89396319869459
20
-11.7499914589962
30
0
41
1
10
9.89698154486749
20
-11.7499999999994
30
0
41
1
10
9.89999999999998
20
-11.7499999999994
30
0
0
SPLINE
5
21B
100
AcDbEntity
8
1
62
256
6
ByLayer
370
18
48
1
60
0
100
AcDbSpline
70
4
71
3
72
10
73
6
40
0
40
0
40
0
40
0
40
0.756102769204547
40
0.756102769204547
40
1
40
1
40
1
40
1
41
1
10
21.4466320131342
20
-11.6999999999999
30
0
41
1
10
21.4335358577321
20
-11.6999999999999
30
0
41
1
10
21.4207202080259
20
-11.6999999999999
30
0
41
1
10
21.4042092102193
20
-11.6999999999999
30
0
41
1
10
21.4002140960562
20
-11.6999999999999
30
0
41
1
10
21.3962544185031
20
-11.6999999999999
30
0
0
SPLINE
5
21C
100
AcDbEntity
8
1
62
256
6
ByLayer
370
18
48
1
60
0
100
AcDbSpline
70
4
71
3
72
14
73
10
40
0
40
0
40
0
40
0
40
0.209394252568555
40
0.209394252568555
40
0.418674140634421
40
0.418674140634421
40
0.627952529466336
40
0.627952529466336
40
1
40
1
40
1
40
1
41
1
10
27.3731203716814
20
-13.3824451136102
30
0
41
1
10
27.4313095888796
20
-13.3824384343236
30
0
41
1
10
27.4945415508062
20
-13.3830246936049
30
0
41
1
10
27.6284652768354
20
-13.3853600098676
30
0
41
1
10
27.6996116692105
20
-13.3871164383184
30
0
41
1
10
27.8473813033078
20
-13.3917351455763
30
0
41
1
10
27.9245105149097
20
-13.3946132249204
30
0
41
1
10
28.1423341909035
20
-13.4039771838994
30
0
41
1
10
28.2889070981155
20
-13.4116608268374
30
0
41
1
10
28.4337805434602
20
-13.4205597975377
30
0
0
SPLINE
5
21D
100
AcDbEntity
8
1
62
256
6
ByLayer
370
18
48
1
60
0
100
AcDbSpline
70
4
71
3
72
14
73
10
40
0
40
0
40
0
40
0
40
0.209828521639199
40
0.209828521639199
40
0.4195901540272
40
0.4195901540272
40
0.628965113592846
40
0.628965113592846
40
1
40
1
40
1
40
1
41
1
10
28.4337805434613
20
-11.5794402024615
30
0
41
1
10
28.3514732695809
20
-11.5844959945491
30
0
41
1
10
28.2688292147962
20
-11.5891526677273
30
0
41
1
10
28.1062811533078
20
-11.5974725976373
30
0
41
1
10
28.0258208334327
20
-11.6011645737358
30
0
41
1
10
27.8699639724299
20
-11.6074536640275
30
0
41
1
10
27.7940252483449
20
-11.6100742792955
30
0
41
1
10
27.5941103545506
20
-11.6157168354371
30
0
41
1
10
27.4754747567342
20
-11.6175666352041
30
0
41
1
10
27.3731203716825
20
-11.6175548863904
30
0
0
SPLINE
5
21E
100
AcDbEntity
8
1
62
256
6
ByLayer
370
18
48
1
60
0
100
AcDbSpline
70
4
71
3
72
8
73
4
40
0
40
0
40
0
40
0
40
1
40
1
40
1
40
1
41
1
10
29.0810768987951
20
-11.5378096104407
30
0
41
1
10
28.9667232362904
20
-11.5460747607904
30
0
41
1
10
28.8500733165824
20
-11.5538690760075
30
0
41
1
10
28.7337805434613
20
-11.5610124553769
30
0
0
SPLINE
5
21F
100
AcDbEntity
8
1
62
256
6
ByLayer
370
18
48
1
60
0
100
AcDbSpline
70
4
71
3
72
10
73
6
40
0
40
0
40
0
40
0
40
0.575849552148122
40
0.575849552148122
40
1
40
1
40
1
40
1
41
1
10
21.3962544185031
20
-13.2999999999999
30
0
41
1
10
21.4055992325651
20
-13.2999999999999
30
0
41
1
10
21.4151434423376
20
-13.2999999999999
30
0
41
1
10
21.4320239080445
20
-13.2999999999999
30
0
41
1
10
21.4392832271312
20
-13.2999999999999
30
0
41
1
10
21.4466320131342
20
-13.2999999999999
30
0
0
SPLINE
5
220
100
AcDbEntity
8
1
62
256
6
ByLayer
370
18
48
1
60
0
100
AcDbSpline
70
4
71
3
72
8
73
4
40
0
40
0
40
0
40
0
40
1
40
1
40
1
40
1
41
1
10
28.7337805434613
20
-13.4389875446228
30
0
41
1
10
28.8500733165824
20
-13.4461309239923
30
0
41
1
10
28.9667232362904
20
-13.4539252392093
30
0
41
1
10
29.0810768987951
20
-13.462190389559
30
0
0
SPLINE
5
221
100
AcDbEntity
8
1
62
256
6
ByLayer
370
18
48
1
60
0
100
AcDbSpline
70
4
71
3
72
16
73
12
40
0
40
0
40
0
40
0
40
0.211440290976243
40
0.211440290976243
40
0.422896736694443
40
0.422896736694443
40
0.633935131411306
40
0.633935131411306
40
0.842399597812144
40
0.842399597812144
40
1
40
1
40
1
40
1
41
1
10
29.9019409516835
20
-11.7532403336562
30
0
41
1
10
29.902182812152
20
-11.7246462633941
30
0
41
1
10
29.897509865013
20
-11.6956592296353
30
0
41
1
10
29.8791355265766
20
-11.6416931201706
30
0
41
1
10
29.8651770288146
20
-11.6159643957908
30
0
41
1
10
29.8300123990849
20
-11.5713834231388
30
0
41
1
10
29.8083234948748
20
-11.5518954100031
30
0
41
1
10
29.7605708510197
20
-11.522079046301
30
0
41
1
10
29.7338898983738
20
-11.5112293981555
30
0
41
1
10
29.6856899076455
20
-11.5008716424995
30
0
41
1
10
29.6640691721776
20
-11.4991529154417
30
0
41
1
10
29.6427579923014
20
-11.5003009398987
30
0
0
SPLINE
5
222
100
AcDbEntity
8
1
62
256
6
ByLayer
370
18
48
1
60
0
100
AcDbSpline
70
4
71
3
72
16
73
12
40
0
40
0
40
0
40
0
40
0.203363754276493
40
0.203363754276493
40
0.40658604208921
40
0.40658604208921
40
0.611967971554986
40
0.611967971554986
40
0.82073821984358
40
0.82073821984358
40
1
40
1
40
1
40
1
41
1
10
29.6427579923014
20
-13.4996990601011
30
0
41
1
10
29.6700970081209
20
-13.5011718015904
30
0
41
1
10
29.6980262240332
20
-13.4978780130138
30
0
41
1
10
29.7504076479783
20
-13.4824110753644
30
0
41
1
10
29.7755789022368
20
-13.4700383132839
30
0
41
1
10
29.8201132665787
20
-13.437977331881
30
0
41
1
10
29.8400202557989
20
-13.4177822526852
30
0
41
1
10
29.8720355922843
20
-13.37219500836
30
0
41
1
10
29.8844520380369
20
-13.3461004327785
30
0
41
1
10
29.8988187436013
20
-13.2956736887767
30
0
41
1
10
29.9021467885115
20
-13.2710948243777
30
0
41
1
10
29.9019409516835
20
-13.2467596663435
30
0
0
LINE
5
70
100
AcDbEntity
8
80
62
256
6
ByLayer
370
18
48
1
60
0
100
AcDbLine
10
0
20
0
30
0
11
-5
21
0
31
0
39
0
210
0
220
0
230
1
0
LINE
5
71
100
AcDbEntity
8
81
62
256
6
ByLayer
370
18
48
1
60
0
100
AcDbLine
10
29.9
20
-13.5
30
0
11
34.9
21
-13.5
31
0
39
0
210
0
220
0
230
1
0
LINE
5
72
100
AcDbEntity
8
1
62
256
6
ByLayer
370
18
48
1
60
0
100
AcDbLine
10
-0.1
20
-12.839993
30
0
11
-0.1
21
12.502029
31
0
39
0
210
0
220
0
230
1
0
LINE
5
74
100
AcDbEntity
8
SK1
62
256
6
ByLayer
370
18
48
1
60
0
100
AcDbLine
10
-120.1
20
-12.375
30
0
11
-1.227723
21
-12.375
31
0
39
0
210
0
220
0
230
1
0
LINE
5
76
100
AcDbEntity
8
SK1
62
256
6
ByLayer
370
13
48
1
60
0
100
AcDbLine
10
-1.227723
20
12.5
30
0
11
-1.227723
21
-12.375
31
0
39
0
210
0
220
0
230
1
0
LINE
5
77
100
AcDbEntity
8
SK1
62
256
6
ByLayer
370
18
48
1
60
0
100
AcDbLine
10
-120.1
20
-12.375
30
0
11
-120.1
21
12.5
31
0
39
0
210
0
220
0
230
1
0
LINE
5
78
100
AcDbEntity
8
SK1
62
256
6
ByLayer
370
18
48
1
60
0
100
AcDbLine
10
-0.1
20
-12.839993
30
0
11
-0.1
21
12.502029
31
0
39
0
210
0
220
0
230
1
0
LINE
5
79
100
AcDbEntity
8
SK1
62
256
6
ByLayer
370
18
48
1
60
0
100
AcDbLine
10
-120.1
20
12.5
30
0
11
-1.227723
21
12.5
31
0
39
0
210
0
220
0
230
1
0
LINE
5
7A
100
AcDbEntity
8
1
62
256
6
ByLayer
370
18
48
1
60
0
100
AcDbLine
10
2.979673
20
12.518324
30
0
11
1.125279
21
12.518324
31
0
39
0
210
0
220
0
230
1
0
LINE
5
7B
100
AcDbEntity
8
1
62
256
6
ByLayer
370
18
48
1
60
0
100
AcDbLine
10
16.190738
20
-11.75
30
0
11
21.190738
21
-11.75
31
0
39
0
210
0
220
0
230
1
0
LINE
5
7C
100
AcDbEntity
8
1
62
256
6
ByLayer
370
18
48
1
60
0
100
AcDbLine
10
1.125279
20
-13.25
30
0
11
16.190738
21
-13.25
31
0
39
0
210
0
220
0
230
1
0
LINE
5
7D
100
AcDbEntity
8
1
62
256
6
ByLayer
370
18
48
1
60
0
100
AcDbLine
10
6
20
9.795539
30
0
11
2.979673
21
12.518324
31
0
39
0
210
0
220
0
230
1
0
LINE
5
7E
100
AcDbEntity
8
1
62
256
6
ByLayer
370
18
48
1
60
0
100
AcDbLine
10
1.125279
20
-13.25
30
0
11
1.125279
21
12.518324
31
0
39
0
210
0
220
0
230
1
0
LINE
5
7F
100
AcDbEntity
8
1
62
256
6
ByLayer
370
18
48
1
60
0
100
AcDbLine
10
6
20
9.795539
30
0
11
8.3
21
7.722119
31
0
39
0
210
0
220
0
230
1
0
LINE
5
80
100
AcDbEntity
8
1
62
256
6
ByLayer
370
18
48
1
60
0
100
AcDbLine
10
21.190738
20
-13.25
30
0
11
25.315611
21
-13.25
31
0
39
0
210
0
220
0
230
1
0
LINE
5
81
100
AcDbEntity
8
1
62
256
6
ByLayer
370
18
48
1
60
0
100
AcDbLine
10
21.190738
20
-11.75
30
0
11
25.315611
21
-11.75
31
0
39
0
210
0
220
0
230
1
0
LINE
5
82
100
AcDbEntity
8
1
62
256
6
ByLayer
370
13
48
1
60
0
100
AcDbLine
10
21.190738
20
-13.25
30
0
11
21.190738
21
-11.75
31
0
39
0
210
0
220
0
230
1
0
LINE
5
83
100
AcDbEntity
8
1
62
256
6
ByLayer
370
18
48
1
60
0
100
AcDbLine
10
0.198592
20
-13.25
30
0
11
0.317758
21
-13.25
31
0
39
0
210
0
220
0
230
1
0
LINE
5
84
100
AcDbEntity
8
1
62
256
6
ByLayer
370
18
48
1
60
0
100
AcDbLine
10
0.317758
20
-13.25
30
0
11
1.125279
21
-13.25
31
0
39
0
210
0
220
0
230
1
0
LINE
5
85
100
AcDbEntity
8
1
62
256
6
ByLayer
370
18
48
1
60
0
100
AcDbLine
10
25.315611
20
-13.25
30
0
11
25.315611
21
-11.75
31
0
39
0
210
0
220
0
230
1
0
LINE
5
86
100
AcDbEntity
8
1
62
256
6
ByLayer
370
13
48
1
60
0
100
AcDbLine
10
6
20
-10.15
30
0
11
8.3
21
-10.15
31
0
39
0
210
0
220
0
230
1
0
LINE
5
87
100
AcDbEntity
8
1
62
256
6
ByLayer
370
18
48
1
60
0
100
AcDbLine
10
16.190738
20
-13.25
30
0
11
21.190738
21
-13.25
31
0
39
0
210
0
220
0
230
1
0
LINE
5
88
100
AcDbEntity
8
1
62
256
6
ByLayer
370
18
48
1
60
0
100
AcDbLine
10
7.6
20
-11.75
30
0
11
16.190738
21
-11.75
31
0
39
0
210
0
220
0
230
1
0
LINE
5
89
100
AcDbEntity
8
1
62
256
6
ByLayer
370
18
48
1
60
0
100
AcDbLine
10
0.317758
20
12.505174
30
0
11
1.125279
21
12.518324
31
0
39
0
210
0
220
0
230
1
0
LINE
5
8A
100
AcDbEntity
8
1
62
256
6
ByLayer
370
18
48
1
60
0
100
AcDbLine
10
8.3
20
7.722119
30
0
11
8.3
21
-10.15
31
0
39
0
210
0
220
0
230
1
0
LINE
5
8B
100
AcDbEntity
8
1
62
256
6
ByLayer
370
13
48
1
60
0
100
AcDbLine
10
0.317758
20
-13.25
30
0
11
0.317758
21
12.505174
31
0
39
0
210
0
220
0
230
1
0
LINE
5
8C
100
AcDbEntity
8
1
62
256
6
ByLayer
370
13
48
1
60
0
100
AcDbLine
10
16.190738
20
-11.75
30
0
11
16.190738
21
-13.25
31
0
39
0
210
0
220
0
230
1
0
LINE
5
8D
100
AcDbEntity
8
1
62
256
6
ByLayer
370
18
48
1
60
0
100
AcDbLine
10
6
20
9.795539
30
0
11
6
21
-10.15
31
0
39
0
210
0
220
0
230
1
0
LINE
5
8E
100
AcDbEntity
8
1
62
256
6
ByLayer
370
13
48
1
60
0
100
AcDbLine
10
21.226482
20
-11.7
30
0
11
21.197265
21
-11.750004
31
0
39
0
210
0
220
0
230
1
0
LINE
5
8F
100
AcDbEntity
8
1
62
256
6
ByLayer
370
13
48
1
60
0
100
AcDbLine
10
21.226482
20
-13.3
30
0
11
21.197265
21
-13.249996
31
0
39
0
210
0
220
0
230
1
0
LINE
5
90
100
AcDbEntity
8
1
62
256
6
ByLayer
370
13
48
1
60
0
100
AcDbLine
10
20.565685
20
-11.750008
30
0
11
20.565685
21
-11.7
31
0
39
0
210
0
220
0
230
1
0
LINE
5
91
100
AcDbEntity
8
1
62
256
6
ByLayer
370
13
48
1
60
0
100
AcDbLine
10
20.565685
20
-13.249992
30
0
11
20.565685
21
-13.3
31
0
39
0
210
0
220
0
230
1
0
LINE
5
92
100
AcDbEntity
8
1
62
256
6
ByLayer
370
13
48
1
60
0
100
AcDbLine
10
-1.227723
20
12.5
30
0
11
-1.227723
21
-12.375
31
0
39
0
210
0
220
0
230
1
0
LINE
5
93
100
AcDbEntity
8
1
62
256
6
ByLayer
370
13
48
1
60
0
100
AcDbLine
10
16.190738
20
-11.75
30
0
11
16.190738
21
-13.25
31
0
39
0
210
0
220
0
230
1
0
LINE
5
94
100
AcDbEntity
8
1
62
256
6
ByLayer
370
13
48
1
60
0
100
AcDbLine
10
0.317758
20
-13.25
30
0
11
0.317758
21
12.505174
31
0
39
0
210
0
220
0
230
1
0
LINE
5
95
100
AcDbEntity
8
1
62
256
6
ByLayer
370
13
48
1
60
0
100
AcDbLine
10
21.190738
20
-13.25
30
0
11
21.190738
21
-11.75
31
0
39
0
210
0
220
0
230
1
0
LINE
5
96
100
AcDbEntity
8
1
62
256
6
ByLayer
370
13
48
1
60
0
100
AcDbLine
10
6
20
-10.15
30
0
11
8.3
21
-10.15
31
0
39
0
210
0
220
0
230
1
0
LINE
5
97
100
AcDbEntity
8
1
62
256
6
ByLayer
370
13
48
1
60
0
100
AcDbLine
10
26.968752
20
-13.195388
30
0
11
27.052761
21
-13.199524
31
0
39
0
210
0
220
0
230
1
0
LINE
5
98
100
AcDbEntity
8
1
62
256
6
ByLayer
370
13
48
1
60
0
100
AcDbLine
10
27.065017
20
-13.374801
30
0
11
27.052761
21
-13.199524
31
0
39
0
210
0
220
0
230
1
0
LINE
5
99
100
AcDbEntity
8
1
62
256
6
ByLayer
370
13
48
1
60
0
100
AcDbLine
10
27.065017
20
-11.625199
30
0
11
27.052761
21
-11.800476
31
0
39
0
210
0
220
0
230
1
0
LINE
5
9A
100
AcDbEntity
8
1
62
256
6
ByLayer
370
13
48
1
60
0
100
AcDbLine
10
27.052761
20
-11.800476
30
0
11
26.968752
21
-11.804612
31
0
39
0
210
0
220
0
230
1
0
LINE
5
9B
100
AcDbEntity
8
1
62
256
6
ByLayer
370
13
48
1
60
0
100
AcDbLine
10
26.609679
20
-13.3
30
0
11
26.609679
21
-13.176062
31
0
39
0
210
0
220
0
230
1
0
LINE
5
9C
100
AcDbEntity
8
1
62
256
6
ByLayer
370
13
48
1
60
0
100
AcDbLine
10
26.609679
20
-11.823938
30
0
11
26.609679
21
-11.7
31
0
39
0
210
0
220
0
230
1
0
LINE
5
9D
100
AcDbEntity
8
1
62
256
6
ByLayer
370
13
48
1
60
0
100
AcDbLine
10
26.982448
20
-12.082767
30
0
11
26.968752
21
-11.804612
31
0
39
0
210
0
220
0
230
1
0
LINE
5
9E
100
AcDbEntity
8
1
62
256
6
ByLayer
370
13
48
1
60
0
100
AcDbLine
10
26.968752
20
-13.195388
30
0
11
26.982448
21
-12.917233
31
0
39
0
210
0
220
0
230
1
0
LINE
5
9F
100
AcDbEntity
8
1
62
256
6
ByLayer
370
13
48
1
60
0
100
AcDbLine
10
27.077886
20
-12.082767
30
0
11
26.982448
21
-12.082767
31
0
39
0
210
0
220
0
230
1
0
LINE
5
A0
100
AcDbEntity
8
1
62
256
6
ByLayer
370
13
48
1
60
0
100
AcDbLine
10
27.077886
20
-12.917233
30
0
11
26.982448
21
-12.917233
31
0
39
0
210
0
220
0
230
1
0
LINE
5
A1
100
AcDbEntity
8
1
62
256
6
ByLayer
370
13
48
1
60
0
100
AcDbLine
10
27.37312
20
-13.13848
30
0
11
27.37312
21
-13.382445
31
0
39
0
210
0
220
0
230
1
0
LINE
5
A2
100
AcDbEntity
8
1
62
256
6
ByLayer
370
13
48
1
60
0
100
AcDbLine
10
28.433781
20
-13.364039
30
0
11
28.433781
21
-13.42056
31
0
39
0
210
0
220
0
230
1
0
LINE
5
A3
100
AcDbEntity
8
1
62
256
6
ByLayer
370
13
48
1
60
0
100
AcDbLine
10
28.433781
20
-11.635961
30
0
11
28.433781
21
-11.57944
31
0
39
0
210
0
220
0
230
1
0
LINE
5
A4
100
AcDbEntity
8
1
62
256
6
ByLayer
370
13
48
1
60
0
100
AcDbLine
10
27.37312
20
-11.86152
30
0
11
27.37312
21
-11.617555
31
0
39
0
210
0
220
0
230
1
0
LINE
5
A5
100
AcDbEntity
8
1
62
256
6
ByLayer
370
13
48
1
60
0
100
AcDbLine
10
27.052761
20
-13.199524
30
0
11
27.264634
21
-13.184709
31
0
39
0
210
0
220
0
230
1
0
LINE
5
A6
100
AcDbEntity
8
1
62
256
6
ByLayer
370
13
48
1
60
0
100
AcDbLine
10
27.264634
20
-11.815291
30
0
11
27.052761
21
-11.800476
31
0
39
0
210
0
220
0
230
1
0
LINE
5
A7
100
AcDbEntity
8
1
62
256
6
ByLayer
370
13
48
1
60
0
100
AcDbLine
10
27.264634
20
-13.184709
30
0
11
27.278462
21
-13.382456
31
0
39
0
210
0
220
0
230
1
0
LINE
5
A8
100
AcDbEntity
8
1
62
256
6
ByLayer
370
13
48
1
60
0
100
AcDbLine
10
27.264634
20
-11.815291
30
0
11
27.278462
21
-11.617544
31
0
39
0
210
0
220
0
230
1
0
LINE
5
A9
100
AcDbEntity
8
1
62
256
6
ByLayer
370
13
48
1
60
0
100
AcDbLine
10
27.066456
20
-12.078631
30
0
11
27.052761
21
-11.800476
31
0
39
0
210
0
220
0
230
1
0
LINE
5
AA
100
AcDbEntity
8
1
62
256
6
ByLayer
370
13
48
1
60
0
100
AcDbLine
10
27.052761
20
-13.199524
30
0
11
27.066456
21
-12.921369
31
0
39
0
210
0
220
0
230
1
0
LINE
5
AB
100
AcDbEntity
8
1
62
256
6
ByLayer
370
13
48
1
60
0
100
AcDbLine
10
26.609679
20
-11.823938
30
0
11
26.558376
21
-11.823938
31
0
39
0
210
0
220
0
230
1
0
LINE
5
AC
100
AcDbEntity
8
1
62
256
6
ByLayer
370
13
48
1
60
0
100
AcDbLine
10
26.609679
20
-13.176062
30
0
11
26.558376
21
-13.176062
31
0
39
0
210
0
220
0
230
1
0
LINE
5
AD
100
AcDbEntity
8
1
62
256
6
ByLayer
370
13
48
1
60
0
100
AcDbLine
10
27.066456
20
-12.921369
30
0
11
26.982448
21
-12.917233
31
0
39
0
210
0
220
0
230
1
0
LINE
5
AE
100
AcDbEntity
8
1
62
256
6
ByLayer
370
13
48
1
60
0
100
AcDbLine
10
26.982448
20
-12.082767
30
0
11
27.066456
21
-12.078631
31
0
39
0
210
0
220
0
230
1
0
LINE
5
AF
100
AcDbEntity
8
1
62
256
6
ByLayer
370
13
48
1
60
0
100
AcDbLine
10
26.558376
20
-13.176062
30
0
11
26.558376
21
-13.3
31
0
39
0
210
0
220
0
230
1
0
LINE
5
B0
100
AcDbEntity
8
1
62
256
6
ByLayer
370
13
48
1
60
0
100
AcDbLine
10
26.558376
20
-11.7
30
0
11
26.558376
21
-11.823938
31
0
39
0
210
0
220
0
230
1
0
LINE
5
B1
100
AcDbEntity
8
1
62
256
6
ByLayer
370
13
48
1
60
0
100
AcDbLine
10
25.687198
20
-13.3
30
0
11
25.687198
21
-13.225438
31
0
39
0
210
0
220
0
230
1
0
LINE
5
B2
100
AcDbEntity
8
1
62
256
6
ByLayer
370
13
48
1
60
0
100
AcDbLine
10
27.264634
20
-13.184709
30
0
11
27.276063
21
-13.180572
31
0
39
0
210
0
220
0
230
1
0
LINE
5
B3
100
AcDbEntity
8
1
62
256
6
ByLayer
370
13
48
1
60
0
100
AcDbLine
10
25.687198
20
-11.774562
30
0
11
25.687198
21
-11.7
31
0
39
0
210
0
220
0
230
1
0
LINE
5
B4
100
AcDbEntity
8
1
62
256
6
ByLayer
370
13
48
1
60
0
100
AcDbLine
10
27.276063
20
-11.819428
30
0
11
27.264634
21
-11.815291
31
0
39
0
210
0
220
0
230
1
0
LINE
5
B5
100
AcDbEntity
8
1
62
256
6
ByLayer
370
13
48
1
60
0
100
AcDbLine
10
27.077886
20
-12.917233
30
0
11
27.066456
21
-12.921369
31
0
39
0
210
0
220
0
230
1
0
LINE
5
B6
100
AcDbEntity
8
1
62
256
6
ByLayer
370
13
48
1
60
0
100
AcDbLine
10
27.066456
20
-12.078631
30
0
11
27.077886
21
-12.082767
31
0
39
0
210
0
220
0
230
1
0
LINE
5
B7
100
AcDbEntity
8
1
62
256
6
ByLayer
370
13
48
1
60
0
100
AcDbLine
10
28.128922
20
-12.793452
30
0
11
28.128922
21
-12.5
31
0
39
0
210
0
220
0
230
1
0
LINE
5
B8
100
AcDbEntity
8
1
62
256
6
ByLayer
370
13
48
1
60
0
100
AcDbLine
10
25.687198
20
-11.774562
30
0
11
25.611215
21
-11.774562
31
0
39
0
210
0
220
0
230
1
0
LINE
5
B9
100
AcDbEntity
8
1
62
256
6
ByLayer
370
13
48
1
60
0
100
AcDbLine
10
28.128922
20
-12.206548
30
0
11
28.128922
21
-12.5
31
0
39
0
210
0
220
0
230
1
0
LINE
5
BA
100
AcDbEntity
8
1
62
256
6
ByLayer
370
13
48
1
60
0
100
AcDbLine
10
25.611215
20
-11.7
30
0
11
25.611215
21
-11.774562
31
0
39
0
210
0
220
0
230
1
0
LINE
5
BB
100
AcDbEntity
8
1
62
256
6
ByLayer
370
13
48
1
60
0
100
AcDbLine
10
25.611215
20
-13.225438
30
0
11
25.611215
21
-13.3
31
0
39
0
210
0
220
0
230
1
0
LINE
5
BC
100
AcDbEntity
8
1
62
256
6
ByLayer
370
13
48
1
60
0
100
AcDbLine
10
25.687198
20
-13.225438
30
0
11
25.611215
21
-13.225438
31
0
39
0
210
0
220
0
230
1
0
LINE
5
BD
100
AcDbEntity
8
1
62
256
6
ByLayer
370
13
48
1
60
0
100
AcDbLine
10
25.618332
20
-13.175984
30
0
11
25.332668
21
-13.175984
31
0
39
0
210
0
220
0
230
1
0
LINE
5
BE
100
AcDbEntity
8
1
62
256
6
ByLayer
370
13
48
1
60
0
100
AcDbLine
10
25.332668
20
-13.175984
30
0
11
25.369454
21
-12.867998
31
0
39
0
210
0
220
0
230
1
0
LINE
5
BF
100
AcDbEntity
8
1
62
256
6
ByLayer
370
13
48
1
60
0
100
AcDbLine
10
25.369454
20
-12.867998
30
0
11
25.750614
21
-12.867998
31
0
39
0
210
0
220
0
230
1
0
LINE
5
C0
100
AcDbEntity
8
1
62
256
6
ByLayer
370
13
48
1
60
0
100
AcDbLine
10
25.369454
20
-12.132002
30
0
11
25.750614
21
-12.132002
31
0
39
0
210
0
220
0
230
1
0
LINE
5
C1
100
AcDbEntity
8
1
62
256
6
ByLayer
370
13
48
1
60
0
100
AcDbLine
10
25.332668
20
-11.824016
30
0
11
25.369454
21
-12.132002
31
0
39
0
210
0
220
0
230
1
0
LINE
5
C2
100
AcDbEntity
8
1
62
256
6
ByLayer
370
13
48
1
60
0
100
AcDbLine
10
25.618332
20
-11.824016
30
0
11
25.332668
21
-11.824016
31
0
39
0
210
0
220
0
230
1
0
LINE
5
C3
100
AcDbEntity
8
1
62
256
6
ByLayer
370
13
48
1
60
0
100
AcDbLine
10
25.406367
20
-12.248976
30
0
11
25.848791
21
-12.248976
31
0
39
0
210
0
220
0
230
1
0
LINE
5
C4
100
AcDbEntity
8
1
62
256
6
ByLayer
370
13
48
1
60
0
100
AcDbLine
10
25.406367
20
-12.751024
30
0
11
25.848791
21
-12.751024
31
0
39
0
210
0
220
0
230
1
0
LINE
5
C5
100
AcDbEntity
8
1
62
256
6
ByLayer
370
13
48
1
60
0
100
AcDbLine
10
25.3298
20
-13.225438
30
0
11
25.611215
21
-13.225438
31
0
39
0
210
0
220
0
230
1
0
LINE
5
C6
100
AcDbEntity
8
1
62
256
6
ByLayer
370
13
48
1
60
0
100
AcDbLine
10
25.449075
20
-12.700756
30
0
11
25.973158
21
-12.700756
31
0
39
0
210
0
220
0
230
1
0
LINE
5
C7
100
AcDbEntity
8
1
62
256
6
ByLayer
370
13
48
1
60
0
100
AcDbLine
10
25.449075
20
-12.299244
30
0
11
25.973158
21
-12.299244
31
0
39
0
210
0
220
0
230
1
0
LINE
5
C8
100
AcDbEntity
8
1
62
256
6
ByLayer
370
13
48
1
60
0
100
AcDbLine
10
25.3298
20
-11.774562
30
0
11
25.611215
21
-11.774562
31
0
39
0
210
0
220
0
230
1
0
LINE
5
C9
100
AcDbEntity
8
1
62
256
6
ByLayer
370
13
48
1
60
0
100
AcDbLine
10
25.3298
20
-11.7
30
0
11
25.3298
21
-11.774562
31
0
39
0
210
0
220
0
230
1
0
LINE
5
CA
100
AcDbEntity
8
1
62
256
6
ByLayer
370
13
48
1
60
0
100
AcDbLine
10
25.3298
20
-13.3
30
0
11
25.3298
21
-13.225438
31
0
39
0
210
0
220
0
230
1
0
LINE
5
CB
100
AcDbEntity
8
1
62
256
6
ByLayer
370
13
48
1
60
0
100
AcDbLine
10
29.900117
20
-11.968879
30
0
11
29.825664
21
-11.968879
31
0
39
0
210
0
220
0
230
1
0
LINE
5
CC
100
AcDbEntity
8
1
62
256
6
ByLayer
370
13
48
1
60
0
100
AcDbLine
10
29.510516
20
-11.706546
30
0
11
29.510516
21
-11.507425
31
0
39
0
210
0
220
0
230
1
0
LINE
5
CD
100
AcDbEntity
8
1
62
256
6
ByLayer
370
13
48
1
60
0
100
AcDbLine
10
29.510516
20
-13.293454
30
0
11
29.510516
21
-13.492575
31
0
39
0
210
0
220
0
230
1
0
LINE
5
CE
100
AcDbEntity
8
1
62
256
6
ByLayer
370
13
48
1
60
0
100
AcDbLine
10
29.900117
20
-13.031121
30
0
11
29.825664
21
-13.031121
31
0
39
0
210
0
220
0
230
1
0
LINE
5
CF
100
AcDbEntity
8
1
62
256
6
ByLayer
370
13
48
1
60
0
100
AcDbLine
10
25.452289
20
-12.697335
30
0
11
25.981712
21
-12.697335
31
0
39
0
210
0
220
0
230
1
0
LINE
5
D0
100
AcDbEntity
8
1
62
256
6
ByLayer
370
13
48
1
60
0
100
AcDbLine
10
29.43976
20
-11.511885
30
0
11
29.43976
21
-11.656147
31
0
39
0
210
0
220
0
230
1
0
LINE
5
D1
100
AcDbEntity
8
1
62
256
6
ByLayer
370
13
48
1
60
0
100
AcDbLine
10
29.081077
20
-11.625184
30
0
11
29.081077
21
-11.53781
31
0
39
0
210
0
220
0
230
1
0
LINE
5
D2
100
AcDbEntity
8
1
62
256
6
ByLayer
370
13
48
1
60
0
100
AcDbLine
10
25.452289
20
-12.302665
30
0
11
25.981712
21
-12.302665
31
0
39
0
210
0
220
0
230
1
0
LINE
5
D3
100
AcDbEntity
8
1
62
256
6
ByLayer
370
13
48
1
60
0
100
AcDbLine
10
29.081077
20
-13.374816
30
0
11
29.081077
21
-13.46219
31
0
39
0
210
0
220
0
230
1
0
LINE
5
D4
100
AcDbEntity
8
1
62
256
6
ByLayer
370
13
48
1
60
0
100
AcDbLine
10
29.43976
20
-13.488115
30
0
11
29.43976
21
-13.343853
31
0
39
0
210
0
220
0
230
1
0
LINE
5
D5
100
AcDbEntity
8
1
62
256
6
ByLayer
370
13
48
1
60
0
100
AcDbLine
10
25.449075
20
-12.299244
30
0
11
25.452289
21
-12.302665
31
0
39
0
210
0
220
0
230
1
0
LINE
5
D6
100
AcDbEntity
8
1
62
256
6
ByLayer
370
13
48
1
60
0
100
AcDbLine
10
25.449075
20
-12.700756
30
0
11
25.452289
21
-12.697335
31
0
39
0
210
0
220
0
230
1
0
LINE
5
D7
100
AcDbEntity
8
1
62
256
6
ByLayer
370
13
48
1
60
0
100
AcDbLine
10
28.733781
20
-13.366762
30
0
11
28.733781
21
-13.438988
31
0
39
0
210
0
220
0
230
1
0
LINE
5
D8
100
AcDbEntity
8
1
62
256
6
ByLayer
370
13
48
1
60
0
100
AcDbLine
10
28.905243
20
-13.150666
30
0
11
28.893977
21
-12.853333
31
0
39
0
210
0
220
0
230
1
0
LINE
5
D9
100
AcDbEntity
8
1
62
256
6
ByLayer
370
13
48
1
60
0
100
AcDbLine
10
28.733781
20
-11.633238
30
0
11
28.733781
21
-11.561012
31
0
39
0
210
0
220
0
230
1
0
LINE
5
DA
100
AcDbEntity
8
1
62
256
6
ByLayer
370
13
48
1
60
0
100
AcDbLine
10
28.905243
20
-11.849334
30
0
11
28.893977
21
-12.146667
31
0
39
0
210
0
220
0
230
1
0
LINE
5
DB
100
AcDbEntity
8
1
62
256
6
ByLayer
370
13
48
1
60
0
100
AcDbLine
10
29.844165
20
-12.84474
30
0
11
29.897026
21
-12.84474
31
0
39
0
210
0
220
0
230
1
0
LINE
5
DC
100
AcDbEntity
8
1
62
256
6
ByLayer
370
13
48
1
60
0
100
AcDbLine
10
29.844165
20
-12.15526
30
0
11
29.897026
21
-12.15526
31
0
39
0
210
0
220
0
230
1
0
LINE
5
DD
100
AcDbEntity
8
1
62
256
6
ByLayer
370
13
48
1
60
0
100
AcDbLine
10
28.393977
20
-12.150303
30
0
11
28.33288
21
-11.844785
31
0
39
0
210
0
220
0
230
1
0
LINE
5
DE
100
AcDbEntity
8
1
62
256
6
ByLayer
370
13
48
1
60
0
100
AcDbLine
10
28.393977
20
-12.849697
30
0
11
28.33288
21
-13.155215
31
0
39
0
210
0
220
0
230
1
0
LINE
5
DF
100
AcDbEntity
8
1
62
256
6
ByLayer
370
13
48
1
60
0
100
AcDbLine
10
29.848038
20
-13.003425
30
0
11
29.9
21
-13.003425
31
0
39
0
210
0
220
0
230
1
0
LINE
5
E0
100
AcDbEntity
8
1
62
256
6
ByLayer
370
13
48
1
60
0
100
AcDbLine
10
29.848038
20
-11.996575
30
0
11
29.9
21
-11.996575
31
0
39
0
210
0
220
0
230
1
0
LINE
5
E1
100
AcDbEntity
8
1
62
256
6
ByLayer
370
13
48
1
60
0
100
AcDbLine
10
25.315558
20
-12.697335
30
0
11
25.452289
21
-12.697335
31
0
39
0
210
0
220
0
230
1
0
LINE
5
E2
100
AcDbEntity
8
1
62
256
6
ByLayer
370
13
48
1
60
0
100
AcDbLine
10
29.897026
20
-12.84474
30
0
11
29.897026
21
-12.15526
31
0
39
0
210
0
220
0
230
1
0
LINE
5
E3
100
AcDbEntity
8
1
62
256
6
ByLayer
370
13
48
1
60
0
100
AcDbLine
10
25.315558
20
-12.302665
30
0
11
25.452289
21
-12.302665
31
0
39
0
210
0
220
0
230
1
0
LINE
5
E4
100
AcDbEntity
8
1
62
256
6
ByLayer
370
13
48
1
60
0
100
AcDbLine
10
29.844165
20
-12.15526
30
0
11
29.844165
21
-12.84474
31
0
39
0
210
0
220
0
230
1
0
LINE
5
E5
100
AcDbEntity
8
1
62
256
6
ByLayer
370
13
48
1
60
0
100
AcDbLine
10
25.315562
20
-11.774562
30
0
11
25.3298
21
-11.774562
31
0
39
0
210
0
220
0
230
1
0
LINE
5
E6
100
AcDbEntity
8
1
62
256
6
ByLayer
370
13
48
1
60
0
100
AcDbLine
10
21.632227
20
-13.25
30
0
11
21.632227
21
-13.3
31
0
39
0
210
0
220
0
230
1
0
LINE
5
E7
100
AcDbEntity
8
1
62
256
6
ByLayer
370
13
48
1
60
0
100
AcDbLine
10
25.315562
20
-13.225438
30
0
11
25.3298
21
-13.225438
31
0
39
0
210
0
220
0
230
1
0
LINE
5
E8
100
AcDbEntity
8
1
62
256
6
ByLayer
370
13
48
1
60
0
100
AcDbLine
10
29.504082
20
-12.147871
30
0
11
29.504082
21
-12.852129
31
0
39
0
210
0
220
0
230
1
0
LINE
5
E9
100
AcDbEntity
8
1
62
256
6
ByLayer
370
13
48
1
60
0
100
AcDbLine
10
21.632227
20
-11.75
30
0
11
21.632227
21
-11.7
31
0
39
0
210
0
220
0
230
1
0
LINE
5
EA
100
AcDbEntity
8
1
62
256
6
ByLayer
370
13
48
1
60
0
100
AcDbLine
10
28.893977
20
-12.146667
30
0
11
28.893977
21
-12.853333
31
0
39
0
210
0
220
0
230
1
0
LINE
5
EB
100
AcDbEntity
8
1
62
256
6
ByLayer
370
13
48
1
60
0
100
AcDbLine
10
25.332668
20
-11.824016
30
0
11
25.31556
21
-11.824016
31
0
39
0
210
0
220
0
230
1
0
LINE
5
EC
100
AcDbEntity
8
1
62
256
6
ByLayer
370
13
48
1
60
0
100
AcDbLine
10
25.332668
20
-13.175984
30
0
11
25.31556
21
-13.175984
31
0
39
0
210
0
220
0
230
1
0
LINE
5
ED
100
AcDbEntity
8
1
62
256
6
ByLayer
370
13
48
1
60
0
100
AcDbLine
10
25.315577
20
-12.867998
30
0
11
25.369454
21
-12.867998
31
0
39
0
210
0
220
0
230
1
0
LINE
5
EE
100
AcDbEntity
8
1
62
256
6
ByLayer
370
13
48
1
60
0
100
AcDbLine
10
28.393977
20
-12.849697
30
0
11
28.393977
21
-12.5
31
0
39
0
210
0
220
0
230
1
0
LINE
5
EF
100
AcDbEntity
8
1
62
256
6
ByLayer
370
13
48
1
60
0
100
AcDbLine
10
25.315577
20
-12.132002
30
0
11
25.369454
21
-12.132002
31
0
39
0
210
0
220
0
230
1
0
LINE
5
F0
100
AcDbEntity
8
1
62
256
6
ByLayer
370
13
48
1
60
0
100
AcDbLine
10
25.315557
20
-12.751024
30
0
11
25.406367
21
-12.751024
31
0
39
0
210
0
220
0
230
1
0
LINE
5
F1
100
AcDbEntity
8
1
62
256
6
ByLayer
370
13
48
1
60
0
100
AcDbLine
10
28.393977
20
-12.150303
30
0
11
28.393977
21
-12.5
31
0
39
0
210
0
220
0
230
1
0
LINE
5
F2
100
AcDbEntity
8
1
62
256
6
ByLayer
370
13
48
1
60
0
100
AcDbLine
10
25.315557
20
-12.248976
30
0
11
25.406367
21
-12.248976
31
0
39
0
210
0
220
0
230
1
0
LINE
5
F3
100
AcDbEntity
8
1
62
256
6
ByLayer
370
13
48
1
60
0
100
AcDbLine
10
25.315556
20
-12.700756
30
0
11
25.449075
21
-12.700756
31
0
39
0
210
0
220
0
230
1
0
LINE
5
F4
100
AcDbEntity
8
1
62
256
6
ByLayer
370
13
48
1
60
0
100
AcDbLine
10
25.315556
20
-12.299244
30
0
11
25.449075
21
-12.299244
31
0
39
0
210
0
220
0
230
1
0
LINE
5
F5
100
AcDbEntity
8
1
62
256
6
ByLayer
370
18
48
1
60
0
100
AcDbLine
10
16.190738
20
-11.75
30
0
11
21.190738
21
-11.75
31
0
39
0
210
0
220
0
230
1
0
LINE
5
F6
100
AcDbEntity
8
1
62
256
6
ByLayer
370
18
48
1
60
0
100
AcDbLine
10
16.190738
20
-13.25
30
0
11
21.190738
21
-13.25
31
0
39
0
210
0
220
0
230
1
0
LINE
5
F7
100
AcDbEntity
8
1
62
256
6
ByLayer
370
18
48
1
60
0
100
AcDbLine
10
1.125279
20
-13.25
30
0
11
16.190738
21
-13.25
31
0
39
0
210
0
220
0
230
1
0
LINE
5
F8
100
AcDbEntity
8
1
62
256
6
ByLayer
370
18
48
1
60
0
100
AcDbLine
10
21.190738
20
-13.25
30
0
11
25.315611
21
-13.25
31
0
39
0
210
0
220
0
230
1
0
LINE
5
F9
100
AcDbEntity
8
1
62
256
6
ByLayer
370
18
48
1
60
0
100
AcDbLine
10
7.6
20
-11.75
30
0
11
16.190738
21
-11.75
31
0
39
0
210
0
220
0
230
1
0
LINE
5
FA
100
AcDbEntity
8
1
62
256
6
ByLayer
370
18
48
1
60
0
100
AcDbLine
10
21.190738
20
-11.75
30
0
11
25.315611
21
-11.75
31
0
39
0
210
0
220
0
230
1
0
LINE
5
FB
100
AcDbEntity
8
1
62
256
6
ByLayer
370
18
48
1
60
0
100
AcDbLine
10
6
20
9.795539
30
0
11
6
21
-10.15
31
0
39
0
210
0
220
0
230
1
0
LINE
5
FC
100
AcDbEntity
8
1
62
256
6
ByLayer
370
18
48
1
60
0
100
AcDbLine
10
8.3
20
7.722119
30
0
11
8.3
21
-10.15
31
0
39
0
210
0
220
0
230
1
0
LINE
5
FD
100
AcDbEntity
8
1
62
256
6
ByLayer
370
18
48
1
60
0
100
AcDbLine
10
25.315611
20
-13.25
30
0
11
25.315611
21
-11.75
31
0
39
0
210
0
220
0
230
1
0
LINE
5
FE
100
AcDbEntity
8
1
62
256
6
ByLayer
370
18
48
1
60
0
100
AcDbLine
10
1.125279
20
-13.25
30
0
11
1.125279
21
12.518324
31
0
39
0
210
0
220
0
230
1
0
LINE
5
FF
100
AcDbEntity
8
1
62
256
6
ByLayer
370
18
48
1
60
0
100
AcDbLine
10
0.317758
20
-13.25
30
0
11
1.125279
21
-13.25
31
0
39
0
210
0
220
0
230
1
0
LINE
5
100
100
AcDbEntity
8
1
62
256
6
ByLayer
370
18
48
1
60
0
100
AcDbLine
10
0.198592
20
-13.25
30
0
11
0.317758
21
-13.25
31
0
39
0
210
0
220
0
230
1
0
LINE
5
101
100
AcDbEntity
8
1
62
256
6
ByLayer
370
18
48
1
60
0
100
AcDbLine
10
-120.1
20
-12.375
30
0
11
-120.1
21
12.5
31
0
39
0
210
0
220
0
230
1
0
LINE
5
102
100
AcDbEntity
8
1
62
256
6
ByLayer
370
18
48
1
60
0
100
AcDbLine
10
-120.1
20
12.5
30
0
11
-1.227723
21
12.5
31
0
39
0
210
0
220
0
230
1
0
LINE
5
103
100
AcDbEntity
8
1
62
256
6
ByLayer
370
18
48
1
60
0
100
AcDbLine
10
2.979673
20
12.518324
30
0
11
1.125279
21
12.518324
31
0
39
0
210
0
220
0
230
1
0
LINE
5
104
100
AcDbEntity
8
1
62
256
6
ByLayer
370
18
48
1
60
0
100
AcDbLine
10
0.317758
20
12.505174
30
0
11
1.125279
21
12.518324
31
0
39
0
210
0
220
0
230
1
0
LINE
5
105
100
AcDbEntity
8
1
62
256
6
ByLayer
370
18
48
1
60
0
100
AcDbLine
10
-120.1
20
-12.375
30
0
11
-1.227723
21
-12.375
31
0
39
0
210
0
220
0
230
1
0
LINE
5
106
100
AcDbEntity
8
1
62
256
6
ByLayer
370
18
48
1
60
0
100
AcDbLine
10
6
20
9.795539
30
0
11
2.979673
21
12.518324
31
0
39
0
210
0
220
0
230
1
0
LINE
5
107
100
AcDbEntity
8
1
62
256
6
ByLayer
370
18
48
1
60
0
100
AcDbLine
10
6
20
9.795539
30
0
11
8.3
21
7.722119
31
0
39
0
210
0
220
0
230
1
0
LINE
5
108
100
AcDbEntity
8
1
62
256
6
ByLayer
370
18
48
1
60
0
100
AcDbLine
10
26.848426
20
-11.659459
30
0
11
26.825177
21
-11.672882
31
0
39
0
210
0
220
0
230
1
0
LINE
5
109
100
AcDbEntity
8
1
62
256
6
ByLayer
370
18
48
1
60
0
100
AcDbLine
10
26.609679
20
-11.7
30
0
11
26.72387
21
-11.7
31
0
39
0
210
0
220
0
230
1
0
LINE
5
10A
100
AcDbEntity
8
1
62
256
6
ByLayer
370
18
48
1
60
0
100
AcDbLine
10
21.226482
20
-13.3
30
0
11
21.396254
21
-13.3
31
0
39
0
210
0
220
0
230
1
0
LINE
5
10B
100
AcDbEntity
8
1
62
256
6
ByLayer
370
18
48
1
60
0
100
AcDbLine
10
29.642758
20
-11.500301
30
0
11
29.510516
21
-11.507425
31
0
39
0
210
0
220
0
230
1
0
LINE
5
10C
100
AcDbEntity
8
1
62
256
6
ByLayer
370
18
48
1
60
0
100
AcDbLine
10
26.609679
20
-11.7
30
0
11
26.558376
21
-11.7
31
0
39
0
210
0
220
0
230
1
0
LINE
5
10D
100
AcDbEntity
8
1
62
256
6
ByLayer
370
18
48
1
60
0
100
AcDbLine
10
28.433781
20
-13.42056
30
0
11
28.733781
21
-13.438988
31
0
39
0
210
0
220
0
230
1
0
LINE
5
10E
100
AcDbEntity
8
1
62
256
6
ByLayer
370
18
48
1
60
0
100
AcDbLine
10
29.900117
20
-11.968879
30
0
11
29.901941
21
-11.75324
31
0
39
0
210
0
220
0
230
1
0
LINE
5
10F
100
AcDbEntity
8
1
62
256
6
ByLayer
370
18
48
1
60
0
100
AcDbLine
10
20.15
20
-13.3
30
0
11
20.565685
21
-13.3
31
0
39
0
210
0
220
0
230
1
0
LINE
5
110
100
AcDbEntity
8
1
62
256
6
ByLayer
370
18
48
1
60
0
100
AcDbLine
10
20.565685
20
-13.3
30
0
11
21.226482
21
-13.3
31
0
39
0
210
0
220
0
230
1
0
LINE
5
111
100
AcDbEntity
8
1
62
256
6
ByLayer
370
18
48
1
60
0
100
AcDbLine
10
26.936053
20
-13.366914
30
0
11
27.065017
21
-13.374801
31
0
39
0
210
0
220
0
230
1
0
LINE
5
112
100
AcDbEntity
8
1
62
256
6
ByLayer
370
18
48
1
60
0
100
AcDbLine
10
29.081077
20
-13.46219
30
0
11
29.43976
21
-13.488115
31
0
39
0
210
0
220
0
230
1
0
LINE
5
113
100
AcDbEntity
8
1
62
256
6
ByLayer
370
18
48
1
60
0
100
AcDbLine
10
25.611215
20
-11.7
30
0
11
25.3298
21
-11.7
31
0
39
0
210
0
220
0
230
1
0
LINE
5
114
100
AcDbEntity
8
1
62
256
6
ByLayer
370
18
48
1
60
0
100
AcDbLine
10
26.558376
20
-13.3
30
0
11
25.687198
21
-13.3
31
0
39
0
210
0
220
0
230
1
0
LINE
5
115
100
AcDbEntity
8
1
62
256
6
ByLayer
370
18
48
1
60
0
100
AcDbLine
10
29.43976
20
-11.511885
30
0
11
29.081077
21
-11.53781
31
0
39
0
210
0
220
0
230
1
0
LINE
5
116
100
AcDbEntity
8
1
62
256
6
ByLayer
370
18
48
1
60
0
100
AcDbLine
10
29.510516
20
-13.492575
30
0
11
29.642758
21
-13.499699
31
0
39
0
210
0
220
0
230
1
0
LINE
5
117
100
AcDbEntity
8
1
62
256
6
ByLayer
370
18
48
1
60
0
100
AcDbLine
10
25.3298
20
-13.3
30
0
11
25.611215
21
-13.3
31
0
39
0
210
0
220
0
230
1
0
LINE
5
118
100
AcDbEntity
8
1
62
256
6
ByLayer
370
18
48
1
60
0
100
AcDbLine
10
28.733781
20
-11.561012
30
0
11
28.433781
21
-11.57944
31
0
39
0
210
0
220
0
230
1
0
LINE
5
119
100
AcDbEntity
8
1
62
256
6
ByLayer
370
18
48
1
60
0
100
AcDbLine
10
25.687198
20
-11.7
30
0
11
25.611215
21
-11.7
31
0
39
0
210
0
220
0
230
1
0
LINE
5
11A
100
AcDbEntity
8
1
62
256
6
ByLayer
370
18
48
1
60
0
100
AcDbLine
10
26.72387
20
-13.3
30
0
11
26.609679
21
-13.3
31
0
39
0
210
0
220
0
230
1
0
LINE
5
11B
100
AcDbEntity
8
1
62
256
6
ByLayer
370
18
48
1
60
0
100
AcDbLine
10
21.226482
20
-11.7
30
0
11
20.565685
21
-11.7
31
0
39
0
210
0
220
0
230
1
0
LINE
5
11C
100
AcDbEntity
8
1
62
256
6
ByLayer
370
18
48
1
60
0
100
AcDbLine
10
26.558376
20
-13.3
30
0
11
26.609679
21
-13.3
31
0
39
0
210
0
220
0
230
1
0
LINE
5
11D
100
AcDbEntity
8
1
62
256
6
ByLayer
370
18
48
1
60
0
100
AcDbLine
10
27.278462
20
-13.382456
30
0
11
27.37312
21
-13.382445
31
0
39
0
210
0
220
0
230
1
0
LINE
5
11E
100
AcDbEntity
8
1
62
256
6
ByLayer
370
18
48
1
60
0
100
AcDbLine
10
21.632227
20
-11.7
30
0
11
21.446632
21
-11.7
31
0
39
0
210
0
220
0
230
1
0
LINE
5
11F
100
AcDbEntity
8
1
62
256
6
ByLayer
370
18
48
1
60
0
100
AcDbLine
10
25.687198
20
-11.7
30
0
11
26.558376
21
-11.7
31
0
39
0
210
0
220
0
230
1
0
LINE
5
120
100
AcDbEntity
8
1
62
256
6
ByLayer
370
18
48
1
60
0
100
AcDbLine
10
20.565685
20
-11.7
30
0
11
20.15
21
-11.7
31
0
39
0
210
0
220
0
230
1
0
LINE
5
121
100
AcDbEntity
8
1
62
256
6
ByLayer
370
18
48
1
60
0
100
AcDbLine
10
26.825177
20
-13.327118
30
0
11
26.848426
21
-13.340541
31
0
39
0
210
0
220
0
230
1
0
LINE
5
122
100
AcDbEntity
8
1
62
256
6
ByLayer
370
18
48
1
60
0
100
AcDbLine
10
27.37312
20
-11.617555
30
0
11
27.278462
21
-11.617544
31
0
39
0
210
0
220
0
230
1
0
LINE
5
123
100
AcDbEntity
8
1
62
256
6
ByLayer
370
18
48
1
60
0
100
AcDbLine
10
21.396254
20
-11.7
30
0
11
21.226482
21
-11.7
31
0
39
0
210
0
220
0
230
1
0
LINE
5
124
100
AcDbEntity
8
1
62
256
6
ByLayer
370
18
48
1
60
0
100
AcDbLine
10
29.901941
20
-13.24676
30
0
11
29.900117
21
-13.031121
31
0
39
0
210
0
220
0
230
1
0
LINE
5
125
100
AcDbEntity
8
1
62
256
6
ByLayer
370
18
48
1
60
0
100
AcDbLine
10
25.611215
20
-13.3
30
0
11
25.687198
21
-13.3
31
0
39
0
210
0
220
0
230
1
0
LINE
5
126
100
AcDbEntity
8
1
62
256
6
ByLayer
370
18
48
1
60
0
100
AcDbLine
10
25.3298
20
-11.7
30
0
11
21.632227
21
-11.7
31
0
39
0
210
0
220
0
230
1
0
LINE
5
127
100
AcDbEntity
8
1
62
256
6
ByLayer
370
18
48
1
60
0
100
AcDbLine
10
21.632227
20
-13.3
30
0
11
25.3298
21
-13.3
31
0
39
0
210
0
220
0
230
1
0
LINE
5
128
100
AcDbEntity
8
1
62
256
6
ByLayer
370
18
48
1
60
0
100
AcDbLine
10
27.065017
20
-11.625199
30
0
11
26.936053
21
-11.633086
31
0
39
0
210
0
220
0
230
1
0
LINE
5
129
100
AcDbEntity
8
1
62
256
6
ByLayer
370
18
48
1
60
0
100
AcDbLine
10
29.9
20
-13.003425
30
0
11
29.9
21
-11.996575
31
0
39
0
210
0
220
0
230
1
0
LINE
5
12A
100
AcDbEntity
8
1
62
256
6
ByLayer
370
18
48
1
60
0
100
AcDbLine
10
21.446632
20
-13.3
30
0
11
21.632227
21
-13.3
31
0
39
0
210
0
220
0
230
1
0
LINE
5
12B
100
AcDbEntity
8
SK2
62
256
6
ByLayer
370
13
48
1
60
0
100
AcDbLine
10
-129.7
20
-12.5
30
0
11
-129.7
21
12.5
31
0
39
0
210
0
220
0
230
1
0
LINE
5
12D
100
AcDbEntity
8
SK2
62
256
6
ByLayer
370
13
48
1
60
0
100
AcDbLine
10
-122.1
20
12.5
30
0
11
-131.7
21
12.5
31
0
39
0
210
0
220
0
230
1
0
LINE
5
12E
100
AcDbEntity
8
SK2
62
256
6
ByLayer
370
13
48
1
60
0
100
AcDbLine
10
-122.1
20
-12.5
30
0
11
-131.7
21
-12.5
31
0
39
0
210
0
220
0
230
1
0
LINE
5
12F
100
AcDbEntity
8
SK2
62
256
6
ByLayer
370
18
48
1
60
0
100
AcDbLine
10
-129.7
20
12.5
30
0
11
-129.282003
21
9.325002
31
0
39
0
210
0
220
0
230
1
0
LINE
5
130
100
AcDbEntity
8
SK2
62
256
6
ByLayer
370
18
48
1
60
0
100
AcDbLine
10
-129.7
20
12.5
30
0
11
-130.117997
21
9.324998
31
0
39
0
210
0
220
0
230
1
0
LINE
5
131
100
AcDbEntity
8
SK2
62
256
6
ByLayer
370
18
48
1
60
0
100
AcDbLine
10
-129.282003
20
9.325002
30
0
11
-130.117997
21
9.324998
31
0
39
0
210
0
220
0
230
1
0
LINE
5
132
100
AcDbEntity
8
SK2
62
256
6
ByLayer
370
18
48
1
60
0
100
AcDbLine
10
-129.7
20
-12.5
30
0
11
-130.117997
21
-9.325002
31
0
39
0
210
0
220
0
230
1
0
LINE
5
133
100
AcDbEntity
8
SK2
62
256
6
ByLayer
370
18
48
1
60
0
100
AcDbLine
10
-129.7
20
-12.5
30
0
11
-129.282003
21
-9.324998
31
0
39
0
210
0
220
0
230
1
0
LINE
5
134
100
AcDbEntity
8
SK2
62
256
6
ByLayer
370
18
48
1
60
0
100
AcDbLine
10
-130.117997
20
-9.325002
30
0
11
-129.282003
21
-9.324998
31
0
39
0
210
0
220
0
230
1
0
MTEXT
5
223
100
AcDbEntity
8
SK6
62
256
6
ByLayer
370
18
48
1
60
0
100
AcDbMText
10
-76.725
20
-51.365862
30
0
210
0
220
0
230
1
1
\W0.7847;QD-LFE20-2525A
40
3.5
41
0
44
1.084337
50
0
71
7
72
5
7
iso_b_vert
0
MTEXT
5
227
100
AcDbEntity
8
SK2
62
256
6
ByLayer
370
18
48
1
60
0
100
AcDbMText
10
-130.575
20
-1.169737
30
0
210
0
220
0
230
1
1
\W0.6740;25
40
3.5
41
0
44
1.084337
50
89.9999999999999
71
7
72
5
7
iso_b_vert
0
DIMENSION
5
236
100
AcDbEntity
8
2
62
256
6
ByLayer
370
13
48
1
60
0
100
AcDbDimension
2
DimnDraft3D1
10
29.9
20
29.118324
30
0
11
10.842105
21
29.118324
31
0
70
32
71
5
72
1
41
1
210
0
220
0
230
1
3
Standard
100
AcDbAlignedDimension
13
0
23
14.5
33
0
14
29.9
24
-11.5
34
0
50
0
100
AcDbRotatedDimension
1001
ACAD
1000
DSTYLE
1002
{
1070
   279
1070
     0
1070
   172
1070
     1
1070
   173
1070
     1
1070
   340
1005
224
1070
   271
1070
     1
1070
    77
1070
     1
1070
    73
1070
     0
1070
   171
1070
     3
1070
   274
1070
     4
1070
   177
1070
     2
1070
   176
1070
     2
1070
   178
1070
     7
1070
    78
1070
     8
1070
    41
1041
3.175
1070
   147
1041
1.75
1070
    42
1041
2.0
1070
    44
1041
2.0
1070
   140
1041
3.5
1070
   343
1005
237
1070
   344
1005
237
1002
}
0
DIMENSION
5
24B
100
AcDbEntity
8
SK2
62
256
6
ByLayer
370
13
48
1
60
0
100
AcDbDimension
2
DimnDraft3D2
10
29.9
20
35.118324
30
0
11
-48.061184
21
35.118324
31
0
70
32
71
5
72
1
41
1
210
0
220
0
230
1
3
Standard
100
AcDbAlignedDimension
13
-120.1
23
14.5
33
0
14
29.9
24
-11.5
34
0
50
0
100
AcDbRotatedDimension
1001
ACAD
1000
DSTYLE
1002
{
1070
   279
1070
     0
1070
   172
1070
     1
1070
   173
1070
     1
1070
   340
1005
224
1070
   271
1070
     1
1070
    77
1070
     1
1070
    73
1070
     0
1070
   171
1070
     3
1070
   274
1070
     4
1070
   177
1070
     2
1070
   176
1070
     2
1070
   178
1070
     7
1070
    78
1070
     8
1070
    41
1041
3.175
1070
   147
1041
1.75
1070
    42
1041
2.0
1070
    44
1041
2.0
1070
   140
1041
3.5
1070
   343
1005
237
1070
   344
1005
237
1002
}
0
DIMENSION
5
259
100
AcDbEntity
8
2
62
256
6
ByLayer
370
13
48
1
60
0
100
AcDbDimension
2
DimnDraft3D3
10
9.9
20
-26.600049
30
0
11
17.809211
21
-26.600049
31
0
70
32
71
5
72
1
41
1
210
0
220
0
230
1
3
Standard
100
AcDbAlignedDimension
13
29.9
23
-15.5
33
0
14
9.9
24
-14.5
34
0
50
0
100
AcDbRotatedDimension
1001
ACAD
1000
DSTYLE
1002
{
1070
   279
1070
     0
1070
   172
1070
     1
1070
   173
1070
     1
1070
   340
1005
224
1070
   271
1070
     1
1070
    77
1070
     1
1070
    73
1070
     0
1070
   171
1070
     3
1070
   274
1070
     4
1070
   177
1070
     2
1070
   176
1070
     2
1070
   178
1070
     7
1070
    78
1070
     8
1070
    41
1041
3.175
1070
   147
1041
1.75
1070
    42
1041
2.0
1070
    44
1041
2.0
1070
   140
1041
3.5
1070
   343
1005
237
1070
   344
1005
237
1002
}
0
DIMENSION
5
267
100
AcDbEntity
8
2
62
256
6
ByLayer
370
13
48
1
60
0
100
AcDbDimension
2
DimnDraft3D4
10
55
20
-13.5
30
0
11
55
21
-2.590789
31
0
70
32
71
5
72
1
41
1
210
0
220
0
230
1
3
Standard
100
AcDbAlignedDimension
13
2
23
12.5
33
0
14
31.9
24
-13.5
34
0
50
90
100
AcDbRotatedDimension
1001
ACAD
1000
DSTYLE
1002
{
1070
    74
1070
     0
1070
   279
1070
     0
1070
   172
1070
     1
1070
   173
1070
     1
1070
   340
1005
224
1070
   271
1070
     1
1070
    77
1070
     1
1070
    73
1070
     0
1070
   171
1070
     3
1070
   274
1070
     4
1070
   177
1070
     2
1070
   176
1070
     2
1070
   178
1070
     7
1070
    78
1070
     8
1070
    41
1041
3.175
1070
   147
1041
1.75
1070
    42
1041
2.0
1070
    44
1041
2.0
1070
   140
1041
3.5
1070
   343
1005
237
1070
   344
1005
237
1002
}
0
DIMENSION
5
275
100
AcDbEntity
8
2
62
256
6
ByLayer
370
13
48
1
60
0
100
AcDbDimension
2
DimnDraft3D5
10
48
20
-11.5
30
0
11
48
21
-25.320789
31
0
70
32
71
5
72
1
41
1
210
0
220
0
230
1
3
Standard
100
AcDbAlignedDimension
13
31.9
23
-13.5
33
0
14
31.9
24
-11.5
34
0
50
90
100
AcDbRotatedDimension
1001
ACAD
1000
DSTYLE
1002
{
1070
    74
1070
     0
1070
   279
1070
     0
1070
   172
1070
     1
1070
   173
1070
     1
1070
   340
1005
224
1070
   271
1070
     1
1070
    77
1070
     1
1070
    73
1070
     0
1070
   171
1070
     3
1070
   274
1070
     4
1070
   177
1070
     2
1070
   176
1070
     2
1070
   178
1070
     7
1070
    78
1070
     8
1070
    41
1041
3.175
1070
   147
1041
1.75
1070
    42
1041
2.0
1070
    44
1041
2.0
1070
   140
1041
3.5
1070
   343
1005
237
1070
   344
1005
237
1002
}
0
ENDSEC
0
SECTION
2
OBJECTS
0
DICTIONARY
5
2df
330
0
100
AcDbDictionary
280
0
281
1
3
ACAD_GROUP
350
2e0
3
ACAD_MLINESTYLE
350
2e1
0
DICTIONARY
5
2e0
330
0
100
AcDbDictionary
280
0
281
1
0
DICTIONARY
5
2e1
330
0
100
AcDbDictionary
280
0
281
1
3
Standard
350
18
0
MLINESTYLE
5
18
330
2e1
100
AcDbMlineStyle
2
Standard
70
0
3

62
256
51
90
52
90
71
2
49
-0.5
62
256
6
ByLayer
49
0.5
62
256
6
ByLayer
0
RASTERVARIABLES
5
2ce
330

100
AcDbRasterVariables
90
0
70
1
71
1
72
1
0
ENDSEC
0
EOF
