0
SECTION
2
HEADER
9
$ACADVER
1
AC1015
9
$DWGCODEPAGE
3
ANSI_1252
9
$HANDSEED
5
2fe
9
$ANGBASE
50
0
9
$ANGDIR
70
0
9
$ATTMODE
70
1
9
$AUNITS
70
0
9
$AUPREC
70
0
9
$CECOLOR
62
256
9
$CELTSCALE
40
1
9
$CELTYPE
6
ByLayer
9
$CELWEIGHT
370
18
9
$CLAYER
8
0
9
$CMLJUST
70
0
9
$CMLSCALE
40
1
9
$CMLSTYLE
2
Standard
9
$DIMSTYLE
2
Standard
9
$TEXTSIZE
40
0.2
9
$TEXTSTYLE
7
Standard
9
$LUNITS
70
2
9
$LUPREC
70
4
9
$EXTNAMES
290
1
9
$INSUNITS
70
4
9
$LTSCALE
40
1
9
$LWDISPLAY
290
1
9
$PDMODE
70
0
9
$PDSIZE
40
0
9
$PLINEGEN
70
0
0
ENDSEC
0
SECTION
2
CLASSES
0
CLASS
1
RASTERVARIABLES
2
AcDbRasterVariables
3
ISM
90
0
280
0
281
0
0
ENDSEC
0
SECTION
2
TABLES
0
TABLE
2
VPORT
5
2f4
100
AcDbSymbolTable
0
VPORT
5
1
100
AcDbSymbolTableRecord
100
AcDbViewportTableRecord
2
*Active
70
0
10
0
20
0
11
1
21
1
12
-1
22
1
13
0
23
0
14
0.5
24
0.5
15
10
25
10
16
0
26
0
36
1
17
0
27
0
37
0
0
ENDTAB
0
TABLE
2
LTYPE
5
2f5
100
AcDbSymbolTable
0
LTYPE
5
14
100
AcDbSymbolTableRecord
100
AcDbLinetypeTableRecord
70
0
2
ByBlock
3

72
65
73
0
40
0
0
LTYPE
5
15
100
AcDbSymbolTableRecord
100
AcDbLinetypeTableRecord
70
0
2
ByLayer
3

72
65
73
0
40
0
0
LTYPE
5
16
100
AcDbSymbolTableRecord
100
AcDbLinetypeTableRecord
70
0
2
CONTINUOUS
3
Solid line
72
65
73
0
40
0
0
LTYPE
5
6A
100
AcDbSymbolTableRecord
100
AcDbLinetypeTableRecord
70
0
2
CENTER
3
____ _ ____ _ ____ _ ____
72
65
73
4
40
47.5
49
22
74
0
49
-8.5
74
0
49
8.5
74
0
49
-8.5
74
0
0
LTYPE
5
6B
100
AcDbSymbolTableRecord
100
AcDbLinetypeTableRecord
70
0
2
DASHED
3
__ __ __ __ __ __ __ __ __
72
65
73
2
40
25.72
49
12.86
74
0
49
-12.86
74
0
0
ENDTAB
0
TABLE
2
LAYER
5
2f6
100
AcDbSymbolTable
0
LAYER
5
10
100
AcDbSymbolTableRecord
100
AcDbLayerTableRecord
2
0
70
0
62
7
6
CONTINUOUS
290
1
370
-3
390
0
0
LAYER
5
6D
100
AcDbSymbolTableRecord
100
AcDbLayerTableRecord
2
80
70
0
62
-6
6
CONTINUOUS
290
1
370
-3
390
0
0
LAYER
5
6F
100
AcDbSymbolTableRecord
100
AcDbLayerTableRecord
2
81
70
0
62
-3
6
CONTINUOUS
290
1
370
-3
390
0
0
LAYER
5
7A
100
AcDbSymbolTableRecord
100
AcDbLayerTableRecord
2
1
70
0
62
4
6
CONTINUOUS
290
1
370
-3
390
0
0
LAYER
5
23C
100
AcDbSymbolTableRecord
100
AcDbLayerTableRecord
2
2
70
0
62
7
6
CONTINUOUS
290
1
370
-3
390
0
0
LAYER
5
2e1
100
AcDbSymbolTableRecord
100
AcDbLayerTableRecord
2
SK1
70
0
62
4
6
CONTINUOUS
290
1
370
-3
390
0
0
LAYER
5
2e2
100
AcDbSymbolTableRecord
100
AcDbLayerTableRecord
2
SK2
70
0
62
7
6
CONTINUOUS
290
1
370
-3
390
0
0
LAYER
5
2e3
100
AcDbSymbolTableRecord
100
AcDbLayerTableRecord
2
SK6
70
0
62
5
6
CONTINUOUS
290
1
370
-3
390
0
0
ENDTAB
0
TABLE
2
STYLE
5
2f7
100
AcDbSymbolTable
0
STYLE
5
11
100
AcDbSymbolTableRecord
100
AcDbTextStyleTableRecord
2
Standard
3
txt
70
0
71
0
40
0
41
1
42
0
50
0
0
STYLE
5
236
100
AcDbSymbolTableRecord
100
AcDbTextStyleTableRecord
2
iso_b_vert
3
simplex.shx
70
0
71
0
40
0
41
1
42
0
50
0
0
STYLE
5
237
100
AcDbSymbolTableRecord
100
AcDbTextStyleTableRecord
2
DWGDirectTextStyle
3
simplex
70
0
71
0
40
0
41
1
42
0
50
0
0
ENDTAB
0
TABLE
2
DIMSTYLE
5
2f8
100
AcDbSymbolTable
100
AcDbDimStyleTable
0
DIMSTYLE
105
27
100
AcDbSymbolTableRecord
100
AcDbDimStyleTableRecord
2
Standard
70
0
3
<>
41
0.18
42
0.0625
44
0.18
140
0.18
147
0.09
73
0
74
0
77
1
271
2
275
0
278
52
280
0
340
11
0
ENDTAB
0
TABLE
2
VIEW
5
2f9
100
AcDbSymbolTable
0
ENDTAB
0
TABLE
2
UCS
5
2fa
100
AcDbSymbolTable
0
ENDTAB
0
TABLE
2
APPID
5
2fb
100
AcDbSymbolTable
0
APPID
5
12
100
AcDbSymbolTableRecord
100
AcDbRegAppTableRecord
2
ACAD
70
0
0
ENDTAB
0
TABLE
2
BLOCK_RECORD
5
2fc
100
AcDbSymbolTable
0
BLOCK_RECORD
5
1F
100
AcDbSymbolTableRecord
100
AcDbBlockTableRecord
2
*Model_Space
340
0
70
0
0
BLOCK_RECORD
5
1B
100
AcDbSymbolTableRecord
100
AcDbBlockTableRecord
2
*Paper_Space
340
0
70
0
0
BLOCK_RECORD
5
23
100
AcDbSymbolTableRecord
100
AcDbBlockTableRecord
2
*Paper_Space0
340
0
70
0
0
BLOCK_RECORD
5
23A
100
AcDbSymbolTableRecord
100
AcDbBlockTableRecord
2
DimnDraft3D1
340
0
70
0
0
BLOCK_RECORD
5
249
100
AcDbSymbolTableRecord
100
AcDbBlockTableRecord
2
_CLOSED
340
0
70
0
0
BLOCK_RECORD
5
250
100
AcDbSymbolTableRecord
100
AcDbBlockTableRecord
2
DimnDraft3D2
340
0
70
0
0
BLOCK_RECORD
5
25E
100
AcDbSymbolTableRecord
100
AcDbBlockTableRecord
2
DimnDraft3D3
340
0
70
0
0
BLOCK_RECORD
5
26C
100
AcDbSymbolTableRecord
100
AcDbBlockTableRecord
2
DimnDraft3D4
340
0
70
0
0
BLOCK_RECORD
5
27A
100
AcDbSymbolTableRecord
100
AcDbBlockTableRecord
2
DimnDraft3D5
340
0
70
0
0
ENDTAB
0
ENDSEC
0
SECTION
2
BLOCKS
0
BLOCK
5
20
100
AcDbEntity
8
0
100
AcDbBlockBegin
2
*Model_Space
70
0
10
0
20
0
30
0
3
*Model_Space
0
ENDBLK
5
21
100
AcDbEntity
8
0
100
AcDbBlockEnd
0
BLOCK
5
1C
100
AcDbEntity
8
0
100
AcDbBlockBegin
2
*Paper_Space
70
0
10
0
20
0
30
0
3
*Paper_Space
0
ENDBLK
5
1D
100
AcDbEntity
8
0
100
AcDbBlockEnd
0
BLOCK
5
24
100
AcDbEntity
8
0
100
AcDbBlockBegin
2
*Paper_Space0
70
0
10
0
20
0
30
0
3
*Paper_Space0
0
ENDBLK
5
25
100
AcDbEntity
8
0
100
AcDbBlockEnd
0
BLOCK
5
246
100
AcDbEntity
8
0
100
AcDbBlockBegin
2
DimnDraft3D1
70
0
10
0
20
0
30
0
3
DimnDraft3D1
0
MTEXT
5
23B
100
AcDbEntity
8
2
62
256
6
ByLayer
370
18
48
1
60
0
100
AcDbMText
10
10.717105
20
22.493215
30
0
210
0
220
0
230
1
1
\W0.7457;27.9
40
3.5
41
0
44
1.084337
50
0
71
7
72
5
7
iso_b_vert
0
LINE
5
23D
100
AcDbEntity
8
2
62
256
6
ByLayer
370
13
48
1
60
0
100
AcDbLine
10
0
20
7
30
0
11
0
21
23.618215
31
0
39
0
210
0
220
0
230
1
0
LINE
5
23E
100
AcDbEntity
8
2
62
256
6
ByLayer
370
13
48
1
60
0
100
AcDbLine
10
27.9
20
-3
30
0
11
27.9
21
23.618215
31
0
39
0
210
0
220
0
230
1
0
LINE
5
23F
100
AcDbEntity
8
2
62
256
6
ByLayer
370
13
48
1
60
0
100
AcDbLine
10
0
20
21.618215
30
0
11
27.9
21
21.618215
31
0
39
0
210
0
220
0
230
1
0
LINE
5
240
100
AcDbEntity
8
2
62
256
6
ByLayer
370
13
48
1
60
0
100
AcDbLine
10
0
20
21.618215
30
0
11
3.174998
21
22.036212
31
0
39
0
210
0
220
0
230
1
0
LINE
5
241
100
AcDbEntity
8
2
62
256
6
ByLayer
370
13
48
1
60
0
100
AcDbLine
10
0
20
21.618215
30
0
11
3.175002
21
21.200219
31
0
39
0
210
0
220
0
230
1
0
LINE
5
242
100
AcDbEntity
8
2
62
256
6
ByLayer
370
13
48
1
60
0
100
AcDbLine
10
3.174998
20
22.036212
30
0
11
3.175002
21
21.200219
31
0
39
0
210
0
220
0
230
1
0
LINE
5
243
100
AcDbEntity
8
2
62
256
6
ByLayer
370
13
48
1
60
0
100
AcDbLine
10
27.9
20
21.618215
30
0
11
24.725002
21
21.200219
31
0
39
0
210
0
220
0
230
1
0
LINE
5
244
100
AcDbEntity
8
2
62
256
6
ByLayer
370
13
48
1
60
0
100
AcDbLine
10
27.9
20
21.618215
30
0
11
24.724998
21
22.036212
31
0
39
0
210
0
220
0
230
1
0
LINE
5
245
100
AcDbEntity
8
2
62
256
6
ByLayer
370
13
48
1
60
0
100
AcDbLine
10
24.725002
20
21.200219
30
0
11
24.724998
21
22.036212
31
0
39
0
210
0
220
0
230
1
0
ENDBLK
5
247
100
AcDbEntity
8
0
100
AcDbBlockEnd
0
BLOCK
5
24A
100
AcDbEntity
8
0
100
AcDbBlockBegin
2
_CLOSED
70
0
10
0
20
0
30
0
3
_CLOSED
0
LINE
5
24C
100
AcDbEntity
8
0
62
256
6
ByLayer
370
-2
48
1
60
0
100
AcDbLine
10
-1
20
0.166667
30
0
11
0
21
0
31
0
39
0
210
0
220
0
230
1
0
LINE
5
24D
100
AcDbEntity
8
0
62
256
6
ByLayer
370
-2
48
1
60
0
100
AcDbLine
10
0
20
0
30
0
11
-1
21
-0.166667
31
0
39
0
210
0
220
0
230
1
0
LINE
5
24E
100
AcDbEntity
8
0
62
256
6
ByLayer
370
-2
48
1
60
0
100
AcDbLine
10
-1
20
0.166667
30
0
11
-1
21
-0.166667
31
0
39
0
210
0
220
0
230
1
0
LINE
5
24F
100
AcDbEntity
8
0
62
256
6
ByLayer
370
-2
48
1
60
0
100
AcDbLine
10
0
20
0
30
0
11
-1
21
0
31
0
39
0
210
0
220
0
230
1
0
ENDBLK
5
24B
100
AcDbEntity
8
0
100
AcDbBlockEnd
0
BLOCK
5
25B
100
AcDbEntity
8
0
100
AcDbBlockBegin
2
DimnDraft3D2
70
0
10
0
20
0
30
0
3
DimnDraft3D2
0
MTEXT
5
251
100
AcDbEntity
8
SK2
62
256
6
ByLayer
370
18
48
1
60
0
100
AcDbMText
10
-36.686184
20
28.493215
30
0
210
0
220
0
230
1
1
\W0.6217;125
40
3.5
41
0
44
1.084337
50
0
71
7
72
5
7
iso_b_vert
0
LINE
5
252
100
AcDbEntity
8
SK2
62
256
6
ByLayer
370
13
48
1
60
0
100
AcDbLine
10
-97.1
20
7
30
0
11
-97.1
21
29.618215
31
0
39
0
210
0
220
0
230
1
0
LINE
5
253
100
AcDbEntity
8
SK2
62
256
6
ByLayer
370
13
48
1
60
0
100
AcDbLine
10
27.9
20
-3
30
0
11
27.9
21
29.618215
31
0
39
0
210
0
220
0
230
1
0
LINE
5
254
100
AcDbEntity
8
SK2
62
256
6
ByLayer
370
13
48
1
60
0
100
AcDbLine
10
-97.1
20
27.618215
30
0
11
27.9
21
27.618215
31
0
39
0
210
0
220
0
230
1
0
LINE
5
255
100
AcDbEntity
8
SK2
62
256
6
ByLayer
370
13
48
1
60
0
100
AcDbLine
10
-97.1
20
27.618215
30
0
11
-93.925002
21
28.036212
31
0
39
0
210
0
220
0
230
1
0
LINE
5
256
100
AcDbEntity
8
SK2
62
256
6
ByLayer
370
13
48
1
60
0
100
AcDbLine
10
-97.1
20
27.618215
30
0
11
-93.924998
21
27.200219
31
0
39
0
210
0
220
0
230
1
0
LINE
5
257
100
AcDbEntity
8
SK2
62
256
6
ByLayer
370
13
48
1
60
0
100
AcDbLine
10
-93.925002
20
28.036212
30
0
11
-93.924998
21
27.200219
31
0
39
0
210
0
220
0
230
1
0
LINE
5
258
100
AcDbEntity
8
SK2
62
256
6
ByLayer
370
13
48
1
60
0
100
AcDbLine
10
27.9
20
27.618215
30
0
11
24.725002
21
27.200219
31
0
39
0
210
0
220
0
230
1
0
LINE
5
259
100
AcDbEntity
8
SK2
62
256
6
ByLayer
370
13
48
1
60
0
100
AcDbLine
10
27.9
20
27.618215
30
0
11
24.724998
21
28.036212
31
0
39
0
210
0
220
0
230
1
0
LINE
5
25A
100
AcDbEntity
8
SK2
62
256
6
ByLayer
370
13
48
1
60
0
100
AcDbLine
10
24.725002
20
27.200219
30
0
11
24.724998
21
28.036212
31
0
39
0
210
0
220
0
230
1
0
ENDBLK
5
25C
100
AcDbEntity
8
0
100
AcDbBlockEnd
0
BLOCK
5
269
100
AcDbEntity
8
0
100
AcDbBlockBegin
2
DimnDraft3D3
70
0
10
0
20
0
30
0
3
DimnDraft3D3
0
MTEXT
5
25F
100
AcDbEntity
8
2
62
256
6
ByLayer
370
18
48
1
60
0
100
AcDbMText
10
20.621711
20
-17.225049
30
0
210
0
220
0
230
1
1
\W0.5321;13
40
3.5
41
0
44
1.084337
50
0
71
7
72
5
7
iso_b_vert
0
LINE
5
260
100
AcDbEntity
8
2
62
256
6
ByLayer
370
13
48
1
60
0
100
AcDbLine
10
27.9
20
-7
30
0
11
27.9
21
-20.100049
31
0
39
0
210
0
220
0
230
1
0
LINE
5
261
100
AcDbEntity
8
2
62
256
6
ByLayer
370
13
48
1
60
0
100
AcDbLine
10
14.9
20
-7
30
0
11
14.9
21
-20.100049
31
0
39
0
210
0
220
0
230
1
0
LINE
5
262
100
AcDbEntity
8
2
62
256
6
ByLayer
370
13
48
1
60
0
100
AcDbLine
10
36.65
20
-18.100049
30
0
11
6.15
21
-18.100049
31
0
39
0
210
0
220
0
230
1
0
LINE
5
263
100
AcDbEntity
8
2
62
256
6
ByLayer
370
13
48
1
60
0
100
AcDbLine
10
27.9
20
-18.100049
30
0
11
31.074998
21
-17.682052
31
0
39
0
210
0
220
0
230
1
0
LINE
5
264
100
AcDbEntity
8
2
62
256
6
ByLayer
370
13
48
1
60
0
100
AcDbLine
10
27.9
20
-18.100049
30
0
11
31.075002
21
-18.518045
31
0
39
0
210
0
220
0
230
1
0
LINE
5
265
100
AcDbEntity
8
2
62
256
6
ByLayer
370
13
48
1
60
0
100
AcDbLine
10
31.074998
20
-17.682052
30
0
11
31.075002
21
-18.518045
31
0
39
0
210
0
220
0
230
1
0
LINE
5
266
100
AcDbEntity
8
2
62
256
6
ByLayer
370
13
48
1
60
0
100
AcDbLine
10
14.9
20
-18.100049
30
0
11
11.725002
21
-18.518045
31
0
39
0
210
0
220
0
230
1
0
LINE
5
267
100
AcDbEntity
8
2
62
256
6
ByLayer
370
13
48
1
60
0
100
AcDbLine
10
14.9
20
-18.100049
30
0
11
11.724998
21
-17.682052
31
0
39
0
210
0
220
0
230
1
0
LINE
5
268
100
AcDbEntity
8
2
62
256
6
ByLayer
370
13
48
1
60
0
100
AcDbLine
10
11.725002
20
-18.518045
30
0
11
11.724998
21
-17.682052
31
0
39
0
210
0
220
0
230
1
0
ENDBLK
5
26A
100
AcDbEntity
8
0
100
AcDbBlockEnd
0
BLOCK
5
277
100
AcDbEntity
8
0
100
AcDbBlockBegin
2
DimnDraft3D4
70
0
10
0
20
0
30
0
3
DimnDraft3D4
0
MTEXT
5
26D
100
AcDbEntity
8
2
62
256
6
ByLayer
370
18
48
1
60
0
100
AcDbMText
10
52.125
20
-0.778289
30
0
210
0
220
0
230
1
1
\W0.5321;10
40
3.5
41
0
44
1.084337
50
90
71
7
72
5
7
iso_b_vert
0
LINE
5
26E
100
AcDbEntity
8
2
62
256
6
ByLayer
370
13
48
1
60
0
100
AcDbLine
10
2
20
5
30
0
11
55
21
5
31
0
39
0
210
0
220
0
230
1
0
LINE
5
26F
100
AcDbEntity
8
2
62
256
6
ByLayer
370
13
48
1
60
0
100
AcDbLine
10
29.9
20
-5
30
0
11
55
21
-5
31
0
39
0
210
0
220
0
230
1
0
LINE
5
270
100
AcDbEntity
8
2
62
256
6
ByLayer
370
13
48
1
60
0
100
AcDbLine
10
53
20
13.75
30
0
11
53
21
-13.75
31
0
39
0
210
0
220
0
230
1
0
LINE
5
271
100
AcDbEntity
8
2
62
256
6
ByLayer
370
13
48
1
60
0
100
AcDbLine
10
53
20
5
30
0
11
52.582003
21
8.174998
31
0
39
0
210
0
220
0
230
1
0
LINE
5
272
100
AcDbEntity
8
2
62
256
6
ByLayer
370
13
48
1
60
0
100
AcDbLine
10
53
20
5
30
0
11
53.417997
21
8.175002
31
0
39
0
210
0
220
0
230
1
0
LINE
5
273
100
AcDbEntity
8
2
62
256
6
ByLayer
370
13
48
1
60
0
100
AcDbLine
10
52.582003
20
8.174998
30
0
11
53.417997
21
8.175002
31
0
39
0
210
0
220
0
230
1
0
LINE
5
274
100
AcDbEntity
8
2
62
256
6
ByLayer
370
13
48
1
60
0
100
AcDbLine
10
53
20
-5
30
0
11
53.417997
21
-8.174998
31
0
39
0
210
0
220
0
230
1
0
LINE
5
275
100
AcDbEntity
8
2
62
256
6
ByLayer
370
13
48
1
60
0
100
AcDbLine
10
53
20
-5
30
0
11
52.582003
21
-8.175002
31
0
39
0
210
0
220
0
230
1
0
LINE
5
276
100
AcDbEntity
8
2
62
256
6
ByLayer
370
13
48
1
60
0
100
AcDbLine
10
53.417997
20
-8.174998
30
0
11
52.582003
21
-8.175002
31
0
39
0
210
0
220
0
230
1
0
ENDBLK
5
278
100
AcDbEntity
8
0
100
AcDbBlockEnd
0
BLOCK
5
285
100
AcDbEntity
8
0
100
AcDbBlockBegin
2
DimnDraft3D5
70
0
10
0
20
0
30
0
3
DimnDraft3D5
0
MTEXT
5
27B
100
AcDbEntity
8
2
62
256
6
ByLayer
370
18
48
1
60
0
100
AcDbMText
10
45.125
20
-15.945789
30
0
210
0
220
0
230
1
1
\W0.5404;2
40
3.5
41
0
44
1.084337
50
90
71
7
72
5
7
iso_b_vert
0
LINE
5
27C
100
AcDbEntity
8
2
62
256
6
ByLayer
370
13
48
1
60
0
100
AcDbLine
10
29.9
20
-5
30
0
11
48
21
-5
31
0
39
0
210
0
220
0
230
1
0
LINE
5
27D
100
AcDbEntity
8
2
62
256
6
ByLayer
370
13
48
1
60
0
100
AcDbLine
10
29.9
20
-3
30
0
11
48
21
-3
31
0
39
0
210
0
220
0
230
1
0
LINE
5
27E
100
AcDbEntity
8
2
62
256
6
ByLayer
370
13
48
1
60
0
100
AcDbLine
10
46
20
5.75
30
0
11
46
21
-16.820789
31
0
39
0
210
0
220
0
230
1
0
LINE
5
27F
100
AcDbEntity
8
2
62
256
6
ByLayer
370
13
48
1
60
0
100
AcDbLine
10
46
20
-5
30
0
11
46.417997
21
-8.174998
31
0
39
0
210
0
220
0
230
1
0
LINE
5
280
100
AcDbEntity
8
2
62
256
6
ByLayer
370
13
48
1
60
0
100
AcDbLine
10
46
20
-5
30
0
11
45.582003
21
-8.175002
31
0
39
0
210
0
220
0
230
1
0
LINE
5
281
100
AcDbEntity
8
2
62
256
6
ByLayer
370
13
48
1
60
0
100
AcDbLine
10
46.417997
20
-8.174998
30
0
11
45.582003
21
-8.175002
31
0
39
0
210
0
220
0
230
1
0
LINE
5
282
100
AcDbEntity
8
2
62
256
6
ByLayer
370
13
48
1
60
0
100
AcDbLine
10
46
20
-3
30
0
11
45.582003
21
0.174998
31
0
39
0
210
0
220
0
230
1
0
LINE
5
283
100
AcDbEntity
8
2
62
256
6
ByLayer
370
13
48
1
60
0
100
AcDbLine
10
46
20
-3
30
0
11
46.417997
21
0.175002
31
0
39
0
210
0
220
0
230
1
0
LINE
5
284
100
AcDbEntity
8
2
62
256
6
ByLayer
370
13
48
1
60
0
100
AcDbLine
10
45.582003
20
0.174998
30
0
11
46.417997
21
0.175002
31
0
39
0
210
0
220
0
230
1
0
ENDBLK
5
286
100
AcDbEntity
8
0
100
AcDbBlockEnd
0
ENDSEC
0
SECTION
2
ENTITIES
0
ARC
5
144
100
AcDbEntity
8
SK1
62
256
6
ByLayer
370
18
48
1
60
0
100
AcDbCircle
39
0
10
-0.4
20
-5.75
30
0
40
1
210
0
220
0
230
1
100
AcDbArc
50
103.163063
51
121.788331
0
ARC
5
145
100
AcDbEntity
8
1
62
256
6
ByLayer
370
18
48
1
60
0
100
AcDbCircle
39
0
10
5.6
20
-2.25
30
0
40
1
210
0
220
0
230
1
100
AcDbArc
50
180
51
270
0
ARC
5
146
100
AcDbEntity
8
1
62
256
6
ByLayer
370
18
48
1
60
0
100
AcDbCircle
39
0
10
5.6
20
-2.25
30
0
40
1
210
0
220
0
230
1
100
AcDbArc
50
180
51
270
0
ARC
5
147
100
AcDbEntity
8
1
62
256
6
ByLayer
370
18
48
1
60
0
100
AcDbCircle
39
0
10
-0.4
20
-5.75
30
0
40
1
210
0
220
0
230
1
100
AcDbArc
50
103.163063
51
121.788331
0
ELLIPSE
5
148
100
AcDbEntity
8
SK1
62
256
6
ByLayer
370
18
48
1
60
0
100
AcDbEllipse
10
-0.627723
20
5.006981
30
0
11
1.60000000005082
21
1.61702248818314E-15
31
0
210
0
220
0
230
-1
40
0.004363
41
1.23467602492983
42
1.5707963267949
0
ELLIPSE
5
149
100
AcDbEntity
8
1
62
256
6
ByLayer
370
18
48
1
60
0
100
AcDbEllipse
10
-0.627723
20
5.006981
30
0
11
1.60000000000158
21
1.61702248813338E-15
31
0
210
0
220
0
230
-1
40
0.004363
41
0.261799387799703
42
1.23467602491851
0
ELLIPSE
5
14A
100
AcDbEntity
8
1
62
256
6
ByLayer
370
13
48
1
60
0
100
AcDbEllipse
10
19.974248
20
-4.869586
30
0
11
0.979582051651592
21
0.301726209154389
31
0
210
0
220
0
230
-1
40
0.270086
41
-2.11639244187489
42
-1.98807590243119
0
ELLIPSE
5
14B
100
AcDbEntity
8
1
62
256
6
ByLayer
370
13
48
1
60
0
100
AcDbEllipse
10
19.974248
20
-3.130414
30
0
11
0.998914191722097
21
-0.226032306478056
31
0
210
0
220
0
230
-1
40
0.206112
41
1.87325735074809
42
2.07998265382647
0
ELLIPSE
5
14C
100
AcDbEntity
8
1
62
256
6
ByLayer
370
13
48
1
60
0
100
AcDbEllipse
10
19.974248
20
-4.869586
30
0
11
0.998914191722097
21
0.226032306478056
31
0
210
0
220
0
230
-1
40
0.206112
41
-2.07998265382647
42
-1.87325735074809
0
ELLIPSE
5
14D
100
AcDbEntity
8
1
62
256
6
ByLayer
370
13
48
1
60
0
100
AcDbEllipse
10
27.27413
20
-4
30
0
11
-6.1541317860938
21
7.53638888751072E-16
31
0
210
0
220
0
230
1
40
0.121869
41
1.12302990717099
42
1.18682389135614
0
ELLIPSE
5
14E
100
AcDbEntity
8
1
62
256
6
ByLayer
370
13
48
1
60
0
100
AcDbEllipse
10
27.27413
20
-4
30
0
11
-6.1541317860938
21
7.53638888751072E-16
31
0
210
0
220
0
230
1
40
0.121869
41
-1.18682389135615
42
-1.12302990717099
0
ELLIPSE
5
14F
100
AcDbEntity
8
1
62
256
6
ByLayer
370
13
48
1
60
0
100
AcDbEllipse
10
27.27413
20
-4
30
0
11
6.11757097950296
21
6.18265615412416E-15
31
0
210
0
220
0
230
-1
40
0.073559
41
-2.06016834782814
42
-1.95476876234994
0
ELLIPSE
5
150
100
AcDbEntity
8
1
62
256
6
ByLayer
370
13
48
1
60
0
100
AcDbEllipse
10
27.27413
20
-4
30
0
11
6.11757096090487
21
-1.07190818047832E-09
31
0
210
0
220
0
230
-1
40
0.073559
41
1.95476876086159
42
2.06016834659419
0
ELLIPSE
5
151
100
AcDbEntity
8
1
62
256
6
ByLayer
370
13
48
1
60
0
100
AcDbEllipse
10
24.973627
20
-4
30
0
11
1.22363010710133
21
1.23664837521122E-15
31
0
210
0
220
0
230
-1
40
0.367758
41
-2.41547853525777
42
-2.06016834763839
0
ELLIPSE
5
152
100
AcDbEntity
8
1
62
256
6
ByLayer
370
13
48
1
60
0
100
AcDbEllipse
10
24.686071
20
-4
30
0
11
0.899729542261313
21
0.0397735792507735
31
0
210
0
220
0
230
-1
40
0.498193
41
-1.0983226722817
42
-1.00525797266235
0
ELLIPSE
5
153
100
AcDbEntity
8
1
62
256
6
ByLayer
370
13
48
1
60
0
100
AcDbEllipse
10
24.686071
20
-4
30
0
11
0.899729548702244
21
-0.0397735825808047
31
0
210
0
220
0
230
-1
40
0.498193
41
1.00525796859462
42
1.09832266767458
0
ELLIPSE
5
154
100
AcDbEntity
8
1
62
256
6
ByLayer
370
13
48
1
60
0
100
AcDbEllipse
10
24.973627
20
-4
30
0
11
1.22363010705659
21
1.236648375166E-15
31
0
210
0
220
0
230
-1
40
0.367758
41
2.06016834763722
42
2.41547853526643
0
ELLIPSE
5
155
100
AcDbEntity
8
1
62
256
6
ByLayer
370
13
48
1
60
0
100
AcDbEllipse
10
26.433781
20
-4.88078
30
0
11
0.0220590948837
21
0.238984092217269
31
0
210
0
220
0
230
1
40
0.006427
41
0.704838524415454
42
1.50127915029161
0
ELLIPSE
5
156
100
AcDbEntity
8
1
62
256
6
ByLayer
370
13
48
1
60
0
100
AcDbEllipse
10
25.208716
20
-4.647616
30
0
11
-0.0309022559569112
21
-0.238002207083828
31
0
210
0
220
0
230
1
40
0.697921
41
1.71098898168884
42
2.36528722147371
0
ELLIPSE
5
157
100
AcDbEntity
8
1
62
256
6
ByLayer
370
13
48
1
60
0
100
AcDbEllipse
10
25.208716
20
-3.352384
30
0
11
0.0309022559561243
21
-0.238002207083931
31
0
210
0
220
0
230
1
40
0.697921
41
0.776305432118324
42
1.43060367190734
0
ELLIPSE
5
158
100
AcDbEntity
8
1
62
256
6
ByLayer
370
13
48
1
60
0
100
AcDbEllipse
10
26.433781
20
-3.11922
30
0
11
0.0220590948836999
21
-0.238984092217269
31
0
210
0
220
0
230
1
40
0.006427
41
-1.50127915029099
42
-0.704838524415445
0
ELLIPSE
5
159
100
AcDbEntity
8
1
62
256
6
ByLayer
370
13
48
1
60
0
100
AcDbEllipse
10
25.052761
20
-3.300476
30
0
11
-0.102096483414469
21
-0.282092729566714
31
0
210
0
220
0
230
1
40
0.694069
41
0.542728458704418
42
1.76594516923878
0
ELLIPSE
5
15A
100
AcDbEntity
8
1
62
256
6
ByLayer
370
13
48
1
60
0
100
AcDbEllipse
10
25.052761
20
-4.699524
30
0
11
0.10209648341447
21
-0.282092729566714
31
0
210
0
220
0
230
1
40
0.694069
41
1.37564748435104
42
2.59886419488539
0
ELLIPSE
5
15B
100
AcDbEntity
8
1
62
256
6
ByLayer
370
13
48
1
60
0
100
AcDbEllipse
10
24.38984
20
-3.470423
30
0
11
0.0373781701033243
21
-0.145268277334479
31
0
210
0
220
0
230
1
40
0.332441
41
-1.6561270901124
42
-0.517494909403315
0
ELLIPSE
5
15C
100
AcDbEntity
8
1
62
256
6
ByLayer
370
13
48
1
60
0
100
AcDbEllipse
10
24.38984
20
-4.529577
30
0
11
0.0373781701033242
21
0.145268277334479
31
0
210
0
220
0
230
1
40
0.332441
41
0.517494909403044
42
1.65612709011242
0
ELLIPSE
5
15D
100
AcDbEntity
8
1
62
256
6
ByLayer
370
13
48
1
60
0
100
AcDbEllipse
10
24.922324
20
-4
30
0
11
1.24191050868325
21
1.2551232629925E-15
31
0
210
0
220
0
230
-1
40
0.483127
41
2.06016834764294
42
2.41547853523705
0
ELLIPSE
5
15E
100
AcDbEntity
8
1
62
256
6
ByLayer
370
13
48
1
60
0
100
AcDbEllipse
10
24.922324
20
-4
30
0
11
1.2419105088328
21
1.25512326314364E-15
31
0
210
0
220
0
230
-1
40
0.483127
41
-2.41547853519795
42
-2.06016834764992
0
ELLIPSE
5
15F
100
AcDbEntity
8
1
62
256
6
ByLayer
370
13
48
1
60
0
100
AcDbEllipse
10
24.897945
20
-3.985184
30
0
11
0.847017704870376
21
-0.196304046494138
31
0
210
0
220
0
230
-1
40
0.854591
41
0.792533390368707
42
0.922000594603393
0
ELLIPSE
5
160
100
AcDbEntity
8
1
62
256
6
ByLayer
370
13
48
1
60
0
100
AcDbEllipse
10
24.897945
20
-4.014816
30
0
11
0.847017703954886
21
0.196304041932238
31
0
210
0
220
0
230
-1
40
0.854591
41
-0.922000599623449
42
-0.792533395186865
0
ELLIPSE
5
161
100
AcDbEntity
8
1
62
256
6
ByLayer
370
13
48
1
60
0
100
AcDbEllipse
10
25.06419
20
-3.304612
30
0
11
-0.102096483414469
21
-0.282092729566714
31
0
210
0
220
0
230
1
40
0.694069
41
0.542728458704468
42
1.76594516923875
0
ELLIPSE
5
162
100
AcDbEntity
8
1
62
256
6
ByLayer
370
13
48
1
60
0
100
AcDbEllipse
10
25.161247
20
-3.346705
30
0
11
0.136500727004937
21
0.267147059738871
31
0
210
0
220
0
230
1
40
0.677974
41
-1.35487317172657
42
-1.28974538225851
0
ELLIPSE
5
163
100
AcDbEntity
8
1
62
256
6
ByLayer
370
13
48
1
60
0
100
AcDbEllipse
10
25.161247
20
-4.653295
30
0
11
-0.136500727005176
21
0.267147059738748
31
0
210
0
220
0
230
1
40
0.677974
41
-1.85184727133183
42
-1.78671948186544
0
ELLIPSE
5
164
100
AcDbEntity
8
1
62
256
6
ByLayer
370
13
48
1
60
0
100
AcDbEllipse
10
25.06419
20
-4.695388
30
0
11
0.10209648341447
21
-0.282092729566714
31
0
210
0
220
0
230
1
40
0.694069
41
1.37564748435104
42
2.59886419488539
0
ELLIPSE
5
165
100
AcDbEntity
8
1
62
256
6
ByLayer
370
13
48
1
60
0
100
AcDbEllipse
10
24.044976
20
-4.398381
30
0
11
0.0716898187946788
21
0.131759515334514
31
0
210
0
220
0
230
1
40
0.304525
41
0.893380334283847
42
1.73499558700924
0
ELLIPSE
5
166
100
AcDbEntity
8
1
62
256
6
ByLayer
370
13
48
1
60
0
100
AcDbEllipse
10
24.044976
20
-3.601619
30
0
11
0.0716898187935411
21
-0.131759515335133
31
0
210
0
220
0
230
1
40
0.304525
41
-1.7349955869739
42
-0.893380334272834
0
ELLIPSE
5
167
100
AcDbEntity
8
1
62
256
6
ByLayer
370
13
48
1
60
0
100
AcDbEllipse
10
25.168095
20
-4.63144
30
0
11
0.171518916221875
21
0.16787275353098
31
0
210
0
220
0
230
1
40
0.082052
41
0.518298817417708
42
0.779655640506902
0
ELLIPSE
5
168
100
AcDbEntity
8
1
62
256
6
ByLayer
370
13
48
1
60
0
100
AcDbEllipse
10
25.202479
20
-4.646663
30
0
11
0.0417762271290194
21
0.236336088752574
31
0
210
0
220
0
230
1
40
0.675324
41
-1.34029986666134
42
-0.746155527792933
0
ELLIPSE
5
169
100
AcDbEntity
8
1
62
256
6
ByLayer
370
13
48
1
60
0
100
AcDbEllipse
10
25.202479
20
-3.353337
30
0
11
-0.0417762271294201
21
0.236336088752503
31
0
210
0
220
0
230
1
40
0.675324
41
-2.39543712579796
42
-1.80129278693142
0
ELLIPSE
5
16A
100
AcDbEntity
8
1
62
256
6
ByLayer
370
13
48
1
60
0
100
AcDbEllipse
10
26.191288
20
-4.293452
30
0
11
-0.114657467550524
21
-0.383214907245139
31
0
210
0
220
0
230
1
40
0.149521
41
-1.52608952887374
42
-0.632305349724999
0
ELLIPSE
5
16B
100
AcDbEntity
8
1
62
256
6
ByLayer
370
13
48
1
60
0
100
AcDbEllipse
10
24.076259
20
-3.520757
30
0
11
0.111438992389702
21
0.278534290483538
31
0
210
0
220
0
230
1
40
0.391057
41
-2.99672437051158
42
-2.16330924043518
0
ELLIPSE
5
16C
100
AcDbEntity
8
1
62
256
6
ByLayer
370
13
48
1
60
0
100
AcDbEllipse
10
24.076259
20
-4.479243
30
0
11
-0.111438992389677
21
0.278534290483548
31
0
210
0
220
0
230
1
40
0.391057
41
-0.978283413154652
42
-0.144868283078473
0
ELLIPSE
5
16D
100
AcDbEntity
8
1
62
256
6
ByLayer
370
13
48
1
60
0
100
AcDbEllipse
10
25.152499
20
-4.57058
30
0
11
0.29766898486033
21
0.0373252656014786
31
0
210
0
220
0
230
1
40
0.756445
41
0.85630735841253
42
1.39678515212251
0
ELLIPSE
5
16E
100
AcDbEntity
8
1
62
256
6
ByLayer
370
13
48
1
60
0
100
AcDbEllipse
10
25.152499
20
-3.42942
30
0
11
-0.297668984860324
21
0.0373252656015258
31
0
210
0
220
0
230
1
40
0.756445
41
1.74480750146733
42
2.28528529517742
0
ELLIPSE
5
16F
100
AcDbEntity
8
1
62
256
6
ByLayer
370
13
48
1
60
0
100
AcDbEllipse
10
26.191288
20
-3.706548
30
0
11
-0.114657467550524
21
0.383214907245139
31
0
210
0
220
0
230
1
40
0.149521
41
0.632305349724993
42
1.52608952887372
0
ELLIPSE
5
170
100
AcDbEntity
8
1
62
256
6
ByLayer
370
13
48
1
60
0
100
AcDbEllipse
10
23.948488
20
-4.383195
30
0
11
-0.0204696158072206
21
0.148596752416413
31
0
210
0
220
0
230
1
40
0.33919
41
0.367590503029301
42
1.52410589159643
0
ELLIPSE
5
171
100
AcDbEntity
8
1
62
256
6
ByLayer
370
13
48
1
60
0
100
AcDbEllipse
10
23.948488
20
-3.616805
30
0
11
0.0204696158039751
21
0.14859675241686
31
0
210
0
220
0
230
1
40
0.33919
41
1.61748676198877
42
2.77400215055199
0
ELLIPSE
5
172
100
AcDbEntity
8
1
62
256
6
ByLayer
370
13
48
1
60
0
100
AcDbEllipse
10
24.067717
20
-3.517337
30
0
11
0.111594752970791
21
0.278471921581671
31
0
210
0
220
0
230
1
40
0.394318
41
-2.99660724386021
42
-2.16841033890646
0
ELLIPSE
5
173
100
AcDbEntity
8
1
62
256
6
ByLayer
370
13
48
1
60
0
100
AcDbEllipse
10
24.067717
20
-4.482663
30
0
11
-0.111594752970814
21
0.278471921581661
31
0
210
0
220
0
230
1
40
0.394318
41
-0.973182314683325
42
-0.144985409729567
0
ELLIPSE
5
174
100
AcDbEntity
8
1
62
256
6
ByLayer
370
13
48
1
60
0
100
AcDbEllipse
10
23.914981
20
-3.606093
30
0
11
0.0722486702513559
21
0.131453906929048
31
0
210
0
220
0
230
1
40
0.303884
41
1.73628735495828
42
2.71919261109667
0
ELLIPSE
5
175
100
AcDbEntity
8
1
62
256
6
ByLayer
370
13
48
1
60
0
100
AcDbEllipse
10
23.914981
20
-4.393907
30
0
11
-0.0722486702265449
21
0.131453906942685
31
0
210
0
220
0
230
1
40
0.303884
41
0.422400042194855
42
1.40530529868886
0
ELLIPSE
5
176
100
AcDbEntity
8
1
62
256
6
ByLayer
370
13
48
1
60
0
100
AcDbEllipse
10
25.193937
20
-4.130996
30
0
11
0.288517367888856
21
-0.0822054038764276
31
0
210
0
220
0
230
1
40
0.201316
41
0.955679576570793
42
1.50320190071232
0
ELLIPSE
5
177
100
AcDbEntity
8
1
62
256
6
ByLayer
370
13
48
1
60
0
100
AcDbEllipse
10
23.892833
20
-3.587446
30
0
11
0.122999586129777
21
0.0858551210581151
31
0
210
0
220
0
230
1
40
0.203946
41
1.85506502495926
42
2.61874247938635
0
ELLIPSE
5
178
100
AcDbEntity
8
1
62
256
6
ByLayer
370
13
48
1
60
0
100
AcDbEllipse
10
23.892833
20
-4.412554
30
0
11
-0.122999586130244
21
0.0858551210574456
31
0
210
0
220
0
230
1
40
0.203946
41
0.522850174197462
42
1.28652762862992
0
ELLIPSE
5
179
100
AcDbEntity
8
1
62
256
6
ByLayer
370
13
48
1
60
0
100
AcDbEllipse
10
25.193937
20
-3.869004
30
0
11
-0.288517367888757
21
-0.0822054038767749
31
0
210
0
220
0
230
1
40
0.201316
41
1.63839075288007
42
2.18591307702113
0
ELLIPSE
5
17A
100
AcDbEntity
8
1
62
256
6
ByLayer
370
13
48
1
60
0
100
AcDbEllipse
10
23.878252
20
-3.561581
30
0
11
0.136631968823999
21
0.0619007681315656
31
0
210
0
220
0
230
1
40
0.148534
41
1.88760878179955
42
2.74962710514682
0
ELLIPSE
5
17B
100
AcDbEntity
8
1
62
256
6
ByLayer
370
13
48
1
60
0
100
AcDbEllipse
10
23.878252
20
-4.438419
30
0
11
0.136631968824137
21
-0.0619007681312608
31
0
210
0
220
0
230
1
40
0.148534
41
-2.74962710515908
42
-1.88760878179978
0
ELLIPSE
5
17C
100
AcDbEntity
8
1
62
256
6
ByLayer
370
13
48
1
60
0
100
AcDbEllipse
10
23.738501
20
-4.725438
30
0
11
0.132407679423122
21
-0.0704855051041258
31
0
210
0
220
0
230
1
40
0.168583
41
-2.61018272665897
42
-1.87748899426507
0
ELLIPSE
5
17D
100
AcDbEntity
8
1
62
256
6
ByLayer
370
13
48
1
60
0
100
AcDbEllipse
10
23.738501
20
-3.274562
30
0
11
0.132407679423122
21
0.0704855051041255
31
0
210
0
220
0
230
1
40
0.168583
41
1.87748899426524
42
2.61018272665908
0
ELLIPSE
5
17E
100
AcDbEntity
8
1
62
256
6
ByLayer
370
13
48
1
60
0
100
AcDbEllipse
10
23.942406
20
-3.569126
30
0
11
-0.0486052519780795
21
-0.194003941919095
31
0
210
0
220
0
230
1
40
0.669878
41
-0.553928558803263
42
-0.205864067887412
0
ELLIPSE
5
17F
100
AcDbEntity
8
1
62
256
6
ByLayer
370
13
48
1
60
0
100
AcDbEllipse
10
23.922373
20
-3.566064
30
0
11
5.665498452323E-17
21
0.2
31
0
210
0
220
0
230
1
40
0.909654
41
1.90677220782003
42
2.72521072930053
0
ELLIPSE
5
180
100
AcDbEntity
8
1
62
256
6
ByLayer
370
13
48
1
60
0
100
AcDbEllipse
10
23.922373
20
-4.433936
30
0
11
5.665498452323E-17
21
0.2
31
0
210
0
220
0
230
1
40
0.909654
41
0.416381924289194
42
1.23482044577494
0
ELLIPSE
5
181
100
AcDbEntity
8
1
62
256
6
ByLayer
370
13
48
1
60
0
100
AcDbEllipse
10
23.942406
20
-4.430874
30
0
11
-0.0486052519780804
21
0.194003941919095
31
0
210
0
220
0
230
1
40
0.669878
41
0.205864067887526
42
0.553928558476822
0
ELLIPSE
5
182
100
AcDbEntity
8
1
62
256
6
ByLayer
370
13
48
1
60
0
100
AcDbEllipse
10
23.738501
20
-4.725438
30
0
11
4.24912383924225E-17
21
0.15
31
0
210
0
220
0
230
1
40
0.848573
41
1.234820445786
42
1.5707963267949
0
ELLIPSE
5
183
100
AcDbEntity
8
1
62
256
6
ByLayer
370
13
48
1
60
0
100
AcDbEllipse
10
23.738501
20
-3.274562
30
0
11
4.24912383924225E-17
21
0.15
31
0
210
0
220
0
230
1
40
0.848573
41
1.5707963267949
42
1.90677220780379
0
ELLIPSE
5
184
100
AcDbEntity
8
1
62
256
6
ByLayer
370
13
48
1
60
0
100
AcDbEllipse
10
23.434034
20
-3.566064
30
0
11
5.665498452323E-17
21
0.2
31
0
210
0
220
0
230
1
40
0.34202
41
1.90677220780381
42
2.72521072930055
0
ELLIPSE
5
185
100
AcDbEntity
8
1
62
256
6
ByLayer
370
13
48
1
60
0
100
AcDbEllipse
10
23.434034
20
-4.433936
30
0
11
-3.67381906146713E-17
21
-0.2
31
0
210
0
220
0
230
1
40
0.34202
41
-2.72521072930055
42
-1.90677220780381
0
ELLIPSE
5
186
100
AcDbEntity
8
1
62
256
6
ByLayer
370
13
48
1
60
0
100
AcDbEllipse
10
23.68303
20
-6.080141
30
0
11
-3.67381906146715E-16
21
-2.00000000000001
31
0
210
0
220
0
230
1
40
0.34202
41
-2.79252680319094
42
-2.72521072930061
0
ELLIPSE
5
187
100
AcDbEntity
8
1
62
256
6
ByLayer
370
13
48
1
60
0
100
AcDbEllipse
10
23.68303
20
-1.919859
30
0
11
5.66549845232303E-16
21
2.00000000000001
31
0
210
0
220
0
230
1
40
0.34202
41
2.72521072930061
42
2.79252680319094
0
ELLIPSE
5
188
100
AcDbEntity
8
1
62
256
6
ByLayer
370
13
48
1
60
0
100
AcDbEllipse
10
23.381103
20
-3.274562
30
0
11
4.24912383924225E-17
21
0.15
31
0
210
0
220
0
230
1
40
0.34202
41
1.5707963267949
42
1.90677220780386
0
ELLIPSE
5
189
100
AcDbEntity
8
1
62
256
6
ByLayer
370
13
48
1
60
0
100
AcDbEllipse
10
23.381103
20
-4.725438
30
0
11
-2.75536429610035E-17
21
-0.15
31
0
210
0
220
0
230
1
40
0.34202
41
-1.90677220780386
42
-1.5707963267949
0
ELLIPSE
5
18A
100
AcDbEntity
8
1
62
256
6
ByLayer
370
13
48
1
60
0
100
AcDbEllipse
10
27.122654
20
-3.108695
30
0
11
0.00588101291965487
21
-0.239927934361631
31
0
210
0
220
0
230
1
40
0.175234
41
-1.50631558565106
42
-0.75053540047308
0
ELLIPSE
5
18B
100
AcDbEntity
8
1
62
256
6
ByLayer
370
13
48
1
60
0
100
AcDbEllipse
10
27.122654
20
-4.891305
30
0
11
0.00588101291965508
21
0.239927934361631
31
0
210
0
220
0
230
1
40
0.175234
41
0.750535400473072
42
1.50631558565103
0
ELLIPSE
5
18C
100
AcDbEntity
8
1
62
256
6
ByLayer
370
13
48
1
60
0
100
AcDbEllipse
10
23.427723
20
-4
30
0
11
5.94877337493915E-17
21
0.21
31
0
210
0
220
0
230
1
40
0.34202
41
-2.7925268031909
42
-0.349065850398889
0
ELLIPSE
5
18D
100
AcDbEntity
8
1
62
256
6
ByLayer
370
13
48
1
60
0
100
AcDbEllipse
10
27.65209
20
-3.312207
30
0
11
-0.0532002340369042
21
-0.0846742882959085
31
0
210
0
220
0
230
1
40
0.139782
41
0.739654044676573
42
1.57684789387814
0
ELLIPSE
5
18E
100
AcDbEntity
8
1
62
256
6
ByLayer
370
13
48
1
60
0
100
AcDbEllipse
10
27.813506
20
-3.461955
30
0
11
-0.0833195870797989
21
-0.0552977975045282
31
0
210
0
220
0
230
1
40
0.125168
41
1.00901921834363
42
1.63384778655093
0
ELLIPSE
5
18F
100
AcDbEntity
8
1
62
256
6
ByLayer
370
13
48
1
60
0
100
AcDbEllipse
10
27.813506
20
-4.538045
30
0
11
-0.0833195870797989
21
0.0552977975045282
31
0
210
0
220
0
230
1
40
0.125168
41
-1.63384778655114
42
-1.00901921834469
0
ELLIPSE
5
190
100
AcDbEntity
8
1
62
256
6
ByLayer
370
13
48
1
60
0
100
AcDbEllipse
10
27.65209
20
-4.687793
30
0
11
-0.0532002340369041
21
0.0846742882959086
31
0
210
0
220
0
230
1
40
0.139782
41
-1.57684789387835
42
-0.73965404467823
0
ELLIPSE
5
191
100
AcDbEntity
8
1
62
256
6
ByLayer
370
13
48
1
60
0
100
AcDbEllipse
10
27.341387
20
-3.647871
30
0
11
0.0115886927836045
21
-0.399832092508302
31
0
210
0
220
0
230
1
40
0.406594
41
1.55901218905986
42
2.32325251776616
0
ELLIPSE
5
192
100
AcDbEntity
8
1
62
256
6
ByLayer
370
13
48
1
60
0
100
AcDbEllipse
10
27.341387
20
-4.352129
30
0
11
0.0115886927836044
21
0.399832092508302
31
0
210
0
220
0
230
1
40
0.406594
41
-2.32325251776605
42
-1.55901218905987
0
ELLIPSE
5
193
100
AcDbEntity
8
1
62
256
6
ByLayer
370
13
48
1
60
0
100
AcDbEllipse
10
27.498358
20
-4.800378
30
0
11
0.0768343605824262
21
-0.0640037579669329
31
0
210
0
220
0
230
1
40
0.131171
41
1.52167934605477
42
1.98237212656373
0
ELLIPSE
5
194
100
AcDbEntity
8
1
62
256
6
ByLayer
370
13
48
1
60
0
100
AcDbEllipse
10
27.594545
20
-4.723676
30
0
11
-0.0526170259943807
21
0.0850379243367727
31
0
210
0
220
0
230
1
40
0.13982
41
-1.57588705481515
42
-0.737799907002917
0
ELLIPSE
5
195
100
AcDbEntity
8
1
62
256
6
ByLayer
370
13
48
1
60
0
100
AcDbEllipse
10
27.498358
20
-3.199622
30
0
11
0.0768343605824262
21
0.0640037579669328
31
0
210
0
220
0
230
1
40
0.131171
41
-1.98237212656373
42
-1.52167934605455
0
ELLIPSE
5
196
100
AcDbEntity
8
1
62
256
6
ByLayer
370
13
48
1
60
0
100
AcDbEllipse
10
27.594545
20
-3.276324
30
0
11
-0.0526170259943807
21
-0.0850379243367726
31
0
210
0
220
0
230
1
40
0.13982
41
0.737799907002917
42
1.5758870548153
0
ELLIPSE
5
197
100
AcDbEntity
8
1
62
256
6
ByLayer
370
13
48
1
60
0
100
AcDbEllipse
10
26.733781
20
-4.883503
30
0
11
-0.00779618045171957
21
0.239873340682878
31
0
210
0
220
0
230
1
40
0.002272
41
-1.50102006034287
42
-0.730980747429493
0
ELLIPSE
5
198
100
AcDbEntity
8
1
62
256
6
ByLayer
370
13
48
1
60
0
100
AcDbEllipse
10
26.733781
20
-3.116497
30
0
11
-0.00779618045171942
21
-0.239873340682878
31
0
210
0
220
0
230
1
40
0.002272
41
0.730980747429414
42
1.50102006034275
0
ELLIPSE
5
199
100
AcDbEntity
8
1
62
256
6
ByLayer
370
13
48
1
60
0
100
AcDbEllipse
10
27.835851
20
-4.503425
30
0
11
-0.0846406472330468
21
0.0532537401125117
31
0
210
0
220
0
230
1
40
0.065248
41
-1.67413113259311
42
-1.04586785899545
0
ELLIPSE
5
19A
100
AcDbEntity
8
1
62
256
6
ByLayer
370
13
48
1
60
0
100
AcDbEllipse
10
27.835851
20
-3.496575
30
0
11
-0.0846406472330468
21
-0.0532537401125116
31
0
210
0
220
0
230
1
40
0.065248
41
1.04586785899558
42
1.67413113259332
0
ELLIPSE
5
19B
100
AcDbEntity
8
1
62
256
6
ByLayer
370
13
48
1
60
0
100
AcDbEllipse
10
19.974248
20
-3.130414
30
0
11
0.979582051966724
21
-0.301726209192535
31
0
210
0
220
0
230
-1
40
0.270086
41
1.98807590253228
42
2.11639244194145
0
ELLIPSE
5
19C
100
AcDbEntity
8
1
62
256
6
ByLayer
370
18
48
1
60
0
100
AcDbEllipse
10
-0.627723
20
5.006981
30
0
11
1.59999999999972
21
1.6170224881315E-15
31
0
210
0
220
0
230
-1
40
0.004363
41
0.261799387799224
42
1.5707963267949
0
ELLIPSE
5
19D
100
AcDbEntity
8
1
62
256
6
ByLayer
370
18
48
1
60
0
100
AcDbEllipse
10
27.481337
20
-4.976087
30
0
11
0.239998275890529
21
-0.0147981977304079
31
0
210
0
220
0
230
-1
40
0.061458
41
1.44512847952074
42
1.74112318552844
0
ELLIPSE
5
19E
100
AcDbEntity
8
1
62
256
6
ByLayer
370
18
48
1
60
0
100
AcDbEllipse
10
24.948461
20
-4.666924
30
0
11
0.057752929499109
21
0.191891975732293
31
0
210
-1.59650527093405E-15
220
-7.67208394159938E-18
230
1
40
0.998032
41
2.91077570167875
42
-2.91077570167872
0
ELLIPSE
5
19F
100
AcDbEntity
8
1
62
256
6
ByLayer
370
18
48
1
60
0
100
AcDbEllipse
10
24.72387
20
-3
30
0
11
0.201490790302156
21
0
31
0
210
0
220
0
230
1
40
0.992601
41
-1.5707963267949
42
-1.04397591016874
0
ELLIPSE
5
1A0
100
AcDbEntity
8
1
62
256
6
ByLayer
370
18
48
1
60
0
100
AcDbEllipse
10
27.481337
20
-3.023913
30
0
11
0.239998277840648
21
0.0147981978467799
31
0
210
0
220
0
230
-1
40
0.061458
41
-1.74112318439555
42
-1.44512848080988
0
ELLIPSE
5
1A1
100
AcDbEntity
8
1
62
256
6
ByLayer
370
18
48
1
60
0
100
AcDbEllipse
10
25.063726
20
-4.856339
30
0
11
0.302024948165467
21
-0.0186199320942028
31
0
210
0
220
0
230
-1
40
0.060635
41
0.77616608923531
42
1.56278371213462
0
ELLIPSE
5
1A2
100
AcDbEntity
8
1
62
256
6
ByLayer
370
18
48
1
60
0
100
AcDbEllipse
10
24.948461
20
-3.333076
30
0
11
0.0577529294991086
21
-0.191891975732293
31
0
210
-1.62972770132427E-15
220
-2.32673269882162E-18
230
1
40
0.998032
41
2.91077570167872
42
-2.91077570167875
0
ELLIPSE
5
1A3
100
AcDbEntity
8
1
62
256
6
ByLayer
370
18
48
1
60
0
100
AcDbEllipse
10
27.948748
20
-4.503425
30
0
11
1.1330996904646E-16
21
0.4
31
0
210
0
220
0
230
1
40
0.121869
41
1.5707963267949
42
1.64009079051256
0
ELLIPSE
5
1A4
100
AcDbEntity
8
1
62
256
6
ByLayer
370
18
48
1
60
0
100
AcDbEllipse
10
25.063726
20
-3.143661
30
0
11
0.302024948157958
21
0.0186199320934235
31
0
210
0
220
0
230
-1
40
0.060635
41
-1.56278371215253
42
-0.77616608923573
0
ELLIPSE
5
1A5
100
AcDbEntity
8
1
62
256
6
ByLayer
370
18
48
1
60
0
100
AcDbEllipse
10
24.72387
20
-5
30
0
11
-0.201490790302156
21
2.46746902040712E-17
31
0
210
0
220
0
230
1
40
0.992601
41
-2.09761674342106
42
-1.5707963267949
0
ELLIPSE
5
1A6
100
AcDbEntity
8
1
62
256
6
ByLayer
370
18
48
1
60
0
100
AcDbEllipse
10
27.948748
20
-3.496575
30
0
11
1.1330996904646E-16
21
0.4
31
0
210
0
220
0
230
1
40
0.121869
41
1.50150186307724
42
1.5707963267949
0
POINT
5
6C
100
AcDbEntity
8
80
62
256
6
ByLayer
370
18
48
1
60
0
100
AcDbPoint
10
0
20
0
30
0
39
0
210
0
220
0
230
1
50
360
0
POINT
5
6E
100
AcDbEntity
8
81
62
256
6
ByLayer
370
18
48
1
60
0
100
AcDbPoint
10
27.9
20
-5
30
0
39
0
210
0
220
0
230
1
50
360
0
SPLINE
5
1A7
100
AcDbEntity
8
SK1
62
256
6
ByLayer
370
18
48
1
60
0
100
AcDbSpline
70
4
71
3
72
8
73
4
40
0
40
0
40
0
40
0
40
1
40
1
40
1
40
1
41
1
10
-0.400000000000091
20
-4.74999999999949
30
0
41
1
10
-0.475824100695235
20
-4.74999999999949
30
0
41
1
10
-0.55313192740303
20
-4.75882959168536
30
0
41
1
10
-0.62772318076631
20
-4.776274087362
30
0
0
SPLINE
5
1A8
100
AcDbEntity
8
1
62
256
6
ByLayer
370
18
48
1
60
0
100
AcDbSpline
70
4
71
3
72
16
73
12
40
0
40
0
40
0
40
0
40
0.037839412816222
40
0.037839412816222
40
0.365946139584258
40
0.365946139584258
40
0.667547960127248
40
0.667547960127248
40
0.93122926888146
40
0.93122926888146
40
1
40
1
40
1
40
1
41
1
10
20.4428746130135
20
-3.19374632711251
30
0
41
1
10
20.429130352697
20
-3.18894039549952
30
0
41
1
10
20.415484258469
20
-3.18382924629523
30
0
41
1
10
20.2848627653292
20
-3.13155504701115
30
0
41
1
10
20.1727554275663
20
-3.06020234823472
30
0
41
1
10
19.991234741841
20
-2.88458017851119
30
0
41
1
10
19.9163871791021
20
-2.78039055690397
30
0
41
1
10
19.8179038948777
20
-2.56478933457086
30
0
41
1
10
19.7877332158949
20
-2.45262986212978
30
0
41
1
10
19.7748569665756
20
-2.31009693503367
30
0
41
1
10
19.7735001384359
20
-2.28002932882163
30
0
41
1
10
19.7735001384359
20
-2.24999999999949
30
0
0
SPLINE
5
1A9
100
AcDbEntity
8
1
62
256
6
ByLayer
370
18
48
1
60
0
100
AcDbSpline
70
4
71
3
72
18
73
14
40
0
40
0
40
0
40
0
40
0.174254023674327
40
0.174254023674327
40
0.347935359819617
40
0.347935359819617
40
0.531225201322243
40
0.531225201322243
40
0.740960127852135
40
0.740960127852135
40
0.996142005499511
40
0.996142005499511
40
1
40
1
40
1
40
1
41
1
10
15.3477093723894
20
-2.2499999999994
30
0
41
1
10
15.3477093723894
20
-2.34946294073461
30
0
41
1
10
15.3572657714045
20
-2.45030577346199
30
0
41
1
10
15.3930435291141
20
-2.63719948963481
30
0
41
1
10
15.4196108954677
20
-2.72577821409578
30
0
41
1
10
15.4865657058644
20
-2.88639407083136
30
0
41
1
10
15.5283800247928
20
-2.95927721524754
30
0
41
1
10
15.6268093393376
20
-3.08836566897051
30
0
41
1
10
15.6858422840264
20
-3.14235080379601
30
0
41
1
10
15.8219120462068
20
-3.22603335731265
30
0
41
1
10
15.9019993551927
20
-3.24931168966802
30
0
41
1
10
15.9828910214931
20
-3.24999490820568
30
0
41
1
10
15.984097172996
20
-3.2499999999994
30
0
41
1
10
15.9853031931148
20
-3.2499999999994
30
0
0
SPLINE
5
1AA
100
AcDbEntity
8
1
62
256
6
ByLayer
370
18
48
1
60
0
100
AcDbSpline
70
4
71
3
72
16
73
12
40
0
40
0
40
0
40
0
40
0.037839412816222
40
0.037839412816222
40
0.365946139584258
40
0.365946139584258
40
0.667547960127248
40
0.667547960127248
40
0.93122926888146
40
0.93122926888146
40
1
40
1
40
1
40
1
41
1
10
20.4428746130135
20
-3.19374632711251
30
0
41
1
10
20.429130352697
20
-3.18894039549952
30
0
41
1
10
20.415484258469
20
-3.18382924629523
30
0
41
1
10
20.2848627653292
20
-3.13155504701115
30
0
41
1
10
20.1727554275663
20
-3.06020234823472
30
0
41
1
10
19.991234741841
20
-2.88458017851119
30
0
41
1
10
19.9163871791021
20
-2.78039055690397
30
0
41
1
10
19.8179038948777
20
-2.56478933457086
30
0
41
1
10
19.7877332158949
20
-2.45262986212978
30
0
41
1
10
19.7748569665756
20
-2.31009693503367
30
0
41
1
10
19.7735001384359
20
-2.28002932882163
30
0
41
1
10
19.7735001384359
20
-2.24999999999949
30
0
0
SPLINE
5
1AB
100
AcDbEntity
8
1
62
256
6
ByLayer
370
13
48
1
60
0
100
AcDbSpline
70
4
71
3
72
10
73
6
40
0
40
0
40
0
40
0
40
0.807289382551453
40
0.807289382551453
40
1
40
1
40
1
40
1
41
1
10
25.3262120963125
20
-3.62397635271003
30
0
41
1
10
25.3302762008164
20
-3.59172661660733
30
0
41
1
10
25.3269568435097
20
-3.56258905616389
30
0
41
1
10
25.3156280417962
20
-3.53236877567267
30
0
41
1
10
25.3131204986914
20
-3.52671625365545
30
0
41
1
10
25.3102634152023
20
-3.52135698573585
30
0
0
SPLINE
5
1AC
100
AcDbEntity
8
1
62
256
6
ByLayer
370
13
48
1
60
0
100
AcDbSpline
70
4
71
3
72
14
73
10
40
0
40
0
40
0
40
0
40
0.140335064029798
40
0.140335064029798
40
0.313324577863399
40
0.313324577863399
40
0.854437087129479
40
0.854437087129479
40
1
40
1
40
1
40
1
41
1
10
25.3102634152023
20
-3.52135698573588
30
0
41
1
10
25.3115615907815
20
-3.51996288777369
30
0
41
1
10
25.3130492807412
20
-3.5186570101209
30
0
41
1
10
25.3164306495378
20
-3.51613672597219
30
0
41
1
10
25.318387975026
20
-3.51496507816816
30
0
41
1
10
25.3261757331449
20
-3.51097137354478
30
0
41
1
10
25.3318897349344
20
-3.50944809460953
30
0
41
1
10
25.3386571441607
20
-3.50815804907811
30
0
41
1
10
25.3400859075475
20
-3.50792528395004
30
0
41
1
10
25.341497419172
20
-3.5077279642513
30
0
0
SPLINE
5
1AD
100
AcDbEntity
8
1
62
256
6
ByLayer
370
13
48
1
60
0
100
AcDbSpline
70
4
71
3
72
8
73
4
40
0
40
0
40
0
40
0
40
1
40
1
40
1
40
1
41
1
10
25.3414974191717
20
-3.50772796425159
30
0
41
1
10
25.3434065060311
20
-3.50746108692843
30
0
41
1
10
25.3452888609443
20
-3.50725234549117
30
0
41
1
10
25.3471477503401
20
-3.50708946419823
30
0
0
SPLINE
5
1AE
100
AcDbEntity
8
1
62
256
6
ByLayer
370
13
48
1
60
0
100
AcDbSpline
70
4
71
3
72
12
73
8
40
0
40
0
40
0
40
0
40
0.271863792020762
40
0.271863792020762
40
0.680333498425164
40
0.680333498425164
40
1
40
1
40
1
40
1
41
1
10
25.3471477503394
20
-3.50708946419888
30
0
41
1
10
25.4254708389114
20
-3.50022656748106
30
0
41
1
10
25.5132950984392
20
-3.48780264782923
30
0
41
1
10
25.7465931614069
20
-3.44799551026168
30
0
41
1
10
25.9026236458242
20
-3.41567608259695
30
0
41
1
10
26.1875983266002
20
-3.35152508985138
30
0
41
1
10
26.3183646565651
20
-3.31738411408523
30
0
41
1
10
26.4495881472218
20
-3.30134968170154
30
0
0
SPLINE
5
1AF
100
AcDbEntity
8
1
62
256
6
ByLayer
370
13
48
1
60
0
100
AcDbSpline
70
4
71
3
72
8
73
4
40
0
40
0
40
0
40
0
40
1
40
1
40
1
40
1
41
1
10
26.4495881472218
20
-3.30134968170154
30
0
41
1
10
26.5417788954044
20
-3.2900847297426
30
0
41
1
10
26.6354245830992
20
-3.29238352941042
30
0
41
1
10
26.7283398883331
20
-3.29509899962821
30
0
0
SPLINE
5
1B0
100
AcDbEntity
8
1
62
256
6
ByLayer
370
13
48
1
60
0
100
AcDbSpline
70
4
71
3
72
8
73
4
40
0
40
0
40
0
40
0
40
1
40
1
40
1
40
1
41
1
10
26.7283398883331
20
-3.29509899962821
30
0
41
1
10
26.8522136636574
20
-3.29871923793897
30
0
41
1
10
26.9768571353024
20
-3.29020434150411
30
0
41
1
10
27.0982800289245
20
-3.28486329371069
30
0
0
SPLINE
5
1B1
100
AcDbEntity
8
1
62
256
6
ByLayer
370
13
48
1
60
0
100
AcDbSpline
70
4
71
3
72
10
73
6
40
0
40
0
40
0
40
0
40
0.860053459941695
40
0.860053459941695
40
1
40
1
40
1
40
1
41
1
10
27.0982800289245
20
-3.28486329371069
30
0
41
1
10
27.2321716826563
20
-3.27897378061812
30
0
41
1
10
27.3692183325878
20
-3.29041633590765
30
0
41
1
10
27.5209193574704
20
-3.33158634511898
30
0
41
1
10
27.5422592203893
20
-3.33791259968933
30
0
41
1
10
27.5636089363248
20
-3.34419694560239
30
0
0
SPLINE
5
1B2
100
AcDbEntity
8
1
62
256
6
ByLayer
370
13
48
1
60
0
100
AcDbSpline
70
4
71
3
72
8
73
4
40
0
40
0
40
0
40
0
40
1
40
1
40
1
40
1
41
1
10
27.5636089363248
20
-3.34419694560239
30
0
41
1
10
27.5827084170632
20
-3.35598152479443
30
0
41
1
10
27.6017609506472
20
-3.36784016915985
30
0
41
1
10
27.6207683583679
20
-3.379768231866
30
0
0
SPLINE
5
1B3
100
AcDbEntity
8
1
62
256
6
ByLayer
370
13
48
1
60
0
100
AcDbSpline
70
4
71
3
72
10
73
6
40
0
40
0
40
0
40
0
40
0.776503433583243
40
0.776503433583243
40
1
40
1
40
1
40
1
41
1
10
27.6207683583679
20
-3.379768231866
30
0
41
1
10
27.5774725026343
20
-3.37806168534962
30
0
41
1
10
27.5344378625006
20
-3.37677950263642
30
0
41
1
10
27.4776224808541
20
-3.37254378130456
30
0
41
1
10
27.4648810790715
20
-3.37174126270057
30
0
41
1
10
27.4521447262338
20
-3.37117242395237
30
0
0
SPLINE
5
1B4
100
AcDbEntity
8
1
62
256
6
ByLayer
370
13
48
1
60
0
100
AcDbSpline
70
4
71
3
72
10
73
6
40
0
40
0
40
0
40
0
40
0.802218039223748
40
0.802218039223748
40
1
40
1
40
1
40
1
41
1
10
27.4521447262338
20
-3.37117242395237
30
0
41
1
10
27.3127836505348
20
-3.36494819470426
30
0
41
1
10
27.1644549248777
20
-3.35928368762046
30
0
41
1
10
26.9792703339537
20
-3.3520793322657
30
0
41
1
10
26.9422443273126
20
-3.3506438011772
30
0
41
1
10
26.9052430294063
20
-3.34933367076317
30
0
0
SPLINE
5
1B5
100
AcDbEntity
8
1
62
256
6
ByLayer
370
13
48
1
60
0
100
AcDbSpline
70
4
71
3
72
16
73
12
40
0
40
0
40
0
40
0
40
0.0308303102605419
40
0.0308303102605419
40
0.572662020821238
40
0.572662020821238
40
0.596525876635503
40
0.596525876635503
40
0.811742896024901
40
0.811742896024901
40
1
40
1
40
1
40
1
41
1
10
26.9052430294063
20
-3.34933367076317
30
0
41
1
10
26.8993536372725
20
-3.34912514100364
30
0
41
1
10
26.8934642432982
20
-3.34891647784562
30
0
41
1
10
26.784075321957
20
-3.3450379089563
30
0
41
1
10
26.6804680881193
20
-3.34188883104901
30
0
41
1
10
26.5725520075114
20
-3.33683115994123
30
0
41
1
10
26.5679952849823
20
-3.33664527759964
30
0
41
1
10
26.5223626957531
20
-3.33504634337427
30
0
41
1
10
26.4811924961802
20
-3.33545440704737
30
0
41
1
10
26.4042684809455
20
-3.33810380569295
30
0
41
1
10
26.3684207998393
20
-3.34021707713211
30
0
41
1
10
26.3328798390933
20
-3.34478511127568
30
0
0
SPLINE
5
1B6
100
AcDbEntity
8
1
62
256
6
ByLayer
370
13
48
1
60
0
100
AcDbSpline
70
4
71
3
72
12
73
8
40
0
40
0
40
0
40
0
40
0.491351269778757
40
0.491351269778757
40
0.753050934981407
40
0.753050934981407
40
1
40
1
40
1
40
1
41
1
10
26.3328798390933
20
-3.34478511127568
30
0
41
1
10
26.2879752829179
20
-3.35055663634159
30
0
41
1
10
26.2433932389101
20
-3.35841513629512
30
0
41
1
10
26.1762335559799
20
-3.37438040276612
30
0
41
1
10
26.1531371669221
20
-3.38147274097514
30
0
41
1
10
26.1083199167815
20
-3.39481960075307
30
0
41
1
10
26.0865899596688
20
-3.40119167591098
30
0
41
1
10
26.0649336450021
20
-3.40755326988312
30
0
0
SPLINE
5
1B7
100
AcDbEntity
8
1
62
256
6
ByLayer
370
13
48
1
60
0
100
AcDbSpline
70
4
71
3
72
12
73
8
40
0
40
0
40
0
40
0
40
0.244915547318589
40
0.244915547318589
40
0.864563982028735
40
0.864563982028735
40
1
40
1
40
1
40
1
41
1
10
26.0649336450021
20
-3.40755326988312
30
0
41
1
10
25.9994204230127
20
-3.4267979347542
30
0
41
1
10
25.9343929566216
20
-3.44587287998823
30
0
41
1
10
25.7105405998204
20
-3.51144066263151
30
0
41
1
10
25.5555221571247
20
-3.556636014421
30
0
41
1
10
25.3855701545792
20
-3.60650366181517
30
0
41
1
10
25.3555057237629
20
-3.61534184997439
30
0
41
1
10
25.3262120963125
20
-3.62397635271003
30
0
0
SPLINE
5
1B8
100
AcDbEntity
8
1
62
256
6
ByLayer
370
13
48
1
60
0
100
AcDbSpline
70
4
71
3
72
8
73
4
40
0
40
0
40
0
40
0
40
1
40
1
40
1
40
1
41
1
10
25.3471477503394
20
-4.49291053580083
30
0
41
1
10
25.3452888609435
20
-4.49274765450789
30
0
41
1
10
25.3434065060322
20
-4.49253891307222
30
0
41
1
10
25.3414974191728
20
-4.4922720357491
30
0
0
SPLINE
5
1B9
100
AcDbEntity
8
1
62
256
6
ByLayer
370
13
48
1
60
0
100
AcDbSpline
70
4
71
3
72
14
73
10
40
0
40
0
40
0
40
0
40
0.538704325353333
40
0.538704325353333
40
0.684467013462083
40
0.684467013462083
40
0.858675811811913
40
0.858675811811913
40
1
40
1
40
1
40
1
41
1
10
25.3414974191717
20
-4.49227203574813
30
0
41
1
10
25.336304109803
20
-4.49154604651625
30
0
41
1
10
25.3308274196762
20
-4.49039589809962
30
0
41
1
10
25.3235066860402
20
-4.48754282511564
30
0
41
1
10
25.3219066564684
20
-4.48683936595151
30
0
41
1
10
25.3183879750259
20
-4.48503492183153
30
0
41
1
10
25.3164306495377
20
-4.48386327402747
30
0
41
1
10
25.3130492807491
20
-4.48134298988467
30
0
41
1
10
25.3115615907703
20
-4.48003711228114
30
0
41
1
10
25.3102634151937
20
-4.47864301432881
30
0
0
SPLINE
5
1BA
100
AcDbEntity
8
1
62
256
6
ByLayer
370
13
48
1
60
0
100
AcDbSpline
70
4
71
3
72
10
73
6
40
0
40
0
40
0
40
0
40
0.429405505457208
40
0.429405505457208
40
1
40
1
40
1
40
1
41
1
10
25.3102634152023
20
-4.47864301426387
30
0
41
1
10
25.316591143752
20
-4.46677357021349
30
0
41
1
10
25.3213513498928
20
-4.45354921053448
30
0
41
1
10
25.328338741334
20
-4.42019863544857
30
0
41
1
10
25.3290939581086
20
-4.39889197715655
30
0
41
1
10
25.3262120963125
20
-4.37602364728971
30
0
0
SPLINE
5
1BB
100
AcDbEntity
8
1
62
256
6
ByLayer
370
13
48
1
60
0
100
AcDbSpline
70
4
71
3
72
12
73
8
40
0
40
0
40
0
40
0
40
0.244915547318584
40
0.244915547318584
40
0.864563982028716
40
0.864563982028716
40
1
40
1
40
1
40
1
41
1
10
26.0649336450021
20
-4.59244673011662
30
0
41
1
10
25.9994204230127
20
-4.57320206524554
30
0
41
1
10
25.9343929566216
20
-4.55412712001151
30
0
41
1
10
25.7105405998204
20
-4.48855933736823
30
0
41
1
10
25.5555221571247
20
-4.44336398557871
30
0
41
1
10
25.3855701545792
20
-4.39349633818455
30
0
41
1
10
25.3555057237629
20
-4.38465815002533
30
0
41
1
10
25.3262120963125
20
-4.37602364728971
30
0
0
SPLINE
5
1BC
100
AcDbEntity
8
1
62
256
6
ByLayer
370
13
48
1
60
0
100
AcDbSpline
70
4
71
3
72
12
73
8
40
0
40
0
40
0
40
0
40
0.491351269778757
40
0.491351269778757
40
0.753050934981407
40
0.753050934981407
40
1
40
1
40
1
40
1
41
1
10
26.3328798390933
20
-4.65521488872403
30
0
41
1
10
26.2879752829179
20
-4.64944336365812
30
0
41
1
10
26.2433932389101
20
-4.64158486370462
30
0
41
1
10
26.1762335559799
20
-4.6256195972336
30
0
41
1
10
26.1531371669221
20
-4.6185272590246
30
0
41
1
10
26.1083199167815
20
-4.60518039924668
30
0
41
1
10
26.0865899596688
20
-4.59880832408876
30
0
41
1
10
26.0649336450021
20
-4.59244673011662
30
0
0
SPLINE
5
1BD
100
AcDbEntity
8
1
62
256
6
ByLayer
370
13
48
1
60
0
100
AcDbSpline
70
4
71
3
72
16
73
12
40
0
40
0
40
0
40
0
40
0.0308303102605419
40
0.0308303102605419
40
0.572662020821238
40
0.572662020821238
40
0.596525876635503
40
0.596525876635503
40
0.811742896024901
40
0.811742896024901
40
1
40
1
40
1
40
1
41
1
10
26.9052430294063
20
-4.65066632923654
30
0
41
1
10
26.8993536372725
20
-4.65087485899608
30
0
41
1
10
26.8934642432982
20
-4.6510835221541
30
0
41
1
10
26.784075321957
20
-4.65496209104344
30
0
41
1
10
26.6804680881193
20
-4.65811116895071
30
0
41
1
10
26.5725520075114
20
-4.66316884005849
30
0
41
1
10
26.5679952849823
20
-4.6633547224001
30
0
41
1
10
26.5223626957531
20
-4.66495365662544
30
0
41
1
10
26.4811924961802
20
-4.66454559295235
30
0
41
1
10
26.4042684809455
20
-4.66189619430676
30
0
41
1
10
26.3684207998393
20
-4.65978292286761
30
0
41
1
10
26.3328798390933
20
-4.65521488872403
30
0
0
SPLINE
5
1BE
100
AcDbEntity
8
1
62
256
6
ByLayer
370
13
48
1
60
0
100
AcDbSpline
70
4
71
3
72
10
73
6
40
0
40
0
40
0
40
0
40
0.802218039223748
40
0.802218039223748
40
1
40
1
40
1
40
1
41
1
10
27.4521447262338
20
-4.62882757604734
30
0
41
1
10
27.3127836505348
20
-4.63505180529546
30
0
41
1
10
27.1644549248777
20
-4.64071631237928
30
0
41
1
10
26.9792703339537
20
-4.64792066773401
30
0
41
1
10
26.9422443273126
20
-4.64935619882252
30
0
41
1
10
26.9052430294063
20
-4.65066632923654
30
0
0
SPLINE
5
1BF
100
AcDbEntity
8
1
62
256
6
ByLayer
370
13
48
1
60
0
100
AcDbSpline
70
4
71
3
72
10
73
6
40
0
40
0
40
0
40
0
40
0.776503433583243
40
0.776503433583243
40
1
40
1
40
1
40
1
41
1
10
27.6207683583679
20
-4.62023176813372
30
0
41
1
10
27.5774725026343
20
-4.62193831465012
30
0
41
1
10
27.5344378625006
20
-4.62322049736329
30
0
41
1
10
27.4776224808541
20
-4.62745621869519
30
0
41
1
10
27.4648810790715
20
-4.62825873729918
30
0
41
1
10
27.4521447262338
20
-4.62882757604734
30
0
0
SPLINE
5
1C0
100
AcDbEntity
8
1
62
256
6
ByLayer
370
13
48
1
60
0
100
AcDbSpline
70
4
71
3
72
8
73
4
40
0
40
0
40
0
40
0
40
1
40
1
40
1
40
1
41
1
10
27.5636089363248
20
-4.65580305439735
30
0
41
1
10
27.5827084170632
20
-4.64401847520531
30
0
41
1
10
27.6017609506472
20
-4.63215983083987
30
0
41
1
10
27.6207683583679
20
-4.62023176813372
30
0
0
SPLINE
5
1C1
100
AcDbEntity
8
1
62
256
6
ByLayer
370
13
48
1
60
0
100
AcDbSpline
70
4
71
3
72
10
73
6
40
0
40
0
40
0
40
0
40
0.860053459941695
40
0.860053459941695
40
1
40
1
40
1
40
1
41
1
10
27.0982800289245
20
-4.71513670628906
30
0
41
1
10
27.2321716826563
20
-4.72102621938163
30
0
41
1
10
27.3692183325878
20
-4.70958366409207
30
0
41
1
10
27.5209193574704
20
-4.66841365488077
30
0
41
1
10
27.5422592203893
20
-4.66208740031038
30
0
41
1
10
27.5636089363248
20
-4.65580305439732
30
0
0
SPLINE
5
1C2
100
AcDbEntity
8
1
62
256
6
ByLayer
370
13
48
1
60
0
100
AcDbSpline
70
4
71
3
72
8
73
4
40
0
40
0
40
0
40
0
40
1
40
1
40
1
40
1
41
1
10
26.7283398883331
20
-4.70490100037151
30
0
41
1
10
26.8522136636574
20
-4.70128076206078
30
0
41
1
10
26.9768571353024
20
-4.70979565849561
30
0
41
1
10
27.0982800289245
20
-4.71513670628906
30
0
0
SPLINE
5
1C3
100
AcDbEntity
8
1
62
256
6
ByLayer
370
13
48
1
60
0
100
AcDbSpline
70
4
71
3
72
8
73
4
40
0
40
0
40
0
40
0
40
1
40
1
40
1
40
1
41
1
10
26.4495881472218
20
-4.69865031829821
30
0
41
1
10
26.5417788954044
20
-4.70991527025714
30
0
41
1
10
26.6354245830992
20
-4.70761647058933
30
0
41
1
10
26.7283398883331
20
-4.70490100037151
30
0
0
SPLINE
5
1C4
100
AcDbEntity
8
1
62
256
6
ByLayer
370
13
48
1
60
0
100
AcDbSpline
70
4
71
3
72
12
73
8
40
0
40
0
40
0
40
0
40
0.271863792020766
40
0.271863792020766
40
0.680333498425166
40
0.680333498425166
40
1
40
1
40
1
40
1
41
1
10
25.3471477503394
20
-4.49291053580083
30
0
41
1
10
25.4254708389114
20
-4.49977343251868
30
0
41
1
10
25.5132950984392
20
-4.51219735217049
30
0
41
1
10
25.7465931614069
20
-4.55200448973807
30
0
41
1
10
25.9026236458242
20
-4.58432391740277
30
0
41
1
10
26.1875983266002
20
-4.64847491014837
30
0
41
1
10
26.3183646565651
20
-4.68261588591452
30
0
41
1
10
26.4495881472218
20
-4.69865031829821
30
0
0
SPLINE
5
1C5
100
AcDbEntity
8
1
62
256
6
ByLayer
370
13
48
1
60
0
100
AcDbSpline
70
4
71
3
72
18
73
14
40
0
40
0
40
0
40
0
40
0.447407316387175
40
0.447407316387175
40
0.605547053795674
40
0.605547053795674
40
0.784635535666972
40
0.784635535666972
40
0.885678387143329
40
0.885678387143329
40
0.977084410920521
40
0.977084410920521
40
1
40
1
40
1
40
1
41
1
10
24.3984332400776
20
-3.60281729746313
30
0
41
1
10
24.4440476624861
20
-3.58201359569526
30
0
41
1
10
24.4884120317077
20
-3.55375033835892
30
0
41
1
10
24.5394879059807
20
-3.50222254813497
30
0
41
1
10
24.5521556621418
20
-3.48727145983068
30
0
41
1
10
24.5761327225129
20
-3.45247255411903
30
0
41
1
10
24.5872348583249
20
-3.43192397336054
30
0
41
1
10
24.5999368895843
20
-3.39727078300086
30
0
41
1
10
24.6036086002949
20
-3.38410431233066
30
0
41
1
10
24.6083103046788
20
-3.35846181251847
30
0
41
1
10
24.6095747514646
20
-3.34592347882813
30
0
41
1
10
24.6097949440652
20
-3.33025049776953
30
0
41
1
10
24.6097712271323
20
-3.32709254419342
30
0
41
1
10
24.6096790521406
20
-3.32393771056346
30
0
0
SPLINE
5
1C6
100
AcDbEntity
8
1
62
256
6
ByLayer
370
13
48
1
60
0
100
AcDbSpline
70
4
71
3
72
18
73
14
40
0
40
0
40
0
40
0
40
0.0976852199958056
40
0.0976852199958056
40
0.212989397473362
40
0.212989397473362
40
0.394159987615223
40
0.394159987615223
40
0.774111539176557
40
0.774111539176557
40
0.851520792185893
40
0.851520792185893
40
1
40
1
40
1
40
1
41
1
10
24.6096790521406
20
-4.67606228943626
30
0
41
1
10
24.6100703037073
20
-4.66267109103671
30
0
41
1
10
24.6092072189939
20
-4.64916689540161
30
0
41
1
10
24.6048326306339
20
-4.62055413163208
30
0
41
1
10
24.6008494527307
20
-4.6053858827473
30
0
41
1
10
24.5875217769499
20
-4.56861001498402
30
0
41
1
10
24.5762967783069
20
-4.54776605249376
30
0
41
1
10
24.5367316649357
20
-4.4903420024371
30
0
41
1
10
24.5023540549561
20
-4.45936555437021
30
0
41
1
10
24.4587483922281
20
-4.42994514423887
30
0
41
1
10
24.4511702800925
20
-4.42516911926791
30
0
41
1
10
24.4287968496802
20
-4.41195563680861
30
0
41
1
10
24.413730117624
20
-4.40415926083861
30
0
41
1
10
24.3984332400879
20
-4.39718270251777
30
0
0
SPLINE
5
1C7
100
AcDbEntity
8
1
62
256
6
ByLayer
370
13
48
1
60
0
100
AcDbSpline
70
4
71
3
72
12
73
8
40
0
40
0
40
0
40
0
40
0.167536140690989
40
0.167536140690989
40
0.701521703333122
40
0.701521703333122
40
1
40
1
40
1
40
1
41
1
10
25.1514801084145
20
-3.6002383523381
30
0
41
1
10
25.1542826384415
20
-3.60261436588073
30
0
41
1
10
25.156923133606
20
-3.60511930696796
30
0
41
1
10
25.1670778771217
20
-3.61610946849314
30
0
41
1
10
25.172872622145
20
-3.62601261738746
30
0
41
1
10
25.1767050040373
20
-3.64364843734106
30
0
41
1
10
25.1770407186254
20
-3.65050488624908
30
0
41
1
10
25.1762277573113
20
-3.65765179240526
30
0
0
SPLINE
5
1C8
100
AcDbEntity
8
1
62
256
6
ByLayer
370
13
48
1
60
0
100
AcDbSpline
70
4
71
3
72
14
73
10
40
0
40
0
40
0
40
0
40
0.418540706662839
40
0.418540706662839
40
0.495635548088754
40
0.495635548088754
40
0.9192675759406
40
0.9192675759406
40
1
40
1
40
1
40
1
41
1
10
25.1762277573114
20
-3.65765179240538
30
0
41
1
10
25.1729405983399
20
-3.68654986699502
30
0
41
1
10
25.1733660154214
20
-3.72104010817151
30
0
41
1
10
25.1796751136804
20
-3.76482491657774
30
0
41
1
10
25.1808357853226
20
-3.7718179974982
30
0
41
1
10
25.1893735192744
20
-3.81717895909992
30
0
41
1
10
25.2018447500132
20
-3.85838932033659
30
0
41
1
10
25.2226367698616
20
-3.90605765750235
30
0
41
1
10
25.2261939220311
20
-3.91375489910686
30
0
41
1
10
25.2299358617497
20
-3.92140267488597
30
0
0
SPLINE
5
1C9
100
AcDbEntity
8
1
62
256
6
ByLayer
370
13
48
1
60
0
100
AcDbSpline
70
4
71
3
72
14
73
10
40
0
40
0
40
0
40
0
40
0.335733568867722
40
0.335733568867722
40
0.507284823780995
40
0.507284823780995
40
0.847453801813234
40
0.847453801813234
40
1
40
1
40
1
40
1
41
1
10
25.2299358617497
20
-3.92140267488594
30
0
41
1
10
25.237814020394
20
-3.93750405422219
30
0
41
1
10
25.2439375481741
20
-3.95501758722699
30
0
41
1
10
25.2485739754979
20
-3.98232452901891
30
0
41
1
10
25.2493588445425
20
-3.99182820532334
30
0
41
1
10
25.2491329115972
20
-4.01978779486276
30
0
41
1
10
25.2455495425812
20
-4.0384819718119
30
0
41
1
10
25.2367872446761
20
-4.06357621447617
30
0
41
1
10
25.2335488022127
20
-4.07121319799228
30
0
41
1
10
25.2299358617498
20
-4.0785973251138
30
0
0
SPLINE
5
1CA
100
AcDbEntity
8
1
62
256
6
ByLayer
370
13
48
1
60
0
100
AcDbSpline
70
4
71
3
72
12
73
8
40
0
40
0
40
0
40
0
40
0.060976756616879
40
0.060976756616879
40
0.525861690105106
40
0.525861690105106
40
1
40
1
40
1
40
1
41
1
10
25.2299358617497
20
-4.07859732511378
30
0
41
1
10
25.2271003220153
20
-4.08439260075485
30
0
41
1
10
25.2243711082764
20
-4.0902157294687
30
0
41
1
10
25.2021069872871
20
-4.13982526010344
30
0
41
1
10
25.1884144324718
20
-4.18535005722461
30
0
41
1
10
25.1735997997306
20
-4.2696415491381
30
0
41
1
10
25.1725076756419
20
-4.30964422263446
30
0
41
1
10
25.1762277573114
20
-4.34234820759437
30
0
0
SPLINE
5
1CB
100
AcDbEntity
8
1
62
256
6
ByLayer
370
13
48
1
60
0
100
AcDbSpline
70
4
71
3
72
10
73
6
40
0
40
0
40
0
40
0
40
0.579743919086243
40
0.579743919086243
40
1
40
1
40
1
40
1
41
1
10
25.1762277573114
20
-4.34234820759437
30
0
41
1
10
25.1777925092618
20
-4.35610425619657
30
0
41
1
10
25.174921505156
20
-4.36877754964749
30
0
41
1
10
25.1645276574484
20
-4.38702363328625
30
0
41
1
10
25.1584959094317
20
-4.39381357999864
30
0
41
1
10
25.1514801084147
20
-4.39976164766182
30
0
0
SPLINE
5
1CC
100
AcDbEntity
8
1
62
256
6
ByLayer
370
13
48
1
60
0
100
AcDbSpline
70
4
71
3
72
8
73
4
40
0
40
0
40
0
40
0
40
1
40
1
40
1
40
1
41
1
10
24.0586453076088
20
-4.29878602654472
30
0
41
1
10
24.0709068417096
20
-4.29560162786194
30
0
41
1
10
24.0832654919602
20
-4.2925397767043
30
0
41
1
10
24.0957009625836
20
-4.28959806282163
30
0
0
SPLINE
5
1CD
100
AcDbEntity
8
1
62
256
6
ByLayer
370
13
48
1
60
0
100
AcDbSpline
70
4
71
3
72
10
73
6
40
0
40
0
40
0
40
0
40
0.333728436493078
40
0.333728436493078
40
1
40
1
40
1
40
1
41
1
10
24.0957009625832
20
-4.28959806282029
30
0
41
1
10
24.0966662675297
20
-4.28936971191601
30
0
41
1
10
24.0976317049565
20
-4.28914138342256
30
0
41
1
10
24.1005249812794
20
-4.28845727625716
30
0
41
1
10
24.1024532131263
20
-4.28800156439317
30
0
41
1
10
24.104381960042
20
-4.28754594197091
30
0
0
SPLINE
5
1CE
100
AcDbEntity
8
1
62
256
6
ByLayer
370
13
48
1
60
0
100
AcDbSpline
70
4
71
3
72
28
73
24
40
0
40
0
40
0
40
0
40
0.120400997037726
40
0.120400997037726
40
0.267193145137956
40
0.267193145137956
40
0.387937930337117
40
0.387937930337117
40
0.465259875154669
40
0.465259875154669
40
0.495901986784595
40
0.495901986784595
40
0.581704825079178
40
0.581704825079178
40
0.603681926078793
40
0.603681926078793
40
0.705282320663386
40
0.705282320663386
40
0.836662945425109
40
0.836662945425109
40
0.962212936191202
40
0.962212936191202
40
1
40
1
40
1
40
1
41
1
10
24.1043819600418
20
-4.28754594196036
30
0
41
1
10
24.1386117615898
20
-4.27945993286934
30
0
41
1
10
24.1717745161216
20
-4.26843240376468
30
0
41
1
10
24.2403563386755
20
-4.23653532118527
30
0
41
1
10
24.2755506139921
20
-4.2136690286404
30
0
41
1
10
24.3293957511653
20
-4.16089247614201
30
0
41
1
10
24.3505128568283
20
-4.13210787891629
30
0
41
1
10
24.3742896735613
20
-4.07874016362433
30
0
41
1
10
24.3810059815831
20
-4.05580649130084
30
0
41
1
10
24.385458778987
20
-4.02306797227075
30
0
41
1
10
24.3861866916511
20
-4.01356884332662
30
0
41
1
10
24.3867918153238
20
-3.97793710588314
30
0
41
1
10
24.3827627697971
20
-3.95128064513409
30
0
41
1
10
24.373008547855
20
-3.92044163345494
30
0
41
1
10
24.3707421946394
20
-3.9141744455803
30
0
41
1
10
24.3568990508133
20
-3.88012037159007
30
0
41
1
10
24.3406033083254
20
-3.85465649123606
30
0
41
1
10
24.2970837039401
20
-3.80459137894997
30
0
41
1
10
24.2674044337148
20
-3.78139704617206
30
0
41
1
10
24.204685404423
20
-3.74518143318377
30
0
41
1
10
24.1712334060984
20
-3.73139017249346
30
0
41
1
10
24.1258807591636
20
-3.71785063253748
30
0
41
1
10
24.115191249574
20
-3.71500750589576
30
0
41
1
10
24.1043819600419
20
-3.7124540580383
30
0
0
SPLINE
5
1CF
100
AcDbEntity
8
1
62
256
6
ByLayer
370
13
48
1
60
0
100
AcDbSpline
70
4
71
3
72
10
73
6
40
0
40
0
40
0
40
0
40
0.666271563875835
40
0.666271563875835
40
1
40
1
40
1
40
1
41
1
10
24.1043819600418
20
-3.71245405803938
30
0
41
1
10
24.102453213125
20
-3.71199843561686
30
0
41
1
10
24.1005249812773
20
-3.71154272374204
30
0
41
1
10
24.0976317049543
20
-3.71085861657664
30
0
41
1
10
24.0966662675286
20
-3.71063028808277
30
0
41
1
10
24.0957009625832
20
-3.71040193717874
30
0
0
SPLINE
5
1D0
100
AcDbEntity
8
1
62
256
6
ByLayer
370
13
48
1
60
0
100
AcDbSpline
70
4
71
3
72
8
73
4
40
0
40
0
40
0
40
0
40
1
40
1
40
1
40
1
41
1
10
24.0957009625832
20
-3.71040193717943
30
0
41
1
10
24.0832654919591
20
-3.70746022329655
30
0
41
1
10
24.070906841708
20
-3.70439837213741
30
0
41
1
10
24.0586453076064
20
-3.7012139734544
30
0
0
SPLINE
5
1D1
100
AcDbEntity
8
1
62
256
6
ByLayer
370
13
48
1
60
0
100
AcDbSpline
70
4
71
3
72
8
73
4
40
0
40
0
40
0
40
0
40
1
40
1
40
1
40
1
41
1
10
25.3731203716814
20
-4.63847952906673
30
0
41
1
10
25.3745825957789
20
-4.63756241163159
30
0
41
1
10
25.3760463384843
20
-4.63664069155095
30
0
41
1
10
25.3775115598651
20
-4.63571442768674
30
0
0
SPLINE
5
1D2
100
AcDbEntity
8
1
62
256
6
ByLayer
370
13
48
1
60
0
100
AcDbSpline
70
4
71
3
72
12
73
8
40
0
40
0
40
0
40
0
40
0.334418366090769
40
0.334418366090769
40
0.734677033774883
40
0.734677033774883
40
1
40
1
40
1
40
1
41
1
10
26.4337805434612
20
-4.86403867263226
30
0
41
1
10
26.3022679617029
20
-4.84996206375843
30
0
41
1
10
26.1723193598528
20
-4.81579271998902
30
0
41
1
10
25.8995089617335
20
-4.74441503502405
30
0
41
1
10
25.7541870739038
20
-4.70854963281732
30
0
41
1
10
25.5350503526795
20
-4.66171384015834
30
0
41
1
10
25.4522182729484
20
-4.64614228590472
30
0
41
1
10
25.3775115598652
20
-4.63571442768711
30
0
0
SPLINE
5
1D3
100
AcDbEntity
8
1
62
256
6
ByLayer
370
13
48
1
60
0
100
AcDbSpline
70
4
71
3
72
8
73
4
40
0
40
0
40
0
40
0
40
1
40
1
40
1
40
1
41
1
10
25.3775115598653
20
-3.36428557231261
30
0
41
1
10
25.3760463384844
20
-3.36335930844839
30
0
41
1
10
25.3745825957789
20
-3.36243758836812
30
0
41
1
10
25.3731203716814
20
-3.36152047093299
30
0
0
SPLINE
5
1D4
100
AcDbEntity
8
1
62
256
6
ByLayer
370
13
48
1
60
0
100
AcDbSpline
70
4
71
3
72
12
73
8
40
0
40
0
40
0
40
0
40
0.334418366090769
40
0.334418366090769
40
0.734677033774883
40
0.734677033774883
40
1
40
1
40
1
40
1
41
1
10
26.4337805434612
20
-3.13596132736745
30
0
41
1
10
26.3022679617029
20
-3.15003793624129
30
0
41
1
10
26.1723193598528
20
-3.1842072800107
30
0
41
1
10
25.8995089617335
20
-3.2555849649757
30
0
41
1
10
25.7541870739038
20
-3.29145036718242
30
0
41
1
10
25.5350503526795
20
-3.33828615984137
30
0
41
1
10
25.4522182729484
20
-3.35385771409503
30
0
41
1
10
25.3775115598653
20
-3.36428557231261
30
0
0
SPLINE
5
1D5
100
AcDbEntity
8
1
62
256
6
ByLayer
370
13
48
1
60
0
100
AcDbSpline
70
4
71
3
72
18
73
14
40
0
40
0
40
0
40
0
40
0.0161194639884916
40
0.0161194639884916
40
0.0830400526233481
40
0.0830400526233481
40
0.164187348294867
40
0.164187348294867
40
0.329246171114526
40
0.329246171114526
40
0.49267383795864
40
0.49267383795864
40
1
40
1
40
1
40
1
41
1
10
24.5583760306418
20
-3.32393771056346
30
0
41
1
10
24.5583760306418
20
-3.32552191894021
30
0
41
1
10
24.5583070506514
20
-3.3271077316094
30
0
41
1
10
24.5576154305964
20
-3.33514501773482
30
0
41
1
10
24.5558959531471
20
-3.34155079359942
30
0
41
1
10
24.5503990140808
20
-3.35467162383836
30
0
41
1
10
24.5462332916851
20
-3.36135931486948
30
0
41
1
10
24.532021466155
20
-3.37976219500899
30
0
41
1
10
24.5201790807021
20
-3.39006561577935
30
0
41
1
10
24.495503040914
20
-3.40799347032004
30
0
41
1
10
24.4824167868289
20
-3.41574701491737
30
0
41
1
10
24.4277159291731
20
-3.44421764052117
30
0
41
1
10
24.3832430916057
20
-3.45892001885397
30
0
41
1
10
24.3385371190036
20
-3.47042306328422
30
0
0
SPLINE
5
1D6
100
AcDbEntity
8
1
62
256
6
ByLayer
370
13
48
1
60
0
100
AcDbSpline
70
4
71
3
72
16
73
12
40
0
40
0
40
0
40
0
40
0.17415962102223
40
0.17415962102223
40
0.671976092746537
40
0.671976092746537
40
0.83822694518602
40
0.83822694518602
40
0.929660782988591
40
0.929660782988591
40
1
40
1
40
1
40
1
41
1
10
24.3385371190036
20
-4.5295769367155
30
0
41
1
10
24.353942214897
20
-4.53354073600693
30
0
41
1
10
24.3692599827102
20
-4.53792309107206
30
0
41
1
10
24.4274830378249
20
-4.55666163281802
30
0
41
1
10
24.4706632046931
20
-4.57395900042275
30
0
41
1
10
24.5203257985211
20
-4.61004120535429
30
0
41
1
10
24.5323080918469
20
-4.62048301011967
30
0
41
1
10
24.5471462242705
20
-4.63989582191087
30
0
41
1
10
24.5517437069761
20
-4.64759890774223
30
0
41
1
10
24.5570278864055
20
-4.66229788874958
30
0
41
1
10
24.5583760306417
20
-4.66922094041743
30
0
41
1
10
24.5583760306418
20
-4.67606228943626
30
0
0
SPLINE
5
1D7
100
AcDbEntity
8
1
62
256
6
ByLayer
370
13
48
1
60
0
100
AcDbSpline
70
4
71
3
72
8
73
4
40
0
40
0
40
0
40
0
40
1
40
1
40
1
40
1
41
1
10
23.6871982348828
20
-4.72543792813519
30
0
41
1
10
23.7371072022262
20
-4.6316834670076
30
0
41
1
10
23.7829751479405
20
-4.53548099644084
30
0
41
1
10
23.8269486592887
20
-4.43841939909714
30
0
0
SPLINE
5
1D8
100
AcDbEntity
8
1
62
256
6
ByLayer
370
13
48
1
60
0
100
AcDbSpline
70
4
71
3
72
8
73
4
40
0
40
0
40
0
40
0
40
1
40
1
40
1
40
1
41
1
10
23.8269486592887
20
-4.43841939909714
30
0
41
1
10
23.8310517239117
20
-4.42936281038959
30
0
41
1
10
23.8358959391856
20
-4.42062525694027
30
0
41
1
10
23.8415296908639
20
-4.41255411201308
30
0
0
SPLINE
5
1D9
100
AcDbEntity
8
1
62
256
6
ByLayer
370
13
48
1
60
0
100
AcDbSpline
70
4
71
3
72
10
73
6
40
0
40
0
40
0
40
0
40
0.607627674029775
40
0.607627674029775
40
1
40
1
40
1
40
1
41
1
10
23.841529690864
20
-4.41255411201314
30
0
41
1
10
23.8449483939528
20
-4.40765633701909
30
0
41
1
10
23.8493450872493
20
-4.4034892047828
30
0
41
1
10
23.8571218081436
20
-4.39774324512035
30
0
41
1
10
23.8603603656147
20
-4.39573090816037
30
0
41
1
10
23.8636781743631
20
-4.39390740001403
30
0
0
SPLINE
5
1DA
100
AcDbEntity
8
1
62
256
6
ByLayer
370
13
48
1
60
0
100
AcDbSpline
70
4
71
3
72
8
73
4
40
0
40
0
40
0
40
0
40
1
40
1
40
1
40
1
41
1
10
23.863678174367
20
-4.39390740002
30
0
41
1
10
23.8740398294939
20
-4.38821250800899
30
0
41
1
10
23.8856192161749
20
-4.3847883053545
30
0
41
1
10
23.8971847075066
20
-4.38319512676603
30
0
0
SPLINE
5
1DB
100
AcDbEntity
8
1
62
256
6
ByLayer
370
13
48
1
60
0
100
AcDbSpline
70
4
71
3
72
10
73
6
40
0
40
0
40
0
40
0
40
0.468522557911306
40
0.468522557911306
40
1
40
1
40
1
40
1
41
1
10
23.8971847075066
20
-4.38319512676611
30
0
41
1
10
23.9125073622826
20
-4.38108438846683
30
0
41
1
10
23.9281890938236
20
-4.38080881184356
30
0
41
1
10
23.9608326130715
20
-4.38488902104044
30
0
41
1
10
23.9781649337055
20
-4.38994353051217
30
0
41
1
10
23.9936729304055
20
-4.39838136872405
30
0
0
SPLINE
5
1DC
100
AcDbEntity
8
1
62
256
6
ByLayer
370
13
48
1
60
0
100
AcDbSpline
70
4
71
3
72
10
73
6
40
0
40
0
40
0
40
0
40
0.39285874077214
40
0.39285874077214
40
1
40
1
40
1
40
1
41
1
10
23.9936729304044
20
-3.60161863127601
30
0
41
1
10
23.9821344359051
20
-3.60789667941302
30
0
41
1
10
23.969596920594
20
-3.61230369270808
30
0
41
1
10
23.9373718406939
20
-3.61919540497533
30
0
41
1
10
23.9169301631213
20
-3.61952486464528
30
0
41
1
10
23.8971847075165
20
-3.61680487323685
30
0
0
SPLINE
5
1DD
100
AcDbEntity
8
1
62
256
6
ByLayer
370
13
48
1
60
0
100
AcDbSpline
70
4
71
3
72
10
73
6
40
0
40
0
40
0
40
0
40
0.0840681653027228
40
0.0840681653027228
40
1
40
1
40
1
40
1
41
1
10
23.8971847075161
20
-3.61680487323534
30
0
41
1
10
23.8962010455789
20
-3.61666937106855
30
0
41
1
10
23.8952188661862
20
-3.61652102893476
30
0
41
1
10
23.8836819996079
20
-3.61462053934079
30
0
41
1
10
23.8731694732705
20
-3.61130913359628
30
0
41
1
10
23.8636781743698
20
-3.60609259998128
30
0
0
SPLINE
5
1DE
100
AcDbEntity
8
1
62
256
6
ByLayer
370
13
48
1
60
0
100
AcDbSpline
70
4
71
3
72
10
73
6
40
0
40
0
40
0
40
0
40
0.300964641608717
40
0.300964641608717
40
1
40
1
40
1
40
1
41
1
10
23.8636781743711
20
-3.6060925999725
30
0
41
1
10
23.8611279033247
20
-3.60469093990659
30
0
41
1
10
23.8586265623859
20
-3.6031785900876
30
0
41
1
10
23.8506729861664
20
-3.59773100304327
30
0
41
1
10
23.8454582450927
20
-3.59307409674395
30
0
41
1
10
23.8415296908643
20
-3.58744588798689
30
0
0
SPLINE
5
1DF
100
AcDbEntity
8
1
62
256
6
ByLayer
370
13
48
1
60
0
100
AcDbSpline
70
4
71
3
72
8
73
4
40
0
40
0
40
0
40
0
40
1
40
1
40
1
40
1
41
1
10
23.8415296908642
20
-3.58744588798706
30
0
41
1
10
23.8358959391855
20
-3.57937474305936
30
0
41
1
10
23.8310517239113
20
-3.57063718960947
30
0
41
1
10
23.8269486592881
20
-3.56158060090129
30
0
0
SPLINE
5
1E0
100
AcDbEntity
8
1
62
256
6
ByLayer
370
13
48
1
60
0
100
AcDbSpline
70
4
71
3
72
8
73
4
40
0
40
0
40
0
40
0
40
1
40
1
40
1
40
1
41
1
10
23.8269486592881
20
-3.56158060090127
30
0
41
1
10
23.7829751479401
20
-3.46451900355805
30
0
41
1
10
23.737107202226
20
-3.36831653299169
30
0
41
1
10
23.6871982348828
20
-3.27456207186455
30
0
0
SPLINE
5
1E1
100
AcDbEntity
8
1
62
256
6
ByLayer
370
13
48
1
60
0
100
AcDbSpline
70
4
71
3
72
12
73
8
40
0
40
0
40
0
40
0
40
0.597224160982647
40
0.597224160982647
40
0.806459478729557
40
0.806459478729557
40
1
40
1
40
1
40
1
41
1
10
25.3674054923344
20
-3.37986384875887
30
0
41
1
10
25.3517404047312
20
-3.40209443356386
30
0
41
1
10
25.3345712719748
20
-3.4261400196396
30
0
41
1
10
25.3107775882301
20
-3.45826468990018
30
0
41
1
10
25.304453368985
20
-3.46669277258616
30
0
41
1
10
25.2922252793236
20
-3.48271533539804
30
0
41
1
10
25.2863036863561
20
-3.49035319734787
30
0
41
1
10
25.2803879305321
20
-3.49783784445128
30
0
0
SPLINE
5
1E2
100
AcDbEntity
8
1
62
256
6
ByLayer
370
13
48
1
60
0
100
AcDbSpline
70
4
71
3
72
12
73
8
40
0
40
0
40
0
40
0
40
0.0216552127699091
40
0.0216552127699091
40
0.549266071356395
40
0.549266071356395
40
1
40
1
40
1
40
1
41
1
10
25.151480108414
20
-3.60023835233861
30
0
41
1
10
25.1524880633972
20
-3.5998121336732
30
0
41
1
10
25.1534955429719
20
-3.59937836848414
30
0
41
1
10
25.1789531871476
20
-3.58822336112888
30
0
41
1
10
25.2033813442807
20
-3.57286061496234
30
0
41
1
10
25.2454052205908
20
-3.53780363914942
30
0
41
1
10
25.2638645140883
20
-3.51874336264848
30
0
41
1
10
25.2803879305349
20
-3.49783784444767
30
0
0
SPLINE
5
1E3
100
AcDbEntity
8
1
62
256
6
ByLayer
370
13
48
1
60
0
100
AcDbSpline
70
4
71
3
72
12
73
8
40
0
40
0
40
0
40
0
40
0.597224160967102
40
0.597224160967102
40
0.806459478710096
40
0.806459478710096
40
1
40
1
40
1
40
1
41
1
10
25.3674054923344
20
-4.62013615124087
30
0
41
1
10
25.3517404047311
20
-4.5979055664358
30
0
41
1
10
25.3345712719747
20
-4.57385998036003
30
0
41
1
10
25.3107775882299
20
-4.54173531009926
30
0
41
1
10
25.3044533689847
20
-4.53330722741313
30
0
41
1
10
25.2922252793233
20
-4.51728466460133
30
0
41
1
10
25.2863036863559
20
-4.50964680265173
30
0
41
1
10
25.2803879305321
20
-4.50216215554849
30
0
0
SPLINE
5
1E4
100
AcDbEntity
8
1
62
256
6
ByLayer
370
13
48
1
60
0
100
AcDbSpline
70
4
71
3
72
12
73
8
40
0
40
0
40
0
40
0
40
0.365727906004492
40
0.365727906004492
40
0.978437105133119
40
0.978437105133119
40
1
40
1
40
1
40
1
41
1
10
25.2803879305321
20
-4.50216215554849
30
0
41
1
10
25.2669233419134
20
-4.48512668329386
30
0
41
1
10
25.2521983132535
20
-4.46933106684446
30
0
41
1
10
25.2111353907574
20
-4.43217260964826
30
0
41
1
10
25.1828055733672
20
-4.41346464638789
30
0
41
1
10
25.1534955383431
20
-4.40062163388302
30
0
41
1
10
25.1524880622417
20
-4.4001878669207
30
0
41
1
10
25.1514801084146
20
-4.39976164766165
30
0
0
SPLINE
5
1E5
100
AcDbEntity
8
1
62
256
6
ByLayer
370
13
48
1
60
0
100
AcDbSpline
70
4
71
3
72
8
73
4
40
0
40
0
40
0
40
0
40
1
40
1
40
1
40
1
41
1
10
25.2803879305321
20
-3.49783784445128
30
0
41
1
10
25.2917464413886
20
-3.50724773267288
30
0
41
1
10
25.3018184386868
20
-3.51517679994404
30
0
41
1
10
25.3102634151926
20
-3.52135698575162
30
0
0
SPLINE
5
1E6
100
AcDbEntity
8
1
62
256
6
ByLayer
370
13
48
1
60
0
100
AcDbSpline
70
4
71
3
72
12
73
8
40
0
40
0
40
0
40
0
40
0.488366722420296
40
0.488366722420296
40
0.942436355362905
40
0.942436355362905
40
1
40
1
40
1
40
1
41
1
10
25.3262120963125
20
-4.37602364728971
30
0
41
1
10
25.3283429607195
20
-4.34714786496855
30
0
41
1
10
25.3319548858697
20
-4.31053841001997
30
0
41
1
10
25.3453657154375
20
-4.23210541536429
30
0
41
1
10
25.3548755278662
20
-4.18977616239781
30
0
41
1
10
25.370230143123
20
-4.14192379777677
30
0
41
1
10
25.3720501662501
20
-4.13646011931485
30
0
41
1
10
25.3739430174867
20
-4.13099554185641
30
0
0
SPLINE
5
1E7
100
AcDbEntity
8
1
62
256
6
ByLayer
370
13
48
1
60
0
100
AcDbSpline
70
4
71
3
72
12
73
8
40
0
40
0
40
0
40
0
40
0.037828268420456
40
0.037828268420456
40
0.727108891322556
40
0.727108891322556
40
1
40
1
40
1
40
1
41
1
10
25.3739430174867
20
-4.13099554185641
30
0
41
1
10
25.3824023364264
20
-4.13267351030336
30
0
41
1
10
25.3909189581296
20
-4.13436944621398
30
0
41
1
10
25.5536057521076
20
-4.16688953191158
30
0
41
1
10
25.7281123770015
20
-4.20386866301089
30
0
41
1
10
25.9808681739289
20
-4.25984673513054
30
0
41
1
10
26.0546315555727
20
-4.27645425971949
30
0
41
1
10
26.1289221872924
20
-4.29345189211085
30
0
0
SPLINE
5
1E8
100
AcDbEntity
8
1
62
256
6
ByLayer
370
13
48
1
60
0
100
AcDbSpline
70
4
71
3
72
24
73
20
40
0
40
0
40
0
40
0
40
0.0291918203657016
40
0.0291918203657016
40
0.136396538158131
40
0.136396538158131
40
0.265987867368488
40
0.265987867368488
40
0.377753358158994
40
0.377753358158994
40
0.50483938938664
40
0.50483938938664
40
0.632110922025969
40
0.632110922025969
40
0.762713398901978
40
0.762713398901978
40
0.901999958850298
40
0.901999958850298
40
1
40
1
40
1
40
1
41
1
10
23.9817115471211
20
-3.80266454963481
30
0
41
1
10
23.9860998093753
20
-3.80444748191189
30
0
41
1
10
23.990300333935
20
-3.80641035590034
30
0
41
1
10
24.0087793745321
20
-3.81619810588444
30
0
41
1
10
24.0208255768154
20
-3.82601276939636
30
0
41
1
10
24.0430843368215
20
-3.85092338462914
30
0
41
1
10
24.0527903934534
20
-3.86711077030668
30
0
41
1
10
24.066954912446
20
-3.90094403369338
30
0
41
1
10
24.07204803846
20
-3.91843200650683
30
0
41
1
10
24.0794867440361
20
-3.95774984409331
30
0
41
1
10
24.081458605176
20
-3.98048690472802
30
0
41
1
10
24.0811100662915
20
-4.02514733185578
30
0
41
1
10
24.0787796342844
20
-4.04776299569801
30
0
41
1
10
24.0700744334302
20
-4.08964655595557
30
0
41
1
10
24.0634978563533
20
-4.10947475450976
30
0
41
1
10
24.0457369932043
20
-4.14516671323454
30
0
41
1
10
24.0340799608658
20
-4.16127455367681
30
0
41
1
10
24.008701419119
20
-4.18352046023168
30
0
41
1
10
23.9962344198634
20
-4.19143486898014
30
0
41
1
10
23.9817115471211
20
-4.1973354503649
30
0
0
SPLINE
5
1E9
100
AcDbEntity
8
1
62
256
6
ByLayer
370
13
48
1
60
0
100
AcDbSpline
70
4
71
3
72
12
73
8
40
0
40
0
40
0
40
0
40
0.365724954919257
40
0.365724954919257
40
0.979118069631435
40
0.979118069631435
40
1
40
1
40
1
40
1
41
1
10
25.3102634152023
20
-4.47864301426384
30
0
41
1
10
25.2937361056157
20
-4.46397564506401
30
0
41
1
10
25.2756371518841
20
-4.45080314607088
30
0
41
1
10
25.2250623637126
20
-4.42104498684782
30
0
41
1
10
25.1900751797186
20
-4.40755567663322
30
0
41
1
10
25.1538899332389
20
-4.40022767574544
30
0
41
1
10
25.1526851799038
20
-4.39999119774635
30
0
41
1
10
25.1514801084145
20
-4.39976164766173
30
0
0
SPLINE
5
1EA
100
AcDbEntity
8
1
62
256
6
ByLayer
370
13
48
1
60
0
100
AcDbSpline
70
4
71
3
72
12
73
8
40
0
40
0
40
0
40
0
40
0.0209717280275962
40
0.0209717280275962
40
0.549261945584352
40
0.549261945584352
40
1
40
1
40
1
40
1
41
1
10
25.1514801084148
20
-3.60023835233824
30
0
41
1
10
25.1526851798995
20
-3.60000880224766
30
0
41
1
10
25.1538899332219
20
-3.59977232423037
30
0
41
1
10
25.1853191773472
20
-3.59340747819761
30
0
41
1
10
25.2154975045281
20
-3.58255586393389
30
0
41
1
10
25.2672856302101
20
-3.55511913838967
30
0
41
1
10
25.2899815347171
20
-3.53935639620184
30
0
41
1
10
25.3102634152025
20
-3.52135698573613
30
0
0
SPLINE
5
1EB
100
AcDbEntity
8
1
62
256
6
ByLayer
370
13
48
1
60
0
100
AcDbSpline
70
4
71
3
72
12
73
8
40
0
40
0
40
0
40
0
40
0.49164663932398
40
0.49164663932398
40
0.875373657848572
40
0.875373657848572
40
1
40
1
40
1
40
1
41
1
10
25.3739430174867
20
-3.86900445814331
30
0
41
1
10
25.3580682635103
20
-3.82317474841233
30
0
41
1
10
25.3471504774152
20
-3.77683298783819
30
0
41
1
10
25.3341440987431
20
-3.70327405793049
30
0
41
1
10
25.330526825236
20
-3.67331336119463
30
0
41
1
10
25.3274054244723
20
-3.6393950355195
30
0
41
1
10
25.3267634910172
20
-3.63144841588331
30
0
41
1
10
25.3262120963126
20
-3.62397635270997
30
0
0
SPLINE
5
1EC
100
AcDbEntity
8
1
62
256
6
ByLayer
370
13
48
1
60
0
100
AcDbSpline
70
4
71
3
72
12
73
8
40
0
40
0
40
0
40
0
40
0.0378282684204534
40
0.0378282684204534
40
0.727108891322555
40
0.727108891322555
40
1
40
1
40
1
40
1
41
1
10
25.3739430174867
20
-3.86900445814331
30
0
41
1
10
25.3824023364264
20
-3.86732648969635
30
0
41
1
10
25.3909189581296
20
-3.86563055378576
30
0
41
1
10
25.5536057521076
20
-3.83311046808817
30
0
41
1
10
25.7281123770015
20
-3.79613133698885
30
0
41
1
10
25.9808681739289
20
-3.74015326486921
30
0
41
1
10
26.0546315555727
20
-3.72354574028026
30
0
41
1
10
26.1289221872924
20
-3.70654810788886
30
0
0
SPLINE
5
1ED
100
AcDbEntity
8
1
62
256
6
ByLayer
370
13
48
1
60
0
100
AcDbSpline
70
4
71
3
72
8
73
4
40
0
40
0
40
0
40
0
40
1
40
1
40
1
40
1
41
1
10
25.3775115598657
20
-3.36428557231108
30
0
41
1
10
25.3742211632921
20
-3.36941750341001
30
0
41
1
10
25.3708498814567
20
-3.3746157947329
30
0
41
1
10
25.3674054923343
20
-3.37986384875938
30
0
0
SPLINE
5
1EE
100
AcDbEntity
8
1
62
256
6
ByLayer
370
13
48
1
60
0
100
AcDbSpline
70
4
71
3
72
8
73
4
40
0
40
0
40
0
40
0
40
1
40
1
40
1
40
1
41
1
10
25.3775115598653
20
-4.63571442768762
30
0
41
1
10
25.3742211632919
20
-4.63058249658908
30
0
41
1
10
25.3708498814565
20
-4.62538420526693
30
0
41
1
10
25.3674054923344
20
-4.62013615124084
30
0
0
SPLINE
5
1EF
100
AcDbEntity
8
1
62
256
6
ByLayer
370
13
48
1
60
0
100
AcDbSpline
70
4
71
3
72
10
73
6
40
0
40
0
40
0
40
0
40
0.543977242056965
40
0.543977242056965
40
1
40
1
40
1
40
1
41
1
10
24.0586453076065
20
-4.29878602654756
30
0
41
1
10
24.0348598955802
20
-4.27979292431314
30
0
41
1
10
24.0082267241209
20
-4.26563032199675
30
0
41
1
10
23.9582400099704
20
-4.24998177524407
30
0
41
1
10
23.9345424108346
20
-4.24663354430416
30
0
41
1
10
23.9112725012788
20
-4.24702036436733
30
0
0
SPLINE
5
1F0
100
AcDbEntity
8
1
62
256
6
ByLayer
370
13
48
1
60
0
100
AcDbSpline
70
4
71
3
72
10
73
6
40
0
40
0
40
0
40
0
40
0.594671969867266
40
0.594671969867266
40
1
40
1
40
1
40
1
41
1
10
23.9112725012887
20
-3.75297963563227
30
0
41
1
10
23.9414272134587
20
-3.75348090305593
30
0
41
1
10
23.9724285425084
20
-3.74762956990313
30
0
41
1
10
24.021404499001
20
-3.72700262909493
30
0
41
1
10
24.0407983096893
20
-3.7154651394923
30
0
41
1
10
24.0586453076066
20
-3.70121397345665
30
0
0
SPLINE
5
1F1
100
AcDbEntity
8
1
62
256
6
ByLayer
370
13
48
1
60
0
100
AcDbSpline
70
4
71
3
72
10
73
6
40
0
40
0
40
0
40
0
40
0.441584000439074
40
0.441584000439074
40
1
40
1
40
1
40
1
41
1
10
23.8682618588516
20
-3.7523779696846
30
0
41
1
10
23.8831578146862
20
-3.75978913624493
30
0
41
1
10
23.8983157146139
20
-3.76698520910489
30
0
41
1
10
23.9331615279671
20
-3.78275449548715
30
0
41
1
10
23.9530007239137
20
-3.79119450516578
30
0
41
1
10
23.9731579439906
20
-3.79924434820057
30
0
0
SPLINE
5
1F2
100
AcDbEntity
8
1
62
256
6
ByLayer
370
13
48
1
60
0
100
AcDbSpline
70
4
71
3
72
10
73
6
40
0
40
0
40
0
40
0
40
0.317001517206847
40
0.317001517206847
40
1
40
1
40
1
40
1
41
1
10
23.9112725012775
20
-3.75297963563088
30
0
41
1
10
23.9064777423953
20
-3.75362120522828
30
0
41
1
10
23.901749086712
20
-3.7540404904654
30
0
41
1
10
23.8870718822178
20
-3.75465916266188
30
0
41
1
10
23.8773952454518
20
-3.75403530705034
30
0
41
1
10
23.8682618588516
20
-3.7523779696846
30
0
0
SPLINE
5
1F3
100
AcDbEntity
8
1
62
256
6
ByLayer
370
13
48
1
60
0
100
AcDbSpline
70
4
71
3
72
10
73
6
40
0
40
0
40
0
40
0
40
0.357650901073067
40
0.357650901073067
40
1
40
1
40
1
40
1
41
1
10
23.8682618588516
20
-4.24762203031514
30
0
41
1
10
23.8730683572598
20
-4.24674984678026
30
0
41
1
10
23.8780213367011
20
-4.24616330605301
30
0
41
1
10
23.8921229263446
20
-4.24533571372717
30
0
41
1
10
23.9015680505855
20
-4.24572184640689
30
0
41
1
10
23.9112725012795
20
-4.24702036436719
30
0
0
SPLINE
5
1F4
100
AcDbEntity
8
1
62
256
6
ByLayer
370
13
48
1
60
0
100
AcDbSpline
70
4
71
3
72
10
73
6
40
0
40
0
40
0
40
0
40
0.558477308496816
40
0.558477308496816
40
1
40
1
40
1
40
1
41
1
10
23.9731579439905
20
-4.20075565179815
30
0
41
1
10
23.9529985124188
20
-4.20880637799965
30
0
41
1
10
23.9331571738854
20
-4.21724735702472
30
0
41
1
10
23.8983115077505
20
-4.23301678794101
30
0
41
1
10
23.8831557478674
20
-4.24021189205664
30
0
41
1
10
23.8682618588516
20
-4.24762203031514
30
0
0
SPLINE
5
1F5
100
AcDbEntity
8
1
62
256
6
ByLayer
370
13
48
1
60
0
100
AcDbSpline
70
4
71
3
72
12
73
8
40
0
40
0
40
0
40
0
40
0.709988165001255
40
0.709988165001255
40
0.92220788847233
40
0.92220788847233
40
1
40
1
40
1
40
1
41
1
10
23.8327064157301
20
-3.71699214973566
30
0
41
1
10
23.849201252382
20
-3.72917739938916
30
0
41
1
10
23.8677573595242
20
-3.73890732880599
30
0
41
1
10
23.8928332682202
20
-3.74789205430946
30
0
41
1
10
23.8987365689449
20
-3.7497319513144
30
0
41
1
10
23.9068788977592
20
-3.75190951721473
30
0
41
1
10
23.9090724396468
20
-3.7524610612231
30
0
41
1
10
23.9112725012799
20
-3.75297963562468
30
0
0
SPLINE
5
1F6
100
AcDbEntity
8
1
62
256
6
ByLayer
370
13
48
1
60
0
100
AcDbSpline
70
4
71
3
72
10
73
6
40
0
40
0
40
0
40
0
40
0.735193443551149
40
0.735193443551149
40
1
40
1
40
1
40
1
41
1
10
23.9112725012795
20
-4.24702036436821
30
0
41
1
10
23.8906991613073
20
-4.25186968645252
30
0
41
1
10
23.8704915627687
20
-4.25971465021539
30
0
41
1
10
23.8454099006124
20
-4.27417894743508
30
0
41
1
10
23.8389206110604
20
-4.2784172305679
30
0
41
1
10
23.8327064157472
20
-4.28300785021722
30
0
0
SPLINE
5
1F7
100
AcDbEntity
8
1
62
256
6
ByLayer
370
13
48
1
60
0
100
AcDbSpline
70
4
71
3
72
10
73
6
40
0
40
0
40
0
40
0
40
0.333804371559252
40
0.333804371559252
40
1
40
1
40
1
40
1
41
1
10
23.9731579439905
20
-3.79924434820157
30
0
41
1
10
23.9741089610471
20
-3.79962488934694
30
0
41
1
10
23.975060222121
20
-3.80000543695266
30
0
41
1
10
23.9779107035581
20
-3.80114548659631
30
0
41
1
10
23.9798106484521
20
-3.80190500732113
30
0
41
1
10
23.9817115471211
20
-3.80266454963481
30
0
0
SPLINE
5
1F8
100
AcDbEntity
8
1
62
256
6
ByLayer
370
13
48
1
60
0
100
AcDbSpline
70
4
71
3
72
10
73
6
40
0
40
0
40
0
40
0
40
0.666195628071545
40
0.666195628071545
40
1
40
1
40
1
40
1
41
1
10
23.9817115471211
20
-4.1973354503649
30
0
41
1
10
23.9798106484531
20
-4.19809499267819
30
0
41
1
10
23.9779107035602
20
-4.19885451340258
30
0
41
1
10
23.9750602221231
20
-4.1999945630462
30
0
41
1
10
23.9741089610481
20
-4.20037511065294
30
0
41
1
10
23.9731579439904
20
-4.20075565179871
30
0
0
SPLINE
5
1F9
100
AcDbEntity
8
1
62
256
6
ByLayer
370
13
48
1
60
0
100
AcDbSpline
70
4
71
3
72
10
73
6
40
0
40
0
40
0
40
0
40
0.741839809293022
40
0.741839809293022
40
1
40
1
40
1
40
1
41
1
10
23.7775223795398
20
-3.64930433755848
30
0
41
1
10
23.7872637205793
20
-3.66865584861085
30
0
41
1
10
23.8004639767516
20
-3.68650731229584
30
0
41
1
10
23.8211300943468
20
-3.70713145528106
30
0
41
1
10
23.8267956571449
20
-3.71221997476846
30
0
41
1
10
23.8327064157229
20
-3.7169921497451
30
0
0
SPLINE
5
1FA
100
AcDbEntity
8
1
62
256
6
ByLayer
370
13
48
1
60
0
100
AcDbSpline
70
4
71
3
72
10
73
6
40
0
40
0
40
0
40
0
40
0.344098564729953
40
0.344098564729953
40
1
40
1
40
1
40
1
41
1
10
23.8327064157477
20
-4.2830078502181
30
0
41
1
10
23.8248480305401
20
-4.28935248242291
30
0
41
1
10
23.8174164333951
20
-4.29626032464574
30
0
41
1
10
23.7974612534847
20
-4.31762204716304
30
0
41
1
10
23.7861446779715
20
-4.33356716825074
30
0
41
1
10
23.7775223795392
20
-4.35069566244212
30
0
0
SPLINE
5
1FB
100
AcDbEntity
8
1
62
256
6
ByLayer
370
13
48
1
60
0
100
AcDbSpline
70
4
71
3
72
8
73
4
40
0
40
0
40
0
40
0
40
1
40
1
40
1
40
1
41
1
10
23.7484695777327
20
-3.61103419769103
30
0
41
1
10
23.756844178597
20
-3.62474357051849
30
0
41
1
10
23.7665807416807
20
-3.63762943342925
30
0
41
1
10
23.7775223795411
20
-3.64930433755734
30
0
0
SPLINE
5
1FC
100
AcDbEntity
8
1
62
256
6
ByLayer
370
13
48
1
60
0
100
AcDbSpline
70
4
71
3
72
8
73
4
40
0
40
0
40
0
40
0
40
1
40
1
40
1
40
1
41
1
10
23.7775223795389
20
-4.35069566244192
30
0
41
1
10
23.766580741679
20
-4.36237056656958
30
0
41
1
10
23.7568441785981
20
-4.37525642948356
30
0
41
1
10
23.7484695777341
20
-4.38896580231039
30
0
0
SPLINE
5
1FD
100
AcDbEntity
8
1
62
256
6
ByLayer
370
13
48
1
60
0
100
AcDbSpline
70
4
71
3
72
8
73
4
40
0
40
0
40
0
40
0
40
1
40
1
40
1
40
1
41
1
10
23.7484695777332
20
-4.38896580230772
30
0
41
1
10
23.706994641852
20
-4.48549280893286
30
0
41
1
10
23.6641587550012
20
-4.58148984445222
30
0
41
1
10
23.6183319361237
20
-4.67598433134577
30
0
0
SPLINE
5
1FE
100
AcDbEntity
8
1
62
256
6
ByLayer
370
13
48
1
60
0
100
AcDbSpline
70
4
71
3
72
8
73
4
40
0
40
0
40
0
40
0
40
1
40
1
40
1
40
1
41
1
10
23.6183319361237
20
-3.32401566865397
30
0
41
1
10
23.664158755001
20
-3.41851015554715
30
0
41
1
10
23.7069946418517
20
-3.51450719106614
30
0
41
1
10
23.7484695777328
20
-3.61103419769094
30
0
0
SPLINE
5
1FF
100
AcDbEntity
8
1
62
256
6
ByLayer
370
13
48
1
60
0
100
AcDbSpline
70
4
71
3
72
10
73
6
40
0
40
0
40
0
40
0
40
0.779724613001554
40
0.779724613001554
40
1
40
1
40
1
40
1
41
1
10
23.8487905068831
20
-3.74897564444694
30
0
41
1
10
23.8522814951948
20
-3.74897564444711
30
0
41
1
10
23.8570719807736
20
-3.74963590935295
30
0
41
1
10
23.864621012228
20
-3.75141237073862
30
0
41
1
10
23.8664035390181
20
-3.75186857537454
30
0
41
1
10
23.8682618588516
20
-3.7523779696846
30
0
0
SPLINE
5
200
100
AcDbEntity
8
1
62
256
6
ByLayer
370
13
48
1
60
0
100
AcDbSpline
70
4
71
3
72
8
73
4
40
0
40
0
40
0
40
0
40
1
40
1
40
1
40
1
41
1
10
23.7775223795398
20
-3.64930433755836
30
0
41
1
10
23.7675268649006
20
-3.64351228094532
30
0
41
1
10
23.7585032631411
20
-3.63768150062728
30
0
41
1
10
23.7506142807834
20
-3.63200211972213
30
0
0
SPLINE
5
201
100
AcDbEntity
8
1
62
256
6
ByLayer
370
13
48
1
60
0
100
AcDbSpline
70
4
71
3
72
8
73
4
40
0
40
0
40
0
40
0
40
1
40
1
40
1
40
1
41
1
10
23.7506142807802
20
-4.36799788027963
30
0
41
1
10
23.7585032631378
20
-4.36231849937451
30
0
41
1
10
23.7675268648999
20
-4.35648771905485
30
0
41
1
10
23.777522379539
20
-4.35069566244184
30
0
0
SPLINE
5
202
100
AcDbEntity
8
1
62
256
6
ByLayer
370
13
48
1
60
0
100
AcDbSpline
70
4
71
3
72
10
73
6
40
0
40
0
40
0
40
0
40
0.220275387008479
40
0.220275387008479
40
1
40
1
40
1
40
1
41
1
10
23.8682618588516
20
-4.24762203031514
30
0
41
1
10
23.866403539018
20
-4.2481314246252
30
0
41
1
10
23.8646210122277
20
-4.24858762926118
30
0
41
1
10
23.8570719807734
20
-4.25036409064671
30
0
41
1
10
23.8522814951945
20
-4.25102435555266
30
0
41
1
10
23.8487905068828
20
-4.2510243555528
30
0
0
SPLINE
5
203
100
AcDbEntity
8
1
62
256
6
ByLayer
370
13
48
1
60
0
100
AcDbSpline
70
4
71
3
72
10
73
6
40
0
40
0
40
0
40
0
40
0.491839191976824
40
0.491839191976824
40
1
40
1
40
1
40
1
41
1
10
25.3739430174867
20
-4.13099554185641
30
0
41
1
10
25.3840171195627
20
-4.08939882869163
30
0
41
1
10
25.389736079367
20
-4.0455961447976
30
0
41
1
10
25.390089674138
20
-3.9572674285981
30
0
41
1
10
25.3843433987004
20
-3.91194840201936
30
0
41
1
10
25.3739430174867
20
-3.86900445814331
30
0
0
SPLINE
5
204
100
AcDbEntity
8
1
62
256
6
ByLayer
370
13
48
1
60
0
100
AcDbSpline
70
4
71
3
72
8
73
4
40
0
40
0
40
0
40
0
40
1
40
1
40
1
40
1
41
1
10
23.748469577733
20
-3.61103419768978
30
0
41
1
10
23.7491523507353
20
-3.61796360355234
30
0
41
1
10
23.7498660198604
20
-3.62495526892241
30
0
41
1
10
23.7506142807769
20
-3.63200211971775
30
0
0
SPLINE
5
205
100
AcDbEntity
8
1
62
256
6
ByLayer
370
13
48
1
60
0
100
AcDbSpline
70
4
71
3
72
8
73
4
40
0
40
0
40
0
40
0
40
1
40
1
40
1
40
1
41
1
10
23.7506142807767
20
-4.36799788028313
30
0
41
1
10
23.7498660198604
20
-4.37504473107734
30
0
41
1
10
23.7491523507354
20
-4.3820363964463
30
0
41
1
10
23.7484695777332
20
-4.38896580230772
30
0
0
SPLINE
5
206
100
AcDbEntity
8
1
62
256
6
ByLayer
370
13
48
1
60
0
100
AcDbSpline
70
4
71
3
72
8
73
4
40
0
40
0
40
0
40
0
40
1
40
1
40
1
40
1
41
1
10
27.4397600217523
20
-3.15614709968276
30
0
41
1
10
27.3220556485929
20
-3.13167380944549
30
0
41
1
10
27.2008781086109
20
-3.12224731931357
30
0
41
1
10
27.0810768987951
20
-3.12518383633312
30
0
0
SPLINE
5
207
100
AcDbEntity
8
1
62
256
6
ByLayer
370
13
48
1
60
0
100
AcDbSpline
70
4
71
3
72
16
73
12
40
0
40
0
40
0
40
0
40
0.565035752121982
40
0.565035752121982
40
0.802127499925977
40
0.802127499925977
40
0.909039374754918
40
0.909039374754918
40
0.963879000672096
40
0.963879000672096
40
1
40
1
40
1
40
1
41
1
10
27.4753143467793
20
-3.23446411403972
30
0
41
1
10
27.4686286509489
20
-3.22007154087308
30
0
41
1
10
27.4618879302625
20
-3.2053661699027
30
0
41
1
10
27.4523712685777
20
-3.18434379942957
30
0
41
1
10
27.4495577546969
20
-3.17809558287334
30
0
41
1
10
27.4454904861867
20
-3.16901395895295
30
0
41
1
10
27.4442279534699
20
-3.16618800063725
30
0
41
1
10
27.4423215351283
20
-3.16191019761894
30
0
41
1
10
27.4416757755847
20
-3.16045933015332
30
0
41
1
10
27.4406068513423
20
-3.15805461258017
30
0
41
1
10
27.4401828059207
20
-3.1571011122235
30
0
41
1
10
27.4397600217523
20
-3.15614709968273
30
0
0
SPLINE
5
208
100
AcDbEntity
8
1
62
256
6
ByLayer
370
13
48
1
60
0
100
AcDbSpline
70
4
71
3
72
10
73
6
40
0
40
0
40
0
40
0
40
0.484066971714713
40
0.484066971714713
40
1
40
1
40
1
40
1
41
1
10
27.5636089363248
20
-3.34419694560239
30
0
41
1
10
27.5463854867531
20
-3.32933247646409
30
0
41
1
10
27.5300210449059
20
-3.31327144162353
30
0
41
1
10
27.4997771424429
20
-3.27717888705953
30
0
41
1
10
27.485689560494
20
-3.25679926452895
30
0
41
1
10
27.4753143467793
20
-3.23446411403972
30
0
0
SPLINE
5
209
100
AcDbEntity
8
1
62
256
6
ByLayer
370
13
48
1
60
0
100
AcDbSpline
70
4
71
3
72
16
73
12
40
0
40
0
40
0
40
0
40
0.565035752121982
40
0.565035752121982
40
0.802127499925978
40
0.802127499925978
40
0.909039374754918
40
0.909039374754918
40
0.963879000672096
40
0.963879000672096
40
1
40
1
40
1
40
1
41
1
10
27.4753143467793
20
-4.76553588595999
30
0
41
1
10
27.4686286509485
20
-4.7799284591265
30
0
41
1
10
27.4618879302625
20
-4.79463383009704
30
0
41
1
10
27.4523712685777
20
-4.81565620057017
30
0
41
1
10
27.4495577546969
20
-4.8219044171264
30
0
41
1
10
27.4454904861867
20
-4.8309860410468
30
0
41
1
10
27.4442279534699
20
-4.83381199936247
30
0
41
1
10
27.4423215351283
20
-4.83808980238078
30
0
41
1
10
27.4416757755847
20
-4.8395406698464
30
0
41
1
10
27.4406068513423
20
-4.84194538741954
30
0
41
1
10
27.4401828059207
20
-4.84289888777622
30
0
41
1
10
27.4397600217523
20
-4.84385290031699
30
0
0
SPLINE
5
20A
100
AcDbEntity
8
1
62
256
6
ByLayer
370
13
48
1
60
0
100
AcDbSpline
70
4
71
3
72
8
73
4
40
0
40
0
40
0
40
0
40
1
40
1
40
1
40
1
41
1
10
27.4397600217523
20
-4.84385290031699
30
0
41
1
10
27.3220556485929
20
-4.86832619055426
30
0
41
1
10
27.2008781086109
20
-4.87775268068614
30
0
41
1
10
27.0810768987951
20
-4.87481616366662
30
0
0
SPLINE
5
20B
100
AcDbEntity
8
1
62
256
6
ByLayer
370
13
48
1
60
0
100
AcDbSpline
70
4
71
3
72
10
73
6
40
0
40
0
40
0
40
0
40
0.484066971714709
40
0.484066971714709
40
1
40
1
40
1
40
1
41
1
10
27.5636089363248
20
-4.65580305439732
30
0
41
1
10
27.5463854867531
20
-4.67066752353563
30
0
41
1
10
27.5300210449059
20
-4.68672855837619
30
0
41
1
10
27.4997771424429
20
-4.72282111294018
30
0
41
1
10
27.485689560494
20
-4.74320073547077
30
0
41
1
10
27.4753143467793
20
-4.76553588595999
30
0
0
SPLINE
5
20C
100
AcDbEntity
8
1
62
256
6
ByLayer
370
13
48
1
60
0
100
AcDbSpline
70
4
71
3
72
10
73
6
40
0
40
0
40
0
40
0
40
0.176628710800224
40
0.176628710800224
40
1
40
1
40
1
40
1
41
1
10
27.8256635776615
20
-3.46887911270255
30
0
41
1
10
27.8183722025778
20
-3.45789288199114
30
0
41
1
10
27.8104894309624
20
-3.44728913007347
30
0
41
1
10
27.7638040682909
20
-3.39023442467718
30
0
41
1
10
27.7154493527108
20
-3.35130053320151
30
0
41
1
10
27.6642473322785
20
-3.31913067945985
30
0
0
SPLINE
5
20D
100
AcDbEntity
8
1
62
256
6
ByLayer
370
13
48
1
60
0
100
AcDbSpline
70
4
71
3
72
8
73
4
40
0
40
0
40
0
40
0
40
1
40
1
40
1
40
1
41
1
10
27.6642473322785
20
-3.31913067945987
30
0
41
1
10
27.6451065349848
20
-3.3071046569662
30
0
41
1
10
27.625925565824
20
-3.29514243207063
30
0
41
1
10
27.6067026707551
20
-3.28324830862616
30
0
0
SPLINE
5
20E
100
AcDbEntity
8
1
62
256
6
ByLayer
370
13
48
1
60
0
100
AcDbSpline
70
4
71
3
72
10
73
6
40
0
40
0
40
0
40
0
40
0.502273026272322
40
0.502273026272322
40
1
40
1
40
1
40
1
41
1
10
27.6067026707552
20
-3.28324830862613
30
0
41
1
10
27.5891255877275
20
-3.2723725277109
30
0
41
1
10
27.5719685584501
20
-3.26074793609618
30
0
41
1
10
27.5393998135679
20
-3.23566227550248
30
0
41
1
10
27.5236090237987
20
-3.22226448622274
30
0
41
1
10
27.5105155637419
20
-3.20654622743123
30
0
0
SPLINE
5
20F
100
AcDbEntity
8
1
62
256
6
ByLayer
370
13
48
1
60
0
100
AcDbSpline
70
4
71
3
72
10
73
6
40
0
40
0
40
0
40
0
40
0.502273026272322
40
0.502273026272322
40
1
40
1
40
1
40
1
41
1
10
27.6067026707552
20
-4.71675169137359
30
0
41
1
10
27.5891255877275
20
-4.72762747228885
30
0
41
1
10
27.5719685584501
20
-4.73925206390354
30
0
41
1
10
27.5393998135679
20
-4.76433772449727
30
0
41
1
10
27.5236090237987
20
-4.77773551377697
30
0
41
1
10
27.5105155637419
20
-4.79345377256848
30
0
0
SPLINE
5
210
100
AcDbEntity
8
1
62
256
6
ByLayer
370
13
48
1
60
0
100
AcDbSpline
70
4
71
3
72
8
73
4
40
0
40
0
40
0
40
0
40
1
40
1
40
1
40
1
41
1
10
27.6642473322785
20
-4.68086932053987
30
0
41
1
10
27.6451065349848
20
-4.69289534303351
30
0
41
1
10
27.625925565824
20
-4.70485756792911
30
0
41
1
10
27.6067026707551
20
-4.71675169137359
30
0
0
SPLINE
5
211
100
AcDbEntity
8
1
62
256
6
ByLayer
370
13
48
1
60
0
100
AcDbSpline
70
4
71
3
72
10
73
6
40
0
40
0
40
0
40
0
40
0.176628710800224
40
0.176628710800224
40
1
40
1
40
1
40
1
41
1
10
27.8256635776615
20
-4.53112088729719
30
0
41
1
10
27.8183722025778
20
-4.54210711800857
30
0
41
1
10
27.8104894309624
20
-4.55271086992627
30
0
41
1
10
27.7638040682909
20
-4.60976557532254
30
0
41
1
10
27.7154493527108
20
-4.64869946679821
30
0
41
1
10
27.6642473322785
20
-4.68086932053987
30
0
0
SPLINE
5
212
100
AcDbEntity
8
1
62
256
6
ByLayer
370
13
48
1
60
0
100
AcDbSpline
70
4
71
3
72
10
73
6
40
0
40
0
40
0
40
0
40
0.828685679108716
40
0.828685679108716
40
1
40
1
40
1
40
1
41
1
10
27.6207683583679
20
-3.379768231866
30
0
41
1
10
27.6686097493866
20
-3.40512105855055
30
0
41
1
10
27.7147633392972
20
-3.43592679239751
30
0
41
1
10
27.7604070337687
20
-3.48282894495139
30
0
41
1
10
27.7679488590383
20
-3.49133995857247
30
0
41
1
10
27.7749800271743
20
-3.50023795011012
30
0
0
SPLINE
5
213
100
AcDbEntity
8
1
62
256
6
ByLayer
370
13
48
1
60
0
100
AcDbSpline
70
4
71
3
72
12
73
8
40
0
40
0
40
0
40
0
40
0.0880792633922689
40
0.0880792633922689
40
0.576107189837383
40
0.576107189837383
40
1
40
1
40
1
40
1
41
1
10
27.5040818169429
20
-4.35212904024874
30
0
41
1
10
27.5140661440235
20
-4.35241842497138
30
0
41
1
10
27.5240551161812
20
-4.3525607797163
30
0
41
1
10
27.5893799480028
20
-4.35243460633779
30
0
41
1
10
27.6447000295702
20
-4.35037560363381
30
0
41
1
10
27.7480735369365
20
-4.34771931023678
30
0
41
1
10
27.7961214732615
20
-4.34630325389222
30
0
41
1
10
27.8441651422481
20
-4.34474040673888
30
0
0
SPLINE
5
214
100
AcDbEntity
8
1
62
256
6
ByLayer
370
13
48
1
60
0
100
AcDbSpline
70
4
71
3
72
10
73
6
40
0
40
0
40
0
40
0
40
0.828685679108716
40
0.828685679108716
40
1
40
1
40
1
40
1
41
1
10
27.6207683583679
20
-4.62023176813372
30
0
41
1
10
27.6686097493866
20
-4.59487894144917
30
0
41
1
10
27.7147633392972
20
-4.56407320760223
30
0
41
1
10
27.7604070337687
20
-4.51717105504835
30
0
41
1
10
27.7679488590383
20
-4.50866004142725
30
0
41
1
10
27.7749800271743
20
-4.4997620498896
30
0
0
SPLINE
5
215
100
AcDbEntity
8
1
62
256
6
ByLayer
370
13
48
1
60
0
100
AcDbSpline
70
4
71
3
72
8
73
4
40
0
40
0
40
0
40
0
40
1
40
1
40
1
40
1
41
1
10
27.7749800271743
20
-3.50023795011012
30
0
41
1
10
27.782226373284
20
-3.50940825085056
30
0
41
1
10
27.7893744966751
20
-3.51869385692007
30
0
41
1
10
27.796439687712
20
-3.52804195912512
30
0
0
SPLINE
5
216
100
AcDbEntity
8
1
62
256
6
ByLayer
370
13
48
1
60
0
100
AcDbSpline
70
4
71
3
72
12
73
8
40
0
40
0
40
0
40
0
40
0.0880792633922689
40
0.0880792633922689
40
0.576107189837383
40
0.576107189837383
40
1
40
1
40
1
40
1
41
1
10
27.5040818169429
20
-3.64787095975097
30
0
41
1
10
27.5140661440235
20
-3.64758157502834
30
0
41
1
10
27.5240551161812
20
-3.64743922028342
30
0
41
1
10
27.5893799480028
20
-3.64756539366195
30
0
41
1
10
27.6447000295702
20
-3.64962439636591
30
0
41
1
10
27.7480735369365
20
-3.65228068976293
30
0
41
1
10
27.7961214732615
20
-3.65369674610753
30
0
41
1
10
27.8441651422481
20
-3.65525959326084
30
0
0
SPLINE
5
217
100
AcDbEntity
8
1
62
256
6
ByLayer
370
13
48
1
60
0
100
AcDbSpline
70
4
71
3
72
10
73
6
40
0
40
0
40
0
40
0
40
0.595894712070617
40
0.595894712070617
40
1
40
1
40
1
40
1
41
1
10
27.796439687712
20
-4.47195804087463
30
0
41
1
10
27.8128914645872
20
-4.45019035039309
30
0
41
1
10
27.8267183907983
20
-4.4257700986571
30
0
41
1
10
27.840810212682
20
-4.38209898108633
30
0
41
1
10
27.8440390421827
20
-4.36334044307648
30
0
41
1
10
27.8441651422481
20
-4.34474040673888
30
0
0
SPLINE
5
218
100
AcDbEntity
8
1
62
256
6
ByLayer
370
13
48
1
60
0
100
AcDbSpline
70
4
71
3
72
10
73
6
40
0
40
0
40
0
40
0
40
0.595894712070617
40
0.595894712070617
40
1
40
1
40
1
40
1
41
1
10
27.796439687712
20
-3.52804195912512
30
0
41
1
10
27.8128914645872
20
-3.54980964960663
30
0
41
1
10
27.8267183907983
20
-3.57422990134262
30
0
41
1
10
27.840810212682
20
-3.61790101891342
30
0
41
1
10
27.8440390421827
20
-3.63665955692326
30
0
41
1
10
27.8441651422481
20
-3.65525959326084
30
0
0
SPLINE
5
219
100
AcDbEntity
8
1
62
256
6
ByLayer
370
13
48
1
60
0
100
AcDbSpline
70
4
71
3
72
16
73
12
40
0
40
0
40
0
40
0
40
0.550547840515593
40
0.550547840515593
40
0.792876062772848
40
0.792876062772848
40
0.904227776395907
40
0.904227776395907
40
0.964015152759446
40
0.964015152759446
40
1
40
1
40
1
40
1
41
1
10
27.510515563742
20
-4.79345377256854
30
0
41
1
10
27.4975450008677
20
-4.8024905193636
30
0
41
1
10
27.4844768135886
20
-4.81170828269376
30
0
41
1
10
27.4657548110491
20
-4.82507250823573
30
0
41
1
10
27.460032266874
20
-4.82917899055352
30
0
41
1
10
27.4517104802333
20
-4.83518269678206
30
0
41
1
10
27.4490936305623
20
-4.83707526073525
30
0
41
1
10
27.4450796636702
20
-4.8399854982631
30
0
41
1
10
27.4436787273479
20
-4.8410025790443
30
0
41
1
10
27.4414390369606
20
-4.84263079450838
30
0
41
1
10
27.4405990425508
20
-4.84324156697443
30
0
41
1
10
27.4397600217523
20
-4.84385290031705
30
0
0
SPLINE
5
21A
100
AcDbEntity
8
1
62
256
6
ByLayer
370
13
48
1
60
0
100
AcDbSpline
70
4
71
3
72
8
73
4
40
0
40
0
40
0
40
0
40
1
40
1
40
1
40
1
41
1
10
27.7749800271743
20
-4.4997620498896
30
0
41
1
10
27.782226373284
20
-4.49059174914916
30
0
41
1
10
27.7893744966751
20
-4.48130614307965
30
0
41
1
10
27.796439687712
20
-4.47195804087463
30
0
0
SPLINE
5
21B
100
AcDbEntity
8
1
62
256
6
ByLayer
370
13
48
1
60
0
100
AcDbSpline
70
4
71
3
72
16
73
12
40
0
40
0
40
0
40
0
40
0.550547840515593
40
0.550547840515593
40
0.792876062772848
40
0.792876062772848
40
0.904227776395907
40
0.904227776395907
40
0.964015152759446
40
0.964015152759446
40
1
40
1
40
1
40
1
41
1
10
27.510515563742
20
-3.20654622743118
30
0
41
1
10
27.4975450008677
20
-3.19750948063611
30
0
41
1
10
27.4844768135886
20
-3.18829171730596
30
0
41
1
10
27.4657548110491
20
-3.17492749176401
30
0
41
1
10
27.460032266874
20
-3.1708210094462
30
0
41
1
10
27.4517104802333
20
-3.16481730321769
30
0
41
1
10
27.4490936305623
20
-3.16292473926447
30
0
41
1
10
27.4450796636702
20
-3.16001450173664
30
0
41
1
10
27.4436787273479
20
-3.15899742095544
30
0
41
1
10
27.4414390369606
20
-3.15736920549134
30
0
41
1
10
27.4405990425508
20
-3.15675843302529
30
0
41
1
10
27.4397600217523
20
-3.15614709968267
30
0
0
SPLINE
5
21C
100
AcDbEntity
8
1
62
256
6
ByLayer
370
13
48
1
60
0
100
AcDbSpline
70
4
71
3
72
8
73
4
40
0
40
0
40
0
40
0
40
1
40
1
40
1
40
1
41
1
10
27.0810768987951
20
-3.12518383633312
30
0
41
1
10
26.9666740375911
20
-3.12849186212733
30
0
41
1
10
26.8499584372937
20
-3.13746616057185
30
0
41
1
10
26.7337805434613
20
-3.13323822794985
30
0
0
SPLINE
5
21D
100
AcDbEntity
8
1
62
256
6
ByLayer
370
13
48
1
60
0
100
AcDbSpline
70
4
71
3
72
8
73
4
40
0
40
0
40
0
40
0
40
1
40
1
40
1
40
1
41
1
10
27.0810768987951
20
-4.87481616366662
30
0
41
1
10
26.9666740375911
20
-4.87150813787238
30
0
41
1
10
26.8499584372937
20
-4.86253383942787
30
0
41
1
10
26.7337805434613
20
-4.8667617720499
30
0
0
SPLINE
5
21E
100
AcDbEntity
8
1
62
256
6
ByLayer
370
13
48
1
60
0
100
AcDbSpline
70
4
71
3
72
10
73
6
40
0
40
0
40
0
40
0
40
0.202374079532489
40
0.202374079532489
40
1
40
1
40
1
40
1
41
1
10
26.8939768523292
20
-4.35333262012315
30
0
41
1
10
26.9366335743464
20
-4.35214733910513
30
0
41
1
10
26.9793460209674
20
-4.35165309851419
30
0
41
1
10
27.1872289032592
20
-4.34882111109454
30
0
41
1
10
27.3524723046481
20
-4.34890660145777
30
0
41
1
10
27.5040818169429
20
-4.35212904024874
30
0
0
SPLINE
5
21F
100
AcDbEntity
8
1
62
256
6
ByLayer
370
13
48
1
60
0
100
AcDbSpline
70
4
71
3
72
10
73
6
40
0
40
0
40
0
40
0
40
0.202374079532489
40
0.202374079532489
40
1
40
1
40
1
40
1
41
1
10
26.8939768523292
20
-3.64666737987656
30
0
41
1
10
26.9366335743464
20
-3.64785266089459
30
0
41
1
10
26.9793460209674
20
-3.64834690148553
30
0
41
1
10
27.1872289032592
20
-3.65117888890521
30
0
41
1
10
27.3524723046481
20
-3.65109339854195
30
0
41
1
10
27.5040818169429
20
-3.64787095975097
30
0
0
SPLINE
5
220
100
AcDbEntity
8
1
62
256
6
ByLayer
370
13
48
1
60
0
100
AcDbSpline
70
4
71
3
72
10
73
6
40
0
40
0
40
0
40
0
40
0.412056726398416
40
0.412056726398416
40
1
40
1
40
1
40
1
41
1
10
27.8970257408962
20
-3.65525959326084
30
0
41
1
10
27.8970257408962
20
-3.63214005529486
30
0
41
1
10
27.89385361432
20
-3.60884672723603
30
0
41
1
10
27.8795476699584
20
-3.55477853640988
30
0
41
1
10
27.8654870839336
20
-3.52430879873776
30
0
41
1
10
27.8480375085945
20
-3.49657472132799
30
0
0
SPLINE
5
221
100
AcDbEntity
8
1
62
256
6
ByLayer
370
13
48
1
60
0
100
AcDbSpline
70
4
71
3
72
10
73
6
40
0
40
0
40
0
40
0
40
0.412056726398416
40
0.412056726398416
40
1
40
1
40
1
40
1
41
1
10
27.8970257408962
20
-4.34474040673888
30
0
41
1
10
27.8970257408962
20
-4.36785994470486
30
0
41
1
10
27.89385361432
20
-4.39115327276369
30
0
41
1
10
27.8795476699584
20
-4.44522146358986
30
0
41
1
10
27.8654870839336
20
-4.47569120126195
30
0
41
1
10
27.8480375085945
20
-4.50342527867173
30
0
0
SPLINE
5
222
100
AcDbEntity
8
1
62
256
6
ByLayer
370
13
48
1
60
0
100
AcDbSpline
70
4
71
3
72
8
73
4
40
0
40
0
40
0
40
0
40
1
40
1
40
1
40
1
41
1
10
26.7337805434613
20
-4.8667617720499
30
0
41
1
10
26.6338294385697
20
-4.87001030666349
30
0
41
1
10
26.5333593139737
20
-4.87323015281316
30
0
41
1
10
26.4337805434612
20
-4.86403867263226
30
0
0
SPLINE
5
223
100
AcDbEntity
8
1
62
256
6
ByLayer
370
13
48
1
60
0
100
AcDbSpline
70
4
71
3
72
8
73
4
40
0
40
0
40
0
40
0
40
1
40
1
40
1
40
1
41
1
10
26.7337805434613
20
-3.13323822794982
30
0
41
1
10
26.6338294385697
20
-3.12998969333626
30
0
41
1
10
26.5333593139737
20
-3.12676984718655
30
0
41
1
10
26.4337805434612
20
-3.13596132736745
30
0
0
SPLINE
5
224
100
AcDbEntity
8
1
62
256
6
ByLayer
370
13
48
1
60
0
100
AcDbSpline
70
4
71
3
72
16
73
12
40
0
40
0
40
0
40
0
40
0.144623406732697
40
0.144623406732697
40
0.340113210683642
40
0.340113210683642
40
0.361421053906806
40
0.361421053906806
40
0.96509055241744
40
0.96509055241744
40
1
40
1
40
1
40
1
41
1
10
26.3939768523292
20
-3.65030289028772
30
0
41
1
10
26.4176378728546
20
-3.64557119287593
30
0
41
1
10
26.4416309953235
20
-3.64235596523557
30
0
41
1
10
26.498193352456
20
-3.63759890599062
30
0
41
1
10
26.5308631318151
20
-3.63644376415766
30
0
41
1
10
26.5670552818254
20
-3.63643675022669
30
0
41
1
10
26.5706149406199
20
-3.63645287929245
30
0
41
1
10
26.6749938211815
20
-3.63747518965047
30
0
41
1
10
26.7757429102796
20
-3.64225645257679
30
0
41
1
10
26.8823238693043
20
-3.64622768379167
30
0
41
1
10
26.8881503958336
20
-3.64644661146519
30
0
41
1
10
26.8939768523292
20
-3.64666737987656
30
0
0
SPLINE
5
225
100
AcDbEntity
8
1
62
256
6
ByLayer
370
13
48
1
60
0
100
AcDbSpline
70
4
71
3
72
16
73
12
40
0
40
0
40
0
40
0
40
0.144623406732697
40
0.144623406732697
40
0.340113210683642
40
0.340113210683642
40
0.361421053906806
40
0.361421053906806
40
0.96509055241744
40
0.96509055241744
40
1
40
1
40
1
40
1
41
1
10
26.3939768523292
20
-4.349697109712
30
0
41
1
10
26.4176378728546
20
-4.35442880712381
30
0
41
1
10
26.4416309953235
20
-4.35764403476415
30
0
41
1
10
26.498193352456
20
-4.3624010940091
30
0
41
1
10
26.5308631318151
20
-4.36355623584208
30
0
41
1
10
26.5670552818254
20
-4.36356324977302
30
0
41
1
10
26.5706149406199
20
-4.36354712070727
30
0
41
1
10
26.6749938211815
20
-4.36252481034924
30
0
41
1
10
26.7757429102796
20
-4.35774354742293
30
0
41
1
10
26.8823238693043
20
-4.35377231620808
30
0
41
1
10
26.8881503958336
20
-4.35355338853455
30
0
41
1
10
26.8939768523292
20
-4.35333262012315
30
0
0
SPLINE
5
226
100
AcDbEntity
8
1
62
256
6
ByLayer
370
13
48
1
60
0
100
AcDbSpline
70
4
71
3
72
8
73
4
40
0
40
0
40
0
40
0
40
1
40
1
40
1
40
1
41
1
10
26.1289221872924
20
-3.99999999999986
30
0
41
1
10
26.2172737423047
20
-3.99999999999986
30
0
41
1
10
26.305625297317
20
-3.99999999999986
30
0
41
1
10
26.3939768523292
20
-3.99999999999986
30
0
0
SPLINE
5
227
100
AcDbEntity
8
1
62
256
6
ByLayer
370
13
48
1
60
0
100
AcDbSpline
70
4
71
3
72
8
73
4
40
0
40
0
40
0
40
0
40
1
40
1
40
1
40
1
41
1
10
27.8480375085945
20
-4.50342527867173
30
0
41
1
10
27.8406822121478
20
-4.51277759158757
30
0
41
1
10
27.8332278664848
20
-4.52202611591463
30
0
41
1
10
27.8256635776615
20
-4.53112088729719
30
0
0
SPLINE
5
228
100
AcDbEntity
8
1
62
256
6
ByLayer
370
13
48
1
60
0
100
AcDbSpline
70
4
71
3
72
8
73
4
40
0
40
0
40
0
40
0
40
1
40
1
40
1
40
1
41
1
10
27.8480375085945
20
-3.49657472132799
30
0
41
1
10
27.8406822121478
20
-3.48722240841215
30
0
41
1
10
27.8332278664848
20
-3.47797388408512
30
0
41
1
10
27.8256635776615
20
-3.46887911270255
30
0
0
SPLINE
5
229
100
AcDbEntity
8
1
62
256
6
ByLayer
370
13
48
1
60
0
100
AcDbSpline
70
4
71
3
72
16
73
12
40
0
40
0
40
0
40
0
40
0.0002204728141812
40
0.0002204728141812
40
0.28207049074326
40
0.28207049074326
40
0.563941110555105
40
0.563941110555105
40
0.999779527185927
40
0.999779527185927
40
1
40
1
40
1
40
1
41
1
10
26.1289221872924
20
-4.29345189211094
30
0
41
1
10
26.1289414547824
20
-4.2934563096307
30
0
41
1
10
26.1289607223292
20
-4.2934607271288
30
0
41
1
10
26.1536114636835
20
-4.29911248094959
30
0
41
1
10
26.1783272225084
20
-4.3047902553156
30
0
41
1
10
26.2278436851611
20
-4.31627051291153
30
0
41
1
10
26.2526291596669
20
-4.32219349779422
30
0
41
1
10
26.3159850762818
20
-4.33638587504257
30
0
41
1
10
26.3548717009099
20
-4.34370325469965
30
0
41
1
10
26.3939373139163
20
-4.3496910505124
30
0
41
1
10
26.3939570831493
20
-4.34969407993881
30
0
41
1
10
26.3939768523292
20
-4.349697109712
30
0
0
SPLINE
5
22A
100
AcDbEntity
8
1
62
256
6
ByLayer
370
13
48
1
60
0
100
AcDbSpline
70
4
71
3
72
16
73
12
40
0
40
0
40
0
40
0
40
0.0002204728141812
40
0.0002204728141812
40
0.28207049074326
40
0.28207049074326
40
0.563941110555105
40
0.563941110555105
40
0.999779527185927
40
0.999779527185927
40
1
40
1
40
1
40
1
41
1
10
26.1289221872924
20
-3.70654810788878
30
0
41
1
10
26.1289414547825
20
-3.70654369022256
30
0
41
1
10
26.1289607223292
20
-3.70653927287094
30
0
41
1
10
26.1536114636835
20
-3.70088751905013
30
0
41
1
10
26.1783272225084
20
-3.69520974468415
30
0
41
1
10
26.2278436851611
20
-3.68372948708819
30
0
41
1
10
26.2526291596669
20
-3.6778065022055
30
0
41
1
10
26.3159850762818
20
-3.66361412495715
30
0
41
1
10
26.3548717009099
20
-3.6562967453001
30
0
41
1
10
26.3939373139163
20
-3.65030894948731
30
0
41
1
10
26.3939570830919
20
-3.65030591968616
30
0
41
1
10
26.3939768523292
20
-3.65030289028772
30
0
0
SPLINE
5
22B
100
AcDbEntity
8
1
62
256
6
ByLayer
370
18
48
1
60
0
100
AcDbSpline
70
4
71
3
72
18
73
14
40
0
40
0
40
0
40
0
40
0.174254023674327
40
0.174254023674327
40
0.347935359819617
40
0.347935359819617
40
0.531225201322243
40
0.531225201322243
40
0.740960127852135
40
0.740960127852135
40
0.996142005499511
40
0.996142005499511
40
1
40
1
40
1
40
1
41
1
10
15.3477093723894
20
-2.2499999999994
30
0
41
1
10
15.3477093723894
20
-2.34946294073461
30
0
41
1
10
15.3572657714045
20
-2.45030577346199
30
0
41
1
10
15.3930435291141
20
-2.63719948963481
30
0
41
1
10
15.4196108954677
20
-2.72577821409578
30
0
41
1
10
15.4865657058644
20
-2.88639407083136
30
0
41
1
10
15.5283800247928
20
-2.95927721524754
30
0
41
1
10
15.6268093393376
20
-3.08836566897051
30
0
41
1
10
15.6858422840264
20
-3.14235080379601
30
0
41
1
10
15.8219120462068
20
-3.22603335731265
30
0
41
1
10
15.9019993551927
20
-3.24931168966802
30
0
41
1
10
15.9828910214931
20
-3.24999490820568
30
0
41
1
10
15.984097172996
20
-3.2499999999994
30
0
41
1
10
15.9853031931148
20
-3.2499999999994
30
0
0
SPLINE
5
22C
100
AcDbEntity
8
1
62
256
6
ByLayer
370
18
48
1
60
0
100
AcDbSpline
70
4
71
3
72
8
73
4
40
0
40
0
40
0
40
0
40
1
40
1
40
1
40
1
41
1
10
-0.400000000000091
20
-4.74999999999949
30
0
41
1
10
-0.475824100695235
20
-4.74999999999949
30
0
41
1
10
-0.55313192740303
20
-4.75882959168536
30
0
41
1
10
-0.62772318076631
20
-4.776274087362
30
0
0
SPLINE
5
22D
100
AcDbEntity
8
1
62
256
6
ByLayer
370
18
48
1
60
0
100
AcDbSpline
70
4
71
3
72
10
73
6
40
0
40
0
40
0
40
0
40
0.756102769204547
40
0.756102769204547
40
1
40
1
40
1
40
1
41
1
10
19.4466320131342
20
-3.19999999999985
30
0
41
1
10
19.433535857732
20
-3.19999999999985
30
0
41
1
10
19.4207202080259
20
-3.19999999999985
30
0
41
1
10
19.4042092102193
20
-3.19999999999985
30
0
41
1
10
19.4002140960562
20
-3.19999999999985
30
0
41
1
10
19.3962544185031
20
-3.19999999999985
30
0
0
SPLINE
5
22E
100
AcDbEntity
8
1
62
256
6
ByLayer
370
18
48
1
60
0
100
AcDbSpline
70
4
71
3
72
14
73
10
40
0
40
0
40
0
40
0
40
0.209394252568555
40
0.209394252568555
40
0.418674140634421
40
0.418674140634421
40
0.627952529466336
40
0.627952529466336
40
1
40
1
40
1
40
1
41
1
10
25.3731203716814
20
-4.88244511361017
30
0
41
1
10
25.4313095888795
20
-4.88243843432355
30
0
41
1
10
25.4945415508062
20
-4.88302469360491
30
0
41
1
10
25.6284652768354
20
-4.88536000986755
30
0
41
1
10
25.6996116692105
20
-4.88711643831837
30
0
41
1
10
25.8473813033077
20
-4.89173514557623
30
0
41
1
10
25.9245105149097
20
-4.89461322492036
30
0
41
1
10
26.1423341909035
20
-4.9039771838994
30
0
41
1
10
26.2889070981155
20
-4.91166082683742
30
0
41
1
10
26.4337805434601
20
-4.92055979753769
30
0
0
SPLINE
5
22F
100
AcDbEntity
8
1
62
256
6
ByLayer
370
18
48
1
60
0
100
AcDbSpline
70
4
71
3
72
14
73
10
40
0
40
0
40
0
40
0
40
0.209828521639199
40
0.209828521639199
40
0.4195901540272
40
0.4195901540272
40
0.628965113592846
40
0.628965113592846
40
1
40
1
40
1
40
1
41
1
10
26.4337805434612
20
-3.07944020246151
30
0
41
1
10
26.3514732695809
20
-3.08449599454914
30
0
41
1
10
26.2688292147962
20
-3.08915266772723
30
0
41
1
10
26.1062811533078
20
-3.09747259763728
30
0
41
1
10
26.0258208334326
20
-3.10116457373579
30
0
41
1
10
25.8699639724299
20
-3.1074536640275
30
0
41
1
10
25.7940252483449
20
-3.11007427929545
30
0
41
1
10
25.5941103545506
20
-3.1157168354371
30
0
41
1
10
25.4754747567342
20
-3.11756663520413
30
0
41
1
10
25.3731203716824
20
-3.11755488639039
30
0
0
SPLINE
5
230
100
AcDbEntity
8
1
62
256
6
ByLayer
370
18
48
1
60
0
100
AcDbSpline
70
4
71
3
72
8
73
4
40
0
40
0
40
0
40
0
40
1
40
1
40
1
40
1
41
1
10
27.0810768987951
20
-3.03780961044072
30
0
41
1
10
26.9667232362903
20
-3.04607476079039
30
0
41
1
10
26.8500733165824
20
-3.05386907600743
30
0
41
1
10
26.7337805434612
20
-3.06101245537692
30
0
0
SPLINE
5
231
100
AcDbEntity
8
1
62
256
6
ByLayer
370
18
48
1
60
0
100
AcDbSpline
70
4
71
3
72
10
73
6
40
0
40
0
40
0
40
0
40
0.575849552148122
40
0.575849552148122
40
1
40
1
40
1
40
1
41
1
10
19.3962544185031
20
-4.79999999999987
30
0
41
1
10
19.4055992325651
20
-4.79999999999987
30
0
41
1
10
19.4151434423376
20
-4.79999999999987
30
0
41
1
10
19.4320239080445
20
-4.79999999999987
30
0
41
1
10
19.4392832271311
20
-4.79999999999987
30
0
41
1
10
19.4466320131342
20
-4.79999999999987
30
0
0
SPLINE
5
232
100
AcDbEntity
8
1
62
256
6
ByLayer
370
18
48
1
60
0
100
AcDbSpline
70
4
71
3
72
8
73
4
40
0
40
0
40
0
40
0
40
1
40
1
40
1
40
1
41
1
10
26.7337805434612
20
-4.93898754462282
30
0
41
1
10
26.8500733165824
20
-4.94613092399228
30
0
41
1
10
26.9667232362903
20
-4.95392523920933
30
0
41
1
10
27.0810768987951
20
-4.962190389559
30
0
0
SPLINE
5
233
100
AcDbEntity
8
1
62
256
6
ByLayer
370
18
48
1
60
0
100
AcDbSpline
70
4
71
3
72
16
73
12
40
0
40
0
40
0
40
0
40
0.211440290976243
40
0.211440290976243
40
0.422896736694443
40
0.422896736694443
40
0.633935131411306
40
0.633935131411306
40
0.842399597812144
40
0.842399597812144
40
1
40
1
40
1
40
1
41
1
10
27.9019409516835
20
-3.25324033365621
30
0
41
1
10
27.9021828121519
20
-3.22464626339408
30
0
41
1
10
27.897509865013
20
-3.19565922963531
30
0
41
1
10
27.8791355265766
20
-3.1416931201706
30
0
41
1
10
27.8651770288146
20
-3.11596439579083
30
0
41
1
10
27.8300123990848
20
-3.07138342313877
30
0
41
1
10
27.8083234948748
20
-3.05189541000311
30
0
41
1
10
27.7605708510196
20
-3.022079046301
30
0
41
1
10
27.7338898983738
20
-3.01122939815545
30
0
41
1
10
27.6856899076454
20
-3.0008716424995
30
0
41
1
10
27.6640691721776
20
-2.99915291544173
30
0
41
1
10
27.6427579923014
20
-3.00030093989866
30
0
0
SPLINE
5
234
100
AcDbEntity
8
1
62
256
6
ByLayer
370
18
48
1
60
0
100
AcDbSpline
70
4
71
3
72
16
73
12
40
0
40
0
40
0
40
0
40
0.203363754276493
40
0.203363754276493
40
0.40658604208921
40
0.40658604208921
40
0.611967971554986
40
0.611967971554986
40
0.82073821984358
40
0.82073821984358
40
1
40
1
40
1
40
1
41
1
10
27.6427579923014
20
-4.99969906010108
30
0
41
1
10
27.6700970081209
20
-5.00117180159032
30
0
41
1
10
27.6980262240332
20
-4.99787801301378
30
0
41
1
10
27.7504076479783
20
-4.98241107536435
30
0
41
1
10
27.7755789022368
20
-4.97003831328388
30
0
41
1
10
27.8201132665787
20
-4.937977331881
30
0
41
1
10
27.8400202557988
20
-4.91778225268519
30
0
41
1
10
27.8720355922843
20
-4.87219500835997
30
0
41
1
10
27.8844520380369
20
-4.84610043277851
30
0
41
1
10
27.8988187436013
20
-4.7956736887767
30
0
41
1
10
27.9021467885115
20
-4.77109482437768
30
0
41
1
10
27.9019409516835
20
-4.74675966634351
30
0
0
LINE
5
70
100
AcDbEntity
8
80
62
256
6
ByLayer
370
18
48
1
60
0
100
AcDbLine
10
0
20
0
30
0
11
-5
21
0
31
0
39
0
210
0
220
0
230
1
0
LINE
5
71
100
AcDbEntity
8
81
62
256
6
ByLayer
370
18
48
1
60
0
100
AcDbLine
10
27.9
20
-5
30
0
11
32.9
21
-5
31
0
39
0
210
0
220
0
230
1
0
LINE
5
72
100
AcDbEntity
8
SK1
62
256
6
ByLayer
370
18
48
1
60
0
100
AcDbLine
10
-97.1
20
-4.9
30
0
11
-97.1
21
5
31
0
39
0
210
0
220
0
230
1
0
LINE
5
74
100
AcDbEntity
8
SK1
62
256
6
ByLayer
370
13
48
1
60
0
100
AcDbLine
10
-0.627723
20
5
30
0
11
-0.627723
21
-4.776274
31
0
39
0
210
0
220
0
230
1
0
LINE
5
75
100
AcDbEntity
8
SK1
62
256
6
ByLayer
370
18
48
1
60
0
100
AcDbLine
10
-0.1
20
-4.75
30
0
11
-0.1
21
5.000391
31
0
39
0
210
0
220
0
230
1
0
LINE
5
76
100
AcDbEntity
8
SK1
62
256
6
ByLayer
370
18
48
1
60
0
100
AcDbLine
10
-0.1
20
-4.75
30
0
11
-0.4
21
-4.75
31
0
39
0
210
0
220
0
230
1
0
LINE
5
77
100
AcDbEntity
8
SK1
62
256
6
ByLayer
370
18
48
1
60
0
100
AcDbLine
10
-97.1
20
-4.9
30
0
11
-0.926783
21
-4.9
31
0
39
0
210
0
220
0
230
1
0
LINE
5
78
100
AcDbEntity
8
SK1
62
256
6
ByLayer
370
18
48
1
60
0
100
AcDbLine
10
-97.1
20
5
30
0
11
-0.627723
21
5
31
0
39
0
210
0
220
0
230
1
0
LINE
5
79
100
AcDbEntity
8
1
62
256
6
ByLayer
370
18
48
1
60
0
100
AcDbLine
10
1.71858
20
-4.75
30
0
11
0.917758
21
-4.75
31
0
39
0
210
0
220
0
230
1
0
LINE
5
7B
100
AcDbEntity
8
1
62
256
6
ByLayer
370
18
48
1
60
0
100
AcDbLine
10
1.71858
20
-4.75
30
0
11
1.71858
21
5.018215
31
0
39
0
210
0
220
0
230
1
0
LINE
5
7C
100
AcDbEntity
8
1
62
256
6
ByLayer
370
18
48
1
60
0
100
AcDbLine
10
14.190738
20
-3.25
30
0
11
5.6
21
-3.25
31
0
39
0
210
0
220
0
230
1
0
LINE
5
7D
100
AcDbEntity
8
1
62
256
6
ByLayer
370
18
48
1
60
0
100
AcDbLine
10
15.347709
20
0.795172
30
0
11
19.7735
21
-0.631108
31
0
39
0
210
0
220
0
230
1
0
LINE
5
7E
100
AcDbEntity
8
1
62
256
6
ByLayer
370
13
48
1
60
0
100
AcDbLine
10
15.347709
20
-2.25
30
0
11
10.8
21
-2.25
31
0
39
0
210
0
220
0
230
1
0
LINE
5
7F
100
AcDbEntity
8
1
62
256
6
ByLayer
370
13
48
1
60
0
100
AcDbLine
10
0.917758
20
-4.75
30
0
11
0.917758
21
5.005174
31
0
39
0
210
0
220
0
230
1
0
LINE
5
80
100
AcDbEntity
8
1
62
256
6
ByLayer
370
18
48
1
60
0
100
AcDbLine
10
23.315611
20
-3.25
30
0
11
19.190738
21
-3.25
31
0
39
0
210
0
220
0
230
1
0
LINE
5
81
100
AcDbEntity
8
1
62
256
6
ByLayer
370
18
48
1
60
0
100
AcDbLine
10
4.6
20
4.258789
30
0
11
4.6
21
-2.25
31
0
39
0
210
0
220
0
230
1
0
LINE
5
82
100
AcDbEntity
8
1
62
256
6
ByLayer
370
18
48
1
60
0
100
AcDbLine
10
19.190738
20
-4.75
30
0
11
14.190738
21
-4.75
31
0
39
0
210
0
220
0
230
1
0
LINE
5
83
100
AcDbEntity
8
1
62
256
6
ByLayer
370
18
48
1
60
0
100
AcDbLine
10
4.6
20
4.258789
30
0
11
2.243478
21
5.018215
31
0
39
0
210
0
220
0
230
1
0
LINE
5
84
100
AcDbEntity
8
1
62
256
6
ByLayer
370
18
48
1
60
0
100
AcDbLine
10
19.7735
20
-2.25
30
0
11
19.7735
21
-0.631108
31
0
39
0
210
0
220
0
230
1
0
LINE
5
85
100
AcDbEntity
8
1
62
256
6
ByLayer
370
13
48
1
60
0
100
AcDbLine
10
10.8
20
-3.25
30
0
11
10.8
21
-2.25
31
0
39
0
210
0
220
0
230
1
0
LINE
5
86
100
AcDbEntity
8
1
62
256
6
ByLayer
370
18
48
1
60
0
100
AcDbLine
10
23.315611
20
-4.75
30
0
11
19.190738
21
-4.75
31
0
39
0
210
0
220
0
230
1
0
LINE
5
87
100
AcDbEntity
8
1
62
256
6
ByLayer
370
18
48
1
60
0
100
AcDbLine
10
0.917758
20
-4.75
30
0
11
-0.1
21
-4.75
31
0
39
0
210
0
220
0
230
1
0
LINE
5
88
100
AcDbEntity
8
1
62
256
6
ByLayer
370
18
48
1
60
0
100
AcDbLine
10
0.917758
20
5.005174
30
0
11
1.71858
21
5.018215
31
0
39
0
210
0
220
0
230
1
0
LINE
5
89
100
AcDbEntity
8
1
62
256
6
ByLayer
370
18
48
1
60
0
100
AcDbLine
10
10.8
20
2.260742
30
0
11
15.347709
21
0.795172
31
0
39
0
210
0
220
0
230
1
0
LINE
5
8A
100
AcDbEntity
8
1
62
256
6
ByLayer
370
18
48
1
60
0
100
AcDbLine
10
2.243478
20
5.018215
30
0
11
1.71858
21
5.018215
31
0
39
0
210
0
220
0
230
1
0
LINE
5
8B
100
AcDbEntity
8
1
62
256
6
ByLayer
370
18
48
1
60
0
100
AcDbLine
10
23.315611
20
-4.75
30
0
11
23.315611
21
-3.25
31
0
39
0
210
0
220
0
230
1
0
LINE
5
8C
100
AcDbEntity
8
1
62
256
6
ByLayer
370
18
48
1
60
0
100
AcDbLine
10
4.6
20
4.258789
30
0
11
10.8
21
2.260742
31
0
39
0
210
0
220
0
230
1
0
LINE
5
8D
100
AcDbEntity
8
1
62
256
6
ByLayer
370
18
48
1
60
0
100
AcDbLine
10
1.71858
20
-4.75
30
0
11
14.190738
21
-4.75
31
0
39
0
210
0
220
0
230
1
0
LINE
5
8E
100
AcDbEntity
8
1
62
256
6
ByLayer
370
18
48
1
60
0
100
AcDbLine
10
-0.1
20
-4.75
30
0
11
-0.1
21
5.000391
31
0
39
0
210
0
220
0
230
1
0
LINE
5
8F
100
AcDbEntity
8
1
62
256
6
ByLayer
370
18
48
1
60
0
100
AcDbLine
10
19.190738
20
-3.25
30
0
11
14.190738
21
-3.25
31
0
39
0
210
0
220
0
230
1
0
LINE
5
90
100
AcDbEntity
8
1
62
256
6
ByLayer
370
13
48
1
60
0
100
AcDbLine
10
14.190738
20
-3.25
30
0
11
14.190738
21
-4.75
31
0
39
0
210
0
220
0
230
1
0
LINE
5
91
100
AcDbEntity
8
1
62
256
6
ByLayer
370
13
48
1
60
0
100
AcDbLine
10
19.7735
20
-2.25
30
0
11
15.347709
21
-2.25
31
0
39
0
210
0
220
0
230
1
0
LINE
5
92
100
AcDbEntity
8
1
62
256
6
ByLayer
370
13
48
1
60
0
100
AcDbLine
10
10.8
20
-2.25
30
0
11
10.8
21
2.260742
31
0
39
0
210
0
220
0
230
1
0
LINE
5
93
100
AcDbEntity
8
1
62
256
6
ByLayer
370
13
48
1
60
0
100
AcDbLine
10
19.190738
20
-4.75
30
0
11
19.190738
21
-3.25
31
0
39
0
210
0
220
0
230
1
0
LINE
5
94
100
AcDbEntity
8
1
62
256
6
ByLayer
370
13
48
1
60
0
100
AcDbLine
10
4.6
20
-2.25
30
0
11
10.8
21
-2.25
31
0
39
0
210
0
220
0
230
1
0
LINE
5
95
100
AcDbEntity
8
1
62
256
6
ByLayer
370
18
48
1
60
0
100
AcDbLine
10
15.347709
20
0.795172
30
0
11
15.347709
21
-2.25
31
0
39
0
210
0
220
0
230
1
0
LINE
5
96
100
AcDbEntity
8
1
62
256
6
ByLayer
370
13
48
1
60
0
100
AcDbLine
10
23.315558
20
-3.802665
30
0
11
23.452289
21
-3.802665
31
0
39
0
210
0
220
0
230
1
0
LINE
5
97
100
AcDbEntity
8
1
62
256
6
ByLayer
370
13
48
1
60
0
100
AcDbLine
10
19.226482
20
-4.8
30
0
11
19.197265
21
-4.749996
31
0
39
0
210
0
220
0
230
1
0
LINE
5
98
100
AcDbEntity
8
1
62
256
6
ByLayer
370
13
48
1
60
0
100
AcDbLine
10
19.226482
20
-3.2
30
0
11
19.197265
21
-3.250004
31
0
39
0
210
0
220
0
230
1
0
LINE
5
99
100
AcDbEntity
8
1
62
256
6
ByLayer
370
13
48
1
60
0
100
AcDbLine
10
14.190738
20
-3.25
30
0
11
14.190738
21
-4.75
31
0
39
0
210
0
220
0
230
1
0
LINE
5
9A
100
AcDbEntity
8
1
62
256
6
ByLayer
370
13
48
1
60
0
100
AcDbLine
10
0.917758
20
-4.75
30
0
11
0.917758
21
5.005174
31
0
39
0
210
0
220
0
230
1
0
LINE
5
9B
100
AcDbEntity
8
1
62
256
6
ByLayer
370
13
48
1
60
0
100
AcDbLine
10
19.190738
20
-4.75
30
0
11
19.190738
21
-3.25
31
0
39
0
210
0
220
0
230
1
0
LINE
5
9C
100
AcDbEntity
8
1
62
256
6
ByLayer
370
13
48
1
60
0
100
AcDbLine
10
-0.627723
20
5
30
0
11
-0.627723
21
-4.776274
31
0
39
0
210
0
220
0
230
1
0
LINE
5
9D
100
AcDbEntity
8
1
62
256
6
ByLayer
370
13
48
1
60
0
100
AcDbLine
10
10.8
20
-2.25
30
0
11
10.8
21
2.260742
31
0
39
0
210
0
220
0
230
1
0
LINE
5
9E
100
AcDbEntity
8
1
62
256
6
ByLayer
370
13
48
1
60
0
100
AcDbLine
10
10.8
20
-3.25
30
0
11
10.8
21
-2.25
31
0
39
0
210
0
220
0
230
1
0
LINE
5
9F
100
AcDbEntity
8
1
62
256
6
ByLayer
370
13
48
1
60
0
100
AcDbLine
10
18.565685
20
-3.250008
30
0
11
18.565685
21
-3.2
31
0
39
0
210
0
220
0
230
1
0
LINE
5
A0
100
AcDbEntity
8
1
62
256
6
ByLayer
370
13
48
1
60
0
100
AcDbLine
10
19.7735
20
-2.25
30
0
11
15.347709
21
-2.25
31
0
39
0
210
0
220
0
230
1
0
LINE
5
A1
100
AcDbEntity
8
1
62
256
6
ByLayer
370
13
48
1
60
0
100
AcDbLine
10
4.6
20
-2.25
30
0
11
10.8
21
-2.25
31
0
39
0
210
0
220
0
230
1
0
LINE
5
A2
100
AcDbEntity
8
1
62
256
6
ByLayer
370
13
48
1
60
0
100
AcDbLine
10
15.347709
20
-2.25
30
0
11
10.8
21
-2.25
31
0
39
0
210
0
220
0
230
1
0
LINE
5
A3
100
AcDbEntity
8
1
62
256
6
ByLayer
370
13
48
1
60
0
100
AcDbLine
10
24.609679
20
-4.8
30
0
11
24.609679
21
-4.676062
31
0
39
0
210
0
220
0
230
1
0
LINE
5
A4
100
AcDbEntity
8
1
62
256
6
ByLayer
370
13
48
1
60
0
100
AcDbLine
10
24.968752
20
-4.695388
30
0
11
25.052761
21
-4.699524
31
0
39
0
210
0
220
0
230
1
0
LINE
5
A5
100
AcDbEntity
8
1
62
256
6
ByLayer
370
13
48
1
60
0
100
AcDbLine
10
25.065017
20
-4.874801
30
0
11
25.052761
21
-4.699524
31
0
39
0
210
0
220
0
230
1
0
LINE
5
A6
100
AcDbEntity
8
1
62
256
6
ByLayer
370
13
48
1
60
0
100
AcDbLine
10
25.065017
20
-3.125199
30
0
11
25.052761
21
-3.300476
31
0
39
0
210
0
220
0
230
1
0
LINE
5
A7
100
AcDbEntity
8
1
62
256
6
ByLayer
370
13
48
1
60
0
100
AcDbLine
10
25.052761
20
-3.300476
30
0
11
24.968752
21
-3.304612
31
0
39
0
210
0
220
0
230
1
0
LINE
5
A8
100
AcDbEntity
8
1
62
256
6
ByLayer
370
13
48
1
60
0
100
AcDbLine
10
24.609679
20
-3.323938
30
0
11
24.609679
21
-3.2
31
0
39
0
210
0
220
0
230
1
0
LINE
5
A9
100
AcDbEntity
8
1
62
256
6
ByLayer
370
13
48
1
60
0
100
AcDbLine
10
24.982448
20
-3.582767
30
0
11
24.968752
21
-3.304612
31
0
39
0
210
0
220
0
230
1
0
LINE
5
AA
100
AcDbEntity
8
1
62
256
6
ByLayer
370
13
48
1
60
0
100
AcDbLine
10
24.968752
20
-4.695388
30
0
11
24.982448
21
-4.417233
31
0
39
0
210
0
220
0
230
1
0
LINE
5
AB
100
AcDbEntity
8
1
62
256
6
ByLayer
370
13
48
1
60
0
100
AcDbLine
10
25.077886
20
-3.582767
30
0
11
24.982448
21
-3.582767
31
0
39
0
210
0
220
0
230
1
0
LINE
5
AC
100
AcDbEntity
8
1
62
256
6
ByLayer
370
13
48
1
60
0
100
AcDbLine
10
25.077886
20
-4.417233
30
0
11
24.982448
21
-4.417233
31
0
39
0
210
0
220
0
230
1
0
LINE
5
AD
100
AcDbEntity
8
1
62
256
6
ByLayer
370
13
48
1
60
0
100
AcDbLine
10
25.37312
20
-4.63848
30
0
11
25.37312
21
-4.882445
31
0
39
0
210
0
220
0
230
1
0
LINE
5
AE
100
AcDbEntity
8
1
62
256
6
ByLayer
370
13
48
1
60
0
100
AcDbLine
10
26.433781
20
-4.864039
30
0
11
26.433781
21
-4.92056
31
0
39
0
210
0
220
0
230
1
0
LINE
5
AF
100
AcDbEntity
8
1
62
256
6
ByLayer
370
13
48
1
60
0
100
AcDbLine
10
26.433781
20
-3.135961
30
0
11
26.433781
21
-3.07944
31
0
39
0
210
0
220
0
230
1
0
LINE
5
B0
100
AcDbEntity
8
1
62
256
6
ByLayer
370
13
48
1
60
0
100
AcDbLine
10
25.264634
20
-3.315291
30
0
11
25.052761
21
-3.300476
31
0
39
0
210
0
220
0
230
1
0
LINE
5
B1
100
AcDbEntity
8
1
62
256
6
ByLayer
370
13
48
1
60
0
100
AcDbLine
10
25.37312
20
-3.36152
30
0
11
25.37312
21
-3.117555
31
0
39
0
210
0
220
0
230
1
0
LINE
5
B2
100
AcDbEntity
8
1
62
256
6
ByLayer
370
13
48
1
60
0
100
AcDbLine
10
25.264634
20
-3.315291
30
0
11
25.278462
21
-3.117544
31
0
39
0
210
0
220
0
230
1
0
LINE
5
B3
100
AcDbEntity
8
1
62
256
6
ByLayer
370
13
48
1
60
0
100
AcDbLine
10
25.066456
20
-3.578631
30
0
11
25.052761
21
-3.300476
31
0
39
0
210
0
220
0
230
1
0
LINE
5
B4
100
AcDbEntity
8
1
62
256
6
ByLayer
370
13
48
1
60
0
100
AcDbLine
10
25.052761
20
-4.699524
30
0
11
25.264634
21
-4.684709
31
0
39
0
210
0
220
0
230
1
0
LINE
5
B5
100
AcDbEntity
8
1
62
256
6
ByLayer
370
13
48
1
60
0
100
AcDbLine
10
25.264634
20
-4.684709
30
0
11
25.278462
21
-4.882456
31
0
39
0
210
0
220
0
230
1
0
LINE
5
B6
100
AcDbEntity
8
1
62
256
6
ByLayer
370
13
48
1
60
0
100
AcDbLine
10
25.052761
20
-4.699524
30
0
11
25.066456
21
-4.421369
31
0
39
0
210
0
220
0
230
1
0
LINE
5
B7
100
AcDbEntity
8
1
62
256
6
ByLayer
370
13
48
1
60
0
100
AcDbLine
10
24.609679
20
-3.323938
30
0
11
24.558376
21
-3.323938
31
0
39
0
210
0
220
0
230
1
0
LINE
5
B8
100
AcDbEntity
8
1
62
256
6
ByLayer
370
13
48
1
60
0
100
AcDbLine
10
24.609679
20
-4.676062
30
0
11
24.558376
21
-4.676062
31
0
39
0
210
0
220
0
230
1
0
LINE
5
B9
100
AcDbEntity
8
1
62
256
6
ByLayer
370
13
48
1
60
0
100
AcDbLine
10
25.066456
20
-4.421369
30
0
11
24.982448
21
-4.417233
31
0
39
0
210
0
220
0
230
1
0
LINE
5
BA
100
AcDbEntity
8
1
62
256
6
ByLayer
370
13
48
1
60
0
100
AcDbLine
10
24.982448
20
-3.582767
30
0
11
25.066456
21
-3.578631
31
0
39
0
210
0
220
0
230
1
0
LINE
5
BB
100
AcDbEntity
8
1
62
256
6
ByLayer
370
13
48
1
60
0
100
AcDbLine
10
24.558376
20
-4.676062
30
0
11
24.558376
21
-4.8
31
0
39
0
210
0
220
0
230
1
0
LINE
5
BC
100
AcDbEntity
8
1
62
256
6
ByLayer
370
13
48
1
60
0
100
AcDbLine
10
24.558376
20
-3.2
30
0
11
24.558376
21
-3.323938
31
0
39
0
210
0
220
0
230
1
0
LINE
5
BD
100
AcDbEntity
8
1
62
256
6
ByLayer
370
13
48
1
60
0
100
AcDbLine
10
23.687198
20
-4.8
30
0
11
23.687198
21
-4.725438
31
0
39
0
210
0
220
0
230
1
0
LINE
5
BE
100
AcDbEntity
8
1
62
256
6
ByLayer
370
13
48
1
60
0
100
AcDbLine
10
25.264634
20
-4.684709
30
0
11
25.276063
21
-4.680572
31
0
39
0
210
0
220
0
230
1
0
LINE
5
BF
100
AcDbEntity
8
1
62
256
6
ByLayer
370
13
48
1
60
0
100
AcDbLine
10
23.687198
20
-3.274562
30
0
11
23.687198
21
-3.2
31
0
39
0
210
0
220
0
230
1
0
LINE
5
C0
100
AcDbEntity
8
1
62
256
6
ByLayer
370
13
48
1
60
0
100
AcDbLine
10
25.276063
20
-3.319428
30
0
11
25.264634
21
-3.315291
31
0
39
0
210
0
220
0
230
1
0
LINE
5
C1
100
AcDbEntity
8
1
62
256
6
ByLayer
370
13
48
1
60
0
100
AcDbLine
10
25.077886
20
-4.417233
30
0
11
25.066456
21
-4.421369
31
0
39
0
210
0
220
0
230
1
0
LINE
5
C2
100
AcDbEntity
8
1
62
256
6
ByLayer
370
13
48
1
60
0
100
AcDbLine
10
25.066456
20
-3.578631
30
0
11
25.077886
21
-3.582767
31
0
39
0
210
0
220
0
230
1
0
LINE
5
C3
100
AcDbEntity
8
1
62
256
6
ByLayer
370
13
48
1
60
0
100
AcDbLine
10
23.611215
20
-3.2
30
0
11
23.611215
21
-3.274562
31
0
39
0
210
0
220
0
230
1
0
LINE
5
C4
100
AcDbEntity
8
1
62
256
6
ByLayer
370
13
48
1
60
0
100
AcDbLine
10
26.128922
20
-3.706548
30
0
11
26.128922
21
-4
31
0
39
0
210
0
220
0
230
1
0
LINE
5
C5
100
AcDbEntity
8
1
62
256
6
ByLayer
370
13
48
1
60
0
100
AcDbLine
10
23.687198
20
-3.274562
30
0
11
23.611215
21
-3.274562
31
0
39
0
210
0
220
0
230
1
0
LINE
5
C6
100
AcDbEntity
8
1
62
256
6
ByLayer
370
13
48
1
60
0
100
AcDbLine
10
26.128922
20
-4.293452
30
0
11
26.128922
21
-4
31
0
39
0
210
0
220
0
230
1
0
LINE
5
C7
100
AcDbEntity
8
1
62
256
6
ByLayer
370
13
48
1
60
0
100
AcDbLine
10
23.687198
20
-4.725438
30
0
11
23.611215
21
-4.725438
31
0
39
0
210
0
220
0
230
1
0
LINE
5
C8
100
AcDbEntity
8
1
62
256
6
ByLayer
370
13
48
1
60
0
100
AcDbLine
10
23.611215
20
-4.725438
30
0
11
23.611215
21
-4.8
31
0
39
0
210
0
220
0
230
1
0
LINE
5
C9
100
AcDbEntity
8
1
62
256
6
ByLayer
370
13
48
1
60
0
100
AcDbLine
10
23.618332
20
-4.675984
30
0
11
23.332668
21
-4.675984
31
0
39
0
210
0
220
0
230
1
0
LINE
5
CA
100
AcDbEntity
8
1
62
256
6
ByLayer
370
13
48
1
60
0
100
AcDbLine
10
23.332668
20
-4.675984
30
0
11
23.369454
21
-4.367998
31
0
39
0
210
0
220
0
230
1
0
LINE
5
CB
100
AcDbEntity
8
1
62
256
6
ByLayer
370
13
48
1
60
0
100
AcDbLine
10
23.369454
20
-4.367998
30
0
11
23.750614
21
-4.367998
31
0
39
0
210
0
220
0
230
1
0
LINE
5
CC
100
AcDbEntity
8
1
62
256
6
ByLayer
370
13
48
1
60
0
100
AcDbLine
10
23.369454
20
-3.632002
30
0
11
23.750614
21
-3.632002
31
0
39
0
210
0
220
0
230
1
0
LINE
5
CD
100
AcDbEntity
8
1
62
256
6
ByLayer
370
13
48
1
60
0
100
AcDbLine
10
23.332668
20
-3.324016
30
0
11
23.369454
21
-3.632002
31
0
39
0
210
0
220
0
230
1
0
LINE
5
CE
100
AcDbEntity
8
1
62
256
6
ByLayer
370
13
48
1
60
0
100
AcDbLine
10
23.618332
20
-3.324016
30
0
11
23.332668
21
-3.324016
31
0
39
0
210
0
220
0
230
1
0
LINE
5
CF
100
AcDbEntity
8
1
62
256
6
ByLayer
370
13
48
1
60
0
100
AcDbLine
10
23.406367
20
-3.748976
30
0
11
23.848791
21
-3.748976
31
0
39
0
210
0
220
0
230
1
0
LINE
5
D0
100
AcDbEntity
8
1
62
256
6
ByLayer
370
13
48
1
60
0
100
AcDbLine
10
23.406367
20
-4.251024
30
0
11
23.848791
21
-4.251024
31
0
39
0
210
0
220
0
230
1
0
LINE
5
D1
100
AcDbEntity
8
1
62
256
6
ByLayer
370
13
48
1
60
0
100
AcDbLine
10
23.449075
20
-4.200756
30
0
11
23.973158
21
-4.200756
31
0
39
0
210
0
220
0
230
1
0
LINE
5
D2
100
AcDbEntity
8
1
62
256
6
ByLayer
370
13
48
1
60
0
100
AcDbLine
10
23.449075
20
-3.799244
30
0
11
23.973158
21
-3.799244
31
0
39
0
210
0
220
0
230
1
0
LINE
5
D3
100
AcDbEntity
8
1
62
256
6
ByLayer
370
13
48
1
60
0
100
AcDbLine
10
23.3298
20
-3.274562
30
0
11
23.611215
21
-3.274562
31
0
39
0
210
0
220
0
230
1
0
LINE
5
D4
100
AcDbEntity
8
1
62
256
6
ByLayer
370
13
48
1
60
0
100
AcDbLine
10
23.3298
20
-4.725438
30
0
11
23.611215
21
-4.725438
31
0
39
0
210
0
220
0
230
1
0
LINE
5
D5
100
AcDbEntity
8
1
62
256
6
ByLayer
370
13
48
1
60
0
100
AcDbLine
10
23.3298
20
-3.2
30
0
11
23.3298
21
-3.274562
31
0
39
0
210
0
220
0
230
1
0
LINE
5
D6
100
AcDbEntity
8
1
62
256
6
ByLayer
370
13
48
1
60
0
100
AcDbLine
10
23.3298
20
-4.8
30
0
11
23.3298
21
-4.725438
31
0
39
0
210
0
220
0
230
1
0
LINE
5
D7
100
AcDbEntity
8
1
62
256
6
ByLayer
370
13
48
1
60
0
100
AcDbLine
10
27.900117
20
-3.468879
30
0
11
27.825664
21
-3.468879
31
0
39
0
210
0
220
0
230
1
0
LINE
5
D8
100
AcDbEntity
8
1
62
256
6
ByLayer
370
13
48
1
60
0
100
AcDbLine
10
27.510516
20
-3.206546
30
0
11
27.510516
21
-3.007425
31
0
39
0
210
0
220
0
230
1
0
LINE
5
D9
100
AcDbEntity
8
1
62
256
6
ByLayer
370
13
48
1
60
0
100
AcDbLine
10
27.510516
20
-4.793454
30
0
11
27.510516
21
-4.992575
31
0
39
0
210
0
220
0
230
1
0
LINE
5
DA
100
AcDbEntity
8
1
62
256
6
ByLayer
370
13
48
1
60
0
100
AcDbLine
10
27.900117
20
-4.531121
30
0
11
27.825664
21
-4.531121
31
0
39
0
210
0
220
0
230
1
0
LINE
5
DB
100
AcDbEntity
8
1
62
256
6
ByLayer
370
13
48
1
60
0
100
AcDbLine
10
23.452289
20
-4.197335
30
0
11
23.981712
21
-4.197335
31
0
39
0
210
0
220
0
230
1
0
LINE
5
DC
100
AcDbEntity
8
1
62
256
6
ByLayer
370
13
48
1
60
0
100
AcDbLine
10
23.452289
20
-3.802665
30
0
11
23.981712
21
-3.802665
31
0
39
0
210
0
220
0
230
1
0
LINE
5
DD
100
AcDbEntity
8
1
62
256
6
ByLayer
370
13
48
1
60
0
100
AcDbLine
10
27.43976
20
-3.011885
30
0
11
27.43976
21
-3.156147
31
0
39
0
210
0
220
0
230
1
0
LINE
5
DE
100
AcDbEntity
8
1
62
256
6
ByLayer
370
13
48
1
60
0
100
AcDbLine
10
27.081077
20
-3.125184
30
0
11
27.081077
21
-3.03781
31
0
39
0
210
0
220
0
230
1
0
LINE
5
DF
100
AcDbEntity
8
1
62
256
6
ByLayer
370
13
48
1
60
0
100
AcDbLine
10
27.081077
20
-4.874816
30
0
11
27.081077
21
-4.96219
31
0
39
0
210
0
220
0
230
1
0
LINE
5
E0
100
AcDbEntity
8
1
62
256
6
ByLayer
370
13
48
1
60
0
100
AcDbLine
10
27.43976
20
-4.988115
30
0
11
27.43976
21
-4.843853
31
0
39
0
210
0
220
0
230
1
0
LINE
5
E1
100
AcDbEntity
8
1
62
256
6
ByLayer
370
13
48
1
60
0
100
AcDbLine
10
23.449075
20
-4.200756
30
0
11
23.452289
21
-4.197335
31
0
39
0
210
0
220
0
230
1
0
LINE
5
E2
100
AcDbEntity
8
1
62
256
6
ByLayer
370
13
48
1
60
0
100
AcDbLine
10
23.449075
20
-3.799244
30
0
11
23.452289
21
-3.802665
31
0
39
0
210
0
220
0
230
1
0
LINE
5
E3
100
AcDbEntity
8
1
62
256
6
ByLayer
370
13
48
1
60
0
100
AcDbLine
10
26.905243
20
-4.650666
30
0
11
26.893977
21
-4.353333
31
0
39
0
210
0
220
0
230
1
0
LINE
5
E4
100
AcDbEntity
8
1
62
256
6
ByLayer
370
13
48
1
60
0
100
AcDbLine
10
26.733781
20
-3.133238
30
0
11
26.733781
21
-3.061012
31
0
39
0
210
0
220
0
230
1
0
LINE
5
E5
100
AcDbEntity
8
1
62
256
6
ByLayer
370
13
48
1
60
0
100
AcDbLine
10
26.733781
20
-4.866762
30
0
11
26.733781
21
-4.938988
31
0
39
0
210
0
220
0
230
1
0
LINE
5
E6
100
AcDbEntity
8
1
62
256
6
ByLayer
370
13
48
1
60
0
100
AcDbLine
10
26.905243
20
-3.349334
30
0
11
26.893977
21
-3.646667
31
0
39
0
210
0
220
0
230
1
0
LINE
5
E7
100
AcDbEntity
8
1
62
256
6
ByLayer
370
13
48
1
60
0
100
AcDbLine
10
27.844165
20
-3.65526
30
0
11
27.897026
21
-3.65526
31
0
39
0
210
0
220
0
230
1
0
LINE
5
E8
100
AcDbEntity
8
1
62
256
6
ByLayer
370
13
48
1
60
0
100
AcDbLine
10
26.393977
20
-3.650303
30
0
11
26.33288
21
-3.344785
31
0
39
0
210
0
220
0
230
1
0
LINE
5
E9
100
AcDbEntity
8
1
62
256
6
ByLayer
370
13
48
1
60
0
100
AcDbLine
10
27.844165
20
-4.34474
30
0
11
27.897026
21
-4.34474
31
0
39
0
210
0
220
0
230
1
0
LINE
5
EA
100
AcDbEntity
8
1
62
256
6
ByLayer
370
13
48
1
60
0
100
AcDbLine
10
26.393977
20
-4.349697
30
0
11
26.33288
21
-4.655215
31
0
39
0
210
0
220
0
230
1
0
LINE
5
EB
100
AcDbEntity
8
1
62
256
6
ByLayer
370
13
48
1
60
0
100
AcDbLine
10
27.848038
20
-3.496575
30
0
11
27.9
21
-3.496575
31
0
39
0
210
0
220
0
230
1
0
LINE
5
EC
100
AcDbEntity
8
1
62
256
6
ByLayer
370
13
48
1
60
0
100
AcDbLine
10
27.848038
20
-4.503425
30
0
11
27.9
21
-4.503425
31
0
39
0
210
0
220
0
230
1
0
LINE
5
ED
100
AcDbEntity
8
1
62
256
6
ByLayer
370
13
48
1
60
0
100
AcDbLine
10
27.897026
20
-4.34474
30
0
11
27.897026
21
-3.65526
31
0
39
0
210
0
220
0
230
1
0
LINE
5
EE
100
AcDbEntity
8
1
62
256
6
ByLayer
370
13
48
1
60
0
100
AcDbLine
10
23.332668
20
-3.324016
30
0
11
23.31556
21
-3.324016
31
0
39
0
210
0
220
0
230
1
0
LINE
5
EF
100
AcDbEntity
8
1
62
256
6
ByLayer
370
13
48
1
60
0
100
AcDbLine
10
27.844165
20
-3.65526
30
0
11
27.844165
21
-4.34474
31
0
39
0
210
0
220
0
230
1
0
LINE
5
F0
100
AcDbEntity
8
1
62
256
6
ByLayer
370
13
48
1
60
0
100
AcDbLine
10
26.893977
20
-3.646667
30
0
11
26.893977
21
-4.353333
31
0
39
0
210
0
220
0
230
1
0
LINE
5
F1
100
AcDbEntity
8
1
62
256
6
ByLayer
370
13
48
1
60
0
100
AcDbLine
10
23.315562
20
-4.725438
30
0
11
23.3298
21
-4.725438
31
0
39
0
210
0
220
0
230
1
0
LINE
5
F2
100
AcDbEntity
8
1
62
256
6
ByLayer
370
13
48
1
60
0
100
AcDbLine
10
23.315562
20
-3.274562
30
0
11
23.3298
21
-3.274562
31
0
39
0
210
0
220
0
230
1
0
LINE
5
F3
100
AcDbEntity
8
1
62
256
6
ByLayer
370
13
48
1
60
0
100
AcDbLine
10
27.504082
20
-3.647871
30
0
11
27.504082
21
-4.352129
31
0
39
0
210
0
220
0
230
1
0
LINE
5
F4
100
AcDbEntity
8
1
62
256
6
ByLayer
370
13
48
1
60
0
100
AcDbLine
10
19.632227
20
-4.75
30
0
11
19.632227
21
-4.8
31
0
39
0
210
0
220
0
230
1
0
LINE
5
F5
100
AcDbEntity
8
1
62
256
6
ByLayer
370
13
48
1
60
0
100
AcDbLine
10
23.332668
20
-4.675984
30
0
11
23.31556
21
-4.675984
31
0
39
0
210
0
220
0
230
1
0
LINE
5
F6
100
AcDbEntity
8
1
62
256
6
ByLayer
370
13
48
1
60
0
100
AcDbLine
10
19.632227
20
-3.25
30
0
11
19.632227
21
-3.2
31
0
39
0
210
0
220
0
230
1
0
LINE
5
F7
100
AcDbEntity
8
1
62
256
6
ByLayer
370
13
48
1
60
0
100
AcDbLine
10
23.315577
20
-4.367998
30
0
11
23.369454
21
-4.367998
31
0
39
0
210
0
220
0
230
1
0
LINE
5
F8
100
AcDbEntity
8
1
62
256
6
ByLayer
370
13
48
1
60
0
100
AcDbLine
10
26.393977
20
-3.650303
30
0
11
26.393977
21
-4
31
0
39
0
210
0
220
0
230
1
0
LINE
5
F9
100
AcDbEntity
8
1
62
256
6
ByLayer
370
13
48
1
60
0
100
AcDbLine
10
23.315577
20
-3.632002
30
0
11
23.369454
21
-3.632002
31
0
39
0
210
0
220
0
230
1
0
LINE
5
FA
100
AcDbEntity
8
1
62
256
6
ByLayer
370
13
48
1
60
0
100
AcDbLine
10
23.315557
20
-3.748976
30
0
11
23.406367
21
-3.748976
31
0
39
0
210
0
220
0
230
1
0
LINE
5
FB
100
AcDbEntity
8
1
62
256
6
ByLayer
370
13
48
1
60
0
100
AcDbLine
10
26.393977
20
-4.349697
30
0
11
26.393977
21
-4
31
0
39
0
210
0
220
0
230
1
0
LINE
5
FC
100
AcDbEntity
8
1
62
256
6
ByLayer
370
13
48
1
60
0
100
AcDbLine
10
23.315557
20
-4.251024
30
0
11
23.406367
21
-4.251024
31
0
39
0
210
0
220
0
230
1
0
LINE
5
FD
100
AcDbEntity
8
1
62
256
6
ByLayer
370
13
48
1
60
0
100
AcDbLine
10
23.315556
20
-3.799244
30
0
11
23.449075
21
-3.799244
31
0
39
0
210
0
220
0
230
1
0
LINE
5
FE
100
AcDbEntity
8
1
62
256
6
ByLayer
370
13
48
1
60
0
100
AcDbLine
10
23.315556
20
-4.200756
30
0
11
23.449075
21
-4.200756
31
0
39
0
210
0
220
0
230
1
0
LINE
5
FF
100
AcDbEntity
8
1
62
256
6
ByLayer
370
13
48
1
60
0
100
AcDbLine
10
23.315558
20
-4.197335
30
0
11
23.452289
21
-4.197335
31
0
39
0
210
0
220
0
230
1
0
LINE
5
100
100
AcDbEntity
8
1
62
256
6
ByLayer
370
13
48
1
60
0
100
AcDbLine
10
18.565685
20
-4.749992
30
0
11
18.565685
21
-4.8
31
0
39
0
210
0
220
0
230
1
0
LINE
5
101
100
AcDbEntity
8
1
62
256
6
ByLayer
370
18
48
1
60
0
100
AcDbLine
10
19.190738
20
-3.25
30
0
11
14.190738
21
-3.25
31
0
39
0
210
0
220
0
230
1
0
LINE
5
102
100
AcDbEntity
8
1
62
256
6
ByLayer
370
18
48
1
60
0
100
AcDbLine
10
19.190738
20
-4.75
30
0
11
14.190738
21
-4.75
31
0
39
0
210
0
220
0
230
1
0
LINE
5
103
100
AcDbEntity
8
1
62
256
6
ByLayer
370
18
48
1
60
0
100
AcDbLine
10
23.315611
20
-3.25
30
0
11
19.190738
21
-3.25
31
0
39
0
210
0
220
0
230
1
0
LINE
5
104
100
AcDbEntity
8
1
62
256
6
ByLayer
370
18
48
1
60
0
100
AcDbLine
10
23.315611
20
-4.75
30
0
11
19.190738
21
-4.75
31
0
39
0
210
0
220
0
230
1
0
LINE
5
105
100
AcDbEntity
8
1
62
256
6
ByLayer
370
18
48
1
60
0
100
AcDbLine
10
14.190738
20
-3.25
30
0
11
5.6
21
-3.25
31
0
39
0
210
0
220
0
230
1
0
LINE
5
106
100
AcDbEntity
8
1
62
256
6
ByLayer
370
18
48
1
60
0
100
AcDbLine
10
4.6
20
4.258789
30
0
11
4.6
21
-2.25
31
0
39
0
210
0
220
0
230
1
0
LINE
5
107
100
AcDbEntity
8
1
62
256
6
ByLayer
370
18
48
1
60
0
100
AcDbLine
10
15.347709
20
0.795172
30
0
11
15.347709
21
-2.25
31
0
39
0
210
0
220
0
230
1
0
LINE
5
108
100
AcDbEntity
8
1
62
256
6
ByLayer
370
18
48
1
60
0
100
AcDbLine
10
23.315611
20
-4.75
30
0
11
23.315611
21
-3.25
31
0
39
0
210
0
220
0
230
1
0
LINE
5
109
100
AcDbEntity
8
1
62
256
6
ByLayer
370
18
48
1
60
0
100
AcDbLine
10
1.71858
20
-4.75
30
0
11
14.190738
21
-4.75
31
0
39
0
210
0
220
0
230
1
0
LINE
5
10A
100
AcDbEntity
8
1
62
256
6
ByLayer
370
18
48
1
60
0
100
AcDbLine
10
1.71858
20
-4.75
30
0
11
0.917758
21
-4.75
31
0
39
0
210
0
220
0
230
1
0
LINE
5
10B
100
AcDbEntity
8
1
62
256
6
ByLayer
370
18
48
1
60
0
100
AcDbLine
10
-97.1
20
-4.9
30
0
11
-97.1
21
5
31
0
39
0
210
0
220
0
230
1
0
LINE
5
10C
100
AcDbEntity
8
1
62
256
6
ByLayer
370
18
48
1
60
0
100
AcDbLine
10
1.71858
20
-4.75
30
0
11
1.71858
21
5.018215
31
0
39
0
210
0
220
0
230
1
0
LINE
5
10D
100
AcDbEntity
8
1
62
256
6
ByLayer
370
18
48
1
60
0
100
AcDbLine
10
0.917758
20
-4.75
30
0
11
-0.4
21
-4.75
31
0
39
0
210
0
220
0
230
1
0
LINE
5
10E
100
AcDbEntity
8
1
62
256
6
ByLayer
370
18
48
1
60
0
100
AcDbLine
10
-97.1
20
5
30
0
11
-0.627723
21
5
31
0
39
0
210
0
220
0
230
1
0
LINE
5
10F
100
AcDbEntity
8
1
62
256
6
ByLayer
370
18
48
1
60
0
100
AcDbLine
10
2.243478
20
5.018215
30
0
11
1.71858
21
5.018215
31
0
39
0
210
0
220
0
230
1
0
LINE
5
110
100
AcDbEntity
8
1
62
256
6
ByLayer
370
18
48
1
60
0
100
AcDbLine
10
0.917758
20
5.005174
30
0
11
1.71858
21
5.018215
31
0
39
0
210
0
220
0
230
1
0
LINE
5
111
100
AcDbEntity
8
1
62
256
6
ByLayer
370
18
48
1
60
0
100
AcDbLine
10
-97.1
20
-4.9
30
0
11
-0.926783
21
-4.9
31
0
39
0
210
0
220
0
230
1
0
LINE
5
112
100
AcDbEntity
8
1
62
256
6
ByLayer
370
18
48
1
60
0
100
AcDbLine
10
19.7735
20
-2.25
30
0
11
19.7735
21
-0.631108
31
0
39
0
210
0
220
0
230
1
0
LINE
5
113
100
AcDbEntity
8
1
62
256
6
ByLayer
370
18
48
1
60
0
100
AcDbLine
10
10.8
20
2.260742
30
0
11
15.347709
21
0.795172
31
0
39
0
210
0
220
0
230
1
0
LINE
5
114
100
AcDbEntity
8
1
62
256
6
ByLayer
370
18
48
1
60
0
100
AcDbLine
10
4.6
20
4.258789
30
0
11
10.8
21
2.260742
31
0
39
0
210
0
220
0
230
1
0
LINE
5
115
100
AcDbEntity
8
1
62
256
6
ByLayer
370
18
48
1
60
0
100
AcDbLine
10
15.347709
20
0.795172
30
0
11
19.7735
21
-0.631108
31
0
39
0
210
0
220
0
230
1
0
LINE
5
116
100
AcDbEntity
8
1
62
256
6
ByLayer
370
18
48
1
60
0
100
AcDbLine
10
4.6
20
4.258789
30
0
11
2.243478
21
5.018215
31
0
39
0
210
0
220
0
230
1
0
LINE
5
117
100
AcDbEntity
8
1
62
256
6
ByLayer
370
18
48
1
60
0
100
AcDbLine
10
24.848426
20
-3.159459
30
0
11
24.825177
21
-3.172882
31
0
39
0
210
0
220
0
230
1
0
LINE
5
118
100
AcDbEntity
8
1
62
256
6
ByLayer
370
18
48
1
60
0
100
AcDbLine
10
24.609679
20
-3.2
30
0
11
24.72387
21
-3.2
31
0
39
0
210
0
220
0
230
1
0
LINE
5
119
100
AcDbEntity
8
1
62
256
6
ByLayer
370
18
48
1
60
0
100
AcDbLine
10
19.226482
20
-4.8
30
0
11
19.396254
21
-4.8
31
0
39
0
210
0
220
0
230
1
0
LINE
5
11A
100
AcDbEntity
8
1
62
256
6
ByLayer
370
18
48
1
60
0
100
AcDbLine
10
27.642758
20
-3.000301
30
0
11
27.510516
21
-3.007425
31
0
39
0
210
0
220
0
230
1
0
LINE
5
11B
100
AcDbEntity
8
1
62
256
6
ByLayer
370
18
48
1
60
0
100
AcDbLine
10
24.609679
20
-3.2
30
0
11
24.558376
21
-3.2
31
0
39
0
210
0
220
0
230
1
0
LINE
5
11C
100
AcDbEntity
8
1
62
256
6
ByLayer
370
18
48
1
60
0
100
AcDbLine
10
26.433781
20
-4.92056
30
0
11
26.733781
21
-4.938988
31
0
39
0
210
0
220
0
230
1
0
LINE
5
11D
100
AcDbEntity
8
1
62
256
6
ByLayer
370
18
48
1
60
0
100
AcDbLine
10
27.900117
20
-3.468879
30
0
11
27.901941
21
-3.25324
31
0
39
0
210
0
220
0
230
1
0
LINE
5
11E
100
AcDbEntity
8
1
62
256
6
ByLayer
370
18
48
1
60
0
100
AcDbLine
10
18.15
20
-4.8
30
0
11
18.565685
21
-4.8
31
0
39
0
210
0
220
0
230
1
0
LINE
5
11F
100
AcDbEntity
8
1
62
256
6
ByLayer
370
18
48
1
60
0
100
AcDbLine
10
18.565685
20
-4.8
30
0
11
19.226482
21
-4.8
31
0
39
0
210
0
220
0
230
1
0
LINE
5
120
100
AcDbEntity
8
1
62
256
6
ByLayer
370
18
48
1
60
0
100
AcDbLine
10
24.936053
20
-4.866914
30
0
11
25.065017
21
-4.874801
31
0
39
0
210
0
220
0
230
1
0
LINE
5
121
100
AcDbEntity
8
1
62
256
6
ByLayer
370
18
48
1
60
0
100
AcDbLine
10
27.081077
20
-4.96219
30
0
11
27.43976
21
-4.988115
31
0
39
0
210
0
220
0
230
1
0
LINE
5
122
100
AcDbEntity
8
1
62
256
6
ByLayer
370
18
48
1
60
0
100
AcDbLine
10
23.611215
20
-3.2
30
0
11
23.3298
21
-3.2
31
0
39
0
210
0
220
0
230
1
0
LINE
5
123
100
AcDbEntity
8
1
62
256
6
ByLayer
370
18
48
1
60
0
100
AcDbLine
10
24.558376
20
-4.8
30
0
11
23.687198
21
-4.8
31
0
39
0
210
0
220
0
230
1
0
LINE
5
124
100
AcDbEntity
8
1
62
256
6
ByLayer
370
18
48
1
60
0
100
AcDbLine
10
27.43976
20
-3.011885
30
0
11
27.081077
21
-3.03781
31
0
39
0
210
0
220
0
230
1
0
LINE
5
125
100
AcDbEntity
8
1
62
256
6
ByLayer
370
18
48
1
60
0
100
AcDbLine
10
27.510516
20
-4.992575
30
0
11
27.642758
21
-4.999699
31
0
39
0
210
0
220
0
230
1
0
LINE
5
126
100
AcDbEntity
8
1
62
256
6
ByLayer
370
18
48
1
60
0
100
AcDbLine
10
23.3298
20
-4.8
30
0
11
23.611215
21
-4.8
31
0
39
0
210
0
220
0
230
1
0
LINE
5
127
100
AcDbEntity
8
1
62
256
6
ByLayer
370
18
48
1
60
0
100
AcDbLine
10
26.733781
20
-3.061012
30
0
11
26.433781
21
-3.07944
31
0
39
0
210
0
220
0
230
1
0
LINE
5
128
100
AcDbEntity
8
1
62
256
6
ByLayer
370
18
48
1
60
0
100
AcDbLine
10
23.687198
20
-3.2
30
0
11
23.611215
21
-3.2
31
0
39
0
210
0
220
0
230
1
0
LINE
5
129
100
AcDbEntity
8
1
62
256
6
ByLayer
370
18
48
1
60
0
100
AcDbLine
10
24.72387
20
-4.8
30
0
11
24.609679
21
-4.8
31
0
39
0
210
0
220
0
230
1
0
LINE
5
12A
100
AcDbEntity
8
1
62
256
6
ByLayer
370
18
48
1
60
0
100
AcDbLine
10
19.226482
20
-3.2
30
0
11
18.565685
21
-3.2
31
0
39
0
210
0
220
0
230
1
0
LINE
5
12B
100
AcDbEntity
8
1
62
256
6
ByLayer
370
18
48
1
60
0
100
AcDbLine
10
24.558376
20
-4.8
30
0
11
24.609679
21
-4.8
31
0
39
0
210
0
220
0
230
1
0
LINE
5
12C
100
AcDbEntity
8
1
62
256
6
ByLayer
370
18
48
1
60
0
100
AcDbLine
10
25.278462
20
-4.882456
30
0
11
25.37312
21
-4.882445
31
0
39
0
210
0
220
0
230
1
0
LINE
5
12D
100
AcDbEntity
8
1
62
256
6
ByLayer
370
18
48
1
60
0
100
AcDbLine
10
19.632227
20
-3.2
30
0
11
19.446632
21
-3.2
31
0
39
0
210
0
220
0
230
1
0
LINE
5
12E
100
AcDbEntity
8
1
62
256
6
ByLayer
370
18
48
1
60
0
100
AcDbLine
10
23.687198
20
-3.2
30
0
11
24.558376
21
-3.2
31
0
39
0
210
0
220
0
230
1
0
LINE
5
12F
100
AcDbEntity
8
1
62
256
6
ByLayer
370
18
48
1
60
0
100
AcDbLine
10
18.565685
20
-3.2
30
0
11
18.15
21
-3.2
31
0
39
0
210
0
220
0
230
1
0
LINE
5
130
100
AcDbEntity
8
1
62
256
6
ByLayer
370
18
48
1
60
0
100
AcDbLine
10
24.825177
20
-4.827118
30
0
11
24.848426
21
-4.840541
31
0
39
0
210
0
220
0
230
1
0
LINE
5
131
100
AcDbEntity
8
1
62
256
6
ByLayer
370
18
48
1
60
0
100
AcDbLine
10
25.37312
20
-3.117555
30
0
11
25.278462
21
-3.117544
31
0
39
0
210
0
220
0
230
1
0
LINE
5
132
100
AcDbEntity
8
1
62
256
6
ByLayer
370
18
48
1
60
0
100
AcDbLine
10
19.396254
20
-3.2
30
0
11
19.226482
21
-3.2
31
0
39
0
210
0
220
0
230
1
0
LINE
5
133
100
AcDbEntity
8
1
62
256
6
ByLayer
370
18
48
1
60
0
100
AcDbLine
10
27.901941
20
-4.74676
30
0
11
27.900117
21
-4.531121
31
0
39
0
210
0
220
0
230
1
0
LINE
5
134
100
AcDbEntity
8
1
62
256
6
ByLayer
370
18
48
1
60
0
100
AcDbLine
10
23.611215
20
-4.8
30
0
11
23.687198
21
-4.8
31
0
39
0
210
0
220
0
230
1
0
LINE
5
135
100
AcDbEntity
8
1
62
256
6
ByLayer
370
18
48
1
60
0
100
AcDbLine
10
23.3298
20
-3.2
30
0
11
19.632227
21
-3.2
31
0
39
0
210
0
220
0
230
1
0
LINE
5
136
100
AcDbEntity
8
1
62
256
6
ByLayer
370
18
48
1
60
0
100
AcDbLine
10
19.632227
20
-4.8
30
0
11
23.3298
21
-4.8
31
0
39
0
210
0
220
0
230
1
0
LINE
5
137
100
AcDbEntity
8
1
62
256
6
ByLayer
370
18
48
1
60
0
100
AcDbLine
10
25.065017
20
-3.125199
30
0
11
24.936053
21
-3.133086
31
0
39
0
210
0
220
0
230
1
0
LINE
5
138
100
AcDbEntity
8
1
62
256
6
ByLayer
370
18
48
1
60
0
100
AcDbLine
10
27.9
20
-4.503425
30
0
11
27.9
21
-3.496575
31
0
39
0
210
0
220
0
230
1
0
LINE
5
139
100
AcDbEntity
8
1
62
256
6
ByLayer
370
18
48
1
60
0
100
AcDbLine
10
19.446632
20
-4.8
30
0
11
19.632227
21
-4.8
31
0
39
0
210
0
220
0
230
1
0
LINE
5
13A
100
AcDbEntity
8
SK2
62
256
6
ByLayer
370
13
48
1
60
0
100
AcDbLine
10
-106.7
20
-13.75
30
0
11
-106.7
21
13.75
31
0
39
0
210
0
220
0
230
1
0
LINE
5
13C
100
AcDbEntity
8
SK2
62
256
6
ByLayer
370
13
48
1
60
0
100
AcDbLine
10
-99.1
20
5
30
0
11
-108.7
21
5
31
0
39
0
210
0
220
0
230
1
0
LINE
5
13D
100
AcDbEntity
8
SK2
62
256
6
ByLayer
370
13
48
1
60
0
100
AcDbLine
10
-99.1
20
-5
30
0
11
-108.7
21
-5
31
0
39
0
210
0
220
0
230
1
0
LINE
5
13E
100
AcDbEntity
8
SK2
62
256
6
ByLayer
370
18
48
1
60
0
100
AcDbLine
10
-106.7
20
5
30
0
11
-107.117997
21
8.174998
31
0
39
0
210
0
220
0
230
1
0
LINE
5
13F
100
AcDbEntity
8
SK2
62
256
6
ByLayer
370
18
48
1
60
0
100
AcDbLine
10
-106.7
20
5
30
0
11
-106.282003
21
8.175002
31
0
39
0
210
0
220
0
230
1
0
LINE
5
140
100
AcDbEntity
8
SK2
62
256
6
ByLayer
370
18
48
1
60
0
100
AcDbLine
10
-107.117997
20
8.174998
30
0
11
-106.282003
21
8.175002
31
0
39
0
210
0
220
0
230
1
0
LINE
5
141
100
AcDbEntity
8
SK2
62
256
6
ByLayer
370
18
48
1
60
0
100
AcDbLine
10
-106.7
20
-5
30
0
11
-106.282003
21
-8.174998
31
0
39
0
210
0
220
0
230
1
0
LINE
5
142
100
AcDbEntity
8
SK2
62
256
6
ByLayer
370
18
48
1
60
0
100
AcDbLine
10
-106.7
20
-5
30
0
11
-107.117997
21
-8.175002
31
0
39
0
210
0
220
0
230
1
0
LINE
5
143
100
AcDbEntity
8
SK2
62
256
6
ByLayer
370
18
48
1
60
0
100
AcDbLine
10
-106.282003
20
-8.174998
30
0
11
-107.117997
21
-8.175002
31
0
39
0
210
0
220
0
230
1
0
MTEXT
5
235
100
AcDbEntity
8
SK6
62
256
6
ByLayer
370
18
48
1
60
0
100
AcDbMText
10
-66.225
20
-50.865917
30
0
210
0
220
0
230
1
1
\W0.7216;QD-LFE13-1010S
40
3.5
41
0
44
1.084337
50
0
71
7
72
5
7
iso_b_vert
0
MTEXT
5
239
100
AcDbEntity
8
SK2
62
256
6
ByLayer
370
18
48
1
60
0
100
AcDbMText
10
-107.575
20
-0.732237
30
0
210
0
220
0
230
1
1
\W0.5321;10
40
3.5
41
0
44
1.084337
50
89.9999999999999
71
7
72
5
7
iso_b_vert
0
DIMENSION
5
248
100
AcDbEntity
8
2
62
256
6
ByLayer
370
13
48
1
60
0
100
AcDbDimension
2
DimnDraft3D1
10
27.9
20
21.618215
30
0
11
9.842105
21
21.618215
31
0
70
32
71
5
72
1
41
1
210
0
220
0
230
1
3
Standard
100
AcDbAlignedDimension
13
0
23
7
33
0
14
27.9
24
-3
34
0
50
0
100
AcDbRotatedDimension
1001
ACAD
1000
DSTYLE
1002
{
1070
   279
1070
     0
1070
   172
1070
     1
1070
   173
1070
     1
1070
   340
1005
236
1070
   271
1070
     1
1070
    77
1070
     1
1070
    73
1070
     0
1070
   171
1070
     3
1070
   274
1070
     4
1070
   177
1070
     2
1070
   176
1070
     2
1070
   178
1070
     7
1070
    78
1070
     8
1070
    41
1041
3.175
1070
   147
1041
1.75
1070
    42
1041
2.0
1070
    44
1041
2.0
1070
   140
1041
3.5
1070
   343
1005
249
1070
   344
1005
249
1002
}
0
DIMENSION
5
25D
100
AcDbEntity
8
SK2
62
256
6
ByLayer
370
13
48
1
60
0
100
AcDbDimension
2
DimnDraft3D2
10
27.9
20
27.618215
30
0
11
-37.561184
21
27.618215
31
0
70
32
71
5
72
1
41
1
210
0
220
0
230
1
3
Standard
100
AcDbAlignedDimension
13
-97.1
23
7
33
0
14
27.9
24
-3
34
0
50
0
100
AcDbRotatedDimension
1001
ACAD
1000
DSTYLE
1002
{
1070
   279
1070
     0
1070
   172
1070
     1
1070
   173
1070
     1
1070
   340
1005
236
1070
   271
1070
     1
1070
    77
1070
     1
1070
    73
1070
     0
1070
   171
1070
     3
1070
   274
1070
     4
1070
   177
1070
     2
1070
   176
1070
     2
1070
   178
1070
     7
1070
    78
1070
     8
1070
    41
1041
3.175
1070
   147
1041
1.75
1070
    42
1041
2.0
1070
    44
1041
2.0
1070
   140
1041
3.5
1070
   343
1005
249
1070
   344
1005
249
1002
}
0
DIMENSION
5
26B
100
AcDbEntity
8
2
62
256
6
ByLayer
370
13
48
1
60
0
100
AcDbDimension
2
DimnDraft3D3
10
14.9
20
-18.100049
30
0
11
19.746711
21
-18.100049
31
0
70
32
71
5
72
1
41
1
210
0
220
0
230
1
3
Standard
100
AcDbAlignedDimension
13
27.9
23
-7
33
0
14
14.9
24
-7
34
0
50
0
100
AcDbRotatedDimension
1001
ACAD
1000
DSTYLE
1002
{
1070
   279
1070
     0
1070
   172
1070
     1
1070
   173
1070
     1
1070
   340
1005
236
1070
   271
1070
     1
1070
    77
1070
     1
1070
    73
1070
     0
1070
   171
1070
     3
1070
   274
1070
     4
1070
   177
1070
     2
1070
   176
1070
     2
1070
   178
1070
     7
1070
    78
1070
     8
1070
    41
1041
3.175
1070
   147
1041
1.75
1070
    42
1041
2.0
1070
    44
1041
2.0
1070
   140
1041
3.5
1070
   343
1005
249
1070
   344
1005
249
1002
}
0
DIMENSION
5
279
100
AcDbEntity
8
2
62
256
6
ByLayer
370
13
48
1
60
0
100
AcDbDimension
2
DimnDraft3D4
10
53
20
-5
30
0
11
53
21
-1.653289
31
0
70
32
71
5
72
1
41
1
210
0
220
0
230
1
3
Standard
100
AcDbAlignedDimension
13
2
23
5
33
0
14
29.9
24
-5
34
0
50
90
100
AcDbRotatedDimension
1001
ACAD
1000
DSTYLE
1002
{
1070
    74
1070
     0
1070
   279
1070
     0
1070
   172
1070
     1
1070
   173
1070
     1
1070
   340
1005
236
1070
   271
1070
     1
1070
    77
1070
     1
1070
    73
1070
     0
1070
   171
1070
     3
1070
   274
1070
     4
1070
   177
1070
     2
1070
   176
1070
     2
1070
   178
1070
     7
1070
    78
1070
     8
1070
    41
1041
3.175
1070
   147
1041
1.75
1070
    42
1041
2.0
1070
    44
1041
2.0
1070
   140
1041
3.5
1070
   343
1005
249
1070
   344
1005
249
1002
}
0
DIMENSION
5
287
100
AcDbEntity
8
2
62
256
6
ByLayer
370
13
48
1
60
0
100
AcDbDimension
2
DimnDraft3D5
10
46
20
-3
30
0
11
46
21
-16.820789
31
0
70
32
71
5
72
1
41
1
210
0
220
0
230
1
3
Standard
100
AcDbAlignedDimension
13
29.9
23
-5
33
0
14
29.9
24
-3
34
0
50
90
100
AcDbRotatedDimension
1001
ACAD
1000
DSTYLE
1002
{
1070
    74
1070
     0
1070
   279
1070
     0
1070
   172
1070
     1
1070
   173
1070
     1
1070
   340
1005
236
1070
   271
1070
     1
1070
    77
1070
     1
1070
    73
1070
     0
1070
   171
1070
     3
1070
   274
1070
     4
1070
   177
1070
     2
1070
   176
1070
     2
1070
   178
1070
     7
1070
    78
1070
     8
1070
    41
1041
3.175
1070
   147
1041
1.75
1070
    42
1041
2.0
1070
    44
1041
2.0
1070
   140
1041
3.5
1070
   343
1005
249
1070
   344
1005
249
1002
}
0
ENDSEC
0
SECTION
2
OBJECTS
0
DICTIONARY
5
2f1
330
0
100
AcDbDictionary
280
0
281
1
3
ACAD_GROUP
350
2f2
3
ACAD_MLINESTYLE
350
2f3
0
DICTIONARY
5
2f2
330
0
100
AcDbDictionary
280
0
281
1
0
DICTIONARY
5
2f3
330
0
100
AcDbDictionary
280
0
281
1
3
Standard
350
18
0
MLINESTYLE
5
18
330
2f3
100
AcDbMlineStyle
2
Standard
70
0
3

62
256
51
90
52
90
71
2
49
-0.5
62
256
6
ByLayer
49
0.5
62
256
6
ByLayer
0
RASTERVARIABLES
5
2e0
330

100
AcDbRasterVariables
90
0
70
1
71
1
72
1
0
ENDSEC
0
EOF
