0
SECTION
2
HEADER
9
$ACADVER
1
AC1015
9
$DWGCODEPAGE
3
ANSI_1252
9
$HANDSEED
5
228
9
$ANGBASE
50
0
9
$ANGDIR
70
0
9
$ATTMODE
70
1
9
$AUNITS
70
0
9
$AUPREC
70
0
9
$CECOLOR
62
256
9
$CELTSCALE
40
1
9
$CELTYPE
6
ByLayer
9
$CELWEIGHT
370
18
9
$CLAYER
8
0
9
$CMLJUST
70
0
9
$CMLSCALE
40
1
9
$CMLSTYLE
2
Standard
9
$DIMSTYLE
2
Standard
9
$TEXTSIZE
40
0.2
9
$TEXTSTYLE
7
Standard
9
$LUNITS
70
2
9
$LUPREC
70
4
9
$EXTNAMES
290
1
9
$INSUNITS
70
4
9
$LTSCALE
40
1
9
$LWDISPLAY
290
1
9
$PDMODE
70
0
9
$PDSIZE
40
0
9
$PLINEGEN
70
0
0
ENDSEC
0
SECTION
2
CLASSES
0
CLASS
1
RASTERVARIABLES
2
AcDbRasterVariables
3
ISM
90
0
280
0
281
0
0
ENDSEC
0
SECTION
2
TABLES
0
TABLE
2
VPORT
5
21e
100
AcDbSymbolTable
0
VPORT
5
1
100
AcDbSymbolTableRecord
100
AcDbViewportTableRecord
2
*Active
70
0
10
0
20
0
11
1
21
1
12
-1
22
1
13
0
23
0
14
0.5
24
0.5
15
10
25
10
16
0
26
0
36
1
17
0
27
0
37
0
0
ENDTAB
0
TABLE
2
LTYPE
5
21f
100
AcDbSymbolTable
0
LTYPE
5
14
100
AcDbSymbolTableRecord
100
AcDbLinetypeTableRecord
70
0
2
ByBlock
3

72
65
73
0
40
0
0
LTYPE
5
15
100
AcDbSymbolTableRecord
100
AcDbLinetypeTableRecord
70
0
2
ByLayer
3

72
65
73
0
40
0
0
LTYPE
5
16
100
AcDbSymbolTableRecord
100
AcDbLinetypeTableRecord
70
0
2
CONTINUOUS
3
Solid line
72
65
73
0
40
0
0
LTYPE
5
6A
100
AcDbSymbolTableRecord
100
AcDbLinetypeTableRecord
70
0
2
CENTER
3
____ _ ____ _ ____ _ ____
72
65
73
4
40
47.5
49
22
74
0
49
-8.5
74
0
49
8.5
74
0
49
-8.5
74
0
0
LTYPE
5
6B
100
AcDbSymbolTableRecord
100
AcDbLinetypeTableRecord
70
0
2
DASHED
3
__ __ __ __ __ __ __ __ __
72
65
73
2
40
25.72
49
12.86
74
0
49
-12.86
74
0
0
ENDTAB
0
TABLE
2
LAYER
5
220
100
AcDbSymbolTable
0
LAYER
5
10
100
AcDbSymbolTableRecord
100
AcDbLayerTableRecord
2
0
70
0
62
7
6
CONTINUOUS
290
1
370
-3
390
0
0
LAYER
5
6D
100
AcDbSymbolTableRecord
100
AcDbLayerTableRecord
2
80
70
0
62
-6
6
CONTINUOUS
290
1
370
-3
390
0
0
LAYER
5
6F
100
AcDbSymbolTableRecord
100
AcDbLayerTableRecord
2
81
70
0
62
-3
6
CONTINUOUS
290
1
370
-3
390
0
0
LAYER
5
7A
100
AcDbSymbolTableRecord
100
AcDbLayerTableRecord
2
1
70
0
62
4
6
CONTINUOUS
290
1
370
-3
390
0
0
LAYER
5
166
100
AcDbSymbolTableRecord
100
AcDbLayerTableRecord
2
2
70
0
62
7
6
CONTINUOUS
290
1
370
-3
390
0
0
LAYER
5
20b
100
AcDbSymbolTableRecord
100
AcDbLayerTableRecord
2
SK1
70
0
62
4
6
CONTINUOUS
290
1
370
-3
390
0
0
LAYER
5
20c
100
AcDbSymbolTableRecord
100
AcDbLayerTableRecord
2
SK2
70
0
62
7
6
CONTINUOUS
290
1
370
-3
390
0
0
LAYER
5
20d
100
AcDbSymbolTableRecord
100
AcDbLayerTableRecord
2
SK6
70
0
62
5
6
CONTINUOUS
290
1
370
-3
390
0
0
ENDTAB
0
TABLE
2
STYLE
5
221
100
AcDbSymbolTable
0
STYLE
5
11
100
AcDbSymbolTableRecord
100
AcDbTextStyleTableRecord
2
Standard
3
txt
70
0
71
0
40
0
41
1
42
0
50
0
0
STYLE
5
160
100
AcDbSymbolTableRecord
100
AcDbTextStyleTableRecord
2
iso_b_vert
3
simplex.shx
70
0
71
0
40
0
41
1
42
0
50
0
0
STYLE
5
161
100
AcDbSymbolTableRecord
100
AcDbTextStyleTableRecord
2
DWGDirectTextStyle
3
simplex
70
0
71
0
40
0
41
1
42
0
50
0
0
ENDTAB
0
TABLE
2
DIMSTYLE
5
222
100
AcDbSymbolTable
100
AcDbDimStyleTable
0
DIMSTYLE
105
27
100
AcDbSymbolTableRecord
100
AcDbDimStyleTableRecord
2
Standard
70
0
3
<>
41
0.18
42
0.0625
44
0.18
140
0.18
147
0.09
73
0
74
0
77
1
271
2
275
0
278
52
280
0
340
11
0
ENDTAB
0
TABLE
2
VIEW
5
223
100
AcDbSymbolTable
0
ENDTAB
0
TABLE
2
UCS
5
224
100
AcDbSymbolTable
0
ENDTAB
0
TABLE
2
APPID
5
225
100
AcDbSymbolTable
0
APPID
5
12
100
AcDbSymbolTableRecord
100
AcDbRegAppTableRecord
2
ACAD
70
0
0
ENDTAB
0
TABLE
2
BLOCK_RECORD
5
226
100
AcDbSymbolTable
0
BLOCK_RECORD
5
1F
100
AcDbSymbolTableRecord
100
AcDbBlockTableRecord
2
*Model_Space
340
0
70
0
0
BLOCK_RECORD
5
1B
100
AcDbSymbolTableRecord
100
AcDbBlockTableRecord
2
*Paper_Space
340
0
70
0
0
BLOCK_RECORD
5
23
100
AcDbSymbolTableRecord
100
AcDbBlockTableRecord
2
*Paper_Space0
340
0
70
0
0
BLOCK_RECORD
5
164
100
AcDbSymbolTableRecord
100
AcDbBlockTableRecord
2
DimnDraft3D1
340
0
70
0
0
BLOCK_RECORD
5
173
100
AcDbSymbolTableRecord
100
AcDbBlockTableRecord
2
_CLOSED
340
0
70
0
0
BLOCK_RECORD
5
17A
100
AcDbSymbolTableRecord
100
AcDbBlockTableRecord
2
DimnDraft3D2
340
0
70
0
0
BLOCK_RECORD
5
188
100
AcDbSymbolTableRecord
100
AcDbBlockTableRecord
2
DimnDraft3D3
340
0
70
0
0
BLOCK_RECORD
5
196
100
AcDbSymbolTableRecord
100
AcDbBlockTableRecord
2
DimnDraft3D4
340
0
70
0
0
BLOCK_RECORD
5
1A4
100
AcDbSymbolTableRecord
100
AcDbBlockTableRecord
2
DimnDraft3D5
340
0
70
0
0
ENDTAB
0
ENDSEC
0
SECTION
2
BLOCKS
0
BLOCK
5
20
100
AcDbEntity
8
0
100
AcDbBlockBegin
2
*Model_Space
70
0
10
0
20
0
30
0
3
*Model_Space
0
ENDBLK
5
21
100
AcDbEntity
8
0
100
AcDbBlockEnd
0
BLOCK
5
1C
100
AcDbEntity
8
0
100
AcDbBlockBegin
2
*Paper_Space
70
0
10
0
20
0
30
0
3
*Paper_Space
0
ENDBLK
5
1D
100
AcDbEntity
8
0
100
AcDbBlockEnd
0
BLOCK
5
24
100
AcDbEntity
8
0
100
AcDbBlockBegin
2
*Paper_Space0
70
0
10
0
20
0
30
0
3
*Paper_Space0
0
ENDBLK
5
25
100
AcDbEntity
8
0
100
AcDbBlockEnd
0
BLOCK
5
170
100
AcDbEntity
8
0
100
AcDbBlockBegin
2
DimnDraft3D1
70
0
10
0
20
0
30
0
3
DimnDraft3D1
0
MTEXT
5
165
100
AcDbEntity
8
2
62
256
6
ByLayer
370
18
48
1
60
0
100
AcDbMText
10
10.254605
20
25.482839
30
0
210
0
220
0
230
1
1
\W0.7208;26.1
40
3.5
41
0
44
1.084337
50
0
71
7
72
5
7
iso_b_vert
0
LINE
5
167
100
AcDbEntity
8
2
62
256
6
ByLayer
370
13
48
1
60
0
100
AcDbLine
10
0
20
10
30
0
11
0
21
26.607839
31
0
39
0
210
0
220
0
230
1
0
LINE
5
168
100
AcDbEntity
8
2
62
256
6
ByLayer
370
13
48
1
60
0
100
AcDbLine
10
26.1
20
-5.95
30
0
11
26.1
21
26.607839
31
0
39
0
210
0
220
0
230
1
0
LINE
5
169
100
AcDbEntity
8
2
62
256
6
ByLayer
370
13
48
1
60
0
100
AcDbLine
10
0
20
24.607839
30
0
11
26.1
21
24.607839
31
0
39
0
210
0
220
0
230
1
0
LINE
5
16A
100
AcDbEntity
8
2
62
256
6
ByLayer
370
13
48
1
60
0
100
AcDbLine
10
0
20
24.607839
30
0
11
3.174998
21
25.025836
31
0
39
0
210
0
220
0
230
1
0
LINE
5
16B
100
AcDbEntity
8
2
62
256
6
ByLayer
370
13
48
1
60
0
100
AcDbLine
10
0
20
24.607839
30
0
11
3.175002
21
24.189842
31
0
39
0
210
0
220
0
230
1
0
LINE
5
16C
100
AcDbEntity
8
2
62
256
6
ByLayer
370
13
48
1
60
0
100
AcDbLine
10
3.174998
20
25.025836
30
0
11
3.175002
21
24.189842
31
0
39
0
210
0
220
0
230
1
0
LINE
5
16D
100
AcDbEntity
8
2
62
256
6
ByLayer
370
13
48
1
60
0
100
AcDbLine
10
26.1
20
24.607839
30
0
11
22.925002
21
24.189842
31
0
39
0
210
0
220
0
230
1
0
LINE
5
16E
100
AcDbEntity
8
2
62
256
6
ByLayer
370
13
48
1
60
0
100
AcDbLine
10
26.1
20
24.607839
30
0
11
22.924998
21
25.025836
31
0
39
0
210
0
220
0
230
1
0
LINE
5
16F
100
AcDbEntity
8
2
62
256
6
ByLayer
370
13
48
1
60
0
100
AcDbLine
10
22.925002
20
24.189842
30
0
11
22.924998
21
25.025836
31
0
39
0
210
0
220
0
230
1
0
ENDBLK
5
171
100
AcDbEntity
8
0
100
AcDbBlockEnd
0
BLOCK
5
174
100
AcDbEntity
8
0
100
AcDbBlockBegin
2
_CLOSED
70
0
10
0
20
0
30
0
3
_CLOSED
0
LINE
5
176
100
AcDbEntity
8
0
62
256
6
ByLayer
370
-2
48
1
60
0
100
AcDbLine
10
-1
20
0.166667
30
0
11
0
21
0
31
0
39
0
210
0
220
0
230
1
0
LINE
5
177
100
AcDbEntity
8
0
62
256
6
ByLayer
370
-2
48
1
60
0
100
AcDbLine
10
0
20
0
30
0
11
-1
21
-0.166667
31
0
39
0
210
0
220
0
230
1
0
LINE
5
178
100
AcDbEntity
8
0
62
256
6
ByLayer
370
-2
48
1
60
0
100
AcDbLine
10
-1
20
0.166667
30
0
11
-1
21
-0.166667
31
0
39
0
210
0
220
0
230
1
0
LINE
5
179
100
AcDbEntity
8
0
62
256
6
ByLayer
370
-2
48
1
60
0
100
AcDbLine
10
0
20
0
30
0
11
-1
21
0
31
0
39
0
210
0
220
0
230
1
0
ENDBLK
5
175
100
AcDbEntity
8
0
100
AcDbBlockEnd
0
BLOCK
5
185
100
AcDbEntity
8
0
100
AcDbBlockBegin
2
DimnDraft3D2
70
0
10
0
20
0
30
0
3
DimnDraft3D2
0
MTEXT
5
17B
100
AcDbEntity
8
SK2
62
256
6
ByLayer
370
18
48
1
60
0
100
AcDbMText
10
-38.486184
20
31.482839
30
0
210
0
220
0
230
1
1
\W0.6217;125
40
3.5
41
0
44
1.084337
50
0
71
7
72
5
7
iso_b_vert
0
LINE
5
17C
100
AcDbEntity
8
SK2
62
256
6
ByLayer
370
13
48
1
60
0
100
AcDbLine
10
-98.9
20
10
30
0
11
-98.9
21
32.607839
31
0
39
0
210
0
220
0
230
1
0
LINE
5
17D
100
AcDbEntity
8
SK2
62
256
6
ByLayer
370
13
48
1
60
0
100
AcDbLine
10
26.1
20
-5.95
30
0
11
26.1
21
32.607839
31
0
39
0
210
0
220
0
230
1
0
LINE
5
17E
100
AcDbEntity
8
SK2
62
256
6
ByLayer
370
13
48
1
60
0
100
AcDbLine
10
-98.9
20
30.607839
30
0
11
26.1
21
30.607839
31
0
39
0
210
0
220
0
230
1
0
LINE
5
17F
100
AcDbEntity
8
SK2
62
256
6
ByLayer
370
13
48
1
60
0
100
AcDbLine
10
-98.9
20
30.607839
30
0
11
-95.725002
21
31.025836
31
0
39
0
210
0
220
0
230
1
0
LINE
5
180
100
AcDbEntity
8
SK2
62
256
6
ByLayer
370
13
48
1
60
0
100
AcDbLine
10
-98.9
20
30.607839
30
0
11
-95.724998
21
30.189842
31
0
39
0
210
0
220
0
230
1
0
LINE
5
181
100
AcDbEntity
8
SK2
62
256
6
ByLayer
370
13
48
1
60
0
100
AcDbLine
10
-95.725002
20
31.025836
30
0
11
-95.724998
21
30.189842
31
0
39
0
210
0
220
0
230
1
0
LINE
5
182
100
AcDbEntity
8
SK2
62
256
6
ByLayer
370
13
48
1
60
0
100
AcDbLine
10
26.1
20
30.607839
30
0
11
22.925002
21
30.189842
31
0
39
0
210
0
220
0
230
1
0
LINE
5
183
100
AcDbEntity
8
SK2
62
256
6
ByLayer
370
13
48
1
60
0
100
AcDbLine
10
26.1
20
30.607839
30
0
11
22.924998
21
31.025836
31
0
39
0
210
0
220
0
230
1
0
LINE
5
184
100
AcDbEntity
8
SK2
62
256
6
ByLayer
370
13
48
1
60
0
100
AcDbLine
10
22.925002
20
30.189842
30
0
11
22.924998
21
31.025836
31
0
39
0
210
0
220
0
230
1
0
ENDBLK
5
186
100
AcDbEntity
8
0
100
AcDbBlockEnd
0
BLOCK
5
193
100
AcDbEntity
8
0
100
AcDbBlockBegin
2
DimnDraft3D3
70
0
10
0
20
0
30
0
3
DimnDraft3D3
0
MTEXT
5
189
100
AcDbEntity
8
2
62
256
6
ByLayer
370
18
48
1
60
0
100
AcDbMText
10
20.321711
20
-20.182672
30
0
210
0
220
0
230
1
1
\W0.5321;10
40
3.5
41
0
44
1.084337
50
0
71
7
72
5
7
iso_b_vert
0
LINE
5
18A
100
AcDbEntity
8
2
62
256
6
ByLayer
370
13
48
1
60
0
100
AcDbLine
10
26.1
20
-9.95
30
0
11
26.1
21
-23.057672
31
0
39
0
210
0
220
0
230
1
0
LINE
5
18B
100
AcDbEntity
8
2
62
256
6
ByLayer
370
13
48
1
60
0
100
AcDbLine
10
16.1
20
-10
30
0
11
16.1
21
-23.057672
31
0
39
0
210
0
220
0
230
1
0
LINE
5
18C
100
AcDbEntity
8
2
62
256
6
ByLayer
370
13
48
1
60
0
100
AcDbLine
10
34.85
20
-21.057672
30
0
11
7.35
21
-21.057672
31
0
39
0
210
0
220
0
230
1
0
LINE
5
18D
100
AcDbEntity
8
2
62
256
6
ByLayer
370
13
48
1
60
0
100
AcDbLine
10
26.1
20
-21.057672
30
0
11
29.274998
21
-20.639675
31
0
39
0
210
0
220
0
230
1
0
LINE
5
18E
100
AcDbEntity
8
2
62
256
6
ByLayer
370
13
48
1
60
0
100
AcDbLine
10
26.1
20
-21.057672
30
0
11
29.275002
21
-21.475669
31
0
39
0
210
0
220
0
230
1
0
LINE
5
18F
100
AcDbEntity
8
2
62
256
6
ByLayer
370
13
48
1
60
0
100
AcDbLine
10
29.274998
20
-20.639675
30
0
11
29.275002
21
-21.475669
31
0
39
0
210
0
220
0
230
1
0
LINE
5
190
100
AcDbEntity
8
2
62
256
6
ByLayer
370
13
48
1
60
0
100
AcDbLine
10
16.1
20
-21.057672
30
0
11
12.925002
21
-21.475669
31
0
39
0
210
0
220
0
230
1
0
LINE
5
191
100
AcDbEntity
8
2
62
256
6
ByLayer
370
13
48
1
60
0
100
AcDbLine
10
16.1
20
-21.057672
30
0
11
12.924998
21
-20.639675
31
0
39
0
210
0
220
0
230
1
0
LINE
5
192
100
AcDbEntity
8
2
62
256
6
ByLayer
370
13
48
1
60
0
100
AcDbLine
10
12.925002
20
-21.475669
30
0
11
12.924998
21
-20.639675
31
0
39
0
210
0
220
0
230
1
0
ENDBLK
5
194
100
AcDbEntity
8
0
100
AcDbBlockEnd
0
BLOCK
5
1A1
100
AcDbEntity
8
0
100
AcDbBlockBegin
2
DimnDraft3D4
70
0
10
0
20
0
30
0
3
DimnDraft3D4
0
MTEXT
5
197
100
AcDbEntity
8
2
62
256
6
ByLayer
370
18
48
1
60
0
100
AcDbMText
10
50.325
20
-0.753289
30
0
210
0
220
0
230
1
1
\W0.5321;16
40
3.5
41
0
44
1.084337
50
90
71
7
72
5
7
iso_b_vert
0
LINE
5
198
100
AcDbEntity
8
2
62
256
6
ByLayer
370
13
48
1
60
0
100
AcDbLine
10
2
20
8
30
0
11
53.2
21
8
31
0
39
0
210
0
220
0
230
1
0
LINE
5
199
100
AcDbEntity
8
2
62
256
6
ByLayer
370
13
48
1
60
0
100
AcDbLine
10
28.1
20
-7.95
30
0
11
53.2
21
-7.95
31
0
39
0
210
0
220
0
230
1
0
LINE
5
19A
100
AcDbEntity
8
2
62
256
6
ByLayer
370
13
48
1
60
0
100
AcDbLine
10
51.2
20
8
30
0
11
51.2
21
-7.95
31
0
39
0
210
0
220
0
230
1
0
LINE
5
19B
100
AcDbEntity
8
2
62
256
6
ByLayer
370
13
48
1
60
0
100
AcDbLine
10
51.2
20
8
30
0
11
51.617997
21
4.825002
31
0
39
0
210
0
220
0
230
1
0
LINE
5
19C
100
AcDbEntity
8
2
62
256
6
ByLayer
370
13
48
1
60
0
100
AcDbLine
10
51.2
20
8
30
0
11
50.782003
21
4.824998
31
0
39
0
210
0
220
0
230
1
0
LINE
5
19D
100
AcDbEntity
8
2
62
256
6
ByLayer
370
13
48
1
60
0
100
AcDbLine
10
51.617997
20
4.825002
30
0
11
50.782003
21
4.824998
31
0
39
0
210
0
220
0
230
1
0
LINE
5
19E
100
AcDbEntity
8
2
62
256
6
ByLayer
370
13
48
1
60
0
100
AcDbLine
10
51.2
20
-7.95
30
0
11
50.782003
21
-4.775002
31
0
39
0
210
0
220
0
230
1
0
LINE
5
19F
100
AcDbEntity
8
2
62
256
6
ByLayer
370
13
48
1
60
0
100
AcDbLine
10
51.2
20
-7.95
30
0
11
51.617997
21
-4.774998
31
0
39
0
210
0
220
0
230
1
0
LINE
5
1A0
100
AcDbEntity
8
2
62
256
6
ByLayer
370
13
48
1
60
0
100
AcDbLine
10
50.782003
20
-4.775002
30
0
11
51.617997
21
-4.774998
31
0
39
0
210
0
220
0
230
1
0
ENDBLK
5
1A2
100
AcDbEntity
8
0
100
AcDbBlockEnd
0
BLOCK
5
1AF
100
AcDbEntity
8
0
100
AcDbBlockBegin
2
DimnDraft3D5
70
0
10
0
20
0
30
0
3
DimnDraft3D5
0
MTEXT
5
1A5
100
AcDbEntity
8
2
62
256
6
ByLayer
370
18
48
1
60
0
100
AcDbMText
10
43.325
20
-18.020789
30
0
210
0
220
0
230
1
1
\W0.3580;1
40
3.5
41
0
44
1.084337
50
90
71
7
72
5
7
iso_b_vert
0
LINE
5
1A6
100
AcDbEntity
8
2
62
256
6
ByLayer
370
13
48
1
60
0
100
AcDbLine
10
28.1
20
-7.95
30
0
11
46.2
21
-7.95
31
0
39
0
210
0
220
0
230
1
0
LINE
5
1A7
100
AcDbEntity
8
2
62
256
6
ByLayer
370
13
48
1
60
0
100
AcDbLine
10
28.1
20
-6.95
30
0
11
46.2
21
-6.95
31
0
39
0
210
0
220
0
230
1
0
LINE
5
1A8
100
AcDbEntity
8
2
62
256
6
ByLayer
370
13
48
1
60
0
100
AcDbLine
10
44.2
20
1.8
30
0
11
44.2
21
-18.895789
31
0
39
0
210
0
220
0
230
1
0
LINE
5
1A9
100
AcDbEntity
8
2
62
256
6
ByLayer
370
13
48
1
60
0
100
AcDbLine
10
44.2
20
-7.95
30
0
11
44.617997
21
-11.124998
31
0
39
0
210
0
220
0
230
1
0
LINE
5
1AA
100
AcDbEntity
8
2
62
256
6
ByLayer
370
13
48
1
60
0
100
AcDbLine
10
44.2
20
-7.95
30
0
11
43.782003
21
-11.125002
31
0
39
0
210
0
220
0
230
1
0
LINE
5
1AB
100
AcDbEntity
8
2
62
256
6
ByLayer
370
13
48
1
60
0
100
AcDbLine
10
44.617997
20
-11.124998
30
0
11
43.782003
21
-11.125002
31
0
39
0
210
0
220
0
230
1
0
LINE
5
1AC
100
AcDbEntity
8
2
62
256
6
ByLayer
370
13
48
1
60
0
100
AcDbLine
10
44.2
20
-6.95
30
0
11
43.782003
21
-3.775002
31
0
39
0
210
0
220
0
230
1
0
LINE
5
1AD
100
AcDbEntity
8
2
62
256
6
ByLayer
370
13
48
1
60
0
100
AcDbLine
10
44.2
20
-6.95
30
0
11
44.617997
21
-3.774998
31
0
39
0
210
0
220
0
230
1
0
LINE
5
1AE
100
AcDbEntity
8
2
62
256
6
ByLayer
370
13
48
1
60
0
100
AcDbLine
10
43.782003
20
-3.775002
30
0
11
44.617997
21
-3.774998
31
0
39
0
210
0
220
0
230
1
0
ENDBLK
5
1B0
100
AcDbEntity
8
0
100
AcDbBlockEnd
0
ENDSEC
0
SECTION
2
ENTITIES
0
ARC
5
F1
100
AcDbEntity
8
SK1
62
256
6
ByLayer
370
18
48
1
60
0
100
AcDbCircle
39
0
10
-0.4
20
-8.85
30
0
40
1
210
0
220
0
230
1
100
AcDbArc
50
103.163063
51
108.194872
0
ARC
5
F2
100
AcDbEntity
8
1
62
256
6
ByLayer
370
18
48
1
60
0
100
AcDbCircle
39
0
10
-22.529916
20
-7.45
30
0
40
0.324999999999157
210
0
220
0
230
-1
100
AcDbArc
50
150.75
51
209.25
0
ARC
5
F3
100
AcDbEntity
8
1
62
256
6
ByLayer
370
18
48
1
60
0
100
AcDbCircle
39
0
10
7.6
20
-4.5
30
0
40
1
210
0
220
0
230
1
100
AcDbArc
50
180
51
270
0
ARC
5
F4
100
AcDbEntity
8
1
62
256
6
ByLayer
370
18
48
1
60
0
100
AcDbCircle
39
0
10
13.1
20
-6.05
30
0
40
1
210
0
220
0
230
1
100
AcDbArc
50
180
51
270
0
ARC
5
F5
100
AcDbEntity
8
1
62
256
6
ByLayer
370
18
48
1
60
0
100
AcDbCircle
39
0
10
7.6
20
-4.5
30
0
40
1
210
0
220
0
230
1
100
AcDbArc
50
180
51
270
0
ARC
5
F6
100
AcDbEntity
8
1
62
256
6
ByLayer
370
18
48
1
60
0
100
AcDbCircle
39
0
10
13.1
20
-6.05
30
0
40
1
210
0
220
0
230
1
100
AcDbArc
50
180
51
270
0
ARC
5
F7
100
AcDbEntity
8
1
62
256
6
ByLayer
370
18
48
1
60
0
100
AcDbCircle
39
0
10
-22.529916
20
-7.45
30
0
40
0.324999999999157
210
0
220
0
230
-1
100
AcDbArc
50
150.75
51
209.25
0
ARC
5
F8
100
AcDbEntity
8
1
62
256
6
ByLayer
370
18
48
1
60
0
100
AcDbCircle
39
0
10
-0.4
20
-8.85
30
0
40
1
210
0
220
0
230
1
100
AcDbArc
50
103.163063
51
108.194872
0
ELLIPSE
5
F9
100
AcDbEntity
8
SK1
62
256
6
ByLayer
370
18
48
1
60
0
100
AcDbEllipse
10
-0.627723
20
8.006981
30
0
11
1.59999999997537
21
1.61702248810689E-15
31
0
210
0
220
0
230
-1
40
0.004363
41
1.23467602491371
42
1.5707963267949
0
ELLIPSE
5
FA
100
AcDbEntity
8
1
62
256
6
ByLayer
370
18
48
1
60
0
100
AcDbEllipse
10
-0.627723
20
8.006981
30
0
11
1.60000000000223
21
1.61702248813403E-15
31
0
210
0
220
0
230
-1
40
0.004363
41
0.261799387799858
42
1.23467602491827
0
ELLIPSE
5
FB
100
AcDbEntity
8
1
62
256
6
ByLayer
370
13
48
1
60
0
100
AcDbEllipse
10
25.308682
20
-7.124247
30
0
11
-0.0156055680941731
21
0.0475022762029161
31
0
210
0
220
0
230
1
40
0.165217
41
1.51657218933005
42
2.12118814733512
0
ELLIPSE
5
FC
100
AcDbEntity
8
1
62
256
6
ByLayer
370
13
48
1
60
0
100
AcDbEllipse
10
25.308682
20
-7.775753
30
0
11
0.0156055680941726
21
0.0475022762029162
31
0
210
0
220
0
230
1
40
0.165217
41
1.02040450625461
42
1.62502046425975
0
ELLIPSE
5
FD
100
AcDbEntity
8
1
62
256
6
ByLayer
370
13
48
1
60
0
100
AcDbEllipse
10
24.432255
20
-7.68846
30
0
11
-0.0167698392675432
21
0.0471038479419757
31
0
210
0
220
0
230
1
40
0.495893
41
-1.74554262635241
42
-1.15537633576625
0
ELLIPSE
5
FE
100
AcDbEntity
8
1
62
256
6
ByLayer
370
13
48
1
60
0
100
AcDbEllipse
10
24.432255
20
-7.21154
30
0
11
0.0167698392675445
21
0.0471038479419752
31
0
210
0
220
0
230
1
40
0.495893
41
-1.98621631782378
42
-1.39605002723717
0
ELLIPSE
5
FF
100
AcDbEntity
8
1
62
256
6
ByLayer
370
13
48
1
60
0
100
AcDbEllipse
10
24.433254
20
-7.211907
30
0
11
-0.0177211627263668
21
-0.046754255331741
31
0
210
0
220
0
230
1
40
0.501316
41
1.16631846762513
42
1.75857062524553
0
ELLIPSE
5
100
100
AcDbEntity
8
1
62
256
6
ByLayer
370
13
48
1
60
0
100
AcDbEllipse
10
24.433254
20
-7.688093
30
0
11
0.0177211627263415
21
-0.0467542553317506
31
0
210
0
220
0
230
1
40
0.501316
41
1.38302202834325
42
1.97527418596498
0
ELLIPSE
5
101
100
AcDbEntity
8
1
62
256
6
ByLayer
370
13
48
1
60
0
100
AcDbEllipse
10
23.481083
20
-7.631095
30
0
11
-0.232872815695934
21
0.0909409242852057
31
0
210
0
220
0
230
1
40
0.09701
41
0.332331314621626
42
1.32730989433009
0
ELLIPSE
5
102
100
AcDbEntity
8
1
62
256
6
ByLayer
370
13
48
1
60
0
100
AcDbEllipse
10
23.481083
20
-7.268905
30
0
11
-0.23287281569593
21
-0.0909409242852163
31
0
210
0
220
0
230
1
40
0.09701
41
-1.32730989432998
42
-0.332331314621474
0
ELLIPSE
5
103
100
AcDbEntity
8
1
62
256
6
ByLayer
370
18
48
1
60
0
100
AcDbEllipse
10
-0.627723
20
8.006981
30
0
11
1.60000000000041
21
1.6170224881322E-15
31
0
210
0
220
0
230
-1
40
0.004363
41
0.261799387799635
42
1.5707963267949
0
ELLIPSE
5
104
100
AcDbEntity
8
1
62
256
6
ByLayer
370
18
48
1
60
0
100
AcDbEllipse
10
23.221204
20
-7.116544
30
0
11
-0.0155046326721222
21
0.0475353170358898
31
0
210
0
220
0
230
1
40
0.933879
41
1.28279252524402
42
1.58919959527656
0
ELLIPSE
5
105
100
AcDbEntity
8
1
62
256
6
ByLayer
370
18
48
1
60
0
100
AcDbEllipse
10
25.091622
20
-6.90792
30
0
11
1.19999169821598
21
0.0587533249368047
31
0
210
0
220
0
230
-1
40
0.075973
41
1.39998312228108
42
2.1292233396805
0
ELLIPSE
5
106
100
AcDbEntity
8
1
62
256
6
ByLayer
370
18
48
1
60
0
100
AcDbEllipse
10
23.899801
20
-6.85
30
0
11
0.261661140507378
21
6.03745688934454E-10
31
0
210
0
220
0
230
-1
40
0.764347
41
1.4806588525061
42
1.5707963298147
0
ELLIPSE
5
107
100
AcDbEntity
8
1
62
256
6
ByLayer
370
18
48
1
60
0
100
AcDbEllipse
10
24.370051
20
-7.031732
30
0
11
0.169998823923376
21
0.00832338770004708
31
0
210
0
220
0
230
-1
40
0.075973
41
-1.82887599387809
42
-1.0123693139262
0
ELLIPSE
5
108
100
AcDbEntity
8
1
62
256
6
ByLayer
370
18
48
1
60
0
100
AcDbEllipse
10
23.221204
20
-7.783456
30
0
11
-0.0155046482672796
21
-0.047535311949202
31
0
210
0
220
0
230
1
40
0.933879
41
-1.5891992846669
42
-1.28279222477285
0
ELLIPSE
5
109
100
AcDbEntity
8
1
62
256
6
ByLayer
370
18
48
1
60
0
100
AcDbEllipse
10
25.091622
20
-7.99208
30
0
11
1.19999169821412
21
-0.0587533249366082
31
0
210
0
220
0
230
-1
40
0.075973
41
-2.1292233396801
42
-1.39998312227961
0
ELLIPSE
5
10A
100
AcDbEntity
8
1
62
256
6
ByLayer
370
18
48
1
60
0
100
AcDbEllipse
10
24.370051
20
-7.868268
30
0
11
0.169998823916448
21
-0.00832338769955452
31
0
210
0
220
0
230
-1
40
0.075973
41
1.01236931391423
42
1.82887599390075
0
ELLIPSE
5
10B
100
AcDbEntity
8
1
62
256
6
ByLayer
370
18
48
1
60
0
100
AcDbEllipse
10
23.899801
20
-8.05
30
0
11
0.261661138023496
21
-9.63358665960662E-10
31
0
210
0
220
0
230
-1
40
0.764347
41
-1.57079633161298
42
-1.48065885344946
0
POINT
5
6C
100
AcDbEntity
8
80
62
256
6
ByLayer
370
18
48
1
60
0
100
AcDbPoint
10
0
20
0
30
0
39
0
210
0
220
0
230
1
50
360
0
POINT
5
6E
100
AcDbEntity
8
81
62
256
6
ByLayer
370
18
48
1
60
0
100
AcDbPoint
10
26.1
20
-7.95
30
0
39
0
210
0
220
0
230
1
50
360
0
SPLINE
5
10C
100
AcDbEntity
8
SK1
62
256
6
ByLayer
370
18
48
1
60
0
100
AcDbSpline
70
4
71
3
72
8
73
4
40
0
40
0
40
0
40
0
40
1
40
1
40
1
40
1
41
1
10
-0.399999999999949
20
-7.84999999999962
30
0
41
1
10
-0.475824100695121
20
-7.84999999999962
30
0
41
1
10
-0.55313192740303
20
-7.85882959168555
30
0
41
1
10
-0.627723180766338
20
-7.87627408736219
30
0
0
SPLINE
5
10D
100
AcDbEntity
8
1
62
256
6
ByLayer
370
18
48
1
60
0
100
AcDbSpline
70
4
71
3
72
18
73
14
40
0
40
0
40
0
40
0
40
0.190645903168807
40
0.190645903168807
40
0.3810145818762
40
0.3810145818762
40
0.577343920924666
40
0.577343920924666
40
0.789423123169262
40
0.789423123169262
40
0.995733807992063
40
0.995733807992063
40
1
40
1
40
1
40
1
41
1
10
16.4055555555557
20
-6.04999999999959
30
0
41
1
10
16.4055555555557
20
-6.15471764864714
30
0
41
1
10
16.4178308354036
20
-6.26087850702882
30
0
41
1
10
16.4642095893856
20
-6.45814823738579
30
0
41
1
10
16.4988517632604
20
-6.55191580093364
30
0
41
1
10
16.5856204540855
20
-6.71887373375912
30
0
41
1
10
16.6393047204341
20
-6.79350142792825
30
0
41
1
10
16.7614682698126
20
-6.91872876793147
30
0
41
1
10
16.832291586962
20
-6.96859821445236
30
0
41
1
10
16.9759327191747
20
-7.03307831696733
30
0
41
1
10
17.0501319187437
20
-7.04934622463131
30
0
41
1
10
17.1247622050763
20
-7.04999346294019
30
0
41
1
10
17.1262699118845
20
-7.04999999999959
30
0
41
1
10
17.1277777777779
20
-7.04999999999959
30
0
0
SPLINE
5
10E
100
AcDbEntity
8
1
62
256
6
ByLayer
370
18
48
1
60
0
100
AcDbSpline
70
4
71
3
72
18
73
14
40
0
40
0
40
0
40
0
40
0.246772336372089
40
0.246772336372089
40
0.456660038117936
40
0.456660038117936
40
0.635594038903794
40
0.635594038903794
40
0.816024474394253
40
0.816024474394253
40
0.974524648564073
40
0.974524648564073
40
1
40
1
40
1
40
1
41
1
10
13.33589358231
20
-7.04999999999959
30
0
41
1
10
13.2223154368209
20
-7.04999999999959
30
0
41
1
10
13.0999490141729
20
-7.04174074784453
30
0
41
1
10
12.8668535846927
20
-6.99004815580588
30
0
41
1
10
12.7552168396677
20
-6.95110884571142
30
0
41
1
10
12.5594150311042
20
-6.8407266278185
30
0
41
1
10
12.4718550063702
20
-6.77351303601549
30
0
41
1
10
12.3221577402029
20
-6.6095970561467
30
0
41
1
10
12.2582051464211
20
-6.51004193371665
30
0
41
1
10
12.1768146982989
20
-6.30771264809914
30
0
41
1
10
12.1535501999237
20
-6.20396639439355
30
0
41
1
10
12.1470832366458
20
-6.08379231215747
30
0
41
1
10
12.1466287184315
20
-6.06689260360673
30
0
41
1
10
12.1466287184315
20
-6.04999999999959
30
0
0
SPLINE
5
10F
100
AcDbEntity
8
1
62
256
6
ByLayer
370
18
48
1
60
0
100
AcDbSpline
70
4
71
3
72
12
73
8
40
0
40
0
40
0
40
0
40
0.466744315005397
40
0.466744315005397
40
0.805953061466898
40
0.805953061466898
40
1
40
1
40
1
40
1
41
1
10
12.6813197058143
20
-6.40949662379202
30
0
41
1
10
12.7902382250992
20
-6.53733845224789
30
0
41
1
10
12.929894536417
20
-6.65621842358883
30
0
41
1
10
13.210731381944
20
-6.83380091332205
30
0
41
1
10
13.3443599219781
20
-6.90138830472978
30
0
41
1
10
13.5681991242826
20
-6.98236293157771
30
0
41
1
10
13.6538964407053
20
-7.00692312166296
30
0
41
1
10
13.7405982366585
20
-7.02389966246898
30
0
0
SPLINE
5
110
100
AcDbEntity
8
1
62
256
6
ByLayer
370
18
48
1
60
0
100
AcDbSpline
70
4
71
3
72
16
73
12
40
0
40
0
40
0
40
0
40
0.27428854272775
40
0.27428854272775
40
0.566022311222141
40
0.566022311222141
40
0.751596252678603
40
0.751596252678603
40
0.893040377395779
40
0.893040377395779
40
1
40
1
40
1
40
1
41
1
10
13.325062814467
20
-5.49999999999957
30
0
41
1
10
13.4258337513217
20
-5.49999999999957
30
0
41
1
10
13.5335073714283
20
-5.47227881243725
30
0
41
1
10
13.7523157855681
20
-5.3669303389311
30
0
41
1
10
13.8669747830915
20
-5.28490145748088
30
0
41
1
10
14.0343878722508
20
-5.10694189649263
30
0
41
1
10
14.095912496038
20
-5.02492067124595
30
0
41
1
10
14.1831415841857
20
-4.86031074650552
30
0
41
1
10
14.2144549340501
20
-4.7807134193524
30
0
41
1
10
14.2485062314269
20
-4.63350958757951
30
0
41
1
10
14.256486676169
20
-4.56643056472123
30
0
41
1
10
14.256486676169
20
-4.49999999999957
30
0
0
SPLINE
5
111
100
AcDbEntity
8
1
62
256
6
ByLayer
370
18
48
1
60
0
100
AcDbSpline
70
4
71
3
72
12
73
8
40
0
40
0
40
0
40
0
40
0.363537134899254
40
0.363537134899254
40
0.724982714620621
40
0.724982714620621
40
1
40
1
40
1
40
1
41
1
10
12.5495051958951
20
-6.04999999999959
30
0
41
1
10
12.5495051958951
20
-6.10084359373712
30
0
41
1
10
12.5568225074752
20
-6.15249471047568
30
0
41
1
10
12.5831597972582
20
-6.24686247264245
30
0
41
1
10
12.6023805183939
20
-6.29104173596735
30
0
41
1
10
12.6419282851968
20
-6.35908451658514
30
0
41
1
10
12.6611671974271
20
-6.38584285457247
30
0
41
1
10
12.6813197058117
20
-6.40949662380018
30
0
0
SPLINE
5
112
100
AcDbEntity
8
1
62
256
6
ByLayer
370
18
48
1
60
0
100
AcDbSpline
70
4
71
3
72
18
73
14
40
0
40
0
40
0
40
0
40
0.0712414146225012
40
0.0712414146225012
40
0.287802961583434
40
0.287802961583434
40
0.504015726460183
40
0.504015726460183
40
0.719388743565406
40
0.719388743565406
40
0.933810437745192
40
0.933810437745192
40
1
40
1
40
1
40
1
41
1
10
23.5994052493465
20
-7.04999999999961
30
0
41
1
10
23.5870027733541
20
-7.04999999999956
30
0
41
1
10
23.5745811664117
20
-7.04791345223924
30
0
41
1
10
23.5250281329392
20
-7.0312105272769
30
0
41
1
10
23.4880023785796
20
-6.99908736871967
30
0
41
1
10
23.4205728149723
20
-6.90100148602133
30
0
41
1
10
23.3892250408914
20
-6.83372865449118
30
0
41
1
10
23.3365739104905
20
-6.67404767268945
30
0
41
1
10
23.3145044743593
20
-6.5795221554248
30
0
41
1
10
23.2825725293825
20
-6.37694317653094
30
0
41
1
10
23.2722166551235
20
-6.26614967874815
30
0
41
1
10
23.2670898212033
20
-6.12004843104296
30
0
41
1
10
23.2664765526431
20
-6.08499994926044
30
0
41
1
10
23.2664765526431
20
-6.04999999999961
30
0
0
SPLINE
5
113
100
AcDbEntity
8
1
62
256
6
ByLayer
370
13
48
1
60
0
100
AcDbSpline
70
4
71
3
72
14
73
10
40
0
40
0
40
0
40
0
40
0.352412550729276
40
0.352412550729276
40
0.703814226488488
40
0.703814226488488
40
0.977379796120962
40
0.977379796120962
40
1
40
1
40
1
40
1
41
1
10
23.174220036602
20
-7.78345571588014
30
0
41
1
10
23.183854859297
20
-7.78596979711386
30
0
41
1
10
23.1982033260467
20
-7.7891374743327
30
0
41
1
10
23.2337885540607
20
-7.79622940064692
30
0
41
1
10
23.2554902796156
20
-7.80024834679281
30
0
41
1
10
23.2979936235248
20
-7.80767673851761
30
0
41
1
10
23.3183045937801
20
-7.81108947916618
30
0
41
1
10
23.3409737947979
20
-7.81476255309607
30
0
41
1
10
23.3427012737262
20
-7.81504164554491
30
0
41
1
10
23.3444336503808
20
-7.81532072224269
30
0
0
SPLINE
5
114
100
AcDbEntity
8
1
62
256
6
ByLayer
370
13
48
1
60
0
100
AcDbSpline
70
4
71
3
72
12
73
8
40
0
40
0
40
0
40
0
40
0.242591899180758
40
0.242591899180758
40
0.56009614965544
40
0.56009614965544
40
1
40
1
40
1
40
1
41
1
10
24.45804637788
20
-7.24132068815629
30
0
41
1
10
24.5193399969777
20
-7.2566287296587
30
0
41
1
10
24.5850460492227
20
-7.26876815636803
30
0
41
1
10
24.7413334575415
20
-7.26598411745616
30
0
41
1
10
24.8348712709579
20
-7.2597831143421
30
0
41
1
10
25.0561228301376
20
-7.22397841311454
30
0
41
1
10
25.186497726392
20
-7.18995408604618
30
0
41
1
10
25.3101553111888
20
-7.15128961567638
30
0
0
SPLINE
5
115
100
AcDbEntity
8
1
62
256
6
ByLayer
370
13
48
1
60
0
100
AcDbSpline
70
4
71
3
72
10
73
6
40
0
40
0
40
0
40
0
40
0.859596161354008
40
0.859596161354008
40
1
40
1
40
1
40
1
41
1
10
25.3101553111888
20
-7.15128961567638
30
0
41
1
10
25.528708903667
20
-7.082953662694
30
0
41
1
10
25.7594334010535
20
-7.05683878459865
30
0
41
1
10
26.0247125105122
20
-7.05107943196987
30
0
41
1
10
26.0622135608971
20
-7.05011240942306
30
0
41
1
10
26.0996546338886
20
-7.04793870454625
30
0
0
SPLINE
5
116
100
AcDbEntity
8
1
62
256
6
ByLayer
370
13
48
1
60
0
100
AcDbSpline
70
4
71
3
72
10
73
6
40
0
40
0
40
0
40
0
40
0.512575868444094
40
0.512575868444094
40
1
40
1
40
1
40
1
41
1
10
26.0996546338724
20
-7.85206129545256
30
0
41
1
10
25.9635039907525
20
-7.84415683937706
30
0
41
1
10
25.8275845997062
20
-7.83623569507037
30
0
41
1
10
25.5634277916606
20
-7.80813407338633
30
0
41
1
10
25.4341326815546
20
-7.78747484321994
30
0
41
1
10
25.3101553111887
20
-7.74871038432406
30
0
0
SPLINE
5
117
100
AcDbEntity
8
1
62
256
6
ByLayer
370
13
48
1
60
0
100
AcDbSpline
70
4
71
3
72
12
73
8
40
0
40
0
40
0
40
0
40
0.43990385034449
40
0.43990385034449
40
0.757408100819004
40
0.757408100819004
40
1
40
1
40
1
40
1
41
1
10
25.3101553111888
20
-7.74871038432337
30
0
41
1
10
25.186497726392
20
-7.71004591395356
30
0
41
1
10
25.0561228301375
20
-7.67602158688561
30
0
41
1
10
24.834871270958
20
-7.6402168856574
30
0
41
1
10
24.7413334575416
20
-7.63401588254345
30
0
41
1
10
24.5850460492228
20
-7.63123184363181
30
0
41
1
10
24.5193399969777
20
-7.64337127034105
30
0
41
1
10
24.45804637788
20
-7.65867931184346
30
0
0
SPLINE
5
118
100
AcDbEntity
8
1
62
256
6
ByLayer
370
13
48
1
60
0
100
AcDbSpline
70
4
71
3
72
12
73
8
40
0
40
0
40
0
40
0
40
0.442153835467854
40
0.442153835467854
40
0.761027296806189
40
0.761027296806189
40
1
40
1
40
1
40
1
41
1
10
25.3000000000001
20
-7.12424738340866
30
0
41
1
10
25.1793112977437
20
-7.16554838148289
30
0
41
1
10
25.0513262081529
20
-7.20194015385948
30
0
41
1
10
24.8336525922392
20
-7.23995429262749
30
0
41
1
10
24.7413067973779
20
-7.24661445237294
30
0
41
1
10
24.5890505192379
20
-7.24775005015971
30
0
41
1
10
24.5262430135777
20
-7.23330249020347
30
0
41
1
10
24.4685780242098
20
-7.21550241129867
30
0
0
SPLINE
5
119
100
AcDbEntity
8
1
62
256
6
ByLayer
370
13
48
1
60
0
100
AcDbSpline
70
4
71
3
72
8
73
4
40
0
40
0
40
0
40
0
40
1
40
1
40
1
40
1
41
1
10
24.4685780242098
20
-7.21550241129867
30
0
41
1
10
24.4655785338502
20
-7.21428692617837
30
0
41
1
10
24.4625819178552
20
-7.21308851485628
30
0
41
1
10
24.4595887806259
20
-7.21190676253215
30
0
0
SPLINE
5
11A
100
AcDbEntity
8
1
62
256
6
ByLayer
370
13
48
1
60
0
100
AcDbSpline
70
4
71
3
72
8
73
4
40
0
40
0
40
0
40
0
40
1
40
1
40
1
40
1
41
1
10
24.4595887806261
20
-7.68809323746751
30
0
41
1
10
24.4625819178553
20
-7.68691148514347
30
0
41
1
10
24.465578533851
20
-7.68571307382487
30
0
41
1
10
24.4685780242105
20
-7.68449758870466
30
0
0
SPLINE
5
11B
100
AcDbEntity
8
1
62
256
6
ByLayer
370
13
48
1
60
0
100
AcDbSpline
70
4
71
3
72
12
73
8
40
0
40
0
40
0
40
0
40
0.238972703194058
40
0.238972703194058
40
0.557846164532136
40
0.557846164532136
40
1
40
1
40
1
40
1
41
1
10
24.4685780242098
20
-7.68449758870111
30
0
41
1
10
24.5262430135777
20
-7.66669750979625
30
0
41
1
10
24.589050519238
20
-7.65224994984004
30
0
41
1
10
24.741306797378
20
-7.65338554762678
30
0
41
1
10
24.8336525922393
20
-7.66004570737226
30
0
41
1
10
25.0513262081529
20
-7.69805984614027
30
0
41
1
10
25.1793112977437
20
-7.73445161851686
30
0
41
1
10
25.3000000000001
20
-7.77575261659109
30
0
0
SPLINE
5
11C
100
AcDbEntity
8
1
62
256
6
ByLayer
370
13
48
1
60
0
100
AcDbSpline
70
4
71
3
72
10
73
6
40
0
40
0
40
0
40
0
40
0.139549961754981
40
0.139549961754981
40
1
40
1
40
1
40
1
41
1
10
26.1000000000001
20
-7.03167107288277
30
0
41
1
10
26.062234917466
20
-7.03276938328395
30
0
41
1
10
26.0244408884654
20
-7.03269246565003
30
0
41
1
10
25.7558035382784
20
-7.03107119706073
30
0
41
1
10
25.5196517969428
20
-7.05208681873268
30
0
41
1
10
25.3000000000001
20
-7.12424738340866
30
0
0
SPLINE
5
11D
100
AcDbEntity
8
1
62
256
6
ByLayer
370
13
48
1
60
0
100
AcDbSpline
70
4
71
3
72
10
73
6
40
0
40
0
40
0
40
0
40
0.490129312309417
40
0.490129312309417
40
1
40
1
40
1
40
1
41
1
10
25.3000000000001
20
-7.77575261659109
30
0
41
1
10
25.4252225481314
20
-7.81689104527268
30
0
41
1
10
25.5568955356241
20
-7.83831629232088
30
0
41
1
10
25.8249333007916
20
-7.86231162844245
30
0
41
1
10
25.9625920930357
20
-7.86433273478013
30
0
41
1
10
26.1000000000001
20
-7.86832892711698
30
0
0
SPLINE
5
11E
100
AcDbEntity
8
1
62
256
6
ByLayer
370
13
48
1
60
0
100
AcDbSpline
70
4
71
3
72
12
73
8
40
0
40
0
40
0
40
0
40
0.157122109371334
40
0.157122109371334
40
0.576674913955705
40
0.576674913955705
40
1
40
1
40
1
40
1
41
1
10
24.326051477084
20
-7.17519819289268
30
0
41
1
10
24.3152680764088
20
-7.18691906812788
30
0
41
1
10
24.30497062749
20
-7.19914618336318
30
0
41
1
10
24.2696775583979
20
-7.24548195296455
30
0
41
1
10
24.2480708917461
20
-7.28313666402616
30
0
41
1
10
24.2183621829413
20
-7.36330130209197
30
0
41
1
10
24.2101338190787
20
-7.40695970356944
30
0
41
1
10
24.2101338190787
20
-7.44999999999987
30
0
0
SPLINE
5
11F
100
AcDbEntity
8
1
62
256
6
ByLayer
370
13
48
1
60
0
100
AcDbSpline
70
4
71
3
72
12
73
8
40
0
40
0
40
0
40
0
40
0.423325086044456
40
0.423325086044456
40
0.842877890628987
40
0.842877890628987
40
1
40
1
40
1
40
1
41
1
10
24.2101338190787
20
-7.44999999999987
30
0
41
1
10
24.2101338190787
20
-7.49304029643031
30
0
41
1
10
24.2183621829413
20
-7.53669869790778
30
0
41
1
10
24.2480708917461
20
-7.61686333597359
30
0
41
1
10
24.2696775583979
20
-7.6545180470352
30
0
41
1
10
24.30497062749
20
-7.70085381663654
30
0
41
1
10
24.3152680764079
20
-7.71308093187267
30
0
41
1
10
24.3260514770831
20
-7.72480180710784
30
0
0
SPLINE
5
120
100
AcDbEntity
8
1
62
256
6
ByLayer
370
13
48
1
60
0
100
AcDbSpline
70
4
71
3
72
12
73
8
40
0
40
0
40
0
40
0
40
0.226955345552611
40
0.226955345552611
40
0.6134776727765
40
0.6134776727765
40
1
40
1
40
1
40
1
41
1
10
23.3444336503808
20
-7.81532072224269
30
0
41
1
10
23.3498765089328
20
-7.80138373967688
30
0
41
1
10
23.3553193432913
20
-7.78744674698433
30
0
41
1
10
23.3700316790627
20
-7.74977396282361
30
0
41
1
10
23.3793011367965
20
-7.72603815307269
30
0
41
1
10
23.3978399300886
20
-7.67856648243307
30
0
41
1
10
23.4071092656441
20
-7.65483062154306
30
0
41
1
10
23.4163785453106
20
-7.63109473726044
30
0
0
SPLINE
5
121
100
AcDbEntity
8
1
62
256
6
ByLayer
370
13
48
1
60
0
100
AcDbSpline
70
4
71
3
72
12
73
8
40
0
40
0
40
0
40
0
40
0.38017070660068
40
0.38017070660068
40
0.68794790232373
40
0.68794790232373
40
1
40
1
40
1
40
1
41
1
10
23.4163785453106
20
-7.63109473726044
30
0
41
1
10
23.4248788618323
20
-7.60932794020749
30
0
41
1
10
23.4317792052946
20
-7.58682384982376
30
0
41
1
10
23.4413006524277
20
-7.54547679603968
30
0
41
1
10
23.4445049521837
20
-7.52667438202636
30
0
41
1
10
23.448816864759
20
-7.48861630192289
30
0
41
1
10
23.4499026485731
20
-7.46929165013316
30
0
41
1
10
23.449902654566
20
-7.45000006585957
30
0
0
SPLINE
5
122
100
AcDbEntity
8
1
62
256
6
ByLayer
370
13
48
1
60
0
100
AcDbSpline
70
4
71
3
72
12
73
8
40
0
40
0
40
0
40
0
40
0.312052587100824
40
0.312052587100824
40
0.61982956386303
40
0.61982956386303
40
1
40
1
40
1
40
1
41
1
10
23.449902654566
20
-7.45000006585957
30
0
41
1
10
23.4499026485731
20
-7.43070843775408
30
0
41
1
10
23.4488168696913
20
-7.41138374161031
30
0
41
1
10
23.4445049521837
20
-7.37332561797339
30
0
41
1
10
23.4413006524277
20
-7.35452320396007
30
0
41
1
10
23.4317792052946
20
-7.31317615017599
30
0
41
1
10
23.4248788618323
20
-7.29067205979226
30
0
41
1
10
23.4163785453106
20
-7.26890526273934
30
0
0
SPLINE
5
123
100
AcDbEntity
8
1
62
256
6
ByLayer
370
13
48
1
60
0
100
AcDbSpline
70
4
71
3
72
12
73
8
40
0
40
0
40
0
40
0
40
0.3865223272236
40
0.3865223272236
40
0.773044654447425
40
0.773044654447425
40
1
40
1
40
1
40
1
41
1
10
23.4163785453106
20
-7.26890526273934
30
0
41
1
10
23.4071092656441
20
-7.24516937845672
30
0
41
1
10
23.3978399300886
20
-7.22143351756668
30
0
41
1
10
23.3793011367965
20
-7.17396184692706
30
0
41
1
10
23.3700316790627
20
-7.15022603717614
30
0
41
1
10
23.3553193432913
20
-7.11255325301542
30
0
41
1
10
23.3498765089328
20
-7.09861626032287
30
0
41
1
10
23.3444336503808
20
-7.08467927775706
30
0
0
SPLINE
5
124
100
AcDbEntity
8
1
62
256
6
ByLayer
370
13
48
1
60
0
100
AcDbSpline
70
4
71
3
72
16
73
12
40
0
40
0
40
0
40
0
40
0.0002368007509994
40
0.0002368007509994
40
0.323318803784511
40
0.323318803784511
40
0.35585457837698
40
0.35585457837698
40
0.730365422365643
40
0.730365422365643
40
1
40
1
40
1
40
1
41
1
10
24.3217150304792
20
-7.44999999999987
30
0
41
1
10
24.3217150333494
20
-7.44998000000081
30
0
41
1
10
24.3217150335371
20
-7.44996000000106
30
0
41
1
10
24.3217233836607
20
-7.42265275747542
30
0
41
1
10
24.3277763466395
20
-7.3949420925332
30
0
41
1
10
24.3393857742269
20
-7.36722699507749
30
0
41
1
10
24.3405127768722
20
-7.36466717187935
30
0
41
1
10
24.3549600442967
20
-7.33334755113648
30
0
41
1
10
24.3740859433293
20
-7.30707890244023
30
0
41
1
10
24.4114835843401
20
-7.26739912355498
30
0
41
1
10
24.4287564012528
20
-7.25214322723983
30
0
41
1
10
24.4468585162893
20
-7.23815813880603
30
0
0
SPLINE
5
125
100
AcDbEntity
8
1
62
256
6
ByLayer
370
13
48
1
60
0
100
AcDbSpline
70
4
71
3
72
20
73
16
40
0
40
0
40
0
40
0
40
0.0210898617659943
40
0.0210898617659943
40
0.0256189538769999
40
0.0256189538769999
40
0.0603252548658921
40
0.0603252548658921
40
0.124380038817988
40
0.124380038817988
40
0.259261542474548
40
0.259261542474548
40
0.562366810721293
40
0.562366810721293
40
1
40
1
40
1
40
1
41
1
10
24.326051477084
20
-7.17519819289268
30
0
41
1
10
24.3268939430181
20
-7.1756594977366
30
0
41
1
10
24.327738786632
20
-7.17612024812143
30
0
41
1
10
24.328769453338
20
-7.1766827466333
30
0
41
1
10
24.3289540161663
20
-7.17678345522953
30
0
41
1
10
24.3305534214964
20
-7.17765602507166
30
0
41
1
10
24.3319728732213
20
-7.178429322017
30
0
41
1
10
24.3360226341904
20
-7.18063249080276
30
0
41
1
10
24.3386635975375
20
-7.18206556210555
30
0
41
1
10
24.3468896370592
20
-7.18651798654199
30
0
41
1
10
24.352519100249
20
-7.18954899819411
30
0
41
1
10
24.3707533853428
20
-7.19931319643558
30
0
41
1
10
24.3835169316709
20
-7.20606642796682
30
0
41
1
10
24.4136995899852
20
-7.22176864108428
30
0
41
1
10
24.4311833018304
20
-7.23062922205983
30
0
41
1
10
24.4468585162893
20
-7.23815813880603
30
0
0
SPLINE
5
126
100
AcDbEntity
8
1
62
256
6
ByLayer
370
13
48
1
60
0
100
AcDbSpline
70
4
71
3
72
16
73
12
40
0
40
0
40
0
40
0
40
0.270101891807277
40
0.270101891807277
40
0.645261815104687
40
0.645261815104687
40
0.920626617472441
40
0.920626617472441
40
0.999765493530253
40
0.999765493530253
40
1
40
1
40
1
40
1
41
1
10
24.4468585162893
20
-7.66184186119372
30
0
41
1
10
24.4287564012528
20
-7.64785677275992
30
0
41
1
10
24.4114835843401
20
-7.6326008764448
30
0
41
1
10
24.3740859433293
20
-7.5929210975595
30
0
41
1
10
24.3549600442967
20
-7.56665244886327
30
0
41
1
10
24.3319147743847
20
-7.51669358173942
30
0
41
1
10
24.3252042395071
20
-7.49367006447963
30
0
41
1
10
24.3220746249477
20
-7.46367465007668
30
0
41
1
10
24.3217171198425
20
-7.45686280433239
30
0
41
1
10
24.3217150335367
20
-7.45003999999869
30
0
41
1
10
24.3217150333493
20
-7.45001999999894
30
0
41
1
10
24.3217150304792
20
-7.44999999999987
30
0
0
SPLINE
5
127
100
AcDbEntity
8
1
62
256
6
ByLayer
370
13
48
1
60
0
100
AcDbSpline
70
4
71
3
72
22
73
18
40
0
40
0
40
0
40
0
40
0.021120220136595
40
0.021120220136595
40
0.0256457255044223
40
0.0256457255044223
40
0.0505793205553894
40
0.0505793205553894
40
0.104076875945621
40
0.104076875945621
40
0.11815232793152
40
0.11815232793152
40
0.245936484652709
40
0.245936484652709
40
0.530618017569916
40
0.530618017569916
40
1
40
1
40
1
40
1
41
1
10
24.326051477084
20
-7.72480180710707
30
0
41
1
10
24.3268939430181
20
-7.72434050226315
30
0
41
1
10
24.327738786632
20
-7.72387975187834
30
0
41
1
10
24.3287694533379
20
-7.72331725336647
30
0
41
1
10
24.3289540161664
20
-7.72321654477059
30
0
41
1
10
24.3301558980217
20
-7.72256084740405
30
0
41
1
10
24.3311755436989
20
-7.72200513811322
30
0
41
1
10
24.3343892181399
20
-7.72025544567452
30
0
41
1
10
24.3365915605159
20
-7.71905895535565
30
0
41
1
10
24.3393830053835
20
-7.71754563564809
30
0
41
1
10
24.339965121045
20
-7.71723023054324
30
0
41
1
10
24.3458306631462
20
-7.71405389968618
30
0
41
1
10
24.3511630406827
20
-7.71118068232815
30
0
41
1
10
24.3683489242117
20
-7.70196805347061
30
0
41
1
10
24.3803481986001
20
-7.69560744840473
30
0
41
1
10
24.4111838023025
20
-7.67950829345168
30
0
41
1
10
24.4300702848327
20
-7.6699053679026
30
0
41
1
10
24.4468585162893
20
-7.66184186119372
30
0
0
SPLINE
5
128
100
AcDbEntity
8
1
62
256
6
ByLayer
370
13
48
1
60
0
100
AcDbSpline
70
4
71
3
72
20
73
16
40
0
40
0
40
0
40
0
40
0.021039784757252
40
0.021039784757252
40
0.0255647288903447
40
0.0255647288903447
40
0.0621068355770057
40
0.0621068355770057
40
0.127446867683504
40
0.127446867683504
40
0.263090681228276
40
0.263090681228276
40
0.561979271149211
40
0.561979271149211
40
1
40
1
40
1
40
1
41
1
10
24.3260514770435
20
-7.17519819289157
30
0
41
1
10
24.3269684405119
20
-7.17546653554993
30
0
41
1
10
24.3278875640832
20
-7.17573462393889
30
0
41
1
10
24.3290094791167
20
-7.17606182283285
30
0
41
1
10
24.3292105952198
20
-7.17612046192619
30
0
41
1
10
24.3310364966706
20
-7.17665270059845
30
0
41
1
10
24.3326670760498
20
-7.17712702435236
30
0
41
1
10
24.3372262400127
20
-7.17845054375539
30
0
41
1
10
24.3401670364845
20
-7.17930115765071
30
0
41
1
10
24.3492414130049
20
-7.18191644600765
30
0
41
1
10
24.3554253095938
20
-7.18368552911568
30
0
41
1
10
24.3751961915087
20
-7.18929902955139
30
0
41
1
10
24.3889565930177
20
-7.19314211343996
30
0
41
1
10
24.4218257495212
20
-7.20213921494056
30
0
41
1
10
24.4410019074878
20
-7.20722429771715
30
0
41
1
10
24.4581729430637
20
-7.21153950166479
30
0
0
SPLINE
5
129
100
AcDbEntity
8
1
62
256
6
ByLayer
370
13
48
1
60
0
100
AcDbSpline
70
4
71
3
72
8
73
4
40
0
40
0
40
0
40
0
40
1
40
1
40
1
40
1
41
1
10
24.4468585162893
20
-7.23815813880603
30
0
41
1
10
24.4471830442133
20
-7.238260333093
30
0
41
1
10
24.4475060420749
20
-7.23836543981946
30
0
41
1
10
24.4478274452914
20
-7.23847342304182
30
0
0
SPLINE
5
12A
100
AcDbEntity
8
1
62
256
6
ByLayer
370
13
48
1
60
0
100
AcDbSpline
70
4
71
3
72
10
73
6
40
0
40
0
40
0
40
0
40
0.995005107734234
40
0.995005107734234
40
1
40
1
40
1
40
1
41
1
10
24.4478274452914
20
-7.23847342304182
30
0
41
1
10
24.4511392363897
20
-7.23958609975494
30
0
41
1
10
24.454455441147
20
-7.2407178059826
30
0
41
1
10
24.4577919364214
20
-7.2418748580435
30
0
41
1
10
24.4578085179009
20
-7.24188060929816
30
0
41
1
10
24.4578250997201
20
-7.24188636001742
30
0
0
SPLINE
5
12B
100
AcDbEntity
8
1
62
256
6
ByLayer
370
13
48
1
60
0
100
AcDbSpline
70
4
71
3
72
22
73
18
40
0
40
0
40
0
40
0
40
0.0210694435103528
40
0.0210694435103528
40
0.0255908237455225
40
0.0255908237455225
40
0.0506930597031297
40
0.0506930597031297
40
0.103890704837593
40
0.103890704837593
40
0.121020217333526
40
0.121020217333526
40
0.249587261332992
40
0.249587261332992
40
0.530222642975125
40
0.530222642975125
40
1
40
1
40
1
40
1
41
1
10
24.3260514770435
20
-7.72480180710818
30
0
41
1
10
24.3269684404975
20
-7.72453346445408
30
0
41
1
10
24.3278875640545
20
-7.72426537606947
30
0
41
1
10
24.3290094790879
20
-7.72393817717546
30
0
41
1
10
24.3292105952055
20
-7.72387953807822
30
0
41
1
10
24.3305288080295
20
-7.72349528741279
30
0
41
1
10
24.33164857297
20
-7.72316934617177
30
0
41
1
10
24.3351485830661
20
-7.72215199878826
30
0
41
1
10
24.3375380726096
20
-7.72145950847565
30
0
41
1
10
24.3407084937188
20
-7.72054340232864
30
0
41
1
10
24.3414817843348
20
-7.72032016818679
30
0
41
1
10
24.3480592680842
20
-7.71842316855657
30
0
41
1
10
24.3539191890085
20
-7.71674496556375
30
0
41
1
10
24.372551089072
20
-7.71144698748304
30
0
41
1
10
24.3854821344174
20
-7.70782634656945
30
0
41
1
10
24.4190679881532
20
-7.69859347230553
30
0
41
1
10
24.4397829262885
20
-7.69308204096904
30
0
41
1
10
24.4581729430637
20
-7.68846049833496
30
0
0
SPLINE
5
12C
100
AcDbEntity
8
1
62
256
6
ByLayer
370
13
48
1
60
0
100
AcDbSpline
70
4
71
3
72
8
73
4
40
0
40
0
40
0
40
0
40
1
40
1
40
1
40
1
41
1
10
24.4478274452914
20
-7.66152657695795
30
0
41
1
10
24.4475060420749
20
-7.66163456018029
30
0
41
1
10
24.4471830442133
20
-7.66173966690675
30
0
41
1
10
24.4468585162893
20
-7.66184186119372
30
0
0
SPLINE
5
12D
100
AcDbEntity
8
1
62
256
6
ByLayer
370
13
48
1
60
0
100
AcDbSpline
70
4
71
3
72
14
73
10
40
0
40
0
40
0
40
0
40
0.352186844524056
40
0.352186844524056
40
0.703364284924974
40
0.703364284924974
40
0.977380082760444
40
0.977380082760444
40
1
40
1
40
1
40
1
41
1
10
23.1771043513024
20
-7.13189610351907
30
0
41
1
10
23.1865057014574
20
-7.12817314267986
30
0
41
1
10
23.200555435521
20
-7.12348289660545
30
0
41
1
10
23.2354677302184
20
-7.11298242922689
30
0
41
1
10
23.2567856969573
20
-7.10703209370365
30
0
41
1
10
23.2986207749745
20
-7.09602230658115
30
0
41
1
10
23.3186542976885
20
-7.09095713132012
30
0
41
1
10
23.3410243175078
20
-7.08550635781944
30
0
41
1
10
23.3427265343704
20
-7.08509280612307
30
0
41
1
10
23.3444336503808
20
-7.08467927775706
30
0
0
SPLINE
5
12E
100
AcDbEntity
8
1
62
256
6
ByLayer
370
13
48
1
60
0
100
AcDbSpline
70
4
71
2
72
6
73
3
40
0
40
0
40
0
40
1
40
1
40
1
41
0.563688998711833
10
24.3217150304792
20
-7.44999999999987
30
0
41
0.573984515483814
10
24.3787891292899
20
-7.44999999999987
30
0
41
0.585786437626905
10
24.4378501986369
20
-7.44999999999987
30
0
0
SPLINE
5
12F
100
AcDbEntity
8
1
62
256
6
ByLayer
370
13
48
1
60
0
100
AcDbSpline
70
4
71
3
72
10
73
6
40
0
40
0
40
0
40
0
40
0.0049751539594447
40
0.0049751539594447
40
1
40
1
40
1
40
1
41
1
10
24.4578250997201
20
-7.65811363998233
30
0
41
1
10
24.4578085179008
20
-7.6581193906982
30
0
41
1
10
24.4577919364129
20
-7.65812514194562
30
0
41
1
10
24.4544554411385
20
-7.65928219400661
30
0
41
1
10
24.4511392363903
20
-7.66041390024464
30
0
41
1
10
24.4478274452914
20
-7.66152657695795
30
0
0
SPLINE
5
130
100
AcDbEntity
8
1
62
256
6
ByLayer
370
13
48
1
60
0
100
AcDbSpline
70
4
71
3
72
8
73
4
40
0
40
0
40
0
40
0
40
1
40
1
40
1
40
1
41
1
10
24.4581729430637
20
-7.68846049833496
30
0
41
1
10
24.458646912788
20
-7.6883413863562
30
0
41
1
10
24.4591188823469
20
-7.68821895830013
30
0
41
1
10
24.4595887806254
20
-7.68809323746771
30
0
0
SPLINE
5
131
100
AcDbEntity
8
1
62
256
6
ByLayer
370
13
48
1
60
0
100
AcDbSpline
70
4
71
3
72
10
73
6
40
0
40
0
40
0
40
0
40
0.717283655528243
40
0.717283655528243
40
1
40
1
40
1
40
1
41
1
10
23.1717908148673
20
-7.11693585312446
30
0
41
1
10
23.107538224807
20
-7.11693550214218
30
0
41
1
10
23.0786087921553
20
-7.11261790846524
30
0
41
1
10
22.8875767080336
20
-7.11128399485511
30
0
41
1
10
22.8210052305836
20
-7.11119504501593
30
0
41
1
10
22.7491441181323
20
-7.11122568810268
30
0
0
SPLINE
5
132
100
AcDbEntity
8
1
62
256
6
ByLayer
370
13
48
1
60
0
100
AcDbSpline
70
4
71
3
72
8
73
4
40
0
40
0
40
0
40
0
40
1
40
1
40
1
40
1
41
1
10
24.4595887806254
20
-7.21190676253198
30
0
41
1
10
24.4591188823469
20
-7.21178104169954
30
0
41
1
10
24.458646912788
20
-7.21165861364355
30
0
41
1
10
24.4581729430637
20
-7.21153950166479
30
0
0
SPLINE
5
133
100
AcDbEntity
8
1
62
256
6
ByLayer
370
13
48
1
60
0
100
AcDbSpline
70
4
71
3
72
8
73
4
40
0
40
0
40
0
40
0
40
1
40
1
40
1
40
1
41
1
10
23.1717908149011
20
-7.78307533243219
30
0
41
1
10
23.1385626824091
20
-7.78105158104998
30
0
41
1
10
23.105334549917
20
-7.77902782966777
30
0
41
1
10
23.0680350067023
20
-7.78148899627121
30
0
0
SPLINE
5
134
100
AcDbEntity
8
1
62
256
6
ByLayer
370
13
48
1
60
0
100
AcDbSpline
70
4
71
3
72
13
73
9
40
0
40
0
40
0
40
0
40
0.0515804092025864
40
0.201592966330238
40
0.221068282727517
40
0.257153240910783
40
0.433423222695574
40
1
40
1
40
1
40
1
41
1.00380040771819
10
22.9914740548151
20
-7.55249999999991
30
0
41
1.00380040771819
10
23.0007809731711
20
-7.55249999999991
30
0
41
1.00380040771819
10
23.0346982522592
20
-7.55249999999993
30
0
41
1.00380040771819
10
23.0629080941884
20
-7.55249999999986
30
0
41
1.00380040771819
10
23.0793515704192
20
-7.55249999999988
30
0
41
1.00380040771819
10
23.095371201136
20
-7.55249999999988
30
0
41
1.00380040771819
10
23.1526680918215
20
-7.55249999999988
30
0
41
1.00380040771819
10
23.2113151663897
20
-7.55249999999988
30
0
41
1.00380040771819
10
23.2580740547896
20
-7.55249999999988
30
0
0
SPLINE
5
135
100
AcDbEntity
8
1
62
256
6
ByLayer
370
13
48
1
60
0
100
AcDbSpline
70
4
71
3
72
12
73
8
40
0
40
0
40
0
40
0
40
0.387609073629198
40
0.387609073629198
40
0.69380453681125
40
0.69380453681125
40
1
40
1
40
1
40
1
41
1
10
23.2580740547896
20
-7.55249999999987
30
0
41
1
10
23.2472339968744
20
-7.58025866674851
30
0
41
1
10
23.2363938701831
20
-7.60801730727889
30
0
41
1
10
23.2169903457045
20
-7.65770409679698
30
0
41
1
10
23.2084269766652
20
-7.67963225676991
30
0
41
1
10
23.191300134929
20
-7.72348853705194
30
0
41
1
10
23.182736662234
20
-7.74541665736177
30
0
41
1
10
23.1741731333508
20
-7.76734475614904
30
0
0
SPLINE
5
136
100
AcDbEntity
8
1
62
256
6
ByLayer
370
13
48
1
60
0
100
AcDbSpline
70
4
71
3
72
8
73
4
40
0
40
0
40
0
40
0
40
1
40
1
40
1
40
1
41
1
10
23.0695360707858
20
-7.76863864590294
30
0
41
1
10
23.1055395585784
20
-7.7704188282066
30
0
41
1
10
23.1398609167486
20
-7.76887008833396
30
0
41
1
10
23.1741822749188
20
-7.76732134846128
30
0
0
SPLINE
5
137
100
AcDbEntity
8
1
62
256
6
ByLayer
370
13
48
1
60
0
100
AcDbSpline
70
4
71
3
72
10
73
6
40
0
40
0
40
0
40
0
40
0.273861705005381
40
0.273861705005381
40
1
40
1
40
1
40
1
41
1
10
22.7588455914888
20
-7.13685652578764
30
0
41
1
10
22.8271290302509
20
-7.13686933562391
30
0
41
1
10
22.8907262147651
20
-7.13680455696019
30
0
41
1
10
23.0845700597925
20
-7.1359244548614
30
0
41
1
10
23.109921064251
20
-7.13265554010701
30
0
41
1
10
23.1741731335645
20
-7.13265524385071
30
0
0
SPLINE
5
138
100
AcDbEntity
8
1
62
256
6
ByLayer
370
13
48
1
60
0
100
AcDbSpline
70
4
71
3
72
12
73
8
40
0
40
0
40
0
40
0
40
0.387609073630148
40
0.387609073630148
40
0.693804536812279
40
0.693804536812279
40
1
40
1
40
1
40
1
41
1
10
23.1741731333508
20
-7.13265524385071
30
0
41
1
10
23.1850135993161
20
-7.16041375460352
30
0
41
1
10
23.1958539752643
20
-7.18817229983719
30
0
41
1
10
23.2152576635573
20
-7.23785902672577
30
0
41
1
10
23.2238210064318
20
-7.25978719670229
30
0
41
1
10
23.2409475987786
20
-7.3036435723302
30
0
41
1
10
23.2495108482494
20
-7.32557177798228
30
0
41
1
10
23.2580740547896
20
-7.34749999999988
30
0
0
SPLINE
5
139
100
AcDbEntity
8
1
62
256
6
ByLayer
370
13
48
1
60
0
100
AcDbSpline
70
4
71
3
72
13
73
9
40
0
40
0
40
0
40
0
40
0.0383628127780613
40
0.190466011493006
40
0.210212744544767
40
0.246800598723529
40
0.42552715722141
40
1
40
1
40
1
40
1
41
1.00380040771819
10
22.9987820548059
20
-7.34749999999991
30
0
41
1.00380040771819
10
23.0053679427013
20
-7.34749999999991
30
0
41
1.00380040771819
10
23.0364521951681
20
-7.34749999999988
30
0
41
1.00380040771819
10
23.0629080941884
20
-7.34749999999989
30
0
41
1.00380040771819
10
23.0793515704192
20
-7.34749999999991
30
0
41
1.00380040771819
10
23.095371201136
20
-7.34749999999988
30
0
41
1.00380040771819
10
23.1526680918215
20
-7.34749999999991
30
0
41
1.00380040771819
10
23.2113151663897
20
-7.34749999999988
30
0
41
1.00380040771819
10
23.2580740547896
20
-7.34749999999988
30
0
0
SPLINE
5
13A
100
AcDbEntity
8
1
62
256
6
ByLayer
370
18
48
1
60
0
100
AcDbSpline
70
4
71
3
72
15
73
11
40
0
40
0
40
0
40
0
40
0.0129565017054879
40
0.0594020202700326
40
0.166911767033466
40
0.335645282919266
40
0.357551039821369
40
0.39813925444445
40
0.596407015098411
40
1
40
1
40
1
40
1
41
1
10
22.899440039148
20
-7.04999999999987
30
0
41
1
10
22.9019345019261
20
-7.04999999999987
30
0
41
1
10
22.9133399497512
20
-7.04999999999987
30
0
41
1
10
22.9450229295623
20
-7.04999999999987
30
0
41
1
10
22.9958346561191
20
-7.04999999999987
30
0
41
1
10
23.0296606598932
20
-7.04999999999987
30
0
41
1
10
23.0461037680336
20
-7.04999999999987
30
0
41
1
10
23.0621233114433
20
-7.04999999999987
30
0
41
1
10
23.1041375441013
20
-7.04999999999987
30
0
41
1
10
23.1455752017317
20
-7.04999999999987
30
0
41
1
10
23.1742200392234
20
-7.04999999999987
30
0
0
SPLINE
5
13B
100
AcDbEntity
8
1
62
256
6
ByLayer
370
13
48
1
60
0
100
AcDbSpline
70
4
71
3
72
14
73
10
40
0
40
0
40
0
40
0
40
0.352412558354493
40
0.352412558354493
40
0.703814226556138
40
0.703814226556138
40
0.977379794969396
40
0.977379794969396
40
1
40
1
40
1
40
1
41
1
10
23.1771043544855
20
-7.76810389774121
30
0
41
1
10
23.1865116111983
20
-7.77182919740184
30
0
41
1
10
23.2005733253053
20
-7.77652305936928
30
0
41
1
10
23.2355166179971
20
-7.78703169967221
30
0
41
1
10
23.2568545641655
20
-7.79298687237264
30
0
41
1
10
23.2986855214413
20
-7.80399407065156
30
0
41
1
10
23.3186875857852
20
-7.80905097983077
30
0
41
1
10
23.3410243175083
20
-7.81449364217781
30
0
41
1
10
23.3427265343704
20
-7.81490719387668
30
0
41
1
10
23.3444336503808
20
-7.81532072224269
30
0
0
SPLINE
5
13C
100
AcDbEntity
8
1
62
256
6
ByLayer
370
13
48
1
60
0
100
AcDbSpline
70
4
71
3
72
8
73
4
40
0
40
0
40
0
40
0
40
1
40
1
40
1
40
1
41
1
10
23.1741731333508
20
-7.76734475614904
30
0
41
1
10
23.1751441628781
20
-7.76746332018374
30
0
41
1
10
23.1761232526387
20
-7.76771537807991
30
0
41
1
10
23.1771043544855
20
-7.76810389774121
30
0
0
SPLINE
5
13D
100
AcDbEntity
8
1
62
256
6
ByLayer
370
18
48
1
60
0
100
AcDbSpline
70
4
71
3
72
15
73
11
40
0
40
0
40
0
40
0
40
0.012956501738611
40
0.0594020203015972
40
0.166911767061425
40
0.335645282941566
40
0.357551039842935
40
0.398139254464654
40
0.596407015111965
40
1
40
1
40
1
40
1
41
1
10
22.8994400391285
20
-7.84999999999988
30
0
41
1
10
22.9019345019132
20
-7.84999999999988
30
0
41
1
10
22.9133399497448
20
-7.84999999999988
30
0
41
1
10
22.9450229295623
20
-7.84999999999988
30
0
41
1
10
22.9958346561191
20
-7.84999999999988
30
0
41
1
10
23.0296606598932
20
-7.84999999999988
30
0
41
1
10
23.0461037680336
20
-7.84999999999988
30
0
41
1
10
23.0621233114433
20
-7.84999999999988
30
0
41
1
10
23.1041375441013
20
-7.84999999999988
30
0
41
1
10
23.1455752017317
20
-7.84999999999988
30
0
41
1
10
23.1742200392234
20
-7.84999999999988
30
0
0
SPLINE
5
13E
100
AcDbEntity
8
1
62
256
6
ByLayer
370
13
48
1
60
0
100
AcDbSpline
70
4
71
3
72
8
73
4
40
0
40
0
40
0
40
0
40
1
40
1
40
1
40
1
41
1
10
23.1741731333508
20
-7.13265524385071
30
0
41
1
10
23.1751441618291
20
-7.13253667994411
30
0
41
1
10
23.176123250522
20
-7.1322846224657
30
0
41
1
10
23.1771043513024
20
-7.13189610351907
30
0
0
SPLINE
5
13F
100
AcDbEntity
8
1
62
256
6
ByLayer
370
18
48
1
60
0
100
AcDbSpline
70
4
71
3
72
13
73
9
40
0
40
0
40
0
40
0
40
0.609011184280623
40
0.780799264285189
40
0.815966713788397
40
0.834946844026651
40
0.981145129773328
40
1
40
1
40
1
40
1
41
1.00380040771819
10
23.2796866723463
20
-7.44999999999988
30
0
41
1.00380040771819
10
23.2276574109185
20
-7.44999999999988
30
0
41
1.00380040771819
10
23.1640666687076
20
-7.44999999999988
30
0
41
1.00380040771819
10
23.1024796142379
20
-7.44999999999988
30
0
41
1.00380040771819
10
23.0864599762017
20
-7.44999999999988
30
0
41
1.00380040771819
10
23.0700165365277
20
-7.44999999999989
30
0
41
1.00380040771819
10
23.0459198517186
20
-7.44999999999988
30
0
41
1.00380040771819
10
23.0185263071565
20
-7.44999999999988
30
0
41
1.00380040771819
10
23.0153166723466
20
-7.44999999999991
30
0
0
SPLINE
5
140
100
AcDbEntity
8
1
62
256
6
ByLayer
370
13
48
1
60
0
100
AcDbSpline
70
4
71
3
72
16
73
12
40
0
40
0
40
0
40
0
40
0.0005624808094747
40
0.0005624808094747
40
0.318367056832485
40
0.318367056832485
40
0.628071253127572
40
0.628071253127572
40
0.999437519199403
40
0.999437519199403
40
1
40
1
40
1
40
1
41
1
10
23.2796866723461
20
-7.44999999999987
30
0
41
1
10
23.2796866699044
20
-7.4500199999992
30
0
41
1
10
23.2796866700721
20
-7.45003999999904
30
0
41
1
10
23.2796841070176
20
-7.46136010310195
30
0
41
1
10
23.2789579504438
20
-7.47269203525212
30
0
41
1
10
23.2760930913775
20
-7.49475555229901
30
0
41
1
10
23.2739818575805
20
-7.50555759061493
30
0
41
1
10
23.2678225186515
20
-7.5286487363496
30
0
41
1
10
23.2634366263942
20
-7.54092409893875
30
0
41
1
10
23.2580902655108
20
-7.55246502589949
30
0
41
1
10
23.2580821586393
20
-7.55248251235398
30
0
41
1
10
23.2580740547896
20
-7.55249999999987
30
0
0
SPLINE
5
141
100
AcDbEntity
8
1
62
256
6
ByLayer
370
13
48
1
60
0
100
AcDbSpline
70
4
71
3
72
16
73
12
40
0
40
0
40
0
40
0
40
0.0005636319613019
40
0.0005636319613019
40
0.37192904206569
40
0.37192904206569
40
0.681632524519126
40
0.681632524519126
40
0.999436368029756
40
0.999436368029756
40
1
40
1
40
1
40
1
41
1
10
23.2580740547896
20
-7.34749999999988
30
0
41
1
10
23.2580821586393
20
-7.34751748764577
30
0
41
1
10
23.2580902655108
20
-7.34753497410026
30
0
41
1
10
23.2634366263942
20
-7.359075901061
30
0
41
1
10
23.2678225186515
20
-7.37135126365015
30
0
41
1
10
23.2739818575805
20
-7.39444240938482
30
0
41
1
10
23.2760930913775
20
-7.40524444770074
30
0
41
1
10
23.2789579504438
20
-7.42730796474763
30
0
41
1
10
23.2796841070176
20
-7.43863989689777
30
0
41
1
10
23.2796866700721
20
-7.44996000000071
30
0
41
1
10
23.2796866699044
20
-7.44998000000055
30
0
41
1
10
23.2796866723461
20
-7.44999999999987
30
0
0
SPLINE
5
142
100
AcDbEntity
8
1
62
256
6
ByLayer
370
13
48
1
60
0
100
AcDbSpline
70
4
71
3
72
8
73
4
40
0
40
0
40
0
40
0
40
1
40
1
40
1
40
1
41
1
10
23.1717908148269
20
-7.11693585312446
30
0
41
1
10
23.1717908130899
20
-7.12226604843772
30
0
41
1
10
23.1725984791983
20
-7.12759531864512
30
0
41
1
10
23.1741731333509
20
-7.13265524385071
30
0
0
SPLINE
5
143
100
AcDbEntity
8
1
62
256
6
ByLayer
370
13
48
1
60
0
100
AcDbSpline
70
4
71
3
72
8
73
4
40
0
40
0
40
0
40
0
40
1
40
1
40
1
40
1
41
1
10
23.1741731333508
20
-7.76734475614904
30
0
41
1
10
23.1725984791983
20
-7.77240468135463
30
0
41
1
10
23.1717908130899
20
-7.77773395156203
30
0
41
1
10
23.1717908148268
20
-7.78306414687529
30
0
0
SPLINE
5
144
100
AcDbEntity
8
1
62
256
6
ByLayer
370
13
48
1
60
0
100
AcDbSpline
70
4
71
3
72
14
73
10
40
0
40
0
40
0
40
0
40
0.352186831715431
40
0.352186831715431
40
0.703364282488789
40
0.703364282488789
40
0.977380083745149
40
0.977380083745149
40
1
40
1
40
1
40
1
41
1
10
23.1742200339888
20
-7.11654428480151
30
0
41
1
10
23.1838488072418
20
-7.11403178198941
30
0
41
1
10
23.1981850728245
20
-7.11086654507358
30
0
41
1
10
23.2337388031987
20
-7.10378013447124
30
0
41
1
10
23.2554202538414
20
-7.09976445277655
30
0
41
1
10
23.2979278766392
20
-7.09233431393474
30
0
41
1
10
23.3182708102018
20
-7.08891599476183
30
0
41
1
10
23.3409737947979
20
-7.08523744690368
30
0
41
1
10
23.3427012737262
20
-7.08495835445484
30
0
41
1
10
23.3444336503808
20
-7.08467927775706
30
0
0
SPLINE
5
145
100
AcDbEntity
8
1
62
256
6
ByLayer
370
18
48
1
60
0
100
AcDbSpline
70
4
71
3
72
16
73
12
40
0
40
0
40
0
40
0
40
0.27428854272775
40
0.27428854272775
40
0.566022311222141
40
0.566022311222141
40
0.751596252678603
40
0.751596252678603
40
0.893040377395779
40
0.893040377395779
40
1
40
1
40
1
40
1
41
1
10
13.325062814467
20
-5.49999999999957
30
0
41
1
10
13.4258337513217
20
-5.49999999999957
30
0
41
1
10
13.5335073714283
20
-5.47227881243725
30
0
41
1
10
13.7523157855681
20
-5.3669303389311
30
0
41
1
10
13.8669747830915
20
-5.28490145748088
30
0
41
1
10
14.0343878722508
20
-5.10694189649263
30
0
41
1
10
14.095912496038
20
-5.02492067124595
30
0
41
1
10
14.1831415841857
20
-4.86031074650552
30
0
41
1
10
14.2144549340501
20
-4.7807134193524
30
0
41
1
10
14.2485062314269
20
-4.63350958757951
30
0
41
1
10
14.256486676169
20
-4.56643056472123
30
0
41
1
10
14.256486676169
20
-4.49999999999957
30
0
0
SPLINE
5
146
100
AcDbEntity
8
1
62
256
6
ByLayer
370
18
48
1
60
0
100
AcDbSpline
70
4
71
3
72
18
73
14
40
0
40
0
40
0
40
0
40
0.190645903168807
40
0.190645903168807
40
0.3810145818762
40
0.3810145818762
40
0.577343920924666
40
0.577343920924666
40
0.789423123169262
40
0.789423123169262
40
0.995733807992063
40
0.995733807992063
40
1
40
1
40
1
40
1
41
1
10
16.4055555555557
20
-6.04999999999959
30
0
41
1
10
16.4055555555557
20
-6.15471764864714
30
0
41
1
10
16.4178308354036
20
-6.26087850702882
30
0
41
1
10
16.4642095893856
20
-6.45814823738579
30
0
41
1
10
16.4988517632604
20
-6.55191580093364
30
0
41
1
10
16.5856204540855
20
-6.71887373375912
30
0
41
1
10
16.6393047204341
20
-6.79350142792825
30
0
41
1
10
16.7614682698126
20
-6.91872876793147
30
0
41
1
10
16.832291586962
20
-6.96859821445236
30
0
41
1
10
16.9759327191747
20
-7.03307831696733
30
0
41
1
10
17.0501319187437
20
-7.04934622463131
30
0
41
1
10
17.1247622050763
20
-7.04999346294019
30
0
41
1
10
17.1262699118845
20
-7.04999999999959
30
0
41
1
10
17.1277777777779
20
-7.04999999999959
30
0
0
SPLINE
5
147
100
AcDbEntity
8
1
62
256
6
ByLayer
370
18
48
1
60
0
100
AcDbSpline
70
4
71
3
72
12
73
8
40
0
40
0
40
0
40
0
40
0.466744315005397
40
0.466744315005397
40
0.805953061466898
40
0.805953061466898
40
1
40
1
40
1
40
1
41
1
10
12.6813197058143
20
-6.40949662379202
30
0
41
1
10
12.7902382250992
20
-6.53733845224789
30
0
41
1
10
12.929894536417
20
-6.65621842358883
30
0
41
1
10
13.210731381944
20
-6.83380091332205
30
0
41
1
10
13.3443599219781
20
-6.90138830472978
30
0
41
1
10
13.5681991242826
20
-6.98236293157771
30
0
41
1
10
13.6538964407053
20
-7.00692312166296
30
0
41
1
10
13.7405982366585
20
-7.02389966246898
30
0
0
SPLINE
5
148
100
AcDbEntity
8
1
62
256
6
ByLayer
370
18
48
1
60
0
100
AcDbSpline
70
4
71
3
72
12
73
8
40
0
40
0
40
0
40
0
40
0.363537134899254
40
0.363537134899254
40
0.724982714620621
40
0.724982714620621
40
1
40
1
40
1
40
1
41
1
10
12.5495051958951
20
-6.04999999999959
30
0
41
1
10
12.5495051958951
20
-6.10084359373712
30
0
41
1
10
12.5568225074752
20
-6.15249471047568
30
0
41
1
10
12.5831597972582
20
-6.24686247264245
30
0
41
1
10
12.6023805183939
20
-6.29104173596735
30
0
41
1
10
12.6419282851968
20
-6.35908451658514
30
0
41
1
10
12.6611671974271
20
-6.38584285457247
30
0
41
1
10
12.6813197058117
20
-6.40949662380018
30
0
0
SPLINE
5
149
100
AcDbEntity
8
1
62
256
6
ByLayer
370
18
48
1
60
0
100
AcDbSpline
70
4
71
3
72
18
73
14
40
0
40
0
40
0
40
0
40
0.246772336372089
40
0.246772336372089
40
0.456660038117936
40
0.456660038117936
40
0.635594038903794
40
0.635594038903794
40
0.816024474394253
40
0.816024474394253
40
0.974524648564073
40
0.974524648564073
40
1
40
1
40
1
40
1
41
1
10
13.33589358231
20
-7.04999999999959
30
0
41
1
10
13.2223154368209
20
-7.04999999999959
30
0
41
1
10
13.0999490141729
20
-7.04174074784453
30
0
41
1
10
12.8668535846927
20
-6.99004815580588
30
0
41
1
10
12.7552168396677
20
-6.95110884571142
30
0
41
1
10
12.5594150311042
20
-6.8407266278185
30
0
41
1
10
12.4718550063702
20
-6.77351303601549
30
0
41
1
10
12.3221577402029
20
-6.6095970561467
30
0
41
1
10
12.2582051464211
20
-6.51004193371665
30
0
41
1
10
12.1768146982989
20
-6.30771264809914
30
0
41
1
10
12.1535501999237
20
-6.20396639439355
30
0
41
1
10
12.1470832366458
20
-6.08379231215747
30
0
41
1
10
12.1466287184315
20
-6.06689260360673
30
0
41
1
10
12.1466287184315
20
-6.04999999999959
30
0
0
SPLINE
5
14A
100
AcDbEntity
8
1
62
256
6
ByLayer
370
18
48
1
60
0
100
AcDbSpline
70
4
71
3
72
8
73
4
40
0
40
0
40
0
40
0
40
1
40
1
40
1
40
1
41
1
10
-0.399999999999949
20
-7.84999999999962
30
0
41
1
10
-0.475824100695121
20
-7.84999999999962
30
0
41
1
10
-0.55313192740303
20
-7.85882959168555
30
0
41
1
10
-0.627723180766338
20
-7.87627408736219
30
0
0
SPLINE
5
14B
100
AcDbEntity
8
1
62
256
6
ByLayer
370
18
48
1
60
0
100
AcDbSpline
70
4
71
3
72
18
73
14
40
0
40
0
40
0
40
0
40
0.0712414146225012
40
0.0712414146225012
40
0.287802961583434
40
0.287802961583434
40
0.504015726460183
40
0.504015726460183
40
0.719388743565406
40
0.719388743565406
40
0.933810437745192
40
0.933810437745192
40
1
40
1
40
1
40
1
41
1
10
23.5994052493465
20
-7.04999999999961
30
0
41
1
10
23.5870027733541
20
-7.04999999999956
30
0
41
1
10
23.5745811664117
20
-7.04791345223924
30
0
41
1
10
23.5250281329392
20
-7.0312105272769
30
0
41
1
10
23.4880023785796
20
-6.99908736871967
30
0
41
1
10
23.4205728149723
20
-6.90100148602133
30
0
41
1
10
23.3892250408914
20
-6.83372865449118
30
0
41
1
10
23.3365739104905
20
-6.67404767268945
30
0
41
1
10
23.3145044743593
20
-6.5795221554248
30
0
41
1
10
23.2825725293825
20
-6.37694317653094
30
0
41
1
10
23.2722166551235
20
-6.26614967874815
30
0
41
1
10
23.2670898212033
20
-6.12004843104296
30
0
41
1
10
23.2664765526431
20
-6.08499994926044
30
0
41
1
10
23.2664765526431
20
-6.04999999999961
30
0
0
SPLINE
5
14C
100
AcDbEntity
8
1
62
256
6
ByLayer
370
18
48
1
60
0
100
AcDbSpline
70
4
71
2
72
6
73
3
40
0
40
0
40
0
40
1
40
1
40
1
41
1.01080366708862
10
26.0322665658566
20
-6.94251066133947
30
0
41
0.732634175279285
10
26.0999999999995
20
-6.94371119158839
30
0
41
1.04381475184383
10
26.0999999999995
20
-7.0125000000003
30
0
0
SPLINE
5
14D
100
AcDbEntity
8
1
62
256
6
ByLayer
370
18
48
1
60
0
100
AcDbSpline
70
4
71
3
72
8
73
4
40
0
40
0
40
0
40
0
40
1
40
1
40
1
40
1
41
1
10
25.8662873931446
20
-6.95143949178691
30
0
41
1
10
25.9212706877265
20
-6.94451982597698
30
0
41
1
10
25.97687102734
20
-6.94152881212167
30
0
41
1
10
26.032266565851
20
-6.94251066133893
30
0
0
SPLINE
5
14E
100
AcDbEntity
8
1
62
256
6
ByLayer
370
18
48
1
60
0
100
AcDbSpline
70
4
71
3
72
8
73
4
40
0
40
0
40
0
40
0
40
1
40
1
40
1
40
1
41
1
10
23.1742200588793
20
-7.7830752399264
30
0
41
1
10
23.1734103108866
20
-7.78307527076166
30
0
41
1
10
23.1726005628939
20
-7.78307530159691
30
0
41
1
10
23.1717908149011
20
-7.78307533243219
30
0
0
SPLINE
5
14F
100
AcDbEntity
8
1
62
256
6
ByLayer
370
18
48
1
60
0
100
AcDbSpline
70
4
71
3
72
12
73
8
40
0
40
0
40
0
40
0
40
0.595128367837928
40
0.595128367837928
40
0.816646789495926
40
0.816646789495926
40
1
40
1
40
1
40
1
41
1
10
24.45804637788
20
-7.65867931184357
30
0
41
1
10
24.4607449001363
20
-7.6632125728184
30
0
41
1
10
24.4631813763822
20
-7.66830737139742
30
0
41
1
10
24.4658972475902
20
-7.67551424832669
30
0
41
1
10
24.4665814966364
20
-7.67751999265212
30
0
41
1
10
24.4677029698397
20
-7.68118255737878
30
0
41
1
10
24.4681639576776
20
-7.68284119187729
30
0
41
1
10
24.4685780242098
20
-7.68449758870111
30
0
0
SPLINE
5
150
100
AcDbEntity
8
1
62
256
6
ByLayer
370
18
48
1
60
0
100
AcDbSpline
70
4
71
3
72
8
73
4
40
0
40
0
40
0
40
0
40
1
40
1
40
1
40
1
41
1
10
25.8296828109187
20
-6.9548761689702
30
0
41
1
10
25.8419135266837
20
-6.95411656627596
30
0
41
1
10
25.8541268633269
20
-6.9529698984868
30
0
41
1
10
25.8662873931446
20
-6.95143949178691
30
0
0
SPLINE
5
151
100
AcDbEntity
8
1
62
256
6
ByLayer
370
18
48
1
60
0
100
AcDbSpline
70
4
71
3
72
8
73
4
40
0
40
0
40
0
40
0
40
1
40
1
40
1
40
1
41
1
10
24.4578250997201
20
-7.24188636001742
30
0
41
1
10
24.4578648198851
20
-7.24169573792202
30
0
41
1
10
24.457938847096
20
-7.24150132965576
30
0
41
1
10
24.45804637788
20
-7.24132068815618
30
0
0
SPLINE
5
152
100
AcDbEntity
8
1
62
256
6
ByLayer
370
18
48
1
60
0
100
AcDbSpline
70
4
71
3
72
8
73
4
40
0
40
0
40
0
40
0
40
1
40
1
40
1
40
1
41
1
10
26.0996546338886
20
-7.04793870454625
30
0
41
1
10
26.0998806511593
20
-7.04275634742959
30
0
41
1
10
26.1000000000002
20
-7.03717528194125
30
0
41
1
10
26.1000000000001
20
-7.03167107288493
30
0
0
SPLINE
5
153
100
AcDbEntity
8
1
62
256
6
ByLayer
370
18
48
1
60
0
100
AcDbSpline
70
4
71
3
72
8
73
4
40
0
40
0
40
0
40
0
40
1
40
1
40
1
40
1
41
1
10
26.0322665658518
20
-7.95748933866082
30
0
41
1
10
25.9768710273405
20
-7.9584711878781
30
0
41
1
10
25.9212706877267
20
-7.9554801740228
30
0
41
1
10
25.8662873931446
20
-7.94856050821284
30
0
0
SPLINE
5
154
100
AcDbEntity
8
1
62
256
6
ByLayer
370
18
48
1
60
0
100
AcDbSpline
70
4
71
3
72
8
73
4
40
0
40
0
40
0
40
0
40
1
40
1
40
1
40
1
41
1
10
24.45804637788
20
-7.65867931184357
30
0
41
1
10
24.457938847096
20
-7.65849867034399
30
0
41
1
10
24.4578648198851
20
-7.65830426207773
30
0
41
1
10
24.4578250997201
20
-7.65811363998233
30
0
0
SPLINE
5
155
100
AcDbEntity
8
1
62
256
6
ByLayer
370
18
48
1
60
0
100
AcDbSpline
70
4
71
3
72
8
73
4
40
0
40
0
40
0
40
0
40
1
40
1
40
1
40
1
41
1
10
25.8662873931476
20
-7.94856050821321
30
0
41
1
10
25.8541268633289
20
-7.94703010151312
30
0
41
1
10
25.8419135266847
20
-7.94588343372388
30
0
41
1
10
25.8296828109187
20
-7.94512383102955
30
0
0
SPLINE
5
156
100
AcDbEntity
8
1
62
256
6
ByLayer
370
18
48
1
60
0
100
AcDbSpline
70
4
71
3
72
8
73
4
40
0
40
0
40
0
40
0
40
1
40
1
40
1
40
1
41
1
10
26.1000000000001
20
-7.86832892711698
30
0
41
1
10
26.1000000000001
20
-7.86282471806027
30
0
41
1
10
26.0998806511593
20
-7.85724365257167
30
0
41
1
10
26.0996546338886
20
-7.85206129545435
30
0
0
SPLINE
5
157
100
AcDbEntity
8
1
62
256
6
ByLayer
370
18
48
1
60
0
100
AcDbSpline
70
4
71
2
72
6
73
3
40
0
40
0
40
0
40
1
40
1
40
1
41
0.507160902259298
10
24.4578250997201
20
-7.65811363998233
30
0
41
0.524785243493249
10
24.4378501986369
20
-7.56225156349133
30
0
41
0.585786437626905
10
24.4378501986369
20
-7.44999999999987
30
0
0
SPLINE
5
158
100
AcDbEntity
8
1
62
256
6
ByLayer
370
18
48
1
60
0
100
AcDbSpline
70
4
71
2
72
6
73
3
40
0
40
0
40
0
40
1
40
1
40
1
41
1.04381475184383
10
26.0999999999995
20
-7.8874999999995
30
0
41
0.732634175296066
10
26.0999999999996
20
-7.95628880840612
30
0
41
1.01080366705862
10
26.0322665658619
20
-7.95748933866023
30
0
0
SPLINE
5
159
100
AcDbEntity
8
1
62
256
6
ByLayer
370
18
48
1
60
0
100
AcDbSpline
70
4
71
3
72
12
73
8
40
0
40
0
40
0
40
0
40
0.30296379356185
40
0.30296379356185
40
0.605946562251094
40
0.605946562251094
40
1
40
1
40
1
40
1
41
1
10
26.0901199723577
20
-7.44999999999581
30
0
41
1
10
26.0903590498729
20
-7.40853061780371
30
0
41
1
10
26.090815819687
20
-7.36710676866926
30
0
41
1
10
26.092163536162
20
-7.28481355713981
30
0
41
1
10
26.0930558055618
20
-7.2438648885927
30
0
41
1
10
26.0956155851333
20
-7.1507496767087
30
0
41
1
10
26.0974398124281
20
-7.09872241554501
30
0
41
1
10
26.0996546338886
20
-7.04793870454625
30
0
0
SPLINE
5
15A
100
AcDbEntity
8
1
62
256
6
ByLayer
370
18
48
1
60
0
100
AcDbSpline
70
4
71
2
72
6
73
3
40
0
40
0
40
0
40
1
40
1
40
1
41
0.5071609022593
10
24.4578250997201
20
-7.24188636001741
30
0
41
0.524785243493253
10
24.4378501986369
20
-7.33774843650839
30
0
41
0.585786437626905
10
24.4378501986369
20
-7.44999999999987
30
0
0
SPLINE
5
15B
100
AcDbEntity
8
1
62
256
6
ByLayer
370
18
48
1
60
0
100
AcDbSpline
70
4
71
3
72
23
73
19
40
0
40
0
40
0
40
0
40
0.0667138217593481
40
0.100070732639022
40
0.116749188078859
40
0.125088415798778
40
0.133427643518696
40
0.266855287037392
40
0.400282930556088
40
0.533710574074785
40
0.667138217593481
40
0.733852039352829
40
0.800565861112177
40
0.817244316552014
40
0.833922771991851
40
0.867279682871525
40
0.933993504630873
40
1
40
1
40
1
40
1
41
0.585786437626905
10
24.4378501986369
20
-7.44999999999987
30
0
41
0.582753098810146
10
24.4735060415782
20
-7.4499999999998
30
0
41
0.579038407561409
10
24.5269797849565
20
-7.44999999999964
30
0
41
0.575024809864603
10
24.5894025626877
20
-7.44999999999947
30
0
41
0.572189222457651
10
24.6205638463854
20
-7.44999999999943
30
0
41
0.570039949155529
10
24.6384594098326
20
-7.44999999999937
30
0
41
0.565531922777771
10
24.7171323728822
20
-7.44999999999915
30
0
41
0.559386384956946
10
24.8672597524393
20
-7.44999999999881
30
0
41
0.551948607100608
10
25.0934436846042
20
-7.44999999999824
30
0
41
0.544512890748142
10
25.3229712579353
20
-7.44999999999772
30
0
41
0.537760250090154
10
25.5122512110804
20
-7.44999999999724
30
0
41
0.531763600529417
10
25.6597865187933
20
-7.4499999999969
30
0
41
0.527306521300254
10
25.7405268912733
20
-7.44999999999669
30
0
41
0.523650101277082
10
25.7943072666673
20
-7.44999999999655
30
0
41
0.520657117479325
10
25.8303631555023
20
-7.44999999999645
30
0
41
0.516697257902961
10
25.8934749055707
20
-7.44999999999632
30
0
41
0.512714243952393
10
25.9829626905295
20
-7.44999999999609
30
0
41
0.509362086255412
10
26.0544883253392
20
-7.4499999999959
30
0
41
0.507579756606469
10
26.0901199723577
20
-7.44999999999583
30
0
0
SPLINE
5
15C
100
AcDbEntity
8
1
62
256
6
ByLayer
370
18
48
1
60
0
100
AcDbSpline
70
4
71
3
72
12
73
8
40
0
40
0
40
0
40
0
40
0.183353264214313
40
0.183353264214313
40
0.404851679066349
40
0.404851679066349
40
1
40
1
40
1
40
1
41
1
10
24.4685780242097
20
-7.21550241129879
30
0
41
1
10
24.4681639576775
20
-7.2171588081228
30
0
41
1
10
24.4677029698397
20
-7.21881744262157
30
0
41
1
10
24.4665815517273
20
-7.22247982742905
30
0
41
1
10
24.4658973699357
20
-7.22448539315002
30
0
41
1
10
24.4631815389588
20
-7.23169228705137
30
0
41
1
10
24.4607449898205
20
-7.2367872765204
30
0
41
1
10
24.45804637788
20
-7.24132068815618
30
0
0
SPLINE
5
15D
100
AcDbEntity
8
1
62
256
6
ByLayer
370
18
48
1
60
0
100
AcDbSpline
70
4
71
3
72
12
73
8
40
0
40
0
40
0
40
0
40
0.274269940000897
40
0.274269940000897
40
0.577285852825003
40
0.577285852825003
40
1
40
1
40
1
40
1
41
1
10
26.0996546338879
20
-7.85206129545131
30
0
41
1
10
26.0981115813621
20
-7.8166805955058
30
0
41
1
10
26.0967586691665
20
-7.7807072072184
30
0
41
1
10
26.0943013723722
20
-7.70422268515884
30
0
41
1
10
26.0932352636732
20
-7.6635495662797
30
0
41
1
10
26.091209550469
20
-7.56555771368585
30
0
41
1
10
26.0904532406565
20
-7.50780732011046
30
0
41
1
10
26.0901199723577
20
-7.45000000000394
30
0
0
SPLINE
5
15E
100
AcDbEntity
8
1
62
256
6
ByLayer
370
18
48
1
60
0
100
AcDbSpline
70
4
71
3
72
8
73
4
40
0
40
0
40
0
40
0
40
1
40
1
40
1
40
1
41
1
10
23.174221400515
20
-7.11692474933218
30
0
41
1
10
23.1734142102686
20
-7.11706093276504
30
0
41
1
10
23.1726039819447
20
-7.11706416533826
30
0
41
1
10
23.1717908148269
20
-7.11693585312446
30
0
0
LINE
5
70
100
AcDbEntity
8
80
62
256
6
ByLayer
370
18
48
1
60
0
100
AcDbLine
10
0
20
0
30
0
11
-5
21
0
31
0
39
0
210
0
220
0
230
1
0
LINE
5
71
100
AcDbEntity
8
81
62
256
6
ByLayer
370
18
48
1
60
0
100
AcDbLine
10
26.1
20
-7.95
30
0
11
31.1
21
-7.95
31
0
39
0
210
0
220
0
230
1
0
LINE
5
72
100
AcDbEntity
8
SK1
62
256
6
ByLayer
370
18
48
1
60
0
100
AcDbLine
10
-0.1
20
-7.85
30
0
11
-0.1
21
8.000391
31
0
39
0
210
0
220
0
230
1
0
LINE
5
74
100
AcDbEntity
8
SK1
62
256
6
ByLayer
370
18
48
1
60
0
100
AcDbLine
10
-98.9
20
-7.9
30
0
11
-98.9
21
8
31
0
39
0
210
0
220
0
230
1
0
LINE
5
75
100
AcDbEntity
8
SK1
62
256
6
ByLayer
370
13
48
1
60
0
100
AcDbLine
10
-0.627723
20
8
30
0
11
-0.627723
21
-7.876274
31
0
39
0
210
0
220
0
230
1
0
LINE
5
76
100
AcDbEntity
8
SK1
62
256
6
ByLayer
370
18
48
1
60
0
100
AcDbLine
10
-98.9
20
8
30
0
11
-0.627723
21
8
31
0
39
0
210
0
220
0
230
1
0
LINE
5
77
100
AcDbEntity
8
SK1
62
256
6
ByLayer
370
18
48
1
60
0
100
AcDbLine
10
-0.1
20
-7.85
30
0
11
-0.4
21
-7.85
31
0
39
0
210
0
220
0
230
1
0
LINE
5
78
100
AcDbEntity
8
SK1
62
256
6
ByLayer
370
18
48
1
60
0
100
AcDbLine
10
-98.9
20
-7.9
30
0
11
-0.71225
21
-7.9
31
0
39
0
210
0
220
0
230
1
0
LINE
5
79
100
AcDbEntity
8
1
62
256
6
ByLayer
370
18
48
1
60
0
100
AcDbLine
10
12.1
20
-5.5
30
0
11
12.1
21
-6.05
31
0
39
0
210
0
220
0
230
1
0
LINE
5
7B
100
AcDbEntity
8
1
62
256
6
ByLayer
370
18
48
1
60
0
100
AcDbLine
10
22.678399
20
-7.85
30
0
11
22.813477
21
-7.608802
31
0
39
0
210
0
220
0
230
1
0
LINE
5
7C
100
AcDbEntity
8
1
62
256
6
ByLayer
370
13
48
1
60
0
100
AcDbLine
10
12.68132
20
-6.409497
30
0
11
12.68132
21
-6.903499
31
0
39
0
210
0
220
0
230
1
0
LINE
5
7D
100
AcDbEntity
8
1
62
256
6
ByLayer
370
18
48
1
60
0
100
AcDbLine
10
12.146629
20
-6.05
30
0
11
12.146629
21
-5.5
31
0
39
0
210
0
220
0
230
1
0
LINE
5
7E
100
AcDbEntity
8
1
62
256
6
ByLayer
370
18
48
1
60
0
100
AcDbLine
10
12.8
20
1.360294
30
0
11
14.256487
21
0.43928
31
0
39
0
210
0
220
0
230
1
0
LINE
5
7F
100
AcDbEntity
8
1
62
256
6
ByLayer
370
18
48
1
60
0
100
AcDbLine
10
0.917758
20
8.005174
30
0
11
1.081381
21
8.007839
31
0
39
0
210
0
220
0
230
1
0
LINE
5
80
100
AcDbEntity
8
1
62
256
6
ByLayer
370
13
48
1
60
0
100
AcDbLine
10
23.266477
20
-6.05
30
0
11
16.405556
21
-6.05
31
0
39
0
210
0
220
0
230
1
0
LINE
5
81
100
AcDbEntity
8
1
62
256
6
ByLayer
370
18
48
1
60
0
100
AcDbLine
10
12.1
20
-5.5
30
0
11
12.146629
21
-5.5
31
0
39
0
210
0
220
0
230
1
0
LINE
5
82
100
AcDbEntity
8
1
62
256
6
ByLayer
370
18
48
1
60
0
100
AcDbLine
10
6.6
20
5.280882
30
0
11
12.8
21
1.360294
31
0
39
0
210
0
220
0
230
1
0
LINE
5
83
100
AcDbEntity
8
1
62
256
6
ByLayer
370
18
48
1
60
0
100
AcDbLine
10
22.813477
20
-7.291198
30
0
11
22.678399
21
-7.05
31
0
39
0
210
0
220
0
230
1
0
LINE
5
84
100
AcDbEntity
8
1
62
256
6
ByLayer
370
18
48
1
60
0
100
AcDbLine
10
12.549505
20
-5.5
30
0
11
12.146628
21
-5.5
31
0
39
0
210
0
220
0
230
1
0
LINE
5
85
100
AcDbEntity
8
1
62
256
6
ByLayer
370
18
48
1
60
0
100
AcDbLine
10
1.081381
20
-7.85
30
0
11
0.917758
21
-7.85
31
0
39
0
210
0
220
0
230
1
0
LINE
5
86
100
AcDbEntity
8
1
62
256
6
ByLayer
370
13
48
1
60
0
100
AcDbLine
10
14.256487
20
-4.5
30
0
11
12.8
21
-4.5
31
0
39
0
210
0
220
0
230
1
0
LINE
5
87
100
AcDbEntity
8
1
62
256
6
ByLayer
370
18
48
1
60
0
100
AcDbLine
10
14.256487
20
0.43928
30
0
11
16.405556
21
-0.91969
31
0
39
0
210
0
220
0
230
1
0
LINE
5
88
100
AcDbEntity
8
1
62
256
6
ByLayer
370
13
48
1
60
0
100
AcDbLine
10
17.336489
20
-7.05
30
0
11
17.336489
21
-7.85
31
0
39
0
210
0
220
0
230
1
0
LINE
5
89
100
AcDbEntity
8
1
62
256
6
ByLayer
370
18
48
1
60
0
100
AcDbLine
10
0.917758
20
-7.85
30
0
11
-0.1
21
-7.85
31
0
39
0
210
0
220
0
230
1
0
LINE
5
8A
100
AcDbEntity
8
1
62
256
6
ByLayer
370
18
48
1
60
0
100
AcDbLine
10
12.549505
20
-5.5
30
0
11
12.549505
21
-6.05
31
0
39
0
210
0
220
0
230
1
0
LINE
5
8B
100
AcDbEntity
8
1
62
256
6
ByLayer
370
13
48
1
60
0
100
AcDbLine
10
12.8
20
-5.5
30
0
11
12.8
21
-4.5
31
0
39
0
210
0
220
0
230
1
0
LINE
5
8C
100
AcDbEntity
8
1
62
256
6
ByLayer
370
18
48
1
60
0
100
AcDbLine
10
-0.1
20
-7.85
30
0
11
-0.1
21
8.000391
31
0
39
0
210
0
220
0
230
1
0
LINE
5
8D
100
AcDbEntity
8
1
62
256
6
ByLayer
370
18
48
1
60
0
100
AcDbLine
10
22.678399
20
-7.85
30
0
11
20.336489
21
-7.85
31
0
39
0
210
0
220
0
230
1
0
LINE
5
8E
100
AcDbEntity
8
1
62
256
6
ByLayer
370
18
48
1
60
0
100
AcDbLine
10
14.256487
20
-4.5
30
0
11
14.256487
21
0.43928
31
0
39
0
210
0
220
0
230
1
0
LINE
5
8F
100
AcDbEntity
8
1
62
256
6
ByLayer
370
18
48
1
60
0
100
AcDbLine
10
6.6
20
5.280882
30
0
11
2.287604
21
8.007839
31
0
39
0
210
0
220
0
230
1
0
LINE
5
90
100
AcDbEntity
8
1
62
256
6
ByLayer
370
18
48
1
60
0
100
AcDbLine
10
2.287604
20
8.007839
30
0
11
1.081381
21
8.007839
31
0
39
0
210
0
220
0
230
1
0
LINE
5
91
100
AcDbEntity
8
1
62
256
6
ByLayer
370
13
48
1
60
0
100
AcDbLine
10
0.917758
20
-7.85
30
0
11
0.917758
21
8.005174
31
0
39
0
210
0
220
0
230
1
0
LINE
5
92
100
AcDbEntity
8
1
62
256
6
ByLayer
370
18
48
1
60
0
100
AcDbLine
10
13.325063
20
-5.5
30
0
11
12.549505
21
-5.5
31
0
39
0
210
0
220
0
230
1
0
LINE
5
93
100
AcDbEntity
8
1
62
256
6
ByLayer
370
18
48
1
60
0
100
AcDbLine
10
20.336489
20
-7.05
30
0
11
17.336489
21
-7.05
31
0
39
0
210
0
220
0
230
1
0
LINE
5
94
100
AcDbEntity
8
1
62
256
6
ByLayer
370
13
48
1
60
0
100
AcDbLine
10
16.405556
20
-6.05
30
0
11
12.549505
21
-6.05
31
0
39
0
210
0
220
0
230
1
0
LINE
5
95
100
AcDbEntity
8
1
62
256
6
ByLayer
370
18
48
1
60
0
100
AcDbLine
10
17.336489
20
-7.85
30
0
11
1.081381
21
-7.85
31
0
39
0
210
0
220
0
230
1
0
LINE
5
96
100
AcDbEntity
8
1
62
256
6
ByLayer
370
13
48
1
60
0
100
AcDbLine
10
12.8
20
-4.5
30
0
11
12.8
21
1.360294
31
0
39
0
210
0
220
0
230
1
0
LINE
5
97
100
AcDbEntity
8
1
62
256
6
ByLayer
370
18
48
1
60
0
100
AcDbLine
10
22.678399
20
-7.05
30
0
11
20.336489
21
-7.05
31
0
39
0
210
0
220
0
230
1
0
LINE
5
98
100
AcDbEntity
8
1
62
256
6
ByLayer
370
18
48
1
60
0
100
AcDbLine
10
20.336489
20
-7.85
30
0
11
17.336489
21
-7.85
31
0
39
0
210
0
220
0
230
1
0
LINE
5
99
100
AcDbEntity
8
1
62
256
6
ByLayer
370
18
48
1
60
0
100
AcDbLine
10
23.266477
20
-6.05
30
0
11
23.266477
21
-5.258213
31
0
39
0
210
0
220
0
230
1
0
LINE
5
9A
100
AcDbEntity
8
1
62
256
6
ByLayer
370
18
48
1
60
0
100
AcDbLine
10
17.336489
20
-7.05
30
0
11
13.1
21
-7.05
31
0
39
0
210
0
220
0
230
1
0
LINE
5
9B
100
AcDbEntity
8
1
62
256
6
ByLayer
370
18
48
1
60
0
100
AcDbLine
10
1.081381
20
-7.85
30
0
11
1.081381
21
8.007839
31
0
39
0
210
0
220
0
230
1
0
LINE
5
9C
100
AcDbEntity
8
1
62
256
6
ByLayer
370
18
48
1
60
0
100
AcDbLine
10
12.1
20
-5.5
30
0
11
7.6
21
-5.5
31
0
39
0
210
0
220
0
230
1
0
LINE
5
9D
100
AcDbEntity
8
1
62
256
6
ByLayer
370
18
48
1
60
0
100
AcDbLine
10
16.405556
20
-0.91969
30
0
11
23.266477
21
-5.258213
31
0
39
0
210
0
220
0
230
1
0
LINE
5
9E
100
AcDbEntity
8
1
62
256
6
ByLayer
370
18
48
1
60
0
100
AcDbLine
10
16.405556
20
-0.91969
30
0
11
16.405556
21
-6.05
31
0
39
0
210
0
220
0
230
1
0
LINE
5
9F
100
AcDbEntity
8
1
62
256
6
ByLayer
370
18
48
1
60
0
100
AcDbLine
10
6.6
20
5.280882
30
0
11
6.6
21
-4.5
31
0
39
0
210
0
220
0
230
1
0
LINE
5
A0
100
AcDbEntity
8
1
62
256
6
ByLayer
370
13
48
1
60
0
100
AcDbLine
10
20.336489
20
-7.85
30
0
11
20.336489
21
-7.05
31
0
39
0
210
0
220
0
230
1
0
LINE
5
A1
100
AcDbEntity
8
1
62
256
6
ByLayer
370
13
48
1
60
0
100
AcDbLine
10
12.1
20
-6.05
30
0
11
12.146629
21
-6.05
31
0
39
0
210
0
220
0
230
1
0
LINE
5
A2
100
AcDbEntity
8
1
62
256
6
ByLayer
370
13
48
1
60
0
100
AcDbLine
10
6.6
20
-4.5
30
0
11
12.8
21
-4.5
31
0
39
0
210
0
220
0
230
1
0
LINE
5
A3
100
AcDbEntity
8
1
62
256
6
ByLayer
370
13
48
1
60
0
100
AcDbLine
10
13.740598
20
-7.0239
30
0
11
13.740598
21
-7.050012
31
0
39
0
210
0
220
0
230
1
0
LINE
5
A4
100
AcDbEntity
8
1
62
256
6
ByLayer
370
13
48
1
60
0
100
AcDbLine
10
12.8
20
-4.5
30
0
11
12.8
21
1.360294
31
0
39
0
210
0
220
0
230
1
0
LINE
5
A5
100
AcDbEntity
8
1
62
256
6
ByLayer
370
13
48
1
60
0
100
AcDbLine
10
-0.627723
20
8
30
0
11
-0.627723
21
-7.876274
31
0
39
0
210
0
220
0
230
1
0
LINE
5
A6
100
AcDbEntity
8
1
62
256
6
ByLayer
370
13
48
1
60
0
100
AcDbLine
10
12.1
20
-6.05
30
0
11
12.146629
21
-6.05
31
0
39
0
210
0
220
0
230
1
0
LINE
5
A7
100
AcDbEntity
8
1
62
256
6
ByLayer
370
13
48
1
60
0
100
AcDbLine
10
12.68132
20
-6.409497
30
0
11
12.68132
21
-6.903499
31
0
39
0
210
0
220
0
230
1
0
LINE
5
A8
100
AcDbEntity
8
1
62
256
6
ByLayer
370
13
48
1
60
0
100
AcDbLine
10
16.405556
20
-6.05
30
0
11
12.549505
21
-6.05
31
0
39
0
210
0
220
0
230
1
0
LINE
5
A9
100
AcDbEntity
8
1
62
256
6
ByLayer
370
13
48
1
60
0
100
AcDbLine
10
13.740598
20
-7.0239
30
0
11
13.740598
21
-7.050012
31
0
39
0
210
0
220
0
230
1
0
LINE
5
AA
100
AcDbEntity
8
1
62
256
6
ByLayer
370
13
48
1
60
0
100
AcDbLine
10
14.256487
20
-4.5
30
0
11
12.8
21
-4.5
31
0
39
0
210
0
220
0
230
1
0
LINE
5
AB
100
AcDbEntity
8
1
62
256
6
ByLayer
370
13
48
1
60
0
100
AcDbLine
10
12.8
20
-5.5
30
0
11
12.8
21
-4.5
31
0
39
0
210
0
220
0
230
1
0
LINE
5
AC
100
AcDbEntity
8
1
62
256
6
ByLayer
370
13
48
1
60
0
100
AcDbLine
10
6.6
20
-4.5
30
0
11
12.8
21
-4.5
31
0
39
0
210
0
220
0
230
1
0
LINE
5
AD
100
AcDbEntity
8
1
62
256
6
ByLayer
370
13
48
1
60
0
100
AcDbLine
10
25.3
20
-6.987773
30
0
11
25.3
21
-7.124247
31
0
39
0
210
0
220
0
230
1
0
LINE
5
AE
100
AcDbEntity
8
1
62
256
6
ByLayer
370
13
48
1
60
0
100
AcDbLine
10
24.459589
20
-7.211907
30
0
11
24.459589
21
-7.016368
31
0
39
0
210
0
220
0
230
1
0
LINE
5
AF
100
AcDbEntity
8
1
62
256
6
ByLayer
370
13
48
1
60
0
100
AcDbLine
10
24.459589
20
-7.883632
30
0
11
24.459589
21
-7.688093
31
0
39
0
210
0
220
0
230
1
0
LINE
5
B0
100
AcDbEntity
8
1
62
256
6
ByLayer
370
13
48
1
60
0
100
AcDbLine
10
25.3
20
-7.775753
30
0
11
25.3
21
-7.912227
31
0
39
0
210
0
220
0
230
1
0
LINE
5
B1
100
AcDbEntity
8
1
62
256
6
ByLayer
370
13
48
1
60
0
100
AcDbLine
10
24.326051
20
-7.021368
30
0
11
24.326051
21
-7.175198
31
0
39
0
210
0
220
0
230
1
0
LINE
5
B2
100
AcDbEntity
8
1
62
256
6
ByLayer
370
13
48
1
60
0
100
AcDbLine
10
24.326051
20
-7.724802
30
0
11
24.326051
21
-7.878632
31
0
39
0
210
0
220
0
230
1
0
LINE
5
B3
100
AcDbEntity
8
1
62
256
6
ByLayer
370
13
48
1
60
0
100
AcDbLine
10
23.344434
20
-7.85
30
0
11
23.344434
21
-7.815321
31
0
39
0
210
0
220
0
230
1
0
LINE
5
B4
100
AcDbEntity
8
1
62
256
6
ByLayer
370
13
48
1
60
0
100
AcDbLine
10
23.344434
20
-7.084679
30
0
11
23.344434
21
-7.05
31
0
39
0
210
0
220
0
230
1
0
LINE
5
B5
100
AcDbEntity
8
1
62
256
6
ByLayer
370
13
48
1
60
0
100
AcDbLine
10
24.210134
20
-7.45
30
0
11
24.321715
21
-7.45
31
0
39
0
210
0
220
0
230
1
0
LINE
5
B6
100
AcDbEntity
8
1
62
256
6
ByLayer
370
13
48
1
60
0
100
AcDbLine
10
23.17422
20
-7.05
30
0
11
23.17422
21
-7.116544
31
0
39
0
210
0
220
0
230
1
0
LINE
5
B7
100
AcDbEntity
8
1
62
256
6
ByLayer
370
13
48
1
60
0
100
AcDbLine
10
23.17422
20
-7.783456
30
0
11
23.17422
21
-7.85
31
0
39
0
210
0
220
0
230
1
0
LINE
5
B8
100
AcDbEntity
8
1
62
256
6
ByLayer
370
13
48
1
60
0
100
AcDbLine
10
23.279687
20
-7.45
30
0
11
23.449903
21
-7.45
31
0
39
0
210
0
220
0
230
1
0
LINE
5
B9
100
AcDbEntity
8
1
62
256
6
ByLayer
370
13
48
1
60
0
100
AcDbLine
10
17.336489
20
-7.05
30
0
11
17.336489
21
-7.85
31
0
39
0
210
0
220
0
230
1
0
LINE
5
BA
100
AcDbEntity
8
1
62
256
6
ByLayer
370
13
48
1
60
0
100
AcDbLine
10
20.336489
20
-7.85
30
0
11
20.336489
21
-7.05
31
0
39
0
210
0
220
0
230
1
0
LINE
5
BB
100
AcDbEntity
8
1
62
256
6
ByLayer
370
18
48
1
60
0
100
AcDbLine
10
12.549505
20
-5.5
30
0
11
12.146628
21
-5.5
31
0
39
0
210
0
220
0
230
1
0
LINE
5
BC
100
AcDbEntity
8
1
62
256
6
ByLayer
370
13
48
1
60
0
100
AcDbLine
10
0.917758
20
-7.85
30
0
11
0.917758
21
8.005174
31
0
39
0
210
0
220
0
230
1
0
LINE
5
BD
100
AcDbEntity
8
1
62
256
6
ByLayer
370
13
48
1
60
0
100
AcDbLine
10
23.266477
20
-6.05
30
0
11
16.405556
21
-6.05
31
0
39
0
210
0
220
0
230
1
0
LINE
5
BE
100
AcDbEntity
8
1
62
256
6
ByLayer
370
18
48
1
60
0
100
AcDbLine
10
22.678399
20
-7.05
30
0
11
20.336489
21
-7.05
31
0
39
0
210
0
220
0
230
1
0
LINE
5
BF
100
AcDbEntity
8
1
62
256
6
ByLayer
370
18
48
1
60
0
100
AcDbLine
10
22.678399
20
-7.85
30
0
11
20.336489
21
-7.85
31
0
39
0
210
0
220
0
230
1
0
LINE
5
C0
100
AcDbEntity
8
1
62
256
6
ByLayer
370
18
48
1
60
0
100
AcDbLine
10
20.336489
20
-7.05
30
0
11
17.336489
21
-7.05
31
0
39
0
210
0
220
0
230
1
0
LINE
5
C1
100
AcDbEntity
8
1
62
256
6
ByLayer
370
18
48
1
60
0
100
AcDbLine
10
20.336489
20
-7.85
30
0
11
17.336489
21
-7.85
31
0
39
0
210
0
220
0
230
1
0
LINE
5
C2
100
AcDbEntity
8
1
62
256
6
ByLayer
370
18
48
1
60
0
100
AcDbLine
10
17.336489
20
-7.05
30
0
11
13.1
21
-7.05
31
0
39
0
210
0
220
0
230
1
0
LINE
5
C3
100
AcDbEntity
8
1
62
256
6
ByLayer
370
18
48
1
60
0
100
AcDbLine
10
17.336489
20
-7.85
30
0
11
1.081381
21
-7.85
31
0
39
0
210
0
220
0
230
1
0
LINE
5
C4
100
AcDbEntity
8
1
62
256
6
ByLayer
370
18
48
1
60
0
100
AcDbLine
10
6.6
20
5.280882
30
0
11
6.6
21
-4.5
31
0
39
0
210
0
220
0
230
1
0
LINE
5
C5
100
AcDbEntity
8
1
62
256
6
ByLayer
370
18
48
1
60
0
100
AcDbLine
10
12.1
20
-5.5
30
0
11
7.6
21
-5.5
31
0
39
0
210
0
220
0
230
1
0
LINE
5
C6
100
AcDbEntity
8
1
62
256
6
ByLayer
370
18
48
1
60
0
100
AcDbLine
10
13.325063
20
-5.5
30
0
11
12.549505
21
-5.5
31
0
39
0
210
0
220
0
230
1
0
LINE
5
C7
100
AcDbEntity
8
1
62
256
6
ByLayer
370
18
48
1
60
0
100
AcDbLine
10
14.256487
20
-4.5
30
0
11
14.256487
21
0.43928
31
0
39
0
210
0
220
0
230
1
0
LINE
5
C8
100
AcDbEntity
8
1
62
256
6
ByLayer
370
18
48
1
60
0
100
AcDbLine
10
12.1
20
-5.5
30
0
11
12.1
21
-6.05
31
0
39
0
210
0
220
0
230
1
0
LINE
5
C9
100
AcDbEntity
8
1
62
256
6
ByLayer
370
18
48
1
60
0
100
AcDbLine
10
16.405556
20
-0.91969
30
0
11
16.405556
21
-6.05
31
0
39
0
210
0
220
0
230
1
0
LINE
5
CA
100
AcDbEntity
8
1
62
256
6
ByLayer
370
18
48
1
60
0
100
AcDbLine
10
22.678399
20
-7.85
30
0
11
22.813477
21
-7.608802
31
0
39
0
210
0
220
0
230
1
0
LINE
5
CB
100
AcDbEntity
8
1
62
256
6
ByLayer
370
18
48
1
60
0
100
AcDbLine
10
22.813477
20
-7.291198
30
0
11
22.678399
21
-7.05
31
0
39
0
210
0
220
0
230
1
0
LINE
5
CC
100
AcDbEntity
8
1
62
256
6
ByLayer
370
18
48
1
60
0
100
AcDbLine
10
12.549505
20
-5.5
30
0
11
12.549505
21
-6.05
31
0
39
0
210
0
220
0
230
1
0
LINE
5
CD
100
AcDbEntity
8
1
62
256
6
ByLayer
370
18
48
1
60
0
100
AcDbLine
10
12.1
20
-5.5
30
0
11
12.146629
21
-5.5
31
0
39
0
210
0
220
0
230
1
0
LINE
5
CE
100
AcDbEntity
8
1
62
256
6
ByLayer
370
18
48
1
60
0
100
AcDbLine
10
12.146629
20
-6.05
30
0
11
12.146629
21
-5.5
31
0
39
0
210
0
220
0
230
1
0
LINE
5
CF
100
AcDbEntity
8
1
62
256
6
ByLayer
370
18
48
1
60
0
100
AcDbLine
10
1.081381
20
-7.85
30
0
11
0.917758
21
-7.85
31
0
39
0
210
0
220
0
230
1
0
LINE
5
D0
100
AcDbEntity
8
1
62
256
6
ByLayer
370
18
48
1
60
0
100
AcDbLine
10
-98.9
20
-7.9
30
0
11
-98.9
21
8
31
0
39
0
210
0
220
0
230
1
0
LINE
5
D1
100
AcDbEntity
8
1
62
256
6
ByLayer
370
18
48
1
60
0
100
AcDbLine
10
1.081381
20
-7.85
30
0
11
1.081381
21
8.007839
31
0
39
0
210
0
220
0
230
1
0
LINE
5
D2
100
AcDbEntity
8
1
62
256
6
ByLayer
370
18
48
1
60
0
100
AcDbLine
10
0.917758
20
-7.85
30
0
11
-0.4
21
-7.85
31
0
39
0
210
0
220
0
230
1
0
LINE
5
D3
100
AcDbEntity
8
1
62
256
6
ByLayer
370
18
48
1
60
0
100
AcDbLine
10
-98.9
20
8
30
0
11
-0.627723
21
8
31
0
39
0
210
0
220
0
230
1
0
LINE
5
D4
100
AcDbEntity
8
1
62
256
6
ByLayer
370
18
48
1
60
0
100
AcDbLine
10
2.287604
20
8.007839
30
0
11
1.081381
21
8.007839
31
0
39
0
210
0
220
0
230
1
0
LINE
5
D5
100
AcDbEntity
8
1
62
256
6
ByLayer
370
18
48
1
60
0
100
AcDbLine
10
0.917758
20
8.005174
30
0
11
1.081381
21
8.007839
31
0
39
0
210
0
220
0
230
1
0
LINE
5
D6
100
AcDbEntity
8
1
62
256
6
ByLayer
370
18
48
1
60
0
100
AcDbLine
10
-98.9
20
-7.9
30
0
11
-0.71225
21
-7.9
31
0
39
0
210
0
220
0
230
1
0
LINE
5
D7
100
AcDbEntity
8
1
62
256
6
ByLayer
370
18
48
1
60
0
100
AcDbLine
10
23.266477
20
-6.05
30
0
11
23.266477
21
-5.258213
31
0
39
0
210
0
220
0
230
1
0
LINE
5
D8
100
AcDbEntity
8
1
62
256
6
ByLayer
370
18
48
1
60
0
100
AcDbLine
10
16.405556
20
-0.91969
30
0
11
23.266477
21
-5.258213
31
0
39
0
210
0
220
0
230
1
0
LINE
5
D9
100
AcDbEntity
8
1
62
256
6
ByLayer
370
18
48
1
60
0
100
AcDbLine
10
14.256487
20
0.43928
30
0
11
16.405556
21
-0.91969
31
0
39
0
210
0
220
0
230
1
0
LINE
5
DA
100
AcDbEntity
8
1
62
256
6
ByLayer
370
18
48
1
60
0
100
AcDbLine
10
6.6
20
5.280882
30
0
11
2.287604
21
8.007839
31
0
39
0
210
0
220
0
230
1
0
LINE
5
DB
100
AcDbEntity
8
1
62
256
6
ByLayer
370
18
48
1
60
0
100
AcDbLine
10
12.8
20
1.360294
30
0
11
14.256487
21
0.43928
31
0
39
0
210
0
220
0
230
1
0
LINE
5
DC
100
AcDbEntity
8
1
62
256
6
ByLayer
370
18
48
1
60
0
100
AcDbLine
10
6.6
20
5.280882
30
0
11
12.8
21
1.360294
31
0
39
0
210
0
220
0
230
1
0
LINE
5
DD
100
AcDbEntity
8
1
62
256
6
ByLayer
370
18
48
1
60
0
100
AcDbLine
10
26.1
20
-7.031671
30
0
11
26.1
21
-7.0125
31
0
39
0
210
0
220
0
230
1
0
LINE
5
DE
100
AcDbEntity
8
1
62
256
6
ByLayer
370
18
48
1
60
0
100
AcDbLine
10
23.344434
20
-7.05
30
0
11
23.899801
21
-7.05
31
0
39
0
210
0
220
0
230
1
0
LINE
5
DF
100
AcDbEntity
8
1
62
256
6
ByLayer
370
18
48
1
60
0
100
AcDbLine
10
23.17422
20
-7.85
30
0
11
23.344434
21
-7.85
31
0
39
0
210
0
220
0
230
1
0
LINE
5
E0
100
AcDbEntity
8
1
62
256
6
ByLayer
370
18
48
1
60
0
100
AcDbLine
10
23.923354
20
-7.049188
30
0
11
24.326051
21
-7.021368
31
0
39
0
210
0
220
0
230
1
0
LINE
5
E1
100
AcDbEntity
8
1
62
256
6
ByLayer
370
18
48
1
60
0
100
AcDbLine
10
25.829683
20
-7.945124
30
0
11
25.3
21
-7.912227
31
0
39
0
210
0
220
0
230
1
0
LINE
5
E2
100
AcDbEntity
8
1
62
256
6
ByLayer
370
18
48
1
60
0
100
AcDbLine
10
23.899801
20
-7.85
30
0
11
23.344434
21
-7.85
31
0
39
0
210
0
220
0
230
1
0
LINE
5
E3
100
AcDbEntity
8
1
62
256
6
ByLayer
370
18
48
1
60
0
100
AcDbLine
10
24.326051
20
-7.878632
30
0
11
23.923354
21
-7.850812
31
0
39
0
210
0
220
0
230
1
0
LINE
5
E4
100
AcDbEntity
8
1
62
256
6
ByLayer
370
18
48
1
60
0
100
AcDbLine
10
26.1
20
-7.8875
30
0
11
26.1
21
-7.868329
31
0
39
0
210
0
220
0
230
1
0
LINE
5
E5
100
AcDbEntity
8
1
62
256
6
ByLayer
370
18
48
1
60
0
100
AcDbLine
10
23.17422
20
-7.05
30
0
11
23.344434
21
-7.05
31
0
39
0
210
0
220
0
230
1
0
LINE
5
E6
100
AcDbEntity
8
1
62
256
6
ByLayer
370
18
48
1
60
0
100
AcDbLine
10
25.3
20
-6.987773
30
0
11
25.829683
21
-6.954876
31
0
39
0
210
0
220
0
230
1
0
LINE
5
E7
100
AcDbEntity
8
SK2
62
256
6
ByLayer
370
13
48
1
60
0
100
AcDbLine
10
-108.5
20
-8
30
0
11
-108.5
21
8
31
0
39
0
210
0
220
0
230
1
0
LINE
5
E9
100
AcDbEntity
8
SK2
62
256
6
ByLayer
370
13
48
1
60
0
100
AcDbLine
10
-100.9
20
8
30
0
11
-110.5
21
8
31
0
39
0
210
0
220
0
230
1
0
LINE
5
EA
100
AcDbEntity
8
SK2
62
256
6
ByLayer
370
13
48
1
60
0
100
AcDbLine
10
-100.9
20
-8
30
0
11
-110.5
21
-8
31
0
39
0
210
0
220
0
230
1
0
LINE
5
EB
100
AcDbEntity
8
SK2
62
256
6
ByLayer
370
18
48
1
60
0
100
AcDbLine
10
-108.5
20
8
30
0
11
-108.082003
21
4.825002
31
0
39
0
210
0
220
0
230
1
0
LINE
5
EC
100
AcDbEntity
8
SK2
62
256
6
ByLayer
370
18
48
1
60
0
100
AcDbLine
10
-108.5
20
8
30
0
11
-108.917997
21
4.824998
31
0
39
0
210
0
220
0
230
1
0
LINE
5
ED
100
AcDbEntity
8
SK2
62
256
6
ByLayer
370
18
48
1
60
0
100
AcDbLine
10
-108.082003
20
4.825002
30
0
11
-108.917997
21
4.824998
31
0
39
0
210
0
220
0
230
1
0
LINE
5
EE
100
AcDbEntity
8
SK2
62
256
6
ByLayer
370
18
48
1
60
0
100
AcDbLine
10
-108.5
20
-8
30
0
11
-108.917997
21
-4.825002
31
0
39
0
210
0
220
0
230
1
0
LINE
5
EF
100
AcDbEntity
8
SK2
62
256
6
ByLayer
370
18
48
1
60
0
100
AcDbLine
10
-108.5
20
-8
30
0
11
-108.082003
21
-4.824998
31
0
39
0
210
0
220
0
230
1
0
LINE
5
F0
100
AcDbEntity
8
SK2
62
256
6
ByLayer
370
18
48
1
60
0
100
AcDbLine
10
-108.917997
20
-4.825002
30
0
11
-108.082003
21
-4.824998
31
0
39
0
210
0
220
0
230
1
0
MTEXT
5
15F
100
AcDbEntity
8
SK6
62
256
6
ByLayer
370
18
48
1
60
0
100
AcDbMText
10
-68.025
20
-50.849917
30
0
210
0
220
0
230
1
1
\W0.7246;QD-LFB10-1616S
40
3.5
41
0
44
1.084337
50
0
71
7
72
5
7
iso_b_vert
0
MTEXT
5
163
100
AcDbEntity
8
SK2
62
256
6
ByLayer
370
18
48
1
60
0
100
AcDbMText
10
-109.375
20
-0.732237
30
0
210
0
220
0
230
1
1
\W0.5321;16
40
3.5
41
0
44
1.084337
50
89.9999999999999
71
7
72
5
7
iso_b_vert
0
DIMENSION
5
172
100
AcDbEntity
8
2
62
256
6
ByLayer
370
13
48
1
60
0
100
AcDbDimension
2
DimnDraft3D1
10
26.1
20
24.607839
30
0
11
9.379605
21
24.607839
31
0
70
32
71
5
72
1
41
1
210
0
220
0
230
1
3
Standard
100
AcDbAlignedDimension
13
0
23
10
33
0
14
26.1
24
-5.95
34
0
50
0
100
AcDbRotatedDimension
1001
ACAD
1000
DSTYLE
1002
{
1070
   279
1070
     0
1070
   172
1070
     1
1070
   173
1070
     1
1070
   340
1005
160
1070
   271
1070
     1
1070
    77
1070
     1
1070
    73
1070
     0
1070
   171
1070
     3
1070
   274
1070
     4
1070
   177
1070
     2
1070
   176
1070
     2
1070
   178
1070
     7
1070
    78
1070
     8
1070
    41
1041
3.175
1070
   147
1041
1.75
1070
    42
1041
2.0
1070
    44
1041
2.0
1070
   140
1041
3.5
1070
   343
1005
173
1070
   344
1005
173
1002
}
0
DIMENSION
5
187
100
AcDbEntity
8
SK2
62
256
6
ByLayer
370
13
48
1
60
0
100
AcDbDimension
2
DimnDraft3D2
10
26.1
20
30.607839
30
0
11
-39.361184
21
30.607839
31
0
70
32
71
5
72
1
41
1
210
0
220
0
230
1
3
Standard
100
AcDbAlignedDimension
13
-98.9
23
10
33
0
14
26.1
24
-5.95
34
0
50
0
100
AcDbRotatedDimension
1001
ACAD
1000
DSTYLE
1002
{
1070
   279
1070
     0
1070
   172
1070
     1
1070
   173
1070
     1
1070
   340
1005
160
1070
   271
1070
     1
1070
    77
1070
     1
1070
    73
1070
     0
1070
   171
1070
     3
1070
   274
1070
     4
1070
   177
1070
     2
1070
   176
1070
     2
1070
   178
1070
     7
1070
    78
1070
     8
1070
    41
1041
3.175
1070
   147
1041
1.75
1070
    42
1041
2.0
1070
    44
1041
2.0
1070
   140
1041
3.5
1070
   343
1005
173
1070
   344
1005
173
1002
}
0
DIMENSION
5
195
100
AcDbEntity
8
2
62
256
6
ByLayer
370
13
48
1
60
0
100
AcDbDimension
2
DimnDraft3D3
10
16.1
20
-21.057672
30
0
11
19.446711
21
-21.057672
31
0
70
32
71
5
72
1
41
1
210
0
220
0
230
1
3
Standard
100
AcDbAlignedDimension
13
26.1
23
-9.95
33
0
14
16.1
24
-10
34
0
50
0
100
AcDbRotatedDimension
1001
ACAD
1000
DSTYLE
1002
{
1070
   279
1070
     0
1070
   172
1070
     1
1070
   173
1070
     1
1070
   340
1005
160
1070
   271
1070
     1
1070
    77
1070
     1
1070
    73
1070
     0
1070
   171
1070
     3
1070
   274
1070
     4
1070
   177
1070
     2
1070
   176
1070
     2
1070
   178
1070
     7
1070
    78
1070
     8
1070
    41
1041
3.175
1070
   147
1041
1.75
1070
    42
1041
2.0
1070
    44
1041
2.0
1070
   140
1041
3.5
1070
   343
1005
173
1070
   344
1005
173
1002
}
0
DIMENSION
5
1A3
100
AcDbEntity
8
2
62
256
6
ByLayer
370
13
48
1
60
0
100
AcDbDimension
2
DimnDraft3D4
10
51.2
20
-7.95
30
0
11
51.2
21
-1.628289
31
0
70
32
71
5
72
1
41
1
210
0
220
0
230
1
3
Standard
100
AcDbAlignedDimension
13
2
23
8
33
0
14
28.1
24
-7.95
34
0
50
90
100
AcDbRotatedDimension
1001
ACAD
1000
DSTYLE
1002
{
1070
    74
1070
     0
1070
   279
1070
     0
1070
   172
1070
     1
1070
   173
1070
     1
1070
   340
1005
160
1070
   271
1070
     1
1070
    77
1070
     1
1070
    73
1070
     0
1070
   171
1070
     3
1070
   274
1070
     4
1070
   177
1070
     2
1070
   176
1070
     2
1070
   178
1070
     7
1070
    78
1070
     8
1070
    41
1041
3.175
1070
   147
1041
1.75
1070
    42
1041
2.0
1070
    44
1041
2.0
1070
   140
1041
3.5
1070
   343
1005
173
1070
   344
1005
173
1002
}
0
DIMENSION
5
1B1
100
AcDbEntity
8
2
62
256
6
ByLayer
370
13
48
1
60
0
100
AcDbDimension
2
DimnDraft3D5
10
44.2
20
-6.95
30
0
11
44.2
21
-18.895789
31
0
70
32
71
5
72
1
41
1
210
0
220
0
230
1
3
Standard
100
AcDbAlignedDimension
13
28.1
23
-7.95
33
0
14
28.1
24
-6.95
34
0
50
90
100
AcDbRotatedDimension
1001
ACAD
1000
DSTYLE
1002
{
1070
    74
1070
     0
1070
   279
1070
     0
1070
   172
1070
     1
1070
   173
1070
     1
1070
   340
1005
160
1070
   271
1070
     1
1070
    77
1070
     1
1070
    73
1070
     0
1070
   171
1070
     3
1070
   274
1070
     4
1070
   177
1070
     2
1070
   176
1070
     2
1070
   178
1070
     7
1070
    78
1070
     8
1070
    41
1041
3.175
1070
   147
1041
1.75
1070
    42
1041
2.0
1070
    44
1041
2.0
1070
   140
1041
3.5
1070
   343
1005
173
1070
   344
1005
173
1002
}
0
ENDSEC
0
SECTION
2
OBJECTS
0
DICTIONARY
5
21b
330
0
100
AcDbDictionary
280
0
281
1
3
ACAD_GROUP
350
21c
3
ACAD_MLINESTYLE
350
21d
0
DICTIONARY
5
21c
330
0
100
AcDbDictionary
280
0
281
1
0
DICTIONARY
5
21d
330
0
100
AcDbDictionary
280
0
281
1
3
Standard
350
18
0
MLINESTYLE
5
18
330
21d
100
AcDbMlineStyle
2
Standard
70
0
3

62
256
51
90
52
90
71
2
49
-0.5
62
256
6
ByLayer
49
0.5
62
256
6
ByLayer
0
RASTERVARIABLES
5
20a
330

100
AcDbRasterVariables
90
0
70
1
71
1
72
1
0
ENDSEC
0
EOF
