0
SECTION
2
HEADER
9
$ACADVER
1
AC1015
9
$DWGCODEPAGE
3
ANSI_1252
9
$HANDSEED
5
1ad
9
$ANGBASE
50
0
9
$ANGDIR
70
0
9
$ATTMODE
70
1
9
$AUNITS
70
0
9
$AUPREC
70
0
9
$CECOLOR
62
256
9
$CELTSCALE
40
1
9
$CELTYPE
6
ByLayer
9
$CELWEIGHT
370
18
9
$CLAYER
8
0
9
$CMLJUST
70
0
9
$CMLSCALE
40
1
9
$CMLSTYLE
2
Standard
9
$DIMSTYLE
2
Standard
9
$TEXTSIZE
40
0.2
9
$TEXTSTYLE
7
Standard
9
$LUNITS
70
2
9
$LUPREC
70
4
9
$EXTNAMES
290
1
9
$INSUNITS
70
4
9
$LTSCALE
40
1
9
$LWDISPLAY
290
1
9
$PDMODE
70
0
9
$PDSIZE
40
0
9
$PLINEGEN
70
0
0
ENDSEC
0
SECTION
2
CLASSES
0
CLASS
1
RASTERVARIABLES
2
AcDbRasterVariables
3
ISM
90
0
280
0
281
0
0
ENDSEC
0
SECTION
2
TABLES
0
TABLE
2
VPORT
5
1a3
100
AcDbSymbolTable
0
VPORT
5
1
100
AcDbSymbolTableRecord
100
AcDbViewportTableRecord
2
*Active
70
0
10
0
20
0
11
1
21
1
12
-1
22
1
13
0
23
0
14
0.5
24
0.5
15
10
25
10
16
0
26
0
36
1
17
0
27
0
37
0
0
ENDTAB
0
TABLE
2
LTYPE
5
1a4
100
AcDbSymbolTable
0
LTYPE
5
14
100
AcDbSymbolTableRecord
100
AcDbLinetypeTableRecord
70
0
2
ByBlock
3

72
65
73
0
40
0
0
LTYPE
5
15
100
AcDbSymbolTableRecord
100
AcDbLinetypeTableRecord
70
0
2
ByLayer
3

72
65
73
0
40
0
0
LTYPE
5
16
100
AcDbSymbolTableRecord
100
AcDbLinetypeTableRecord
70
0
2
CONTINUOUS
3
Solid line
72
65
73
0
40
0
0
LTYPE
5
6A
100
AcDbSymbolTableRecord
100
AcDbLinetypeTableRecord
70
0
2
CENTER
3
____ _ ____ _ ____ _ ____
72
65
73
4
40
47.5
49
22
74
0
49
-8.5
74
0
49
8.5
74
0
49
-8.5
74
0
0
LTYPE
5
6B
100
AcDbSymbolTableRecord
100
AcDbLinetypeTableRecord
70
0
2
DASHED
3
__ __ __ __ __ __ __ __ __
72
65
73
2
40
25.72
49
12.86
74
0
49
-12.86
74
0
0
ENDTAB
0
TABLE
2
LAYER
5
1a5
100
AcDbSymbolTable
0
LAYER
5
10
100
AcDbSymbolTableRecord
100
AcDbLayerTableRecord
2
0
70
0
62
7
6
CONTINUOUS
290
1
370
-3
390
0
0
LAYER
5
6D
100
AcDbSymbolTableRecord
100
AcDbLayerTableRecord
2
80
70
0
62
-6
6
CONTINUOUS
290
1
370
-3
390
0
0
LAYER
5
6F
100
AcDbSymbolTableRecord
100
AcDbLayerTableRecord
2
81
70
0
62
-3
6
CONTINUOUS
290
1
370
-3
390
0
0
LAYER
5
71
100
AcDbSymbolTableRecord
100
AcDbLayerTableRecord
2
1
70
0
62
4
6
CONTINUOUS
290
1
370
-3
390
0
0
LAYER
5
10E
100
AcDbSymbolTableRecord
100
AcDbLayerTableRecord
2
2
70
0
62
7
6
CONTINUOUS
290
1
370
-3
390
0
0
LAYER
5
190
100
AcDbSymbolTableRecord
100
AcDbLayerTableRecord
2
SK1
70
0
62
4
6
CONTINUOUS
290
1
370
-3
390
0
0
LAYER
5
191
100
AcDbSymbolTableRecord
100
AcDbLayerTableRecord
2
SK6
70
0
62
5
6
CONTINUOUS
290
1
370
-3
390
0
0
LAYER
5
192
100
AcDbSymbolTableRecord
100
AcDbLayerTableRecord
2
SK2
70
0
62
7
6
CONTINUOUS
290
1
370
-3
390
0
0
ENDTAB
0
TABLE
2
STYLE
5
1a6
100
AcDbSymbolTable
0
STYLE
5
11
100
AcDbSymbolTableRecord
100
AcDbTextStyleTableRecord
2
Standard
3
txt
70
0
71
0
40
0
41
1
42
0
50
0
0
STYLE
5
F3
100
AcDbSymbolTableRecord
100
AcDbTextStyleTableRecord
2
iso_b_vert
3
simplex.shx
70
0
71
0
40
0
41
1
42
0
50
0
0
STYLE
5
F4
100
AcDbSymbolTableRecord
100
AcDbTextStyleTableRecord
2
DWGDirectTextStyle
3
simplex
70
0
71
0
40
0
41
1
42
0
50
0
0
ENDTAB
0
TABLE
2
DIMSTYLE
5
1a7
100
AcDbSymbolTable
100
AcDbDimStyleTable
0
DIMSTYLE
105
27
100
AcDbSymbolTableRecord
100
AcDbDimStyleTableRecord
2
Standard
70
0
3
<>
41
0.18
42
0.0625
44
0.18
140
0.18
147
0.09
73
0
74
0
77
1
271
2
275
0
278
52
280
0
340
11
0
ENDTAB
0
TABLE
2
VIEW
5
1a8
100
AcDbSymbolTable
0
ENDTAB
0
TABLE
2
UCS
5
1a9
100
AcDbSymbolTable
0
ENDTAB
0
TABLE
2
APPID
5
1aa
100
AcDbSymbolTable
0
APPID
5
12
100
AcDbSymbolTableRecord
100
AcDbRegAppTableRecord
2
ACAD
70
0
0
ENDTAB
0
TABLE
2
BLOCK_RECORD
5
1ab
100
AcDbSymbolTable
0
BLOCK_RECORD
5
1F
100
AcDbSymbolTableRecord
100
AcDbBlockTableRecord
2
*Model_Space
340
0
70
0
0
BLOCK_RECORD
5
1B
100
AcDbSymbolTableRecord
100
AcDbBlockTableRecord
2
*Paper_Space
340
0
70
0
0
BLOCK_RECORD
5
23
100
AcDbSymbolTableRecord
100
AcDbBlockTableRecord
2
*Paper_Space0
340
0
70
0
0
BLOCK_RECORD
5
F6
100
AcDbSymbolTableRecord
100
AcDbBlockTableRecord
2
DimnDraft3D1
340
0
70
0
0
BLOCK_RECORD
5
105
100
AcDbSymbolTableRecord
100
AcDbBlockTableRecord
2
_CLOSED
340
0
70
0
0
BLOCK_RECORD
5
10C
100
AcDbSymbolTableRecord
100
AcDbBlockTableRecord
2
DimnDraft3D2
340
0
70
0
0
BLOCK_RECORD
5
11B
100
AcDbSymbolTableRecord
100
AcDbBlockTableRecord
2
DimnDraft3D3
340
0
70
0
0
BLOCK_RECORD
5
129
100
AcDbSymbolTableRecord
100
AcDbBlockTableRecord
2
DimnDraft3D4
340
0
70
0
0
ENDTAB
0
ENDSEC
0
SECTION
2
BLOCKS
0
BLOCK
5
20
100
AcDbEntity
8
0
100
AcDbBlockBegin
2
*Model_Space
70
0
10
0
20
0
30
0
3
*Model_Space
0
ENDBLK
5
21
100
AcDbEntity
8
0
100
AcDbBlockEnd
0
BLOCK
5
1C
100
AcDbEntity
8
0
100
AcDbBlockBegin
2
*Paper_Space
70
0
10
0
20
0
30
0
3
*Paper_Space
0
ENDBLK
5
1D
100
AcDbEntity
8
0
100
AcDbBlockEnd
0
BLOCK
5
24
100
AcDbEntity
8
0
100
AcDbBlockBegin
2
*Paper_Space0
70
0
10
0
20
0
30
0
3
*Paper_Space0
0
ENDBLK
5
25
100
AcDbEntity
8
0
100
AcDbBlockEnd
0
BLOCK
5
102
100
AcDbEntity
8
0
100
AcDbBlockBegin
2
DimnDraft3D1
70
0
10
0
20
0
30
0
3
DimnDraft3D1
0
MTEXT
5
F7
100
AcDbEntity
8
SK2
62
256
6
ByLayer
370
13
48
1
60
0
100
AcDbMText
10
-129.859498
20
-1.625658
30
0
210
0
220
0
230
1
1
\W0.6740;25
40
4.5
41
0
44
1.084337
50
90
71
7
72
5
7
iso_b_vert
0
LINE
5
F9
100
AcDbEntity
8
SK2
62
256
6
ByLayer
370
13
48
1
60
0
100
AcDbLine
10
-120.571998
20
-12.5625
30
0
11
-131.909498
21
-12.5625
31
0
39
0
210
0
220
0
230
1
0
LINE
5
FA
100
AcDbEntity
8
SK2
62
256
6
ByLayer
370
13
48
1
60
0
100
AcDbLine
10
-120.571998
20
12.4375
30
0
11
-131.909498
21
12.4375
31
0
39
0
210
0
220
0
230
1
0
LINE
5
FB
100
AcDbEntity
8
SK2
62
256
6
ByLayer
370
13
48
1
60
0
100
AcDbLine
10
-128.734498
20
-12.5625
30
0
11
-128.734498
21
12.4375
31
0
39
0
210
0
220
0
230
1
0
LINE
5
FC
100
AcDbEntity
8
SK2
62
256
6
ByLayer
370
13
48
1
60
0
100
AcDbLine
10
-128.734498
20
-12.5625
30
0
11
-129.585236
21
-9.387503
31
0
39
0
210
0
220
0
230
1
0
LINE
5
FD
100
AcDbEntity
8
SK2
62
256
6
ByLayer
370
13
48
1
60
0
100
AcDbLine
10
-128.734498
20
-12.5625
30
0
11
-127.883759
21
-9.387497
31
0
39
0
210
0
220
0
230
1
0
LINE
5
FE
100
AcDbEntity
8
SK2
62
256
6
ByLayer
370
13
48
1
60
0
100
AcDbLine
10
-129.585236
20
-9.387503
30
0
11
-127.883759
21
-9.387497
31
0
39
0
210
0
220
0
230
1
0
LINE
5
FF
100
AcDbEntity
8
SK2
62
256
6
ByLayer
370
13
48
1
60
0
100
AcDbLine
10
-128.734498
20
12.4375
30
0
11
-127.883759
21
9.262503
31
0
39
0
210
0
220
0
230
1
0
LINE
5
100
100
AcDbEntity
8
SK2
62
256
6
ByLayer
370
13
48
1
60
0
100
AcDbLine
10
-128.734498
20
12.4375
30
0
11
-129.585236
21
9.262497
31
0
39
0
210
0
220
0
230
1
0
LINE
5
101
100
AcDbEntity
8
SK2
62
256
6
ByLayer
370
13
48
1
60
0
100
AcDbLine
10
-127.883759
20
9.262503
30
0
11
-129.585236
21
9.262497
31
0
39
0
210
0
220
0
230
1
0
ENDBLK
5
103
100
AcDbEntity
8
0
100
AcDbBlockEnd
0
BLOCK
5
106
100
AcDbEntity
8
0
100
AcDbBlockBegin
2
_CLOSED
70
0
10
0
20
0
30
0
3
_CLOSED
0
LINE
5
108
100
AcDbEntity
8
0
62
256
6
ByLayer
370
-2
48
1
60
0
100
AcDbLine
10
-1
20
0.166667
30
0
11
0
21
0
31
0
39
0
210
0
220
0
230
1
0
LINE
5
109
100
AcDbEntity
8
0
62
256
6
ByLayer
370
-2
48
1
60
0
100
AcDbLine
10
0
20
0
30
0
11
-1
21
-0.166667
31
0
39
0
210
0
220
0
230
1
0
LINE
5
10A
100
AcDbEntity
8
0
62
256
6
ByLayer
370
-2
48
1
60
0
100
AcDbLine
10
-1
20
0.166667
30
0
11
-1
21
-0.166667
31
0
39
0
210
0
220
0
230
1
0
LINE
5
10B
100
AcDbEntity
8
0
62
256
6
ByLayer
370
-2
48
1
60
0
100
AcDbLine
10
0
20
0
30
0
11
-1
21
0
31
0
39
0
210
0
220
0
230
1
0
ENDBLK
5
107
100
AcDbEntity
8
0
100
AcDbBlockEnd
0
BLOCK
5
118
100
AcDbEntity
8
0
100
AcDbBlockBegin
2
DimnDraft3D2
70
0
10
0
20
0
30
0
3
DimnDraft3D2
0
MTEXT
5
10D
100
AcDbEntity
8
2
62
256
6
ByLayer
370
13
48
1
60
0
100
AcDbMText
10
47.740502
20
-0.300658
30
0
210
0
220
0
230
1
1
\W0.6740;22
40
4.5
41
0
44
1.084337
50
90
71
7
72
5
7
iso_b_vert
0
LINE
5
10F
100
AcDbEntity
8
2
62
256
6
ByLayer
370
13
48
1
60
0
100
AcDbLine
10
33.953002
20
-9.9125
30
0
11
52.040502
21
-9.9125
31
0
39
0
210
0
220
0
230
1
0
LINE
5
110
100
AcDbEntity
8
2
62
256
6
ByLayer
370
13
48
1
60
0
100
AcDbLine
10
1.5875
20
12.4375
30
0
11
52.040502
21
12.4375
31
0
39
0
210
0
220
0
230
1
0
LINE
5
111
100
AcDbEntity
8
2
62
256
6
ByLayer
370
13
48
1
60
0
100
AcDbLine
10
48.865502
20
-9.9125
30
0
11
48.865502
21
12.4375
31
0
39
0
210
0
220
0
230
1
0
LINE
5
112
100
AcDbEntity
8
2
62
256
6
ByLayer
370
13
48
1
60
0
100
AcDbLine
10
48.865502
20
-9.9125
30
0
11
48.014764
21
-6.737503
31
0
39
0
210
0
220
0
230
1
0
LINE
5
113
100
AcDbEntity
8
2
62
256
6
ByLayer
370
13
48
1
60
0
100
AcDbLine
10
48.865502
20
-9.9125
30
0
11
49.716241
21
-6.737497
31
0
39
0
210
0
220
0
230
1
0
LINE
5
114
100
AcDbEntity
8
2
62
256
6
ByLayer
370
13
48
1
60
0
100
AcDbLine
10
48.014764
20
-6.737503
30
0
11
49.716241
21
-6.737497
31
0
39
0
210
0
220
0
230
1
0
LINE
5
115
100
AcDbEntity
8
2
62
256
6
ByLayer
370
13
48
1
60
0
100
AcDbLine
10
48.865502
20
12.4375
30
0
11
49.716241
21
9.262503
31
0
39
0
210
0
220
0
230
1
0
LINE
5
116
100
AcDbEntity
8
2
62
256
6
ByLayer
370
13
48
1
60
0
100
AcDbLine
10
48.865502
20
12.4375
30
0
11
48.014764
21
9.262497
31
0
39
0
210
0
220
0
230
1
0
LINE
5
117
100
AcDbEntity
8
2
62
256
6
ByLayer
370
13
48
1
60
0
100
AcDbLine
10
49.716241
20
9.262503
30
0
11
48.014764
21
9.262497
31
0
39
0
210
0
220
0
230
1
0
ENDBLK
5
119
100
AcDbEntity
8
0
100
AcDbBlockEnd
0
BLOCK
5
126
100
AcDbEntity
8
0
100
AcDbBlockBegin
2
DimnDraft3D3
70
0
10
0
20
0
30
0
3
DimnDraft3D3
0
MTEXT
5
11C
100
AcDbEntity
8
SK2
62
256
6
ByLayer
370
13
48
1
60
0
100
AcDbMText
10
-45.991735
20
-43.640575
30
0
210
0
220
0
230
1
1
\W0.6217;150
40
4.5
41
0
44
1.084337
50
0
71
7
72
5
7
iso_b_vert
0
LINE
5
11D
100
AcDbEntity
8
SK2
62
256
6
ByLayer
370
13
48
1
60
0
100
AcDbLine
10
-118.984498
20
-14.15
30
0
11
-118.984498
21
-47.940575
31
0
39
0
210
0
220
0
230
1
0
LINE
5
11E
100
AcDbEntity
8
SK2
62
256
6
ByLayer
370
13
48
1
60
0
100
AcDbLine
10
32.365502
20
-11.5
30
0
11
32.365502
21
-47.940575
31
0
39
0
210
0
220
0
230
1
0
LINE
5
11F
100
AcDbEntity
8
SK2
62
256
6
ByLayer
370
13
48
1
60
0
100
AcDbLine
10
-118.984498
20
-44.765575
30
0
11
32.365502
21
-44.765575
31
0
39
0
210
0
220
0
230
1
0
LINE
5
120
100
AcDbEntity
8
SK2
62
256
6
ByLayer
370
13
48
1
60
0
100
AcDbLine
10
-118.984498
20
-44.765575
30
0
11
-115.809501
21
-43.914836
31
0
39
0
210
0
220
0
230
1
0
LINE
5
121
100
AcDbEntity
8
SK2
62
256
6
ByLayer
370
13
48
1
60
0
100
AcDbLine
10
-118.984498
20
-44.765575
30
0
11
-115.809495
21
-45.616314
31
0
39
0
210
0
220
0
230
1
0
LINE
5
122
100
AcDbEntity
8
SK2
62
256
6
ByLayer
370
13
48
1
60
0
100
AcDbLine
10
-115.809501
20
-43.914836
30
0
11
-115.809495
21
-45.616314
31
0
39
0
210
0
220
0
230
1
0
LINE
5
123
100
AcDbEntity
8
SK2
62
256
6
ByLayer
370
13
48
1
60
0
100
AcDbLine
10
32.365502
20
-44.765575
30
0
11
29.190505
21
-45.616314
31
0
39
0
210
0
220
0
230
1
0
LINE
5
124
100
AcDbEntity
8
SK2
62
256
6
ByLayer
370
13
48
1
60
0
100
AcDbLine
10
32.365502
20
-44.765575
30
0
11
29.190499
21
-43.914836
31
0
39
0
210
0
220
0
230
1
0
LINE
5
125
100
AcDbEntity
8
SK2
62
256
6
ByLayer
370
13
48
1
60
0
100
AcDbLine
10
29.190505
20
-45.616314
30
0
11
29.190499
21
-43.914836
31
0
39
0
210
0
220
0
230
1
0
ENDBLK
5
127
100
AcDbEntity
8
0
100
AcDbBlockEnd
0
BLOCK
5
134
100
AcDbEntity
8
0
100
AcDbBlockBegin
2
DimnDraft3D4
70
0
10
0
20
0
30
0
3
DimnDraft3D4
0
MTEXT
5
12A
100
AcDbEntity
8
2
62
256
6
ByLayer
370
13
48
1
60
0
100
AcDbMText
10
14.526176
20
-29.539457
30
0
210
0
220
0
230
1
1
\W0.8292;60%%d0'
40
4.5
41
0
44
1.084337
50
330
71
7
72
5
7
iso_b_vert
0
LINE
5
12B
100
AcDbEntity
8
2
62
256
6
ByLayer
370
13
48
1
60
0
100
AcDbLine
10
11.541253
20
-21.599908
30
0
11
5.945111
21
-24.830842
31
0
39
0
210
0
220
0
230
1
0
LINE
5
12C
100
AcDbEntity
8
2
62
256
6
ByLayer
370
13
48
1
60
0
100
AcDbLine
10
32.365502
20
-11.5
30
0
11
32.365502
21
-40.084662
31
0
39
0
210
0
220
0
230
1
0
ARC
5
12D
100
AcDbEntity
8
2
62
256
6
ByLayer
370
13
48
1
60
0
100
AcDbCircle
39
0
10
32.365502
20
-9.577022
30
0
40
27.3326397256322
210
0
220
0
230
1
100
AcDbArc
50
210
51
270
0
LINE
5
12E
100
AcDbEntity
8
2
62
256
6
ByLayer
370
13
48
1
60
0
100
AcDbLine
10
8.694742
20
-23.243342
30
0
11
11.085436
21
-25.49921
31
0
39
0
210
0
220
0
230
1
0
LINE
5
12F
100
AcDbEntity
8
2
62
256
6
ByLayer
370
13
48
1
60
0
100
AcDbLine
10
8.694742
20
-23.243342
30
0
11
9.637211
21
-26.392334
31
0
39
0
210
0
220
0
230
1
0
LINE
5
130
100
AcDbEntity
8
2
62
256
6
ByLayer
370
13
48
1
60
0
100
AcDbLine
10
11.085436
20
-25.49921
30
0
11
9.637211
21
-26.392334
31
0
39
0
210
0
220
0
230
1
0
LINE
5
131
100
AcDbEntity
8
2
62
256
6
ByLayer
370
13
48
1
60
0
100
AcDbLine
10
32.365502
20
-36.909662
30
0
11
29.167166
21
-37.667956
31
0
39
0
210
0
220
0
230
1
0
LINE
5
132
100
AcDbEntity
8
2
62
256
6
ByLayer
370
13
48
1
60
0
100
AcDbLine
10
32.365502
20
-36.909662
30
0
11
29.216509
21
-35.967194
31
0
39
0
210
0
220
0
230
1
0
LINE
5
133
100
AcDbEntity
8
2
62
256
6
ByLayer
370
13
48
1
60
0
100
AcDbLine
10
29.167166
20
-37.667956
30
0
11
29.216509
21
-35.967194
31
0
39
0
210
0
220
0
230
1
0
ENDBLK
5
135
100
AcDbEntity
8
0
100
AcDbBlockEnd
0
ENDSEC
0
SECTION
2
ENTITIES
0
ARC
5
AE
100
AcDbEntity
8
1
62
256
6
ByLayer
370
18
48
1
60
0
100
AcDbCircle
39
0
10
0
20
-14.0375
30
0
40
1.59999999999994
210
0
220
0
230
-1
100
AcDbArc
50
90
51
165
0
ELLIPSE
5
AF
100
AcDbEntity
8
1
62
256
6
ByLayer
370
18
48
1
60
0
100
AcDbEllipse
10
0
20
12.444481
30
0
11
1.60000000000003
21
1.61702248813181E-15
31
0
210
0
220
0
230
-1
40
0.004363
41
0.261799387799435
42
1.5707963267949
0
ELLIPSE
5
B0
100
AcDbEntity
8
1
62
256
6
ByLayer
370
18
48
1
60
0
100
AcDbEllipse
10
17.455297
20
2.473531
30
0
11
-0.138697340464113
21
-0.0571230929500659
31
0
210
0
220
0
230
1
40
0.089883
41
-3.03613883155017
42
-1.4537063946325
0
ELLIPSE
5
B1
100
AcDbEntity
8
1
62
256
6
ByLayer
370
18
48
1
60
0
100
AcDbEllipse
10
15.084935
20
1.482593
30
0
11
0.664955378264598
21
2.48164725645002
31
0
210
0
220
0
230
1
40
0.989133
41
-0.913034419558619
42
-0.159052274640782
0
ELLIPSE
5
B2
100
AcDbEntity
8
1
62
256
6
ByLayer
370
18
48
1
60
0
100
AcDbEllipse
10
16.763154
20
-8.616443
30
0
11
0.698811421776711
21
2.60799973098051
31
0
210
0
220
0
230
1
40
0.989133
41
1.49223634763309
42
1.82713250607248
0
ELLIPSE
5
B3
100
AcDbEntity
8
1
62
256
6
ByLayer
370
18
48
1
60
0
100
AcDbEllipse
10
15.106485
20
1.476819
30
0
11
-0.703775606770498
21
-2.62652632159548
31
0
210
0
220
0
230
1
40
0.989133
41
2.22855823403117
42
2.86001849922551
0
ELLIPSE
5
B4
100
AcDbEntity
8
1
62
256
6
ByLayer
370
18
48
1
60
0
100
AcDbEllipse
10
16.730667
20
-12.612211
30
0
11
0.698811421776712
21
2.60799973098051
31
0
210
0
220
0
230
1
40
0.989133
41
1.82713250607247
42
2.16202866451184
0
ELLIPSE
5
B5
100
AcDbEntity
8
1
62
256
6
ByLayer
370
18
48
1
60
0
100
AcDbEllipse
10
16.150046
20
1.197198
30
0
11
-0.681644259572556
21
-2.5439310094128
31
0
210
0
220
0
230
1
40
0.989133
41
2.22855823403116
42
-0.913034419558625
0
ELLIPSE
5
B6
100
AcDbEntity
8
1
62
256
6
ByLayer
370
18
48
1
60
0
100
AcDbEllipse
10
14.482391
20
0.389091
30
0
11
-0.2054376170501
21
-0.766703624616957
31
0
210
0
220
0
230
1
40
0.989133
41
-3.14159081769616
42
-1.31446014751731
0
ELLIPSE
5
B7
100
AcDbEntity
8
1
62
256
6
ByLayer
370
18
48
1
60
0
100
AcDbEllipse
10
14.326015
20
-18.844311
30
0
11
-0.2054376170501
21
-0.766703624616958
31
0
210
0
220
0
230
1
40
0.989133
41
-1.31446014751732
42
-3.0378531523669E-05
0
ELLIPSE
5
B8
100
AcDbEntity
8
1
62
256
6
ByLayer
370
18
48
1
60
0
100
AcDbEllipse
10
19.903953
20
-9.242848
30
0
11
0.667235498274208
21
2.49015678017324
31
0
210
0
220
0
230
1
40
0.989133
41
-3.00385619240711
42
-2.24938290340982
0
ELLIPSE
5
B9
100
AcDbEntity
8
1
62
256
6
ByLayer
370
18
48
1
60
0
100
AcDbEllipse
10
19.903953
20
-9.242848
30
0
11
0.667235498274208
21
2.49015678017324
31
0
210
0
220
0
230
1
40
0.989133
41
-0.940909644633518
42
-0.137741840925619
0
ELLIPSE
5
BA
100
AcDbEntity
8
1
62
256
6
ByLayer
370
18
48
1
60
0
100
AcDbEllipse
10
19.087368
20
-9.024045
30
0
11
0.718222850159398
21
2.68044416795219
31
0
210
0
220
0
230
1
40
0.989133
41
-2.72660105346753
42
-2.3773679081566
0
ELLIPSE
5
BB
100
AcDbEntity
8
1
62
256
6
ByLayer
370
18
48
1
60
0
100
AcDbEllipse
10
19.087368
20
-9.024045
30
0
11
0.718222850159398
21
2.68044416795219
31
0
210
0
220
0
230
1
40
0.989133
41
-0.761181448161205
42
-0.41499948967649
0
ELLIPSE
5
BC
100
AcDbEntity
8
1
62
256
6
ByLayer
370
18
48
1
60
0
100
AcDbEllipse
10
19.966372
20
-8.691123
30
0
11
0.672929517266463
21
2.5114071483516
31
0
210
0
220
0
230
1
40
0.989133
41
2.74448457225277
42
-3.14159000674368
0
ELLIPSE
5
BD
100
AcDbEntity
8
1
62
256
6
ByLayer
370
18
48
1
60
0
100
AcDbEllipse
10
19.62141
20
-9.735591
30
0
11
0.672929517266463
21
2.5114071483516
31
0
210
0
220
0
230
1
40
0.989133
41
-4.72316886231671E-06
42
0.352225513563956
0
ELLIPSE
5
BE
100
AcDbEntity
8
1
62
256
6
ByLayer
370
18
48
1
60
0
100
AcDbEllipse
10
20.031885
20
-9.298068
30
0
11
-0.608224755990846
21
-2.26992569177933
31
0
210
0
220
0
230
1
40
0.989133
41
-2.93331583617806
42
-2.80215317389969
0
ELLIPSE
5
BF
100
AcDbEntity
8
1
62
256
6
ByLayer
370
18
48
1
60
0
100
AcDbEllipse
10
18.828191
20
-8.954599
30
0
11
-0.737634278542089
21
-2.75288860492387
31
0
210
0
220
0
230
1
40
0.989133
41
2.42064397661881
42
2.66023033792922
0
ELLIPSE
5
C0
100
AcDbEntity
8
1
62
256
6
ByLayer
370
18
48
1
60
0
100
AcDbEllipse
10
18.828191
20
-8.954599
30
0
11
-0.737634278542089
21
-2.75288860492387
31
0
210
0
220
0
230
1
40
0.989133
41
0.481384057718463
42
0.705533954082979
0
ELLIPSE
5
C1
100
AcDbEntity
8
1
62
256
6
ByLayer
370
18
48
1
60
0
100
AcDbEllipse
10
7.958275
20
-5.276196
30
0
11
-0.402463615134369
21
-1.50201465987951
31
0
210
0
220
0
230
1
40
0.989133
41
0.230708356575279
42
1.82987697620508
0
ELLIPSE
5
C2
100
AcDbEntity
8
1
62
256
6
ByLayer
370
18
48
1
60
0
100
AcDbEllipse
10
7.958275
20
-5.276196
30
0
11
-0.402463615134369
21
-1.50201465987951
31
0
210
0
220
0
230
1
40
0.989133
41
1.82987697620508
42
2.97793280930975
0
ELLIPSE
5
C3
100
AcDbEntity
8
1
62
256
6
ByLayer
370
18
48
1
60
0
100
AcDbEllipse
10
20.240274
20
-9.353906
30
0
11
-0.608224755990846
21
-2.26992569177933
31
0
210
0
220
0
230
1
40
0.989133
41
-2.46373307633754
42
-2.43891435389518
0
ELLIPSE
5
C4
100
AcDbEntity
8
1
62
256
6
ByLayer
370
18
48
1
60
0
100
AcDbEllipse
10
15.00236
20
-19.025538
30
0
11
-0.2054376170501
21
-0.766703624616958
31
0
210
0
220
0
230
1
40
0.989133
41
-1.31446014751732
42
0.779934954875833
0
ELLIPSE
5
C5
100
AcDbEntity
8
1
62
256
6
ByLayer
370
18
48
1
60
0
100
AcDbEllipse
10
31.579797
20
-9.45455
30
0
11
-0.2054376170501
21
-0.766703624616957
31
0
210
0
220
0
230
1
40
0.989133
41
0.779934954875883
42
2.87433005726911
0
ELLIPSE
5
C6
100
AcDbEntity
8
1
62
256
6
ByLayer
370
18
48
1
60
0
100
AcDbEllipse
10
15.158737
20
0.207864
30
0
11
-0.2054376170501
21
-0.766703624616957
31
0
210
0
220
0
230
1
40
0.989133
41
2.87433005726907
42
-1.31446014751732
0
ELLIPSE
5
C7
100
AcDbEntity
8
1
62
256
6
ByLayer
370
18
48
1
60
0
100
AcDbEllipse
10
20.580298
20
-9.424074
30
0
11
0.667235498274208
21
2.49015678017324
31
0
210
0
220
0
230
1
40
0.989133
41
0
42
6.28318530717959
0
ELLIPSE
5
C8
100
AcDbEntity
8
1
62
256
6
ByLayer
370
18
48
1
60
0
100
AcDbEllipse
10
20.418756
20
-9.380789
30
0
11
-0.608224755990846
21
-2.26992569177933
31
0
210
0
220
0
230
1
40
0.989133
41
1.14288025056511
42
1.88306623086188
0
ELLIPSE
5
C9
100
AcDbEntity
8
1
62
256
6
ByLayer
370
18
48
1
60
0
100
AcDbEllipse
10
20.418756
20
-9.380789
30
0
11
-0.608224755990846
21
-2.26992569177933
31
0
210
0
220
0
230
1
40
0.989133
41
-1.99871240302468
42
-1.25852642272791
0
ELLIPSE
5
CA
100
AcDbEntity
8
1
62
256
6
ByLayer
370
18
48
1
60
0
100
AcDbEllipse
10
20.489764
20
-9.399816
30
0
11
0.478815233439599
21
1.78696277863479
31
0
210
0
220
0
230
1
40
0.989133
41
-1.97193319251824
42
-1.28530563323435
0
ELLIPSE
5
CB
100
AcDbEntity
8
1
62
256
6
ByLayer
370
18
48
1
60
0
100
AcDbEllipse
10
20.489764
20
-9.399816
30
0
11
0.478815233439599
21
1.78696277863479
31
0
210
0
220
0
230
1
40
0.989133
41
1.16965946107155
42
1.85628702035544
0
ELLIPSE
5
CC
100
AcDbEntity
8
1
62
256
6
ByLayer
370
18
48
1
60
0
100
AcDbEllipse
10
20.662245
20
-8.877582
30
0
11
0.54351999471522
21
2.02844423520706
31
0
210
0
220
0
230
1
40
0.989133
41
2.1054791772439
42
-2.22112534940669
0
ELLIPSE
5
CD
100
AcDbEntity
8
1
62
256
6
ByLayer
370
18
48
1
60
0
100
AcDbEllipse
10
20.317283
20
-9.92205
30
0
11
0.54351999471522
21
2.02844423520706
31
0
210
0
220
0
230
1
40
0.989133
41
-1.0361134763459
42
0.920467304183103
0
ELLIPSE
5
CE
100
AcDbEntity
8
1
62
256
6
ByLayer
370
18
48
1
60
0
100
AcDbEllipse
10
20.591237
20
-8.858555
30
0
11
-0.672929517266469
21
-2.5114071483516
31
0
210
0
220
0
230
1
40
0.989133
41
-1.06000911261211
42
0.944362940449322
0
ELLIPSE
5
CF
100
AcDbEntity
8
1
62
256
6
ByLayer
370
18
48
1
60
0
100
AcDbEllipse
10
20.246275
20
-9.903024
30
0
11
-0.672929517266469
21
-2.5114071483516
31
0
210
0
220
0
230
1
40
0.989133
41
2.08158354097767
42
-2.19722971314049
0
ELLIPSE
5
D0
100
AcDbEntity
8
1
62
256
6
ByLayer
370
18
48
1
60
0
100
AcDbEllipse
10
8.637816
20
-5.458278
30
0
11
0.402463615134365
21
1.50201465987952
31
0
210
0
220
0
230
1
40
0.989133
41
-1.32654933988309
42
-0.883491934672908
0
ELLIPSE
5
D1
100
AcDbEntity
8
1
62
256
6
ByLayer
370
18
48
1
60
0
100
AcDbEllipse
10
8.10029
20
-5.314248
30
0
11
0.402463615134365
21
1.50201465987952
31
0
210
0
220
0
230
1
40
0.989133
41
-0.883491934672889
42
-0.279351788686514
0
ELLIPSE
5
D2
100
AcDbEntity
8
1
62
256
6
ByLayer
370
18
48
1
60
0
100
AcDbEllipse
10
8.10029
20
-5.314248
30
0
11
0.402463615134365
21
1.50201465987952
31
0
210
0
220
0
230
1
40
0.989133
41
-2.9778870370661
42
-2.37374689107968
0
ELLIPSE
5
D3
100
AcDbEntity
8
1
62
256
6
ByLayer
370
18
48
1
60
0
100
AcDbEllipse
10
8.637816
20
-5.458278
30
0
11
0.402463615134365
21
1.50201465987952
31
0
210
0
220
0
230
1
40
0.989133
41
2.8622408649033
42
-2.9778870370661
0
ELLIPSE
5
D4
100
AcDbEntity
8
1
62
256
6
ByLayer
370
18
48
1
60
0
100
AcDbEllipse
10
8.637816
20
-5.458278
30
0
11
0.402463615134365
21
1.50201465987952
31
0
210
0
220
0
230
1
40
0.989133
41
-0.279351788686531
42
0.163705616523698
0
ELLIPSE
5
D5
100
AcDbEntity
8
1
62
256
6
ByLayer
370
18
48
1
60
0
100
AcDbEllipse
10
8.637816
20
-5.458278
30
0
11
0.402463615134365
21
1.50201465987952
31
0
210
0
220
0
230
1
40
0.989133
41
-2.37374689107969
42
-1.93068948586951
0
ELLIPSE
5
D6
100
AcDbEntity
8
1
62
256
6
ByLayer
370
18
48
1
60
0
100
AcDbEllipse
10
8.637816
20
-5.458278
30
0
11
0.402463615134365
21
1.50201465987952
31
0
210
0
220
0
230
1
40
0.989133
41
1.8150433137067
42
2.25810071891689
0
ELLIPSE
5
D7
100
AcDbEntity
8
1
62
256
6
ByLayer
370
18
48
1
60
0
100
AcDbEllipse
10
8.637816
20
-5.458278
30
0
11
0.402463615134365
21
1.50201465987952
31
0
210
0
220
0
230
1
40
0.989133
41
0.76784576251009
42
1.21090316772029
0
ELLIPSE
5
D8
100
AcDbEntity
8
1
62
256
6
ByLayer
370
18
48
1
60
0
100
AcDbEllipse
10
8.10029
20
-5.314248
30
0
11
0.402463615134365
21
1.50201465987952
31
0
210
0
220
0
230
1
40
0.989133
41
-1.93068948586951
42
-1.32654933988309
0
ELLIPSE
5
D9
100
AcDbEntity
8
1
62
256
6
ByLayer
370
18
48
1
60
0
100
AcDbEllipse
10
8.559707
20
-5.437349
30
0
11
-1.03527618040995
21
-3.86370330515631
31
0
210
0
220
0
230
1
40
0.989133
41
0
42
6.28318530717959
0
ELLIPSE
5
DA
100
AcDbEntity
8
1
62
256
6
ByLayer
370
18
48
1
60
0
100
AcDbEllipse
10
8.668349
20
-5.466459
30
0
11
-0.837279610906547
21
-3.12477004804517
31
0
210
0
220
0
230
1
40
0.989133
41
0
42
6.28318530717959
0
ELLIPSE
5
DB
100
AcDbEntity
8
1
62
256
6
ByLayer
370
18
48
1
60
0
100
AcDbEllipse
10
8.668349
20
-5.466459
30
0
11
-0.498845478392422
21
-1.86171667048678
31
0
210
0
220
0
230
1
40
0.989133
41
0
42
6.28318530717959
0
POINT
5
6C
100
AcDbEntity
8
80
62
256
6
ByLayer
370
18
48
1
60
0
100
AcDbPoint
10
0
20
0
30
0
39
0
210
0
220
0
230
1
50
360
0
POINT
5
6E
100
AcDbEntity
8
81
62
256
6
ByLayer
370
18
48
1
60
0
100
AcDbPoint
10
31.015502
20
-9.5625
30
0
39
0
210
0
220
0
230
1
50
360
0
POINT
5
70
100
AcDbEntity
8
1
62
256
6
ByLayer
370
18
48
1
60
0
100
AcDbPoint
10
-118.984498
20
12.4375
30
0
39
0
210
0
220
0
230
1
50
360
0
SPLINE
5
DC
100
AcDbEntity
8
1
62
256
6
ByLayer
370
18
48
1
60
0
100
AcDbSpline
70
4
71
3
72
8
73
4
40
0
40
0
40
0
40
0
40
1
40
1
40
1
40
1
41
1
10
19.3059683033551
20
-7.20853309471204
30
0
41
1
10
19.3153192255043
20
-7.21103866675037
30
0
41
1
10
19.3112435940706
20
-7.21568002433676
30
0
41
1
10
19.2965869642869
20
-7.22249796256733
30
0
0
SPLINE
5
DD
100
AcDbEntity
8
1
62
256
6
ByLayer
370
18
48
1
60
0
100
AcDbSpline
70
4
71
3
72
16
73
12
40
0
40
0
40
0
40
0
40
0.102656408787455
40
0.102656408787455
40
0.282125127029964
40
0.282125127029964
40
0.641062563514982
40
0.641062563514982
40
0.820531281757491
40
0.820531281757491
40
1
40
1
40
1
40
1
41
1
10
21.3976499992727
20
-7.57292888812816
30
0
41
1
10
21.3741848243271
20
-7.54819900606537
30
0
41
1
10
21.3501625290634
20
-7.52392339875885
30
0
41
1
10
21.2825870877847
20
-7.45847755772408
30
0
41
1
10
21.2377995388574
20
-7.41822633131252
30
0
41
1
10
21.1004094916187
20
-7.30373675686013
30
0
41
1
10
21.004109237748
20
-7.23501752658745
30
0
41
1
10
20.8526401209336
20
-7.1431913039487
30
0
41
1
10
20.8009760996893
20
-7.11446591162223
30
0
41
1
10
20.6952495738607
20
-7.06085286780552
30
0
41
1
10
20.6409435861567
20
-7.03587036886839
30
0
41
1
10
20.5860916930062
20
-7.01315477430836
30
0
0
SPLINE
5
DE
100
AcDbEntity
8
1
62
256
6
ByLayer
370
18
48
1
60
0
100
AcDbSpline
70
4
71
3
72
12
73
8
40
0
40
0
40
0
40
0
40
0.371808694874832
40
0.371808694874832
40
0.743617389749664
40
0.743617389749664
40
1
40
1
40
1
40
1
41
1
10
20.5860916930062
20
-7.01315477430839
30
0
41
1
10
20.5664842578247
20
-7.00640751397188
30
0
41
1
10
20.53348997
20
-6.99411542080969
30
0
41
1
10
20.4536024374211
20
-6.96567205104719
30
0
41
1
10
20.4058863195027
20
-6.9493045586795
30
0
41
1
10
20.3201013769208
20
-6.92253388953606
30
0
41
1
10
20.2834012132009
20
-6.91175675768244
30
0
41
1
10
20.2453226712947
20
-6.90143434119449
30
0
0
SPLINE
5
DF
100
AcDbEntity
8
1
62
256
6
ByLayer
370
18
48
1
60
0
100
AcDbSpline
70
4
71
3
72
14
73
10
40
0
40
0
40
0
40
0
40
0.293736524568327
40
0.293736524568327
40
0.587473049136655
40
0.587473049136655
40
0.881209573704982
40
0.881209573704982
40
1
40
1
40
1
40
1
41
1
10
19.11596758961
20
-11.4643677811799
30
0
41
1
10
19.2299531237192
20
-11.4931871204592
30
0
41
1
10
19.3463619042258
20
-11.5134124595818
30
0
41
1
10
19.5842394495546
20
-11.5360826210176
30
0
41
1
10
19.7034533081197
20
-11.5382459138824
30
0
41
1
10
19.9399082712423
20
-11.5249635116781
30
0
41
1
10
20.0575689026936
20
-11.5095549801155
30
0
41
1
10
20.2220586060908
20
-11.4754793354478
30
0
41
1
10
20.2694682080216
20
-11.4641657602882
30
0
41
1
10
20.3163006777292
20
-11.4515182740154
30
0
0
SPLINE
5
E0
100
AcDbEntity
8
1
62
256
6
ByLayer
370
18
48
1
60
0
100
AcDbSpline
70
4
71
3
72
8
73
4
40
0
40
0
40
0
40
0
40
1
40
1
40
1
40
1
41
1
10
20.0365792801207
20
-6.95089925385994
30
0
41
1
10
20.0783255603884
20
-6.95028290628315
30
0
41
1
10
20.1203824809981
20
-6.95090583665402
30
0
41
1
10
20.1627033647865
20
-6.95279967506235
30
0
0
SPLINE
5
E1
100
AcDbEntity
8
1
62
256
6
ByLayer
370
18
48
1
60
0
100
AcDbSpline
70
4
71
3
72
8
73
4
40
0
40
0
40
0
40
0
40
1
40
1
40
1
40
1
41
1
10
21.9300348973154
20
-10.5335780291163
30
0
41
1
10
22.0232843433032
20
-10.6457627268306
30
0
41
1
10
22.1162864275153
20
-10.7579435625422
30
0
41
1
10
22.2091665890669
20
-10.8701223066977
30
0
0
SPLINE
5
E2
100
AcDbEntity
8
1
62
256
6
ByLayer
370
18
48
1
60
0
100
AcDbSpline
70
4
71
3
72
8
73
4
40
0
40
0
40
0
40
0
40
1
40
1
40
1
40
1
41
1
10
18.6589160593169
20
-9.44863332329669
30
0
41
1
10
18.470888662401
20
-9.46752583668757
30
0
41
1
10
18.2830174358401
20
-9.48654832914698
30
0
41
1
10
18.095223403702
20
-9.50563477198762
30
0
0
SPLINE
5
E3
100
AcDbEntity
8
1
62
256
6
ByLayer
370
18
48
1
60
0
100
AcDbSpline
70
4
71
3
72
8
73
4
40
0
40
0
40
0
40
0
40
1
40
1
40
1
40
1
41
1
10
18.6283460455278
20
-7.89145646413527
30
0
41
1
10
18.7685945264909
20
-8.01632751122392
30
0
41
1
10
18.9089426077559
20
-8.14119466861075
30
0
41
1
10
19.0494925402268
20
-8.26605349347972
30
0
0
SPLINE
5
E4
100
AcDbEntity
8
1
62
256
6
ByLayer
370
18
48
1
60
0
100
AcDbSpline
70
4
71
3
72
8
73
4
40
0
40
0
40
0
40
0
40
1
40
1
40
1
40
1
41
1
10
22.7422892308926
20
-9.2559439988454
30
0
41
1
10
22.6018635181661
20
-9.28772274461915
30
0
41
1
10
22.4613382886582
20
-9.31943155875373
30
0
41
1
10
22.3206113782253
20
-9.35099819929937
30
0
0
SPLINE
5
E5
100
AcDbEntity
8
1
62
256
6
ByLayer
370
18
48
1
60
0
100
AcDbSpline
70
4
71
3
72
8
73
4
40
0
40
0
40
0
40
0
40
1
40
1
40
1
40
1
41
1
10
20.1627033647865
20
-6.95279967506235
30
0
41
1
10
20.3043809973952
20
-6.95913967834716
30
0
41
1
10
20.4457560018003
20
-6.9790642811669
30
0
41
1
10
20.5860916930062
20
-7.01315477430845
30
0
0
SPLINE
5
E6
100
AcDbEntity
8
1
62
256
6
ByLayer
370
18
48
1
60
0
100
AcDbSpline
70
4
71
3
72
10
73
6
40
0
40
0
40
0
40
0
40
0.5
40
0.5
40
1
40
1
40
1
40
1
41
1
10
9.00051270443032
20
-7.17575277780674
30
0
41
1
10
9.06189050187822
20
-7.11634231064517
30
0
41
1
10
9.12458190486842
20
-7.05616402902905
30
0
41
1
10
9.25127822163597
20
-6.93582218695948
30
0
41
1
10
9.31533188844469
20
-6.87560990200851
30
0
41
1
10
9.38022221208593
20
-6.81534856391815
30
0
0
SPLINE
5
E7
100
AcDbEntity
8
1
62
256
6
ByLayer
370
18
48
1
60
0
100
AcDbSpline
70
4
71
3
72
10
73
6
40
0
40
0
40
0
40
0
40
0.5
40
0.5
40
1
40
1
40
1
40
1
41
1
10
9.00051270443032
20
-7.17575277780674
30
0
41
1
10
8.91497924429206
20
-7.14761160608302
30
0
41
1
10
8.82895816693144
20
-7.11928563804764
30
0
41
1
10
8.65562694350422
20
-7.06214517300091
30
0
41
1
10
8.56886586501571
20
-7.0335112549696
30
0
41
1
10
8.48286404074395
20
-7.00508987613071
30
0
0
SPLINE
5
E8
100
AcDbEntity
8
1
62
256
6
ByLayer
370
18
48
1
60
0
100
AcDbSpline
70
4
71
3
72
10
73
6
40
0
40
0
40
0
40
0
40
0.5
40
0.5
40
1
40
1
40
1
40
1
41
1
10
7.8412999099603
20
-6.79229980594073
30
0
41
1
10
7.75801591143102
20
-6.76457284870392
30
0
41
1
10
7.67513909373963
20
-6.73694079512683
30
0
41
1
10
7.51338463235356
20
-6.68294298624838
30
0
41
1
10
7.43405628471425
20
-6.65642747764147
30
0
41
1
10
7.35590384891896
20
-6.63027896309723
30
0
0
SPLINE
5
E9
100
AcDbEntity
8
1
62
256
6
ByLayer
370
18
48
1
60
0
100
AcDbSpline
70
4
71
3
72
10
73
6
40
0
40
0
40
0
40
0
40
0.5
40
0.5
40
1
40
1
40
1
40
1
41
1
10
10.2985506896271
20
-6.00807292456622
30
0
41
1
10
10.2776088470187
20
-5.92135918226018
30
0
41
1
10
10.2567654086274
20
-5.8334745749504
30
0
41
1
10
10.2160260771249
20
-5.65759870029055
30
0
41
1
10
10.1961118848402
20
-5.56953646897747
30
0
41
1
10
10.1767378349188
20
-5.48132683841786
30
0
0
SPLINE
5
EA
100
AcDbEntity
8
1
62
256
6
ByLayer
370
18
48
1
60
0
100
AcDbSpline
70
4
71
3
72
10
73
6
40
0
40
0
40
0
40
0
40
0.5
40
0.5
40
1
40
1
40
1
40
1
41
1
10
8.30737096380108
20
-3.74944544190666
30
0
41
1
10
8.23880416151906
20
-3.80692962102853
30
0
41
1
10
8.16963272449459
20
-3.86537158275826
30
0
41
1
10
8.03202567112982
20
-3.98278990176777
30
0
41
1
10
7.96353296343307
20
-4.0418127492976
30
0
41
1
10
7.89540885350044
20
-4.10120759696272
30
0
0
SPLINE
5
EB
100
AcDbEntity
8
1
62
256
6
ByLayer
370
18
48
1
60
0
100
AcDbSpline
70
4
71
3
72
10
73
6
40
0
40
0
40
0
40
0
40
0.5
40
0.5
40
1
40
1
40
1
40
1
41
1
10
8.79276702484242
20
-3.91146628475013
30
0
41
1
10
8.70948302631314
20
-3.88373932751335
30
0
41
1
10
8.62660620862175
20
-3.85610727393626
30
0
41
1
10
8.46485174723568
20
-3.80210946505781
30
0
41
1
10
8.38552339959637
20
-3.77559395645088
30
0
41
1
10
8.30737096380108
20
-3.74944544190666
30
0
0
SPLINE
5
EC
100
AcDbEntity
8
1
62
256
6
ByLayer
370
18
48
1
60
0
100
AcDbSpline
70
4
71
3
72
8
73
4
40
0
40
0
40
0
40
0
40
1
40
1
40
1
40
1
41
1
10
9.88658857932649
20
-6.35983507962229
30
0
41
1
10
10.0250470983808
20
-6.23911830761145
30
0
41
1
10
10.1621954718513
20
-6.12238870861844
30
0
41
1
10
10.2985506896271
20
-6.00807292456622
30
0
0
SPLINE
5
ED
100
AcDbEntity
8
1
62
256
6
ByLayer
370
18
48
1
60
0
100
AcDbSpline
70
4
71
3
72
10
73
6
40
0
40
0
40
0
40
0
40
0.5
40
0.5
40
1
40
1
40
1
40
1
41
1
10
7.00933297860433
20
-4.9171252951472
30
0
41
1
10
7.02308581637863
20
-5.00191274941355
30
0
41
1
10
7.03744922073565
20
-5.0880610368369
30
0
41
1
10
7.06727781564086
20
-5.26101338843671
30
0
41
1
10
7.08275296703744
20
-5.34788618232864
30
0
41
1
10
7.09889323066756
20
-5.43522932246302
30
0
0
SPLINE
5
EE
100
AcDbEntity
8
1
62
256
6
ByLayer
370
18
48
1
60
0
100
AcDbSpline
70
4
71
3
72
10
73
6
40
0
40
0
40
0
40
0
40
0.5
40
0.5
40
1
40
1
40
1
40
1
41
1
10
9.95197981931244
20
-4.29491925661617
30
0
41
1
10
9.86644635917423
20
-4.26677808489245
30
0
41
1
10
9.78042528181356
20
-4.23845211685705
30
0
41
1
10
9.60709405838645
20
-4.18131165181035
30
0
41
1
10
9.52033297989794
20
-4.15267773377903
30
0
41
1
10
9.43433115562607
20
-4.12425635494014
30
0
0
SPLINE
5
EF
100
AcDbEntity
8
1
62
256
6
ByLayer
370
18
48
1
60
0
100
AcDbSpline
70
4
71
3
72
8
73
4
40
0
40
0
40
0
40
0
40
1
40
1
40
1
40
1
41
1
10
7.23409099421065
20
-6.10353287694889
30
0
41
1
10
7.27346768864174
20
-6.28281411564257
30
0
41
1
10
7.31425790052316
20
-6.45783587368999
30
0
41
1
10
7.35590384891896
20
-6.63027896309725
30
0
0
SPLINE
5
F0
100
AcDbEntity
8
1
62
256
6
ByLayer
370
18
48
1
60
0
100
AcDbSpline
70
4
71
3
72
8
73
4
40
0
40
0
40
0
40
0
40
1
40
1
40
1
40
1
41
1
10
10.0415400713757
20
-4.81302328393198
30
0
41
1
10
10.0087358703141
20
-4.63550313952891
30
0
41
1
10
9.9793293693474
20
-4.46353163762797
30
0
41
1
10
9.95197981931244
20
-4.29491925661617
30
0
0
SPLINE
5
F1
100
AcDbEntity
8
1
62
256
6
ByLayer
370
18
48
1
60
0
100
AcDbSpline
70
4
71
3
72
8
73
4
40
0
40
0
40
0
40
0
40
1
40
1
40
1
40
1
41
1
10
7.38904248625988
20
-4.55672108125862
30
0
41
1
10
7.257156460575
20
-4.67919894756002
30
0
41
1
10
7.13139179801931
20
-4.79897880269954
30
0
41
1
10
7.00933297860433
20
-4.9171252951472
30
0
0
LINE
5
72
100
AcDbEntity
8
1
62
256
6
ByLayer
370
18
48
1
60
0
100
AcDbLine
10
19.293443
20
-11.20253
30
0
11
19.918308
21
-11.369962
31
0
39
0
210
0
220
0
230
1
0
LINE
5
73
100
AcDbEntity
8
1
62
256
6
ByLayer
370
18
48
1
60
0
100
AcDbLine
10
15.364174
20
0.974568
30
0
11
14.687829
21
1.155794
31
0
39
0
210
0
220
0
230
1
0
LINE
5
74
100
AcDbEntity
8
1
62
256
6
ByLayer
370
18
48
1
60
0
100
AcDbLine
10
20.919205
20
-7.391616
30
0
11
20.29434
21
-7.224184
31
0
39
0
210
0
220
0
230
1
0
LINE
5
75
100
AcDbEntity
8
1
62
256
6
ByLayer
370
18
48
1
60
0
100
AcDbLine
10
14.120577
20
-19.611015
30
0
11
14.796923
21
-19.792241
31
0
39
0
210
0
220
0
230
1
0
LINE
5
76
100
AcDbEntity
8
1
62
256
6
ByLayer
370
18
48
1
60
0
100
AcDbLine
10
9.594984
20
-1.573646
30
0
11
9.535827
21
-1.557795
31
0
39
0
210
0
220
0
230
1
0
LINE
5
77
100
AcDbEntity
8
1
62
256
6
ByLayer
370
18
48
1
60
0
100
AcDbLine
10
7.465274
20
-9.285201
30
0
11
7.524431
21
-9.301052
31
0
39
0
210
0
220
0
230
1
0
LINE
5
78
100
AcDbEntity
8
1
62
256
6
ByLayer
370
18
48
1
60
0
100
AcDbLine
10
18.959315
20
-11.422632
30
0
11
19.084272
21
-11.456115
31
0
39
0
210
0
220
0
230
1
0
LINE
5
79
100
AcDbEntity
8
1
62
256
6
ByLayer
370
18
48
1
60
0
100
AcDbLine
10
20.239364
20
-6.899822
30
0
11
20.175765
21
-6.882781
31
0
39
0
210
0
220
0
230
1
0
LINE
5
7A
100
AcDbEntity
8
SK1
62
256
6
ByLayer
370
18
48
1
60
0
100
AcDbLine
10
-118.984498
20
12.4375
30
0
11
-118.984498
21
-12.4375
31
0
39
0
210
0
220
0
230
1
0
LINE
5
7C
100
AcDbEntity
8
SK1
62
256
6
ByLayer
370
18
48
1
60
0
100
AcDbLine
10
-118.984498
20
-12.4375
30
0
11
0
21
-12.4375
31
0
39
0
210
0
220
0
230
1
0
LINE
5
7D
100
AcDbEntity
8
SK1
62
256
6
ByLayer
370
18
48
1
60
0
100
AcDbLine
10
0
20
-12.4375
30
0
11
0
21
12.4375
31
0
39
0
210
0
220
0
230
1
0
LINE
5
7E
100
AcDbEntity
8
SK1
62
256
6
ByLayer
370
18
48
1
60
0
100
AcDbLine
10
-118.984498
20
12.4375
30
0
11
0
21
12.4375
31
0
39
0
210
0
220
0
230
1
0
LINE
5
7F
100
AcDbEntity
8
1
62
256
6
ByLayer
370
18
48
1
60
0
100
AcDbLine
10
25.965287
20
-5.230613
30
0
11
26.932689
21
-3.565396
31
0
39
0
210
0
220
0
230
1
0
LINE
5
80
100
AcDbEntity
8
1
62
256
6
ByLayer
370
18
48
1
60
0
100
AcDbLine
10
1.545481
20
12.442674
30
0
11
2.521433
21
12.458567
31
0
39
0
210
0
220
0
230
1
0
LINE
5
81
100
AcDbEntity
8
1
62
256
6
ByLayer
370
18
48
1
60
0
100
AcDbLine
10
20.234634
20
-1.858618
30
0
11
20.237847
21
-1.859733
31
0
39
0
210
0
220
0
230
1
0
LINE
5
82
100
AcDbEntity
8
1
62
256
6
ByLayer
370
18
48
1
60
0
100
AcDbLine
10
1.545481
20
-13.62339
30
0
11
2.23692
21
-16.203872
31
0
39
0
210
0
220
0
230
1
0
LINE
5
83
100
AcDbEntity
8
1
62
256
6
ByLayer
370
18
48
1
60
0
100
AcDbLine
10
18.558062
20
2.218857
30
0
11
20.237847
21
-1.859733
31
0
39
0
210
0
220
0
230
1
0
LINE
5
84
100
AcDbEntity
8
1
62
256
6
ByLayer
370
18
48
1
60
0
100
AcDbLine
10
18.111943
20
9.327659
30
0
11
5.147258
21
12.456922
31
0
39
0
210
0
220
0
230
1
0
LINE
5
85
100
AcDbEntity
8
1
62
256
6
ByLayer
370
18
48
1
60
0
100
AcDbLine
10
14.299506
20
-1.178035
30
0
11
13.742031
21
0.175538
31
0
39
0
210
0
220
0
230
1
0
LINE
5
86
100
AcDbEntity
8
1
62
256
6
ByLayer
370
18
48
1
60
0
100
AcDbLine
10
18.558062
20
2.218857
30
0
11
17.592683
21
2.531649
31
0
39
0
210
0
220
0
230
1
0
LINE
5
87
100
AcDbEntity
8
1
62
256
6
ByLayer
370
18
48
1
60
0
100
AcDbLine
10
14.09061
20
-8.609039
30
0
11
14.058123
21
-12.604806
31
0
39
0
210
0
220
0
230
1
0
LINE
5
88
100
AcDbEntity
8
1
62
256
6
ByLayer
370
18
48
1
60
0
100
AcDbLine
10
2.23692
20
-16.203872
30
0
11
2.521433
21
12.458567
31
0
39
0
210
0
220
0
230
1
0
LINE
5
89
100
AcDbEntity
8
1
62
256
6
ByLayer
370
18
48
1
60
0
100
AcDbLine
10
2.789351
20
-18.265575
30
0
11
2.23692
21
-16.203872
31
0
39
0
210
0
220
0
230
1
0
LINE
5
8A
100
AcDbEntity
8
1
62
256
6
ByLayer
370
18
48
1
60
0
100
AcDbLine
10
14.160576
20
-18.265575
30
0
11
2.789351
21
-18.265575
31
0
39
0
210
0
220
0
230
1
0
LINE
5
8B
100
AcDbEntity
8
1
62
256
6
ByLayer
370
18
48
1
60
0
100
AcDbLine
10
5.147258
20
12.456922
30
0
11
2.521433
21
12.458567
31
0
39
0
210
0
220
0
230
1
0
LINE
5
8C
100
AcDbEntity
8
1
62
256
6
ByLayer
370
18
48
1
60
0
100
AcDbLine
10
1.545481
20
12.442674
30
0
11
1.545481
21
-13.62339
31
0
39
0
210
0
220
0
230
1
0
LINE
5
8D
100
AcDbEntity
8
1
62
256
6
ByLayer
370
18
48
1
60
0
100
AcDbLine
10
14.299506
20
-1.178035
30
0
11
14.246295
21
-7.722684
31
0
39
0
210
0
220
0
230
1
0
LINE
5
8E
100
AcDbEntity
8
1
62
256
6
ByLayer
370
18
48
1
60
0
100
AcDbLine
10
18.896199
20
-1.071057
30
0
11
17.433995
21
2.479239
31
0
39
0
210
0
220
0
230
1
0
LINE
5
8F
100
AcDbEntity
8
1
62
256
6
ByLayer
370
18
48
1
60
0
100
AcDbLine
10
0
20
-12.4375
30
0
11
0
21
12.4375
31
0
39
0
210
0
220
0
230
1
0
LINE
5
90
100
AcDbEntity
8
1
62
256
6
ByLayer
370
18
48
1
60
0
100
AcDbLine
10
26.932689
20
-3.565396
30
0
11
18.111943
21
9.327659
31
0
39
0
210
0
220
0
230
1
0
LINE
5
91
100
AcDbEntity
8
1
62
256
6
ByLayer
370
18
48
1
60
0
100
AcDbLine
10
17.592683
20
2.531649
30
0
11
19.13411
21
-1.211002
31
0
39
0
210
0
220
0
230
1
0
LINE
5
92
100
AcDbEntity
8
1
62
256
6
ByLayer
370
18
48
1
60
0
100
AcDbLine
10
14.199388
20
-13.491984
30
0
11
14.160576
21
-18.265575
31
0
39
0
210
0
220
0
230
1
0
LINE
5
93
100
AcDbEntity
8
1
62
256
6
ByLayer
370
18
48
1
60
0
100
AcDbLine
10
20.368087
20
-1.937143
30
0
11
20.237847
21
-1.859733
31
0
39
0
210
0
220
0
230
1
0
LINE
5
94
100
AcDbEntity
8
1
62
256
6
ByLayer
370
18
48
1
60
0
100
AcDbLine
10
13.540336
20
-18.842135
30
0
11
13.545025
21
-18.265433
31
0
39
0
210
0
220
0
230
1
0
LINE
5
95
100
AcDbEntity
8
1
62
256
6
ByLayer
370
18
48
1
60
0
100
AcDbLine
10
13.695936
20
0.295701
30
0
11
13.696713
21
0.391267
31
0
39
0
210
0
220
0
230
1
0
LINE
5
96
100
AcDbEntity
8
1
62
256
6
ByLayer
370
18
48
1
60
0
100
AcDbLine
10
18.628346
20
-7.891456
30
0
11
18.552626
21
-7.871167
31
0
39
0
210
0
220
0
230
1
0
LINE
5
97
100
AcDbEntity
8
1
62
256
6
ByLayer
370
18
48
1
60
0
100
AcDbLine
10
18.028902
20
-9.487864
30
0
11
18.095223
21
-9.505635
31
0
39
0
210
0
220
0
230
1
0
LINE
5
98
100
AcDbEntity
8
1
62
256
6
ByLayer
370
18
48
1
60
0
100
AcDbLine
10
19.295103
20
-7.205622
30
0
11
19.305968
21
-7.208533
31
0
39
0
210
0
220
0
230
1
0
LINE
5
99
100
AcDbEntity
8
1
62
256
6
ByLayer
370
18
48
1
60
0
100
AcDbLine
10
7.998603
20
-6.875333
30
0
11
8.482864
21
-7.00509
31
0
39
0
210
0
220
0
230
1
0
LINE
5
9A
100
AcDbEntity
8
1
62
256
6
ByLayer
370
18
48
1
60
0
100
AcDbLine
10
8.842696
20
-6.671319
30
0
11
8.474235
21
-7.002777
31
0
39
0
210
0
220
0
230
1
0
LINE
5
9B
100
AcDbEntity
8
80
62
256
6
ByLayer
370
18
48
1
60
0
100
AcDbLine
10
0
20
0
30
0
11
-5
21
0
31
0
39
0
210
0
220
0
230
1
0
LINE
5
9C
100
AcDbEntity
8
81
62
256
6
ByLayer
370
18
48
1
60
0
100
AcDbLine
10
31.015502
20
-9.5625
30
0
11
41.015502
21
-9.5625
31
0
39
0
210
0
220
0
230
1
0
LINE
5
9D
100
AcDbEntity
8
1
62
256
6
ByLayer
370
18
48
1
60
0
100
AcDbLine
10
14.216682
20
-19.023361
30
0
11
14.373058
21
0.210041
31
0
39
0
210
0
220
0
230
1
0
LINE
5
9E
100
AcDbEntity
8
1
62
256
6
ByLayer
370
18
48
1
60
0
100
AcDbLine
10
13.696713
20
0.391267
30
0
11
14.373058
21
0.210041
31
0
39
0
210
0
220
0
230
1
0
LINE
5
9F
100
AcDbEntity
8
1
62
256
6
ByLayer
370
18
48
1
60
0
100
AcDbLine
10
15.557161
20
0.893683
30
0
11
31.978221
21
-8.768731
31
0
39
0
210
0
220
0
230
1
0
LINE
5
A0
100
AcDbEntity
8
1
62
256
6
ByLayer
370
18
48
1
60
0
100
AcDbLine
10
13.540336
20
-18.842135
30
0
11
14.216682
21
-19.023361
31
0
39
0
210
0
220
0
230
1
0
LINE
5
A1
100
AcDbEntity
8
1
62
256
6
ByLayer
370
18
48
1
60
0
100
AcDbLine
10
31.967052
20
-10.142546
30
0
11
15.389615
21
-19.713533
31
0
39
0
210
0
220
0
230
1
0
LINE
5
A2
100
AcDbEntity
8
1
62
256
6
ByLayer
370
18
48
1
60
0
100
AcDbLine
10
8.842696
20
-6.671319
30
0
11
9.380222
21
-6.815349
31
0
39
0
210
0
220
0
230
1
0
LINE
5
A3
100
AcDbEntity
8
1
62
256
6
ByLayer
370
18
48
1
60
0
100
AcDbLine
10
8.896805
20
-3.980227
30
0
11
9.434331
21
-4.124256
31
0
39
0
210
0
220
0
230
1
0
LINE
5
A4
100
AcDbEntity
8
1
62
256
6
ByLayer
370
18
48
1
60
0
100
AcDbLine
10
9.639212
20
-5.337297
30
0
11
9.744898
21
-5.859722
31
0
39
0
210
0
220
0
230
1
0
LINE
5
A5
100
AcDbEntity
8
1
62
256
6
ByLayer
370
18
48
1
60
0
100
AcDbLine
10
8.792767
20
-3.911466
30
0
11
8.255241
21
-3.767437
31
0
39
0
210
0
220
0
230
1
0
LINE
5
A6
100
AcDbEntity
8
1
62
256
6
ByLayer
370
18
48
1
60
0
100
AcDbLine
10
9.639212
20
-5.337297
30
0
11
10.176738
21
-5.481327
31
0
39
0
210
0
220
0
230
1
0
LINE
5
A7
100
AcDbEntity
8
1
62
256
6
ByLayer
370
18
48
1
60
0
100
AcDbLine
10
10.298551
20
-6.008073
30
0
11
9.744898
21
-5.859722
31
0
39
0
210
0
220
0
230
1
0
LINE
5
A8
100
AcDbEntity
8
1
62
256
6
ByLayer
370
18
48
1
60
0
100
AcDbLine
10
8.896805
20
-3.980227
30
0
11
9.398327
21
-4.146569
31
0
39
0
210
0
220
0
230
1
0
LINE
5
A9
100
AcDbEntity
8
1
62
256
6
ByLayer
370
18
48
1
60
0
100
AcDbLine
10
10.04154
20
-4.813023
30
0
11
9.504014
21
-4.668994
31
0
39
0
210
0
220
0
230
1
0
LINE
5
AA
100
AcDbEntity
8
1
62
256
6
ByLayer
370
18
48
1
60
0
100
AcDbLine
10
9.886589
20
-6.359835
30
0
11
9.349063
21
-6.215805
31
0
39
0
210
0
220
0
230
1
0
LINE
5
AB
100
AcDbEntity
8
1
62
256
6
ByLayer
370
18
48
1
60
0
100
AcDbLine
10
9.744898
20
-5.859722
30
0
11
9.349063
21
-6.215805
31
0
39
0
210
0
220
0
230
1
0
LINE
5
AC
100
AcDbEntity
8
1
62
256
6
ByLayer
370
18
48
1
60
0
100
AcDbLine
10
9.398327
20
-4.146569
30
0
11
9.504014
21
-4.668994
31
0
39
0
210
0
220
0
230
1
0
LINE
5
AD
100
AcDbEntity
8
1
62
256
6
ByLayer
370
18
48
1
60
0
100
AcDbLine
10
9.95198
20
-4.294919
30
0
11
9.398327
21
-4.146569
31
0
39
0
210
0
220
0
230
1
0
MTEXT
5
F2
100
AcDbEntity
8
SK6
62
256
6
ByLayer
370
13
48
1
60
0
100
AcDbMText
10
-92.401628
20
21.423222
30
0
210
0
220
0
230
1
1
\W0.8030;PTTNL 2525M 22
40
3.5
41
0
44
1.084337
50
0
71
7
72
5
7
iso_b_vert
0
DIMENSION
5
104
100
AcDbEntity
8
SK2
62
256
6
ByLayer
370
13
48
1
60
0
100
AcDbDimension
2
DimnDraft3D1
10
-128.734498
20
12.4375
30
0
11
-128.734498
21
-0.0625
31
0
70
32
71
5
72
1
41
1
210
0
220
0
230
1
3
Standard
100
AcDbAlignedDimension
13
-120.571998
23
-12.5625
33
0
14
-120.571998
24
12.4375
34
0
50
90
100
AcDbRotatedDimension
1001
ACAD
1000
DSTYLE
1002
{
1070
    74
1070
     0
1070
   279
1070
     0
1070
   172
1070
     1
1070
   173
1070
     1
1070
   340
1005
F3
1070
   271
1070
     1
1070
   272
1070
     2
1070
    77
1070
     1
1070
    73
1070
     0
1070
   171
1070
     3
1070
   274
1070
     4
1070
   177
1070
   150
1070
   176
1070
     9
1070
   178
1070
    43
1070
    78
1070
     8
1070
    48
1040
-0.005
1070
    41
1041
3.175
1070
   147
1041
2.25
1070
    42
1041
1.5875
1070
    44
1041
3.175
1070
   140
1041
4.5
1070
   343
1005
105
1070
   344
1005
105
1002
}
0
DIMENSION
5
11A
100
AcDbEntity
8
2
62
256
6
ByLayer
370
13
48
1
60
0
100
AcDbDimension
2
DimnDraft3D2
10
48.865502
20
12.4375
30
0
11
48.865502
21
1.2625
31
0
70
32
71
5
72
1
41
1
210
0
220
0
230
1
3
Standard
100
AcDbAlignedDimension
13
33.953002
23
-9.9125
33
0
14
1.5875
24
12.4375
34
0
50
90
100
AcDbRotatedDimension
1001
ACAD
1000
DSTYLE
1002
{
1070
    74
1070
     0
1070
   279
1070
     0
1070
   172
1070
     1
1070
   173
1070
     1
1070
   340
1005
F3
1070
   271
1070
     1
1070
   272
1070
     2
1070
    77
1070
     1
1070
    73
1070
     0
1070
   171
1070
     3
1070
   274
1070
     4
1070
   177
1070
   150
1070
   176
1070
     9
1070
   178
1070
    43
1070
    78
1070
     8
1070
    48
1040
-0.005
1070
    41
1041
3.175
1070
   147
1041
2.25
1070
    42
1041
1.5875
1070
    44
1041
3.175
1070
   140
1041
4.5
1070
   343
1005
105
1070
   344
1005
105
1002
}
0
DIMENSION
5
128
100
AcDbEntity
8
SK2
62
256
6
ByLayer
370
13
48
1
60
0
100
AcDbDimension
2
DimnDraft3D3
10
32.365502
20
-44.765575
30
0
11
-43.309498
21
-44.765575
31
0
70
32
71
5
72
1
41
1
210
0
220
0
230
1
3
Standard
100
AcDbAlignedDimension
13
-118.984498
23
-14.15
33
0
14
32.365502
24
-11.5
34
0
50
0
100
AcDbRotatedDimension
1001
ACAD
1000
DSTYLE
1002
{
1070
   279
1070
     0
1070
   172
1070
     1
1070
   173
1070
     1
1070
   340
1005
F3
1070
   271
1070
     1
1070
   272
1070
     2
1070
    77
1070
     1
1070
    73
1070
     0
1070
   171
1070
     3
1070
   274
1070
     4
1070
   177
1070
   150
1070
   176
1070
     9
1070
   178
1070
    43
1070
    78
1070
     8
1070
    48
1040
-0.005
1070
    41
1041
3.175
1070
   147
1041
2.25
1070
    42
1041
1.5875
1070
    44
1041
3.175
1070
   140
1041
4.5
1070
   343
1005
105
1070
   344
1005
105
1002
}
0
DIMENSION
5
136
100
AcDbEntity
8
2
62
256
6
ByLayer
370
13
48
1
60
0
100
AcDbDimension
2
DimnDraft3D4
10
32.365502
20
-8.325
30
0
11
20.949182
21
-29.350668
31
0
70
34
71
5
72
1
41
1
210
0
220
0
230
1
3
Standard
100
AcDb2LineAngularDimension
13
31.968627
23
-9.806158
33
0
14
12.916068
24
-20.806158
34
0
15
32.365502
25
-9.9125
35
0
16
18.699182
26
-33.247782
36
0
40
0
0
ENDSEC
0
SECTION
2
OBJECTS
0
DICTIONARY
5
1a0
330
0
100
AcDbDictionary
280
0
281
1
3
ACAD_GROUP
350
1a1
3
ACAD_MLINESTYLE
350
1a2
0
DICTIONARY
5
1a1
330
0
100
AcDbDictionary
280
0
281
1
0
DICTIONARY
5
1a2
330
0
100
AcDbDictionary
280
0
281
1
3
Standard
350
18
0
MLINESTYLE
5
18
330
1a2
100
AcDbMlineStyle
2
Standard
70
0
3

62
256
51
90
52
90
71
2
49
-0.5
62
256
6
ByLayer
49
0.5
62
256
6
ByLayer
0
RASTERVARIABLES
5
18f
330

100
AcDbRasterVariables
90
0
70
1
71
1
72
1
0
ENDSEC
0
EOF
