0
SECTION
2
HEADER
9
$ACADVER
1
AC1015
9
$DWGCODEPAGE
3
ANSI_1252
9
$HANDSEED
5
1a2
9
$ANGBASE
50
0
9
$ANGDIR
70
0
9
$ATTMODE
70
1
9
$AUNITS
70
0
9
$AUPREC
70
0
9
$CECOLOR
62
256
9
$CELTSCALE
40
1
9
$CELTYPE
6
ByLayer
9
$CELWEIGHT
370
18
9
$CLAYER
8
0
9
$CMLJUST
70
0
9
$CMLSCALE
40
1
9
$CMLSTYLE
2
Standard
9
$DIMSTYLE
2
Standard
9
$TEXTSIZE
40
0.2
9
$TEXTSTYLE
7
Standard
9
$LUNITS
70
2
9
$LUPREC
70
4
9
$EXTNAMES
290
1
9
$INSUNITS
70
4
9
$LTSCALE
40
1
9
$LWDISPLAY
290
1
9
$PDMODE
70
0
9
$PDSIZE
40
0
9
$PLINEGEN
70
0
0
ENDSEC
0
SECTION
2
CLASSES
0
CLASS
1
RASTERVARIABLES
2
AcDbRasterVariables
3
ISM
90
0
280
0
281
0
0
ENDSEC
0
SECTION
2
TABLES
0
TABLE
2
VPORT
5
198
100
AcDbSymbolTable
0
VPORT
5
1
100
AcDbSymbolTableRecord
100
AcDbViewportTableRecord
2
*Active
70
0
10
0
20
0
11
1
21
1
12
-1
22
1
13
0
23
0
14
0.5
24
0.5
15
10
25
10
16
0
26
0
36
1
17
0
27
0
37
0
0
ENDTAB
0
TABLE
2
LTYPE
5
199
100
AcDbSymbolTable
0
LTYPE
5
14
100
AcDbSymbolTableRecord
100
AcDbLinetypeTableRecord
70
0
2
ByBlock
3

72
65
73
0
40
0
0
LTYPE
5
15
100
AcDbSymbolTableRecord
100
AcDbLinetypeTableRecord
70
0
2
ByLayer
3

72
65
73
0
40
0
0
LTYPE
5
16
100
AcDbSymbolTableRecord
100
AcDbLinetypeTableRecord
70
0
2
CONTINUOUS
3
Solid line
72
65
73
0
40
0
0
LTYPE
5
6A
100
AcDbSymbolTableRecord
100
AcDbLinetypeTableRecord
70
0
2
CENTER
3
____ _ ____ _ ____ _ ____
72
65
73
4
40
47.5
49
22
74
0
49
-8.5
74
0
49
8.5
74
0
49
-8.5
74
0
0
LTYPE
5
6B
100
AcDbSymbolTableRecord
100
AcDbLinetypeTableRecord
70
0
2
DASHED
3
__ __ __ __ __ __ __ __ __
72
65
73
2
40
25.72
49
12.86
74
0
49
-12.86
74
0
0
ENDTAB
0
TABLE
2
LAYER
5
19a
100
AcDbSymbolTable
0
LAYER
5
10
100
AcDbSymbolTableRecord
100
AcDbLayerTableRecord
2
0
70
0
62
7
6
CONTINUOUS
290
1
370
-3
390
0
0
LAYER
5
6D
100
AcDbSymbolTableRecord
100
AcDbLayerTableRecord
2
80
70
0
62
-6
6
CONTINUOUS
290
1
370
-3
390
0
0
LAYER
5
6F
100
AcDbSymbolTableRecord
100
AcDbLayerTableRecord
2
81
70
0
62
-3
6
CONTINUOUS
290
1
370
-3
390
0
0
LAYER
5
71
100
AcDbSymbolTableRecord
100
AcDbLayerTableRecord
2
1
70
0
62
4
6
CONTINUOUS
290
1
370
-3
390
0
0
LAYER
5
104
100
AcDbSymbolTableRecord
100
AcDbLayerTableRecord
2
2
70
0
62
7
6
CONTINUOUS
290
1
370
-3
390
0
0
LAYER
5
185
100
AcDbSymbolTableRecord
100
AcDbLayerTableRecord
2
SK1
70
0
62
4
6
CONTINUOUS
290
1
370
-3
390
0
0
LAYER
5
186
100
AcDbSymbolTableRecord
100
AcDbLayerTableRecord
2
SK6
70
0
62
5
6
CONTINUOUS
290
1
370
-3
390
0
0
LAYER
5
187
100
AcDbSymbolTableRecord
100
AcDbLayerTableRecord
2
SK2
70
0
62
7
6
CONTINUOUS
290
1
370
-3
390
0
0
ENDTAB
0
TABLE
2
STYLE
5
19b
100
AcDbSymbolTable
0
STYLE
5
11
100
AcDbSymbolTableRecord
100
AcDbTextStyleTableRecord
2
Standard
3
txt
70
0
71
0
40
0
41
1
42
0
50
0
0
STYLE
5
E9
100
AcDbSymbolTableRecord
100
AcDbTextStyleTableRecord
2
iso_b_vert
3
simplex.shx
70
0
71
0
40
0
41
1
42
0
50
0
0
STYLE
5
EA
100
AcDbSymbolTableRecord
100
AcDbTextStyleTableRecord
2
DWGDirectTextStyle
3
simplex
70
0
71
0
40
0
41
1
42
0
50
0
0
ENDTAB
0
TABLE
2
DIMSTYLE
5
19c
100
AcDbSymbolTable
100
AcDbDimStyleTable
0
DIMSTYLE
105
27
100
AcDbSymbolTableRecord
100
AcDbDimStyleTableRecord
2
Standard
70
0
3
<>
41
0.18
42
0.0625
44
0.18
140
0.18
147
0.09
73
0
74
0
77
1
271
2
275
0
278
52
280
0
340
11
0
ENDTAB
0
TABLE
2
VIEW
5
19d
100
AcDbSymbolTable
0
ENDTAB
0
TABLE
2
UCS
5
19e
100
AcDbSymbolTable
0
ENDTAB
0
TABLE
2
APPID
5
19f
100
AcDbSymbolTable
0
APPID
5
12
100
AcDbSymbolTableRecord
100
AcDbRegAppTableRecord
2
ACAD
70
0
0
ENDTAB
0
TABLE
2
BLOCK_RECORD
5
1a0
100
AcDbSymbolTable
0
BLOCK_RECORD
5
1F
100
AcDbSymbolTableRecord
100
AcDbBlockTableRecord
2
*Model_Space
340
0
70
0
0
BLOCK_RECORD
5
1B
100
AcDbSymbolTableRecord
100
AcDbBlockTableRecord
2
*Paper_Space
340
0
70
0
0
BLOCK_RECORD
5
23
100
AcDbSymbolTableRecord
100
AcDbBlockTableRecord
2
*Paper_Space0
340
0
70
0
0
BLOCK_RECORD
5
EC
100
AcDbSymbolTableRecord
100
AcDbBlockTableRecord
2
DimnDraft3D1
340
0
70
0
0
BLOCK_RECORD
5
FB
100
AcDbSymbolTableRecord
100
AcDbBlockTableRecord
2
_CLOSED
340
0
70
0
0
BLOCK_RECORD
5
102
100
AcDbSymbolTableRecord
100
AcDbBlockTableRecord
2
DimnDraft3D2
340
0
70
0
0
BLOCK_RECORD
5
111
100
AcDbSymbolTableRecord
100
AcDbBlockTableRecord
2
DimnDraft3D3
340
0
70
0
0
BLOCK_RECORD
5
11F
100
AcDbSymbolTableRecord
100
AcDbBlockTableRecord
2
DimnDraft3D4
340
0
70
0
0
ENDTAB
0
ENDSEC
0
SECTION
2
BLOCKS
0
BLOCK
5
20
100
AcDbEntity
8
0
100
AcDbBlockBegin
2
*Model_Space
70
0
10
0
20
0
30
0
3
*Model_Space
0
ENDBLK
5
21
100
AcDbEntity
8
0
100
AcDbBlockEnd
0
BLOCK
5
1C
100
AcDbEntity
8
0
100
AcDbBlockBegin
2
*Paper_Space
70
0
10
0
20
0
30
0
3
*Paper_Space
0
ENDBLK
5
1D
100
AcDbEntity
8
0
100
AcDbBlockEnd
0
BLOCK
5
24
100
AcDbEntity
8
0
100
AcDbBlockBegin
2
*Paper_Space0
70
0
10
0
20
0
30
0
3
*Paper_Space0
0
ENDBLK
5
25
100
AcDbEntity
8
0
100
AcDbBlockEnd
0
BLOCK
5
F8
100
AcDbEntity
8
0
100
AcDbBlockBegin
2
DimnDraft3D1
70
0
10
0
20
0
30
0
3
DimnDraft3D1
0
MTEXT
5
ED
100
AcDbEntity
8
SK2
62
256
6
ByLayer
370
13
48
1
60
0
100
AcDbMText
10
-149.749314
20
-1.638158
30
0
210
0
220
0
230
1
1
\W0.6740;32
40
4.5
41
0
44
1.084337
50
90
71
7
72
5
7
iso_b_vert
0
LINE
5
EF
100
AcDbEntity
8
SK2
62
256
6
ByLayer
370
13
48
1
60
0
100
AcDbLine
10
-140.461814
20
-16.075
30
0
11
-151.799314
21
-16.075
31
0
39
0
210
0
220
0
230
1
0
LINE
5
F0
100
AcDbEntity
8
SK2
62
256
6
ByLayer
370
13
48
1
60
0
100
AcDbLine
10
-140.461814
20
15.925
30
0
11
-151.799314
21
15.925
31
0
39
0
210
0
220
0
230
1
0
LINE
5
F1
100
AcDbEntity
8
SK2
62
256
6
ByLayer
370
13
48
1
60
0
100
AcDbLine
10
-148.624314
20
-16.075
30
0
11
-148.624314
21
15.925
31
0
39
0
210
0
220
0
230
1
0
LINE
5
F2
100
AcDbEntity
8
SK2
62
256
6
ByLayer
370
13
48
1
60
0
100
AcDbLine
10
-148.624314
20
-16.075
30
0
11
-149.475053
21
-12.900003
31
0
39
0
210
0
220
0
230
1
0
LINE
5
F3
100
AcDbEntity
8
SK2
62
256
6
ByLayer
370
13
48
1
60
0
100
AcDbLine
10
-148.624314
20
-16.075
30
0
11
-147.773575
21
-12.899997
31
0
39
0
210
0
220
0
230
1
0
LINE
5
F4
100
AcDbEntity
8
SK2
62
256
6
ByLayer
370
13
48
1
60
0
100
AcDbLine
10
-149.475053
20
-12.900003
30
0
11
-147.773575
21
-12.899997
31
0
39
0
210
0
220
0
230
1
0
LINE
5
F5
100
AcDbEntity
8
SK2
62
256
6
ByLayer
370
13
48
1
60
0
100
AcDbLine
10
-148.624314
20
15.925
30
0
11
-147.773575
21
12.750003
31
0
39
0
210
0
220
0
230
1
0
LINE
5
F6
100
AcDbEntity
8
SK2
62
256
6
ByLayer
370
13
48
1
60
0
100
AcDbLine
10
-148.624314
20
15.925
30
0
11
-149.475053
21
12.749997
31
0
39
0
210
0
220
0
230
1
0
LINE
5
F7
100
AcDbEntity
8
SK2
62
256
6
ByLayer
370
13
48
1
60
0
100
AcDbLine
10
-147.773575
20
12.750003
30
0
11
-149.475053
21
12.749997
31
0
39
0
210
0
220
0
230
1
0
ENDBLK
5
F9
100
AcDbEntity
8
0
100
AcDbBlockEnd
0
BLOCK
5
FC
100
AcDbEntity
8
0
100
AcDbBlockBegin
2
_CLOSED
70
0
10
0
20
0
30
0
3
_CLOSED
0
LINE
5
FE
100
AcDbEntity
8
0
62
256
6
ByLayer
370
-2
48
1
60
0
100
AcDbLine
10
-1
20
0.166667
30
0
11
0
21
0
31
0
39
0
210
0
220
0
230
1
0
LINE
5
FF
100
AcDbEntity
8
0
62
256
6
ByLayer
370
-2
48
1
60
0
100
AcDbLine
10
0
20
0
30
0
11
-1
21
-0.166667
31
0
39
0
210
0
220
0
230
1
0
LINE
5
100
100
AcDbEntity
8
0
62
256
6
ByLayer
370
-2
48
1
60
0
100
AcDbLine
10
-1
20
0.166667
30
0
11
-1
21
-0.166667
31
0
39
0
210
0
220
0
230
1
0
LINE
5
101
100
AcDbEntity
8
0
62
256
6
ByLayer
370
-2
48
1
60
0
100
AcDbLine
10
0
20
0
30
0
11
-1
21
0
31
0
39
0
210
0
220
0
230
1
0
ENDBLK
5
FD
100
AcDbEntity
8
0
100
AcDbBlockEnd
0
BLOCK
5
10E
100
AcDbEntity
8
0
100
AcDbBlockBegin
2
DimnDraft3D2
70
0
10
0
20
0
30
0
3
DimnDraft3D2
0
MTEXT
5
103
100
AcDbEntity
8
2
62
256
6
ByLayer
370
13
48
1
60
0
100
AcDbMText
10
47.850686
20
-6.05
30
0
210
0
220
0
230
1
1
\W0.7361;40
40
4.5
41
0
44
1.084337
50
90
71
7
72
5
7
iso_b_vert
0
LINE
5
105
100
AcDbEntity
8
2
62
256
6
ByLayer
370
13
48
1
60
0
100
AcDbLine
10
34.063186
20
-24.425
30
0
11
52.150686
21
-24.425
31
0
39
0
210
0
220
0
230
1
0
LINE
5
106
100
AcDbEntity
8
2
62
256
6
ByLayer
370
13
48
1
60
0
100
AcDbLine
10
1.5875
20
15.925
30
0
11
52.150686
21
15.925
31
0
39
0
210
0
220
0
230
1
0
LINE
5
107
100
AcDbEntity
8
2
62
256
6
ByLayer
370
13
48
1
60
0
100
AcDbLine
10
48.975686
20
-24.425
30
0
11
48.975686
21
15.925
31
0
39
0
210
0
220
0
230
1
0
LINE
5
108
100
AcDbEntity
8
2
62
256
6
ByLayer
370
13
48
1
60
0
100
AcDbLine
10
48.975686
20
-24.425
30
0
11
48.124947
21
-21.250003
31
0
39
0
210
0
220
0
230
1
0
LINE
5
109
100
AcDbEntity
8
2
62
256
6
ByLayer
370
13
48
1
60
0
100
AcDbLine
10
48.975686
20
-24.425
30
0
11
49.826425
21
-21.249997
31
0
39
0
210
0
220
0
230
1
0
LINE
5
10A
100
AcDbEntity
8
2
62
256
6
ByLayer
370
13
48
1
60
0
100
AcDbLine
10
48.124947
20
-21.250003
30
0
11
49.826425
21
-21.249997
31
0
39
0
210
0
220
0
230
1
0
LINE
5
10B
100
AcDbEntity
8
2
62
256
6
ByLayer
370
13
48
1
60
0
100
AcDbLine
10
48.975686
20
15.925
30
0
11
49.826425
21
12.750003
31
0
39
0
210
0
220
0
230
1
0
LINE
5
10C
100
AcDbEntity
8
2
62
256
6
ByLayer
370
13
48
1
60
0
100
AcDbLine
10
48.975686
20
15.925
30
0
11
48.124947
21
12.749997
31
0
39
0
210
0
220
0
230
1
0
LINE
5
10D
100
AcDbEntity
8
2
62
256
6
ByLayer
370
13
48
1
60
0
100
AcDbLine
10
49.826425
20
12.750003
30
0
11
48.124947
21
12.749997
31
0
39
0
210
0
220
0
230
1
0
ENDBLK
5
10F
100
AcDbEntity
8
0
100
AcDbBlockEnd
0
BLOCK
5
11C
100
AcDbEntity
8
0
100
AcDbBlockBegin
2
DimnDraft3D3
70
0
10
0
20
0
30
0
3
DimnDraft3D3
0
MTEXT
5
112
100
AcDbEntity
8
SK2
62
256
6
ByLayer
370
13
48
1
60
0
100
AcDbMText
10
-55.881551
20
-49.8
30
0
210
0
220
0
230
1
1
\W0.6217;170
40
4.5
41
0
44
1.084337
50
0
71
7
72
5
7
iso_b_vert
0
LINE
5
113
100
AcDbEntity
8
SK2
62
256
6
ByLayer
370
13
48
1
60
0
100
AcDbLine
10
-138.874314
20
-17.6625
30
0
11
-138.874314
21
-54.1
31
0
39
0
210
0
220
0
230
1
0
LINE
5
114
100
AcDbEntity
8
SK2
62
256
6
ByLayer
370
13
48
1
60
0
100
AcDbLine
10
32.475686
20
-26.0125
30
0
11
32.475686
21
-54.1
31
0
39
0
210
0
220
0
230
1
0
LINE
5
115
100
AcDbEntity
8
SK2
62
256
6
ByLayer
370
13
48
1
60
0
100
AcDbLine
10
-138.874314
20
-50.925
30
0
11
32.475686
21
-50.925
31
0
39
0
210
0
220
0
230
1
0
LINE
5
116
100
AcDbEntity
8
SK2
62
256
6
ByLayer
370
13
48
1
60
0
100
AcDbLine
10
-138.874314
20
-50.925
30
0
11
-135.699317
21
-50.074261
31
0
39
0
210
0
220
0
230
1
0
LINE
5
117
100
AcDbEntity
8
SK2
62
256
6
ByLayer
370
13
48
1
60
0
100
AcDbLine
10
-138.874314
20
-50.925
30
0
11
-135.699311
21
-51.775739
31
0
39
0
210
0
220
0
230
1
0
LINE
5
118
100
AcDbEntity
8
SK2
62
256
6
ByLayer
370
13
48
1
60
0
100
AcDbLine
10
-135.699317
20
-50.074261
30
0
11
-135.699311
21
-51.775739
31
0
39
0
210
0
220
0
230
1
0
LINE
5
119
100
AcDbEntity
8
SK2
62
256
6
ByLayer
370
13
48
1
60
0
100
AcDbLine
10
32.475686
20
-50.925
30
0
11
29.300689
21
-51.775739
31
0
39
0
210
0
220
0
230
1
0
LINE
5
11A
100
AcDbEntity
8
SK2
62
256
6
ByLayer
370
13
48
1
60
0
100
AcDbLine
10
32.475686
20
-50.925
30
0
11
29.300683
21
-50.074261
31
0
39
0
210
0
220
0
230
1
0
LINE
5
11B
100
AcDbEntity
8
SK2
62
256
6
ByLayer
370
13
48
1
60
0
100
AcDbLine
10
29.300689
20
-51.775739
30
0
11
29.300683
21
-50.074261
31
0
39
0
210
0
220
0
230
1
0
ENDBLK
5
11D
100
AcDbEntity
8
0
100
AcDbBlockEnd
0
BLOCK
5
129
100
AcDbEntity
8
0
100
AcDbBlockBegin
2
DimnDraft3D4
70
0
10
0
20
0
30
0
3
DimnDraft3D4
0
MTEXT
5
120
100
AcDbEntity
8
2
62
256
6
ByLayer
370
13
48
1
60
0
100
AcDbMText
10
14.536398
20
-35.197056
30
0
210
0
220
0
230
1
1
\W0.7582;91%%d0'
40
4.5
41
0
44
1.084337
50
314.5
71
7
72
5
7
iso_b_vert
0
LINE
5
121
100
AcDbEntity
8
2
62
256
6
ByLayer
370
13
48
1
60
0
100
AcDbLine
10
32.475686
20
-26.0125
30
0
11
32.475686
21
-49.076709
31
0
39
0
210
0
220
0
230
1
0
ARC
5
122
100
AcDbEntity
8
2
62
256
6
ByLayer
370
13
48
1
60
0
100
AcDbCircle
39
0
10
32.475686
20
-24.445964
30
0
40
21.4557455815669
210
0
220
0
230
1
100
AcDbArc
50
179
51
270
0
LINE
5
123
100
AcDbEntity
8
2
62
256
6
ByLayer
370
13
48
1
60
0
100
AcDbLine
10
11.023208
20
-24.071509
30
0
11
11.935612
21
-27.229338
31
0
39
0
210
0
220
0
230
1
0
LINE
5
124
100
AcDbEntity
8
2
62
256
6
ByLayer
370
13
48
1
60
0
100
AcDbLine
10
11.023208
20
-24.071509
30
0
11
10.234457
21
-27.262477
31
0
39
0
210
0
220
0
230
1
0
LINE
5
125
100
AcDbEntity
8
2
62
256
6
ByLayer
370
13
48
1
60
0
100
AcDbLine
10
11.935612
20
-27.229338
30
0
11
10.234457
21
-27.262477
31
0
39
0
210
0
220
0
230
1
0
LINE
5
126
100
AcDbEntity
8
2
62
256
6
ByLayer
370
13
48
1
60
0
100
AcDbLine
10
32.475686
20
-45.901709
30
0
11
29.271445
21
-46.63465
31
0
39
0
210
0
220
0
230
1
0
LINE
5
127
100
AcDbEntity
8
2
62
256
6
ByLayer
370
13
48
1
60
0
100
AcDbLine
10
32.475686
20
-45.901709
30
0
11
29.334256
21
-44.934333
31
0
39
0
210
0
220
0
230
1
0
LINE
5
128
100
AcDbEntity
8
2
62
256
6
ByLayer
370
13
48
1
60
0
100
AcDbLine
10
29.271445
20
-46.63465
30
0
11
29.334256
21
-44.934333
31
0
39
0
210
0
220
0
230
1
0
ENDBLK
5
12A
100
AcDbEntity
8
0
100
AcDbBlockEnd
0
ENDSEC
0
SECTION
2
ENTITIES
0
ARC
5
A8
100
AcDbEntity
8
1
62
256
6
ByLayer
370
18
48
1
60
0
100
AcDbCircle
39
0
10
0
20
-17.525
30
0
40
1.60000000000054
210
0
220
0
230
-1
100
AcDbArc
50
90
51
165
0
ELLIPSE
5
A9
100
AcDbEntity
8
1
62
256
6
ByLayer
370
18
48
1
60
0
100
AcDbEllipse
10
20.767526
20
-0.86475
30
0
11
-1.94221746091443
21
-1.87557760023922
31
0
210
0
220
0
230
1
40
0.989133
41
2.28091811159108
42
2.84984103840337
0
ELLIPSE
5
AA
100
AcDbEntity
8
1
62
256
6
ByLayer
370
18
48
1
60
0
100
AcDbEllipse
10
20.752206
20
-0.848886
30
0
11
1.83431649086363
21
1.77137884467037
31
0
210
0
220
0
230
1
40
0.989133
41
-0.860674541998717
42
-0.212524770275946
0
ELLIPSE
5
AB
100
AcDbEntity
8
1
62
256
6
ByLayer
370
18
48
1
60
0
100
AcDbEllipse
10
13.980184
20
-15.582158
30
0
11
1.94221746091443
21
1.87557760023922
31
0
210
0
220
0
230
1
40
0.989133
41
1.82713250607255
42
2.16202866451193
0
ELLIPSE
5
AC
100
AcDbEntity
8
1
62
256
6
ByLayer
370
18
48
1
60
0
100
AcDbEllipse
10
0
20
15.931981
30
0
11
1.60000000000034
21
1.61702248813212E-15
31
0
210
0
220
0
230
-1
40
0.004363
41
0.261799387799647
42
1.5707963267949
0
ELLIPSE
5
AD
100
AcDbEntity
8
1
62
256
6
ByLayer
370
18
48
1
60
0
100
AcDbEllipse
10
23.291974
20
-1.085756
30
0
11
0.149278416166648
21
-0.0146953893033485
31
0
210
0
220
0
230
1
40
0.095849
41
0.112237304371371
42
1.6830336311662
0
ELLIPSE
5
AE
100
AcDbEntity
8
1
62
256
6
ByLayer
370
18
48
1
60
0
100
AcDbEllipse
10
21.834804
20
-1.969948
30
0
11
1.94221746091443
21
1.87557760023921
31
0
210
0
220
0
230
1
40
0.989133
41
-0.860674541998717
42
2.28091811159107
0
ELLIPSE
5
AF
100
AcDbEntity
8
1
62
256
6
ByLayer
370
18
48
1
60
0
100
AcDbEllipse
10
16.668327
20
-11.189629
30
0
11
1.94221746091443
21
1.87557760023922
31
0
210
0
220
0
230
1
40
0.989133
41
1.49223634763316
42
1.82713250607255
0
ELLIPSE
5
B0
100
AcDbEntity
8
1
62
256
6
ByLayer
370
18
48
1
60
0
100
AcDbEllipse
10
8.132586
20
-2.736936
30
0
11
-1.11857338952664
21
-1.0801937660637
31
0
210
0
220
0
230
1
40
0.989133
41
0.230725900550831
42
2.36818724676042
0
ELLIPSE
5
B1
100
AcDbEntity
8
1
62
256
6
ByLayer
370
18
48
1
60
0
100
AcDbEllipse
10
8.132586
20
-2.736936
30
0
11
-1.11857338952664
21
-1.0801937660637
31
0
210
0
220
0
230
1
40
0.989133
41
2.36818660008517
42
2.97795035827202
0
ELLIPSE
5
B2
100
AcDbEntity
8
1
62
256
6
ByLayer
370
18
48
1
60
0
100
AcDbEllipse
10
18.334691
20
-14.749087
30
0
11
2.49610910717522
21
2.41046454549262
31
0
210
0
220
0
230
1
40
0.989133
41
-2.67782514489087
42
-2.47321728010001
0
ELLIPSE
5
B3
100
AcDbEntity
8
1
62
256
6
ByLayer
370
18
48
1
60
0
100
AcDbEllipse
10
18.334691
20
-14.749087
30
0
11
2.49610910717522
21
2.41046454549262
31
0
210
0
220
0
230
1
40
0.989133
41
-0.623321889885451
42
-0.463783109880523
0
ELLIPSE
5
B4
100
AcDbEntity
8
1
62
256
6
ByLayer
370
18
48
1
60
0
100
AcDbEllipse
10
19.593861
20
-2.242601
30
0
11
-0.856463949778234
21
-0.827077622327709
31
0
210
0
220
0
230
1
40
0.989133
41
-3.14159081769613
42
-2.08627735859623
0
ELLIPSE
5
B5
100
AcDbEntity
8
1
62
256
6
ByLayer
370
18
48
1
60
0
100
AcDbEllipse
10
7.402463
20
-22.163812
30
0
11
-0.856463949778236
21
-0.827077622327711
31
0
210
0
220
0
230
1
40
0.989133
41
-1.08780752119104
42
-3.07753884414603E-05
0
ELLIPSE
5
B6
100
AcDbEntity
8
1
62
256
6
ByLayer
370
18
48
1
60
0
100
AcDbEllipse
10
19.213025
20
-15.658628
30
0
11
2.2839038660753
21
2.20554032620723
31
0
210
0
220
0
230
1
40
0.989133
41
-2.99235196460433
42
-2.41655690286689
0
ELLIPSE
5
B7
100
AcDbEntity
8
1
62
256
6
ByLayer
370
18
48
1
60
0
100
AcDbEllipse
10
19.213025
20
-15.658628
30
0
11
2.2839038660753
21
2.20554032620723
31
0
210
0
220
0
230
1
40
0.989133
41
-0.758384977537682
42
-0.149210392482813
0
ELLIPSE
5
B8
100
AcDbEntity
8
1
62
256
6
ByLayer
370
18
48
1
60
0
100
AcDbEllipse
10
19.72828
20
-16.192191
30
0
11
-2.14722930401095
21
-2.07355523582003
31
0
210
0
220
0
230
1
40
0.989133
41
-1.36156064455059
42
-1.21567517184617
0
ELLIPSE
5
B9
100
AcDbEntity
8
1
62
256
6
ByLayer
370
18
48
1
60
0
100
AcDbEllipse
10
19.72828
20
-16.192191
30
0
11
-2.14722930401095
21
-2.07355523582003
31
0
210
0
220
0
230
1
40
0.989133
41
-2.04156365390629
42
-1.78002785163856
0
ELLIPSE
5
BA
100
AcDbEntity
8
1
62
256
6
ByLayer
370
18
48
1
60
0
100
AcDbEllipse
10
19.608089
20
-15.133581
30
0
11
-2.37382134111763
21
-2.2923726225146
31
0
210
0
220
0
230
1
40
0.989133
41
-0.26397117445298
42
1.15137998298391E-05
0
ELLIPSE
5
BB
100
AcDbEntity
8
1
62
256
6
ByLayer
370
18
48
1
60
0
100
AcDbEllipse
10
18.622889
20
-15.981673
30
0
11
2.37382134111764
21
2.2923726225146
31
0
210
0
220
0
230
1
40
0.989133
41
-2.04570070597623E-05
42
0.228450924286074
0
ELLIPSE
5
BC
100
AcDbEntity
8
1
62
256
6
ByLayer
370
18
48
1
60
0
100
AcDbEllipse
10
19.238506
20
-15.718292
30
0
11
-2.15801940101603
21
-2.08397511137691
31
0
210
0
220
0
230
1
40
0.989133
41
-3.0951540294208
42
-3.05849065896258
0
ELLIPSE
5
BD
100
AcDbEntity
8
1
62
256
6
ByLayer
370
18
48
1
60
0
100
AcDbEllipse
10
18.165663
20
-14.574053
30
0
11
-2.50689920418029
21
-2.42088442104951
31
0
210
0
220
0
230
1
40
0.989133
41
2.56064517373412
42
2.64757886273475
0
ELLIPSE
5
BE
100
AcDbEntity
8
1
62
256
6
ByLayer
370
18
48
1
60
0
100
AcDbEllipse
10
18.165663
20
-14.574053
30
0
11
-2.50689920418029
21
-2.42088442104951
31
0
210
0
220
0
230
1
40
0.989133
41
0.494017359925257
42
0.556358442760727
0
ELLIPSE
5
BF
100
AcDbEntity
8
1
62
256
6
ByLayer
370
18
48
1
60
0
100
AcDbEllipse
10
19.861562
20
-16.330208
30
0
11
2.2839038660753
21
2.20554032620723
31
0
210
0
220
0
230
1
40
0.989133
41
0
42
6.28318530717959
0
ELLIPSE
5
C0
100
AcDbEntity
8
1
62
256
6
ByLayer
370
18
48
1
60
0
100
AcDbEllipse
10
8.051
20
-22.835392
30
0
11
-0.856463949778236
21
-0.827077622327711
31
0
210
0
220
0
230
1
40
0.989133
41
-1.31446014751726
42
0.779934954875946
0
ELLIPSE
5
C1
100
AcDbEntity
8
1
62
256
6
ByLayer
370
18
48
1
60
0
100
AcDbEllipse
10
31.291287
20
-23.241052
30
0
11
-0.856463949778237
21
-0.827077622327712
31
0
210
0
220
0
230
1
40
0.989133
41
0.77993495487594
42
2.87433005726915
0
ELLIPSE
5
C2
100
AcDbEntity
8
1
62
256
6
ByLayer
370
18
48
1
60
0
100
AcDbEllipse
10
20.242398
20
-2.91418
30
0
11
-0.856463949778234
21
-0.827077622327709
31
0
210
0
220
0
230
1
40
0.989133
41
2.87433005726914
42
-1.31446014751724
0
ELLIPSE
5
C3
100
AcDbEntity
8
1
62
256
6
ByLayer
370
18
48
1
60
0
100
AcDbEllipse
10
19.779346
20
-16.245071
30
0
11
1.78755940384162
21
1.72622605059054
31
0
210
0
220
0
230
1
40
0.989133
41
-2.02333508104565
42
-1.23390374470681
0
ELLIPSE
5
C4
100
AcDbEntity
8
1
62
256
6
ByLayer
370
18
48
1
60
0
100
AcDbEllipse
10
20.271946
20
-15.821025
30
0
11
2.0141514409483
21
1.94504343728511
31
0
210
0
220
0
230
1
40
0.989133
41
2.12365630390163
42
-2.23930247606429
0
ELLIPSE
5
C5
100
AcDbEntity
8
1
62
256
6
ByLayer
370
18
48
1
60
0
100
AcDbEllipse
10
20.22088
20
-15.768145
30
0
11
-2.37382134111763
21
-2.2923726225146
31
0
210
0
220
0
230
1
40
0.989133
41
-1.03426878178624
42
0.918622609623583
0
ELLIPSE
5
C6
100
AcDbEntity
8
1
62
256
6
ByLayer
370
18
48
1
60
0
100
AcDbEllipse
10
19.286745
20
-16.669117
30
0
11
2.0141514409483
21
1.94504343728511
31
0
210
0
220
0
230
1
40
0.989133
41
-1.01793634968817
42
0.902290177525507
0
ELLIPSE
5
C7
100
AcDbEntity
8
1
62
256
6
ByLayer
370
18
48
1
60
0
100
AcDbEllipse
10
19.23568
20
-16.616236
30
0
11
-2.37382134111763
21
-2.2923726225146
31
0
210
0
220
0
230
1
40
0.989133
41
2.10732387180356
42
-2.22297004396622
0
ELLIPSE
5
C8
100
AcDbEntity
8
1
62
256
6
ByLayer
370
18
48
1
60
0
100
AcDbEllipse
10
19.72828
20
-16.192191
30
0
11
-2.14722930401095
21
-2.07355523582003
31
0
210
0
220
0
230
1
40
0.989133
41
1.10002899968351
42
1.92591748174363
0
ELLIPSE
5
C9
100
AcDbEntity
8
1
62
256
6
ByLayer
370
18
48
1
60
0
100
AcDbEllipse
10
19.779346
20
-16.245071
30
0
11
1.78755940384162
21
1.72622605059054
31
0
210
0
220
0
230
1
40
0.989133
41
1.11825757254416
42
1.90768890888299
0
ELLIPSE
5
CA
100
AcDbEntity
8
1
62
256
6
ByLayer
370
18
48
1
60
0
100
AcDbEllipse
10
8.621286
20
-3.243
30
0
11
1.11857338952664
21
1.0801937660637
31
0
210
0
220
0
230
1
40
0.989133
41
-1.32654933988302
42
-0.883491934672826
0
ELLIPSE
5
CB
100
AcDbEntity
8
1
62
256
6
ByLayer
370
18
48
1
60
0
100
AcDbEllipse
10
8.234717
20
-2.842696
30
0
11
1.11857338952664
21
1.0801937660637
31
0
210
0
220
0
230
1
40
0.989133
41
-0.883491934672819
42
-0.279351788686453
0
ELLIPSE
5
CC
100
AcDbEntity
8
1
62
256
6
ByLayer
370
18
48
1
60
0
100
AcDbEllipse
10
8.621286
20
-3.243
30
0
11
1.11857338952664
21
1.0801937660637
31
0
210
0
220
0
230
1
40
0.989133
41
-0.279351788686445
42
0.163705616523762
0
ELLIPSE
5
CD
100
AcDbEntity
8
1
62
256
6
ByLayer
370
18
48
1
60
0
100
AcDbEllipse
10
8.621286
20
-3.243
30
0
11
1.11857338952664
21
1.0801937660637
31
0
210
0
220
0
230
1
40
0.989133
41
-2.3737468910796
42
-1.93068948586943
0
ELLIPSE
5
CE
100
AcDbEntity
8
1
62
256
6
ByLayer
370
18
48
1
60
0
100
AcDbEllipse
10
8.621286
20
-3.243
30
0
11
1.11857338952664
21
1.0801937660637
31
0
210
0
220
0
230
1
40
0.989133
41
1.81504331370677
42
2.25810071891696
0
ELLIPSE
5
CF
100
AcDbEntity
8
1
62
256
6
ByLayer
370
18
48
1
60
0
100
AcDbEllipse
10
8.643245
20
-3.265739
30
0
11
-1.38644900217665
21
-1.33887823824436
31
0
210
0
220
0
230
1
40
0.989133
41
0
42
6.28318530717959
0
ELLIPSE
5
D0
100
AcDbEntity
8
1
62
256
6
ByLayer
370
18
48
1
60
0
100
AcDbEllipse
10
8.234717
20
-2.842696
30
0
11
1.11857338952664
21
1.0801937660637
31
0
210
0
220
0
230
1
40
0.989133
41
-1.93068948586943
42
-1.32654933988302
0
ELLIPSE
5
D1
100
AcDbEntity
8
1
62
256
6
ByLayer
370
18
48
1
60
0
100
AcDbEllipse
10
8.234717
20
-2.842696
30
0
11
1.11857338952664
21
1.0801937660637
31
0
210
0
220
0
230
1
40
0.989133
41
-2.97788703706603
42
-2.3737468910796
0
ELLIPSE
5
D2
100
AcDbEntity
8
1
62
256
6
ByLayer
370
18
48
1
60
0
100
AcDbEllipse
10
8.621286
20
-3.243
30
0
11
1.11857338952664
21
1.0801937660637
31
0
210
0
220
0
230
1
40
0.989133
41
0.767845762510163
42
1.21090316772036
0
ELLIPSE
5
D3
100
AcDbEntity
8
1
62
256
6
ByLayer
370
18
48
1
60
0
100
AcDbEllipse
10
8.621286
20
-3.243
30
0
11
1.11857338952664
21
1.0801937660637
31
0
210
0
220
0
230
1
40
0.989133
41
2.86224086490338
42
-2.97788703706604
0
ELLIPSE
5
D4
100
AcDbEntity
8
1
62
256
6
ByLayer
370
18
48
1
60
0
100
AcDbEllipse
10
8.643245
20
-3.265739
30
0
11
-2.32706425409562
21
-2.24721982843477
31
0
210
0
220
0
230
1
40
0.989133
41
0
42
6.28318530717959
0
POINT
5
6C
100
AcDbEntity
8
80
62
256
6
ByLayer
370
18
48
1
60
0
100
AcDbPoint
10
0
20
0
30
0
39
0
210
0
220
0
230
1
50
360
0
POINT
5
6E
100
AcDbEntity
8
81
62
256
6
ByLayer
370
18
48
1
60
0
100
AcDbPoint
10
31.125686
20
-24.075
30
0
39
0
210
0
220
0
230
1
50
360
0
POINT
5
70
100
AcDbEntity
8
1
62
256
6
ByLayer
370
18
48
1
60
0
100
AcDbPoint
10
-138.874314
20
15.925
30
0
39
0
210
0
220
0
230
1
50
360
0
SPLINE
5
D5
100
AcDbEntity
8
1
62
256
6
ByLayer
370
18
48
1
60
0
100
AcDbSpline
70
4
71
3
72
14
73
10
40
0
40
0
40
0
40
0
40
0.393371542866164
40
0.393371542866164
40
0.786743085732328
40
0.786743085732328
40
0.983428857165411
40
0.983428857165411
40
1
40
1
40
1
40
1
41
1
10
21.3201148447018
20
-13.5598478271924
30
0
41
1
10
21.4176515446377
20
-13.6804973840246
30
0
41
1
10
21.5052327070248
20
-13.8084021637969
30
0
41
1
10
21.6593379050211
20
-14.0753233926515
30
0
41
1
10
21.7262200520738
20
-14.2147858726975
30
0
41
1
10
21.8110400915722
20
-14.4332084216398
30
0
41
1
10
21.836673450032
20
-14.5075447897668
30
0
41
1
10
21.8611723770208
20
-14.5883343452235
30
0
41
1
10
21.8630554912454
20
-14.5946157437721
30
0
41
1
10
21.8649180834074
20
-14.600900770063
30
0
0
SPLINE
5
D6
100
AcDbEntity
8
1
62
256
6
ByLayer
370
18
48
1
60
0
100
AcDbSpline
70
4
71
3
72
16
73
12
40
0
40
0
40
0
40
0
40
0.184217434957837
40
0.184217434957837
40
0.533664009553441
40
0.533664009553441
40
0.708387296851242
40
0.708387296851242
40
0.883110584149044
40
0.883110584149044
40
1
40
1
40
1
40
1
41
1
10
18.1720208715869
20
-18.3102536784919
30
0
41
1
10
18.0931776555956
20
-18.2865844595601
30
0
41
1
10
18.0151775594063
20
-18.2598685289837
30
0
41
1
10
17.7941805552704
20
-18.1742183343773
30
0
41
1
10
17.6542965253052
20
-18.1076888651909
30
0
41
1
10
17.4519330329309
20
-17.9917134758953
30
0
41
1
10
17.3854578488268
20
-17.9501586012866
30
0
41
1
10
17.2565078216414
20
-17.8623835954746
30
0
41
1
10
17.1941821255282
20
-17.8163017286498
30
0
41
1
10
17.0936630035772
20
-17.7358008416339
30
0
41
1
10
17.0543059811
20
-17.7025743827374
30
0
41
1
10
17.0158865357658
20
-17.6683852593171
30
0
0
SPLINE
5
D7
100
AcDbEntity
8
1
62
256
6
ByLayer
370
18
48
1
60
0
100
AcDbSpline
70
4
71
3
72
8
73
4
40
0
40
0
40
0
40
0
40
1
40
1
40
1
40
1
41
1
10
17.5769731077837
20
-15.1469447050006
30
0
41
1
10
17.4041589289798
20
-15.0717977125718
30
0
41
1
10
17.2313841907834
20
-14.9967655809454
30
0
41
1
10
17.0586326710854
20
-14.9218007658528
30
0
0
SPLINE
5
D8
100
AcDbEntity
8
1
62
256
6
ByLayer
370
18
48
1
60
0
100
AcDbSpline
70
4
71
3
72
8
73
4
40
0
40
0
40
0
40
0
40
1
40
1
40
1
40
1
41
1
10
20.5333280710703
20
-18.5900167996602
30
0
41
1
10
20.5497506224625
20
-18.7352613749267
30
0
41
1
10
20.5660482611733
20
-18.8804293995348
30
0
41
1
10
20.5822727382229
20
-19.0255524930466
30
0
0
SPLINE
5
D9
100
AcDbEntity
8
1
62
256
6
ByLayer
370
18
48
1
60
0
100
AcDbSpline
70
4
71
3
72
10
73
6
40
0
40
0
40
0
40
0
40
0.5
40
0.5
40
1
40
1
40
1
40
1
41
1
10
21.2985079309991
20
-13.5374732130635
30
0
41
1
10
21.2932875462575
20
-13.532067346414
30
0
41
1
10
21.2830546118282
20
-13.5203821988886
30
0
41
1
10
21.2538989600324
20
-13.486683027831
30
0
41
1
10
21.2350982559673
20
-13.4648460395697
30
0
41
1
10
21.2137402868436
20
-13.4405355946138
30
0
0
SPLINE
5
DA
100
AcDbEntity
8
1
62
256
6
ByLayer
370
18
48
1
60
0
100
AcDbSpline
70
4
71
3
72
8
73
4
40
0
40
0
40
0
40
0
40
1
40
1
40
1
40
1
41
1
10
22.3979265558837
20
-17.4625805387787
30
0
41
1
10
22.2592324228008
20
-17.4228831799346
30
0
41
1
10
22.1205042045118
20
-17.3831072517515
30
0
41
1
10
21.9817179484746
20
-17.3431972048628
30
0
0
SPLINE
5
DB
100
AcDbEntity
8
1
62
256
6
ByLayer
370
18
48
1
60
0
100
AcDbSpline
70
4
71
3
72
8
73
4
40
0
40
0
40
0
40
0
40
1
40
1
40
1
40
1
41
1
10
18.8742864887462
20
-13.3588288115849
30
0
41
1
10
18.9245683524109
20
-13.5392193613452
30
0
41
1
10
18.9749125110292
20
-13.7196435893966
30
0
41
1
10
19.0253629851879
20
-13.9001251102032
30
0
0
SPLINE
5
DC
100
AcDbEntity
8
1
62
256
6
ByLayer
370
18
48
1
60
0
100
AcDbSpline
70
4
71
3
72
8
73
4
40
0
40
0
40
0
40
0
40
1
40
1
40
1
40
1
41
1
10
8.01521514502571
20
-1.8270495253274
30
0
41
1
10
7.83908599191005
20
-1.86410722260445
30
0
41
1
10
7.66959344957939
20
-1.90200500801845
30
0
41
1
10
7.50411867878699
20
-1.94041137865997
30
0
0
SPLINE
5
DD
100
AcDbEntity
8
1
62
256
6
ByLayer
370
18
48
1
60
0
100
AcDbSpline
70
4
71
3
72
10
73
6
40
0
40
0
40
0
40
0
40
0.5
40
0.5
40
1
40
1
40
1
40
1
41
1
10
9.21815397849116
20
-1.6080533758294
30
0
41
1
10
9.12977421670854
20
-1.62201242063031
30
0
41
1
10
9.04038288728543
20
-1.63648103545006
30
0
41
1
10
8.86195571581328
20
-1.66625530714939
30
0
41
1
10
8.77284699267159
20
-1.68157140972875
30
0
41
1
10
8.68386262524695
20
-1.69739622054283
30
0
0
SPLINE
5
DE
100
AcDbEntity
8
1
62
256
6
ByLayer
370
18
48
1
60
0
100
AcDbSpline
70
4
71
3
72
10
73
6
40
0
40
0
40
0
40
0
40
0.5
40
0.5
40
1
40
1
40
1
40
1
41
1
10
8.04761367897811
20
-4.90196637405222
30
0
41
1
10
7.98879096874197
20
-4.83379169319718
30
0
41
1
10
7.92964546610415
20
-4.765207469551
30
0
41
1
10
7.81050112430887
20
-4.62695635173029
30
0
41
1
10
7.75087992287484
20
-4.55772703466104
30
0
41
1
10
7.69180006355174
20
-4.48907094406778
30
0
0
SPLINE
5
DF
100
AcDbEntity
8
1
62
256
6
ByLayer
370
18
48
1
60
0
100
AcDbSpline
70
4
71
3
72
10
73
6
40
0
40
0
40
0
40
0
40
0.5
40
0.5
40
1
40
1
40
1
40
1
41
1
10
7.25146725745128
20
-3.97624429913665
30
0
41
1
10
7.19435937591862
20
-3.90958322777198
30
0
41
1
10
7.13755163748743
20
-3.843213218356
30
0
41
1
10
7.02671192997872
20
-3.71361835587544
30
0
41
1
10
6.9723707608718
20
-3.65003300948214
30
0
41
1
10
6.91884852903041
20
-3.58736787777136
30
0
0
SPLINE
5
E0
100
AcDbEntity
8
1
62
256
6
ByLayer
370
18
48
1
60
0
100
AcDbSpline
70
4
71
3
72
10
73
6
40
0
40
0
40
0
40
0
40
0.5
40
0.5
40
1
40
1
40
1
40
1
41
1
10
7.50411867878699
20
-1.94041137865997
30
0
41
1
10
7.4722383943971
20
-2.0201716470587
30
0
41
1
10
7.44018058682735
20
-2.10141284217866
30
0
41
1
10
7.37667163678691
20
-2.26502480464683
30
0
41
1
10
7.34519363400926
20
-2.34745961507585
30
0
41
1
10
7.31404349746634
20
-2.43064014904826
30
0
0
SPLINE
5
E1
100
AcDbEntity
8
1
62
256
6
ByLayer
370
18
48
1
60
0
100
AcDbSpline
70
4
71
3
72
10
73
6
40
0
40
0
40
0
40
0
40
0.5
40
0.5
40
1
40
1
40
1
40
1
41
1
10
9.55077270691197
20
-1.9969297971947
30
0
41
1
10
9.49366482537931
20
-1.93026872583002
30
0
41
1
10
9.43685708694818
20
-1.86389871641404
30
0
41
1
10
9.32601737943946
20
-1.73430385393345
30
0
41
1
10
9.27167621033249
20
-1.67071850754019
30
0
41
1
10
9.21815397849116
20
-1.6080533758294
30
0
0
SPLINE
5
E2
100
AcDbEntity
8
1
62
256
6
ByLayer
370
18
48
1
60
0
100
AcDbSpline
70
4
71
3
72
8
73
4
40
0
40
0
40
0
40
0
40
1
40
1
40
1
40
1
41
1
10
9.22735762543806
20
-4.65895121593511
30
0
41
1
10
9.40821347434087
20
-4.62678815542975
30
0
41
1
10
9.58589276337466
20
-4.59736799439816
30
0
41
1
10
9.76164897868227
20
-4.56960837122165
30
0
0
SPLINE
5
E3
100
AcDbEntity
8
1
62
256
6
ByLayer
370
18
48
1
60
0
100
AcDbSpline
70
4
71
3
72
10
73
6
40
0
40
0
40
0
40
0
40
0.5
40
0.5
40
1
40
1
40
1
40
1
41
1
10
10.3469191284388
20
-2.92265187211027
30
0
41
1
10
10.2880964182027
20
-2.85447719125523
30
0
41
1
10
10.2289509155649
20
-2.78589296760904
30
0
41
1
10
10.1098065737696
20
-2.64764184978836
30
0
41
1
10
10.0501853723355
20
-2.57841253271909
30
0
41
1
10
9.99110551301249
20
-2.50975644212585
30
0
0
SPLINE
5
E4
100
AcDbEntity
8
1
62
256
6
ByLayer
370
18
48
1
60
0
100
AcDbSpline
70
4
71
3
72
10
73
6
40
0
40
0
40
0
40
0
40
0.5
40
0.5
40
1
40
1
40
1
40
1
41
1
10
9.76164897868227
20
-4.56960837122165
30
0
41
1
10
9.78835919488739
20
-4.48449434049326
30
0
41
1
10
9.81575680002732
20
-4.39842736448878
30
0
41
1
10
9.87141914911882
20
-4.2266900088778
30
0
41
1
10
9.89970475676029
20
-4.14094937651168
30
0
41
1
10
9.92852927299742
20
-4.05536059221421
30
0
0
SPLINE
5
E5
100
AcDbEntity
8
1
62
256
6
ByLayer
370
18
48
1
60
0
100
AcDbSpline
70
4
71
3
72
8
73
4
40
0
40
0
40
0
40
0
40
1
40
1
40
1
40
1
41
1
10
7.08572882334556
20
-3.07312009876392
30
0
41
1
10
7.02714457417738
20
-3.24707461109764
30
0
41
1
10
6.97196574065873
20
-3.41810605120986
30
0
41
1
10
6.91884852903041
20
-3.58736787777138
30
0
0
SPLINE
5
E6
100
AcDbEntity
8
1
62
256
6
ByLayer
370
18
48
1
60
0
100
AcDbSpline
70
4
71
3
72
8
73
4
40
0
40
0
40
0
40
0
40
1
40
1
40
1
40
1
41
1
10
10.1568439471181
20
-3.41288064249852
30
0
41
1
10
10.2201548920736
20
-3.24382076693658
30
0
41
1
10
10.2835204722954
20
-3.08126695120677
30
0
41
1
10
10.3469191284388
20
-2.92265187211024
30
0
0
SPLINE
5
E7
100
AcDbEntity
8
1
62
256
6
ByLayer
370
18
48
1
60
0
100
AcDbSpline
70
4
71
3
72
10
73
6
40
0
40
0
40
0
40
0
40
0.5
40
0.5
40
1
40
1
40
1
40
1
41
1
10
8.04761367897811
20
-4.90196637405222
30
0
41
1
10
8.13082337257595
20
-4.88265356692165
30
0
41
1
10
8.21555449956924
20
-4.86335917121738
30
0
41
1
10
8.38613507009245
20
-4.82545950637524
30
0
41
1
10
8.47205139809796
20
-4.80683758185876
30
0
41
1
10
8.55871014521682
20
-4.78860452071964
30
0
0
LINE
5
72
100
AcDbEntity
8
1
62
256
6
ByLayer
370
18
48
1
60
0
100
AcDbLine
10
21.609501
20
-14.323864
30
0
11
20.99671
21
-13.6893
31
0
39
0
210
0
220
0
230
1
0
LINE
5
73
100
AcDbEntity
8
1
62
256
6
ByLayer
370
18
48
1
60
0
100
AcDbLine
10
17.234267
20
-17.425954
30
0
11
17.847058
21
-18.060518
31
0
39
0
210
0
220
0
230
1
0
LINE
5
74
100
AcDbEntity
8
1
62
256
6
ByLayer
370
18
48
1
60
0
100
AcDbLine
10
6.545999
20
-22.99089
30
0
11
7.194536
21
-23.662469
31
0
39
0
210
0
220
0
230
1
0
LINE
5
75
100
AcDbEntity
8
1
62
256
6
ByLayer
370
18
48
1
60
0
100
AcDbLine
10
21.098862
20
-2.087103
30
0
11
20.450325
21
-1.415523
31
0
39
0
210
0
220
0
230
1
0
LINE
5
76
100
AcDbEntity
8
1
62
256
6
ByLayer
370
18
48
1
60
0
100
AcDbLine
10
27.179197
20
-13.184726
30
0
11
30.185766
21
-11.528727
31
0
39
0
210
0
220
0
230
1
0
LINE
5
77
100
AcDbEntity
8
1
62
256
6
ByLayer
370
18
48
1
60
0
100
AcDbLine
10
24.906031
20
-9.002788
30
0
11
24.003615
21
-7.325027
31
0
39
0
210
0
220
0
230
1
0
LINE
5
78
100
AcDbEntity
8
1
62
256
6
ByLayer
370
18
48
1
60
0
100
AcDbLine
10
23.973097
20
-7.286453
30
0
11
24.003615
21
-7.325027
31
0
39
0
210
0
220
0
230
1
0
LINE
5
79
100
AcDbEntity
8
1
62
256
6
ByLayer
370
18
48
1
60
0
100
AcDbLine
10
23.440471
20
-1.098757
30
0
11
23.006419
21
-5.507933
31
0
39
0
210
0
220
0
230
1
0
LINE
5
7A
100
AcDbEntity
8
1
62
256
6
ByLayer
370
18
48
1
60
0
100
AcDbLine
10
22.865308
20
-5.248414
30
0
11
23.276654
21
-1.069892
31
0
39
0
210
0
220
0
230
1
0
LINE
5
7B
100
AcDbEntity
8
1
62
256
6
ByLayer
370
18
48
1
60
0
100
AcDbLine
10
19.098071
20
-2.38391
30
0
11
14.971277
21
-9.12725
31
0
39
0
210
0
220
0
230
1
0
LINE
5
7C
100
AcDbEntity
8
1
62
256
6
ByLayer
370
18
48
1
60
0
100
AcDbLine
10
19.161859
20
-1.735941
30
0
11
19.098071
21
-2.38391
31
0
39
0
210
0
220
0
230
1
0
LINE
5
7D
100
AcDbEntity
8
1
62
256
6
ByLayer
370
18
48
1
60
0
100
AcDbLine
10
0
20
-15.925
30
0
11
0
21
15.925
31
0
39
0
210
0
220
0
230
1
0
LINE
5
7E
100
AcDbEntity
8
1
62
256
6
ByLayer
370
18
48
1
60
0
100
AcDbLine
10
24.003615
20
-7.325027
30
0
11
24.507748
21
-2.203955
31
0
39
0
210
0
220
0
230
1
0
LINE
5
7F
100
AcDbEntity
8
1
62
256
6
ByLayer
370
18
48
1
60
0
100
AcDbLine
10
2.119188
20
-19.25199
30
0
11
3.10072
21
15.9555
31
0
39
0
210
0
220
0
230
1
0
LINE
5
80
100
AcDbEntity
8
1
62
256
6
ByLayer
370
18
48
1
60
0
100
AcDbLine
10
14.381323
20
-9.80682
30
0
11
11.69318
21
-14.199349
31
0
39
0
210
0
220
0
230
1
0
LINE
5
81
100
AcDbEntity
8
1
62
256
6
ByLayer
370
18
48
1
60
0
100
AcDbLine
10
1.545481
20
-17.11089
30
0
11
2.119188
21
-19.25199
31
0
39
0
210
0
220
0
230
1
0
LINE
5
82
100
AcDbEntity
8
1
62
256
6
ByLayer
370
18
48
1
60
0
100
AcDbLine
10
11.357338
20
-15.032565
30
0
11
7.207332
21
-21.813833
31
0
39
0
210
0
220
0
230
1
0
LINE
5
83
100
AcDbEntity
8
1
62
256
6
ByLayer
370
18
48
1
60
0
100
AcDbLine
10
1.545481
20
15.930174
30
0
11
3.10072
21
15.9555
31
0
39
0
210
0
220
0
230
1
0
LINE
5
84
100
AcDbEntity
8
1
62
256
6
ByLayer
370
18
48
1
60
0
100
AcDbLine
10
5.117245
20
15.954591
30
0
11
3.10072
21
15.9555
31
0
39
0
210
0
220
0
230
1
0
LINE
5
85
100
AcDbEntity
8
1
62
256
6
ByLayer
370
18
48
1
60
0
100
AcDbLine
10
30.185766
20
-11.528727
30
0
11
28.940235
21
9.573636
31
0
39
0
210
0
220
0
230
1
0
LINE
5
86
100
AcDbEntity
8
1
62
256
6
ByLayer
370
18
48
1
60
0
100
AcDbLine
10
1.545481
20
15.930174
30
0
11
1.545481
21
-17.11089
31
0
39
0
210
0
220
0
230
1
0
LINE
5
87
100
AcDbEntity
8
1
62
256
6
ByLayer
370
18
48
1
60
0
100
AcDbLine
10
2.784947
20
-21.73664
30
0
11
7.207332
21
-21.813833
31
0
39
0
210
0
220
0
230
1
0
LINE
5
88
100
AcDbEntity
8
1
62
256
6
ByLayer
370
18
48
1
60
0
100
AcDbLine
10
28.940235
20
9.573636
30
0
11
5.117245
21
15.954591
31
0
39
0
210
0
220
0
230
1
0
LINE
5
89
100
AcDbEntity
8
1
62
256
6
ByLayer
370
18
48
1
60
0
100
AcDbLine
10
24.507748
20
-2.203955
30
0
11
23.440471
21
-1.098757
31
0
39
0
210
0
220
0
230
1
0
LINE
5
8A
100
AcDbEntity
8
1
62
256
6
ByLayer
370
18
48
1
60
0
100
AcDbLine
10
2.784947
20
-21.73664
30
0
11
2.119188
21
-19.25199
31
0
39
0
210
0
220
0
230
1
0
LINE
5
8B
100
AcDbEntity
8
SK1
62
256
6
ByLayer
370
18
48
1
60
0
100
AcDbLine
10
-138.874314
20
15.925
30
0
11
0
21
15.925
31
0
39
0
210
0
220
0
230
1
0
LINE
5
8D
100
AcDbEntity
8
SK1
62
256
6
ByLayer
370
18
48
1
60
0
100
AcDbLine
10
-138.874314
20
-15.925
30
0
11
0
21
-15.925
31
0
39
0
210
0
220
0
230
1
0
LINE
5
8E
100
AcDbEntity
8
SK1
62
256
6
ByLayer
370
18
48
1
60
0
100
AcDbLine
10
0
20
-15.925
30
0
11
0
21
15.925
31
0
39
0
210
0
220
0
230
1
0
LINE
5
8F
100
AcDbEntity
8
SK1
62
256
6
ByLayer
370
18
48
1
60
0
100
AcDbLine
10
-138.874314
20
15.925
30
0
11
-138.874314
21
-15.925
31
0
39
0
210
0
220
0
230
1
0
LINE
5
90
100
AcDbEntity
8
1
62
256
6
ByLayer
370
18
48
1
60
0
100
AcDbLine
10
7.343538
20
-4.128435
30
0
11
7.6918
21
-4.489071
31
0
39
0
210
0
220
0
230
1
0
LINE
5
91
100
AcDbEntity
8
1
62
256
6
ByLayer
370
18
48
1
60
0
100
AcDbLine
10
8.172141
20
-4.388301
30
0
11
7.685595
21
-4.482644
31
0
39
0
210
0
220
0
230
1
0
LINE
5
92
100
AcDbEntity
8
1
62
256
6
ByLayer
370
18
48
1
60
0
100
AcDbLine
10
19.117734
20
-2.184114
30
0
11
19.233893
21
-2.3044
31
0
39
0
210
0
220
0
230
1
0
LINE
5
93
100
AcDbEntity
8
1
62
256
6
ByLayer
370
18
48
1
60
0
100
AcDbLine
10
6.635203
20
-21.803849
30
0
11
7.042495
21
-22.225611
31
0
39
0
210
0
220
0
230
1
0
LINE
5
94
100
AcDbEntity
8
1
62
256
6
ByLayer
370
18
48
1
60
0
100
AcDbLine
10
18.874286
20
-13.358829
30
0
11
18.8622
21
-13.346313
31
0
39
0
210
0
220
0
230
1
0
LINE
5
95
100
AcDbEntity
8
1
62
256
6
ByLayer
370
18
48
1
60
0
100
AcDbLine
10
17.053244
20
-14.91622
30
0
11
17.058633
21
-14.921801
31
0
39
0
210
0
220
0
230
1
0
LINE
5
96
100
AcDbEntity
8
80
62
256
6
ByLayer
370
18
48
1
60
0
100
AcDbLine
10
0
20
0
30
0
11
-5
21
0
31
0
39
0
210
0
220
0
230
1
0
LINE
5
97
100
AcDbEntity
8
81
62
256
6
ByLayer
370
18
48
1
60
0
100
AcDbLine
10
31.125686
20
-24.075
30
0
11
41.125686
21
-24.075
31
0
39
0
210
0
220
0
230
1
0
LINE
5
98
100
AcDbEntity
8
1
62
256
6
ByLayer
370
18
48
1
60
0
100
AcDbLine
10
7.042495
20
-22.225611
30
0
11
19.233893
21
-2.3044
31
0
39
0
210
0
220
0
230
1
0
LINE
5
99
100
AcDbEntity
8
1
62
256
6
ByLayer
370
18
48
1
60
0
100
AcDbLine
10
21.284507
20
-2.340194
30
0
11
32.333395
21
-22.667066
31
0
39
0
210
0
220
0
230
1
0
LINE
5
9A
100
AcDbEntity
8
1
62
256
6
ByLayer
370
18
48
1
60
0
100
AcDbLine
10
31.257684
20
-24.42482
30
0
11
8.017397
21
-24.019159
31
0
39
0
210
0
220
0
230
1
0
LINE
5
9B
100
AcDbEntity
8
1
62
256
6
ByLayer
370
18
48
1
60
0
100
AcDbLine
10
21.298508
20
-13.537473
30
0
11
21.320115
21
-13.559848
31
0
39
0
210
0
220
0
230
1
0
LINE
5
9C
100
AcDbEntity
8
1
62
256
6
ByLayer
370
18
48
1
60
0
100
AcDbLine
10
8.172141
20
-4.388301
30
0
11
8.55871
21
-4.788605
31
0
39
0
210
0
220
0
230
1
0
LINE
5
9D
100
AcDbEntity
8
1
62
256
6
ByLayer
370
18
48
1
60
0
100
AcDbLine
10
9.54196
20
-3.655057
30
0
11
9.363483
21
-4.157295
31
0
39
0
210
0
220
0
230
1
0
LINE
5
9E
100
AcDbEntity
8
1
62
256
6
ByLayer
370
18
48
1
60
0
100
AcDbLine
10
9.550773
20
-1.99693
30
0
11
9.164204
21
-1.596626
31
0
39
0
210
0
220
0
230
1
0
LINE
5
9F
100
AcDbEntity
8
1
62
256
6
ByLayer
370
18
48
1
60
0
100
AcDbLine
10
9.948753
20
-2.510338
30
0
11
9.770275
21
-3.012577
31
0
39
0
210
0
220
0
230
1
0
LINE
5
A0
100
AcDbEntity
8
1
62
256
6
ByLayer
370
18
48
1
60
0
100
AcDbLine
10
9.54196
20
-3.655057
30
0
11
9.928529
21
-4.055361
31
0
39
0
210
0
220
0
230
1
0
LINE
5
A1
100
AcDbEntity
8
1
62
256
6
ByLayer
370
18
48
1
60
0
100
AcDbLine
10
9.761649
20
-4.569608
30
0
11
9.363483
21
-4.157295
31
0
39
0
210
0
220
0
230
1
0
LINE
5
A2
100
AcDbEntity
8
1
62
256
6
ByLayer
370
18
48
1
60
0
100
AcDbLine
10
9.604537
20
-2.109453
30
0
11
9.948753
21
-2.510338
31
0
39
0
210
0
220
0
230
1
0
LINE
5
A3
100
AcDbEntity
8
1
62
256
6
ByLayer
370
18
48
1
60
0
100
AcDbLine
10
10.156844
20
-3.412881
30
0
11
9.770275
21
-3.012577
31
0
39
0
210
0
220
0
230
1
0
LINE
5
A4
100
AcDbEntity
8
1
62
256
6
ByLayer
370
18
48
1
60
0
100
AcDbLine
10
10.346919
20
-2.922652
30
0
11
9.948753
21
-2.510338
31
0
39
0
210
0
220
0
230
1
0
LINE
5
A5
100
AcDbEntity
8
1
62
256
6
ByLayer
370
18
48
1
60
0
100
AcDbLine
10
9.227358
20
-4.658951
30
0
11
8.840789
21
-4.258647
31
0
39
0
210
0
220
0
230
1
0
LINE
5
A6
100
AcDbEntity
8
1
62
256
6
ByLayer
370
18
48
1
60
0
100
AcDbLine
10
9.363483
20
-4.157295
30
0
11
8.840789
21
-4.258647
31
0
39
0
210
0
220
0
230
1
0
LINE
5
A7
100
AcDbEntity
8
1
62
256
6
ByLayer
370
18
48
1
60
0
100
AcDbLine
10
9.604537
20
-2.109453
30
0
11
9.991106
21
-2.509756
31
0
39
0
210
0
220
0
230
1
0
MTEXT
5
E8
100
AcDbEntity
8
SK6
62
256
6
ByLayer
370
13
48
1
60
0
100
AcDbMText
10
-108.958111
20
24.910722
30
0
210
0
220
0
230
1
1
\W0.7877;PTGNL 3232P 27
40
3.5
41
0
44
1.084337
50
0
71
7
72
5
7
iso_b_vert
0
DIMENSION
5
FA
100
AcDbEntity
8
SK2
62
256
6
ByLayer
370
13
48
1
60
0
100
AcDbDimension
2
DimnDraft3D1
10
-148.624314
20
15.925
30
0
11
-148.624314
21
-0.075
31
0
70
32
71
5
72
1
41
1
210
0
220
0
230
1
3
Standard
100
AcDbAlignedDimension
13
-140.461814
23
-16.075
33
0
14
-140.461814
24
15.925
34
0
50
90
100
AcDbRotatedDimension
1001
ACAD
1000
DSTYLE
1002
{
1070
    74
1070
     0
1070
   279
1070
     0
1070
   172
1070
     1
1070
   173
1070
     1
1070
   340
1005
E9
1070
   271
1070
     1
1070
   272
1070
     2
1070
    77
1070
     1
1070
    73
1070
     0
1070
   171
1070
     3
1070
   274
1070
     4
1070
   177
1070
   150
1070
   176
1070
     9
1070
   178
1070
    43
1070
    78
1070
     8
1070
    48
1040
-0.005
1070
    41
1041
3.175
1070
   147
1041
2.25
1070
    42
1041
1.5875
1070
    44
1041
3.175
1070
   140
1041
4.5
1070
   343
1005
FB
1070
   344
1005
FB
1002
}
0
DIMENSION
5
110
100
AcDbEntity
8
2
62
256
6
ByLayer
370
13
48
1
60
0
100
AcDbDimension
2
DimnDraft3D2
10
48.975686
20
15.925
30
0
11
48.975686
21
-4.25
31
0
70
32
71
5
72
1
41
1
210
0
220
0
230
1
3
Standard
100
AcDbAlignedDimension
13
34.063186
23
-24.425
33
0
14
1.5875
24
15.925
34
0
50
90
100
AcDbRotatedDimension
1001
ACAD
1000
DSTYLE
1002
{
1070
    74
1070
     0
1070
   279
1070
     0
1070
   172
1070
     1
1070
   173
1070
     1
1070
   340
1005
E9
1070
   271
1070
     1
1070
   272
1070
     2
1070
    77
1070
     1
1070
    73
1070
     0
1070
   171
1070
     3
1070
   274
1070
     4
1070
   177
1070
   150
1070
   176
1070
     9
1070
   178
1070
    43
1070
    78
1070
     8
1070
    48
1040
-0.005
1070
    41
1041
3.175
1070
   147
1041
2.25
1070
    42
1041
1.5875
1070
    44
1041
3.175
1070
   140
1041
4.5
1070
   343
1005
FB
1070
   344
1005
FB
1002
}
0
DIMENSION
5
11E
100
AcDbEntity
8
SK2
62
256
6
ByLayer
370
13
48
1
60
0
100
AcDbDimension
2
DimnDraft3D3
10
32.475686
20
-50.925
30
0
11
-53.199314
21
-50.925
31
0
70
32
71
5
72
1
41
1
210
0
220
0
230
1
3
Standard
100
AcDbAlignedDimension
13
-138.874314
23
-17.6625
33
0
14
32.475686
24
-26.0125
34
0
50
0
100
AcDbRotatedDimension
1001
ACAD
1000
DSTYLE
1002
{
1070
   279
1070
     0
1070
   172
1070
     1
1070
   173
1070
     1
1070
   340
1005
E9
1070
   271
1070
     1
1070
   272
1070
     2
1070
    77
1070
     1
1070
    73
1070
     0
1070
   171
1070
     3
1070
   274
1070
     4
1070
   177
1070
   150
1070
   176
1070
     9
1070
   178
1070
    43
1070
    78
1070
     8
1070
    48
1040
-0.005
1070
    41
1041
3.175
1070
   147
1041
2.25
1070
    42
1041
1.5875
1070
    44
1041
3.175
1070
   140
1041
4.5
1070
   343
1005
FB
1070
   344
1005
FB
1002
}
0
DIMENSION
5
12B
100
AcDbEntity
8
2
62
256
6
ByLayer
370
13
48
1
60
0
100
AcDbDimension
2
DimnDraft3D4
10
32.475686
20
-22.04375
30
0
11
20.381993
21
-36.330403
31
0
70
34
71
5
72
1
41
1
210
0
220
0
230
1
3
Standard
100
AcDb2LineAngularDimension
13
31.264282
23
-24.424819
33
0
14
4.268394
24
-23.953604
34
0
15
32.475686
25
-24.425
35
0
16
17.172366
26
-39.484495
36
0
40
0
0
ENDSEC
0
SECTION
2
OBJECTS
0
DICTIONARY
5
195
330
0
100
AcDbDictionary
280
0
281
1
3
ACAD_GROUP
350
196
3
ACAD_MLINESTYLE
350
197
0
DICTIONARY
5
196
330
0
100
AcDbDictionary
280
0
281
1
0
DICTIONARY
5
197
330
0
100
AcDbDictionary
280
0
281
1
3
Standard
350
18
0
MLINESTYLE
5
18
330
197
100
AcDbMlineStyle
2
Standard
70
0
3

62
256
51
90
52
90
71
2
49
-0.5
62
256
6
ByLayer
49
0.5
62
256
6
ByLayer
0
RASTERVARIABLES
5
184
330

100
AcDbRasterVariables
90
0
70
1
71
1
72
1
0
ENDSEC
0
EOF
