0
SECTION
2
HEADER
9
$ACADVER
1
AC1015
9
$DWGCODEPAGE
3
ANSI_1252
9
$HANDSEED
5
1ac
9
$ANGBASE
50
0
9
$ANGDIR
70
0
9
$ATTMODE
70
1
9
$AUNITS
70
0
9
$AUPREC
70
0
9
$CECOLOR
62
256
9
$CELTSCALE
40
1
9
$CELTYPE
6
ByLayer
9
$CELWEIGHT
370
18
9
$CLAYER
8
0
9
$CMLJUST
70
0
9
$CMLSCALE
40
1
9
$CMLSTYLE
2
Standard
9
$DIMSTYLE
2
Standard
9
$TEXTSIZE
40
0.2
9
$TEXTSTYLE
7
Standard
9
$LUNITS
70
2
9
$LUPREC
70
4
9
$EXTNAMES
290
1
9
$INSUNITS
70
4
9
$LTSCALE
40
1
9
$LWDISPLAY
290
1
9
$PDMODE
70
0
9
$PDSIZE
40
0
9
$PLINEGEN
70
0
0
ENDSEC
0
SECTION
2
CLASSES
0
CLASS
1
RASTERVARIABLES
2
AcDbRasterVariables
3
ISM
90
0
280
0
281
0
0
ENDSEC
0
SECTION
2
TABLES
0
TABLE
2
VPORT
5
1a2
100
AcDbSymbolTable
0
VPORT
5
1
100
AcDbSymbolTableRecord
100
AcDbViewportTableRecord
2
*Active
70
0
10
0
20
0
11
1
21
1
12
-1
22
1
13
0
23
0
14
0.5
24
0.5
15
10
25
10
16
0
26
0
36
1
17
0
27
0
37
0
0
ENDTAB
0
TABLE
2
LTYPE
5
1a3
100
AcDbSymbolTable
0
LTYPE
5
14
100
AcDbSymbolTableRecord
100
AcDbLinetypeTableRecord
70
0
2
ByBlock
3

72
65
73
0
40
0
0
LTYPE
5
15
100
AcDbSymbolTableRecord
100
AcDbLinetypeTableRecord
70
0
2
ByLayer
3

72
65
73
0
40
0
0
LTYPE
5
16
100
AcDbSymbolTableRecord
100
AcDbLinetypeTableRecord
70
0
2
CONTINUOUS
3
Solid line
72
65
73
0
40
0
0
LTYPE
5
6A
100
AcDbSymbolTableRecord
100
AcDbLinetypeTableRecord
70
0
2
CENTER
3
____ _ ____ _ ____ _ ____
72
65
73
4
40
47.5
49
22
74
0
49
-8.5
74
0
49
8.5
74
0
49
-8.5
74
0
0
LTYPE
5
6B
100
AcDbSymbolTableRecord
100
AcDbLinetypeTableRecord
70
0
2
DASHED
3
__ __ __ __ __ __ __ __ __
72
65
73
2
40
25.72
49
12.86
74
0
49
-12.86
74
0
0
ENDTAB
0
TABLE
2
LAYER
5
1a4
100
AcDbSymbolTable
0
LAYER
5
10
100
AcDbSymbolTableRecord
100
AcDbLayerTableRecord
2
0
70
0
62
7
6
CONTINUOUS
290
1
370
-3
390
0
0
LAYER
5
6D
100
AcDbSymbolTableRecord
100
AcDbLayerTableRecord
2
80
70
0
62
-6
6
CONTINUOUS
290
1
370
-3
390
0
0
LAYER
5
6F
100
AcDbSymbolTableRecord
100
AcDbLayerTableRecord
2
81
70
0
62
-3
6
CONTINUOUS
290
1
370
-3
390
0
0
LAYER
5
71
100
AcDbSymbolTableRecord
100
AcDbLayerTableRecord
2
1
70
0
62
4
6
CONTINUOUS
290
1
370
-3
390
0
0
LAYER
5
10E
100
AcDbSymbolTableRecord
100
AcDbLayerTableRecord
2
2
70
0
62
7
6
CONTINUOUS
290
1
370
-3
390
0
0
LAYER
5
18f
100
AcDbSymbolTableRecord
100
AcDbLayerTableRecord
2
SK1
70
0
62
4
6
CONTINUOUS
290
1
370
-3
390
0
0
LAYER
5
190
100
AcDbSymbolTableRecord
100
AcDbLayerTableRecord
2
SK6
70
0
62
5
6
CONTINUOUS
290
1
370
-3
390
0
0
LAYER
5
191
100
AcDbSymbolTableRecord
100
AcDbLayerTableRecord
2
SK2
70
0
62
7
6
CONTINUOUS
290
1
370
-3
390
0
0
ENDTAB
0
TABLE
2
STYLE
5
1a5
100
AcDbSymbolTable
0
STYLE
5
11
100
AcDbSymbolTableRecord
100
AcDbTextStyleTableRecord
2
Standard
3
txt
70
0
71
0
40
0
41
1
42
0
50
0
0
STYLE
5
F3
100
AcDbSymbolTableRecord
100
AcDbTextStyleTableRecord
2
iso_b_vert
3
simplex.shx
70
0
71
0
40
0
41
1
42
0
50
0
0
STYLE
5
F4
100
AcDbSymbolTableRecord
100
AcDbTextStyleTableRecord
2
DWGDirectTextStyle
3
simplex
70
0
71
0
40
0
41
1
42
0
50
0
0
ENDTAB
0
TABLE
2
DIMSTYLE
5
1a6
100
AcDbSymbolTable
100
AcDbDimStyleTable
0
DIMSTYLE
105
27
100
AcDbSymbolTableRecord
100
AcDbDimStyleTableRecord
2
Standard
70
0
3
<>
41
0.18
42
0.0625
44
0.18
140
0.18
147
0.09
73
0
74
0
77
1
271
2
275
0
278
52
280
0
340
11
0
ENDTAB
0
TABLE
2
VIEW
5
1a7
100
AcDbSymbolTable
0
ENDTAB
0
TABLE
2
UCS
5
1a8
100
AcDbSymbolTable
0
ENDTAB
0
TABLE
2
APPID
5
1a9
100
AcDbSymbolTable
0
APPID
5
12
100
AcDbSymbolTableRecord
100
AcDbRegAppTableRecord
2
ACAD
70
0
0
ENDTAB
0
TABLE
2
BLOCK_RECORD
5
1aa
100
AcDbSymbolTable
0
BLOCK_RECORD
5
1F
100
AcDbSymbolTableRecord
100
AcDbBlockTableRecord
2
*Model_Space
340
0
70
0
0
BLOCK_RECORD
5
1B
100
AcDbSymbolTableRecord
100
AcDbBlockTableRecord
2
*Paper_Space
340
0
70
0
0
BLOCK_RECORD
5
23
100
AcDbSymbolTableRecord
100
AcDbBlockTableRecord
2
*Paper_Space0
340
0
70
0
0
BLOCK_RECORD
5
F6
100
AcDbSymbolTableRecord
100
AcDbBlockTableRecord
2
DimnDraft3D1
340
0
70
0
0
BLOCK_RECORD
5
105
100
AcDbSymbolTableRecord
100
AcDbBlockTableRecord
2
_CLOSED
340
0
70
0
0
BLOCK_RECORD
5
10C
100
AcDbSymbolTableRecord
100
AcDbBlockTableRecord
2
DimnDraft3D2
340
0
70
0
0
BLOCK_RECORD
5
11B
100
AcDbSymbolTableRecord
100
AcDbBlockTableRecord
2
DimnDraft3D3
340
0
70
0
0
BLOCK_RECORD
5
129
100
AcDbSymbolTableRecord
100
AcDbBlockTableRecord
2
DimnDraft3D4
340
0
70
0
0
ENDTAB
0
ENDSEC
0
SECTION
2
BLOCKS
0
BLOCK
5
20
100
AcDbEntity
8
0
100
AcDbBlockBegin
2
*Model_Space
70
0
10
0
20
0
30
0
3
*Model_Space
0
ENDBLK
5
21
100
AcDbEntity
8
0
100
AcDbBlockEnd
0
BLOCK
5
1C
100
AcDbEntity
8
0
100
AcDbBlockBegin
2
*Paper_Space
70
0
10
0
20
0
30
0
3
*Paper_Space
0
ENDBLK
5
1D
100
AcDbEntity
8
0
100
AcDbBlockEnd
0
BLOCK
5
24
100
AcDbEntity
8
0
100
AcDbBlockBegin
2
*Paper_Space0
70
0
10
0
20
0
30
0
3
*Paper_Space0
0
ENDBLK
5
25
100
AcDbEntity
8
0
100
AcDbBlockEnd
0
BLOCK
5
102
100
AcDbEntity
8
0
100
AcDbBlockBegin
2
DimnDraft3D1
70
0
10
0
20
0
30
0
3
DimnDraft3D1
0
MTEXT
5
F7
100
AcDbEntity
8
SK2
62
256
6
ByLayer
370
13
48
1
60
0
100
AcDbMText
10
-136.332426
20
-1.500658
30
0
210
0
220
0
230
1
1
\W0.6740;25
40
4.5
41
0
44
1.084337
50
90
71
7
72
5
7
iso_b_vert
0
LINE
5
F9
100
AcDbEntity
8
SK2
62
256
6
ByLayer
370
13
48
1
60
0
100
AcDbLine
10
-127.044926
20
12.5625
30
0
11
-138.382426
21
12.5625
31
0
39
0
210
0
220
0
230
1
0
LINE
5
FA
100
AcDbEntity
8
SK2
62
256
6
ByLayer
370
13
48
1
60
0
100
AcDbLine
10
-127.044926
20
-12.4375
30
0
11
-138.382426
21
-12.4375
31
0
39
0
210
0
220
0
230
1
0
LINE
5
FB
100
AcDbEntity
8
SK2
62
256
6
ByLayer
370
13
48
1
60
0
100
AcDbLine
10
-135.207426
20
12.5625
30
0
11
-135.207426
21
-12.4375
31
0
39
0
210
0
220
0
230
1
0
LINE
5
FC
100
AcDbEntity
8
SK2
62
256
6
ByLayer
370
13
48
1
60
0
100
AcDbLine
10
-135.207426
20
12.5625
30
0
11
-134.356687
21
9.387503
31
0
39
0
210
0
220
0
230
1
0
LINE
5
FD
100
AcDbEntity
8
SK2
62
256
6
ByLayer
370
13
48
1
60
0
100
AcDbLine
10
-135.207426
20
12.5625
30
0
11
-136.058164
21
9.387497
31
0
39
0
210
0
220
0
230
1
0
LINE
5
FE
100
AcDbEntity
8
SK2
62
256
6
ByLayer
370
13
48
1
60
0
100
AcDbLine
10
-134.356687
20
9.387503
30
0
11
-136.058164
21
9.387497
31
0
39
0
210
0
220
0
230
1
0
LINE
5
FF
100
AcDbEntity
8
SK2
62
256
6
ByLayer
370
13
48
1
60
0
100
AcDbLine
10
-135.207426
20
-12.4375
30
0
11
-136.058164
21
-9.262503
31
0
39
0
210
0
220
0
230
1
0
LINE
5
100
100
AcDbEntity
8
SK2
62
256
6
ByLayer
370
13
48
1
60
0
100
AcDbLine
10
-135.207426
20
-12.4375
30
0
11
-134.356687
21
-9.262497
31
0
39
0
210
0
220
0
230
1
0
LINE
5
101
100
AcDbEntity
8
SK2
62
256
6
ByLayer
370
13
48
1
60
0
100
AcDbLine
10
-136.058164
20
-9.262503
30
0
11
-134.356687
21
-9.262497
31
0
39
0
210
0
220
0
230
1
0
ENDBLK
5
103
100
AcDbEntity
8
0
100
AcDbBlockEnd
0
BLOCK
5
106
100
AcDbEntity
8
0
100
AcDbBlockBegin
2
_CLOSED
70
0
10
0
20
0
30
0
3
_CLOSED
0
LINE
5
108
100
AcDbEntity
8
0
62
256
6
ByLayer
370
-2
48
1
60
0
100
AcDbLine
10
-1
20
0.166667
30
0
11
0
21
0
31
0
39
0
210
0
220
0
230
1
0
LINE
5
109
100
AcDbEntity
8
0
62
256
6
ByLayer
370
-2
48
1
60
0
100
AcDbLine
10
0
20
0
30
0
11
-1
21
-0.166667
31
0
39
0
210
0
220
0
230
1
0
LINE
5
10A
100
AcDbEntity
8
0
62
256
6
ByLayer
370
-2
48
1
60
0
100
AcDbLine
10
-1
20
0.166667
30
0
11
-1
21
-0.166667
31
0
39
0
210
0
220
0
230
1
0
LINE
5
10B
100
AcDbEntity
8
0
62
256
6
ByLayer
370
-2
48
1
60
0
100
AcDbLine
10
0
20
0
30
0
11
-1
21
0
31
0
39
0
210
0
220
0
230
1
0
ENDBLK
5
107
100
AcDbEntity
8
0
100
AcDbBlockEnd
0
BLOCK
5
118
100
AcDbEntity
8
0
100
AcDbBlockBegin
2
DimnDraft3D2
70
0
10
0
20
0
30
0
3
DimnDraft3D2
0
MTEXT
5
10D
100
AcDbEntity
8
2
62
256
6
ByLayer
370
13
48
1
60
0
100
AcDbMText
10
56.267574
20
2.174342
30
0
210
0
220
0
230
1
1
\W0.6740;32
40
4.5
41
0
44
1.084337
50
90
71
7
72
5
7
iso_b_vert
0
LINE
5
10F
100
AcDbEntity
8
2
62
256
6
ByLayer
370
13
48
1
60
0
100
AcDbLine
10
1.5875
20
-12.4375
30
0
11
60.567574
21
-12.4375
31
0
39
0
210
0
220
0
230
1
0
LINE
5
110
100
AcDbEntity
8
2
62
256
6
ByLayer
370
13
48
1
60
0
100
AcDbLine
10
27.480074
20
19.9125
30
0
11
60.567574
21
19.9125
31
0
39
0
210
0
220
0
230
1
0
LINE
5
111
100
AcDbEntity
8
2
62
256
6
ByLayer
370
13
48
1
60
0
100
AcDbLine
10
57.392574
20
-12.4375
30
0
11
57.392574
21
19.9125
31
0
39
0
210
0
220
0
230
1
0
LINE
5
112
100
AcDbEntity
8
2
62
256
6
ByLayer
370
13
48
1
60
0
100
AcDbLine
10
57.392574
20
-12.4375
30
0
11
56.541836
21
-9.262503
31
0
39
0
210
0
220
0
230
1
0
LINE
5
113
100
AcDbEntity
8
2
62
256
6
ByLayer
370
13
48
1
60
0
100
AcDbLine
10
57.392574
20
-12.4375
30
0
11
58.243313
21
-9.262497
31
0
39
0
210
0
220
0
230
1
0
LINE
5
114
100
AcDbEntity
8
2
62
256
6
ByLayer
370
13
48
1
60
0
100
AcDbLine
10
56.541836
20
-9.262503
30
0
11
58.243313
21
-9.262497
31
0
39
0
210
0
220
0
230
1
0
LINE
5
115
100
AcDbEntity
8
2
62
256
6
ByLayer
370
13
48
1
60
0
100
AcDbLine
10
57.392574
20
19.9125
30
0
11
58.243313
21
16.737503
31
0
39
0
210
0
220
0
230
1
0
LINE
5
116
100
AcDbEntity
8
2
62
256
6
ByLayer
370
13
48
1
60
0
100
AcDbLine
10
57.392574
20
19.9125
30
0
11
56.541836
21
16.737497
31
0
39
0
210
0
220
0
230
1
0
LINE
5
117
100
AcDbEntity
8
2
62
256
6
ByLayer
370
13
48
1
60
0
100
AcDbLine
10
58.243313
20
16.737503
30
0
11
56.541836
21
16.737497
31
0
39
0
210
0
220
0
230
1
0
ENDBLK
5
119
100
AcDbEntity
8
0
100
AcDbBlockEnd
0
BLOCK
5
126
100
AcDbEntity
8
0
100
AcDbBlockBegin
2
DimnDraft3D3
70
0
10
0
20
0
30
0
3
DimnDraft3D3
0
MTEXT
5
11C
100
AcDbEntity
8
SK2
62
256
6
ByLayer
370
13
48
1
60
0
100
AcDbMText
10
-52.464662
20
28.5375
30
0
210
0
220
0
230
1
1
\W0.6217;150
40
4.5
41
0
44
1.084337
50
0
71
7
72
5
7
iso_b_vert
0
LINE
5
11D
100
AcDbEntity
8
SK2
62
256
6
ByLayer
370
13
48
1
60
0
100
AcDbLine
10
-125.457426
20
14.15
30
0
11
-125.457426
21
30.5875
31
0
39
0
210
0
220
0
230
1
0
LINE
5
11E
100
AcDbEntity
8
SK2
62
256
6
ByLayer
370
13
48
1
60
0
100
AcDbLine
10
25.892574
20
21.5
30
0
11
25.892574
21
30.5875
31
0
39
0
210
0
220
0
230
1
0
LINE
5
11F
100
AcDbEntity
8
SK2
62
256
6
ByLayer
370
13
48
1
60
0
100
AcDbLine
10
-125.457426
20
27.4125
30
0
11
25.892574
21
27.4125
31
0
39
0
210
0
220
0
230
1
0
LINE
5
120
100
AcDbEntity
8
SK2
62
256
6
ByLayer
370
13
48
1
60
0
100
AcDbLine
10
-125.457426
20
27.4125
30
0
11
-122.282429
21
28.263239
31
0
39
0
210
0
220
0
230
1
0
LINE
5
121
100
AcDbEntity
8
SK2
62
256
6
ByLayer
370
13
48
1
60
0
100
AcDbLine
10
-125.457426
20
27.4125
30
0
11
-122.282422
21
26.561761
31
0
39
0
210
0
220
0
230
1
0
LINE
5
122
100
AcDbEntity
8
SK2
62
256
6
ByLayer
370
13
48
1
60
0
100
AcDbLine
10
-122.282429
20
28.263239
30
0
11
-122.282422
21
26.561761
31
0
39
0
210
0
220
0
230
1
0
LINE
5
123
100
AcDbEntity
8
SK2
62
256
6
ByLayer
370
13
48
1
60
0
100
AcDbLine
10
25.892574
20
27.4125
30
0
11
22.717578
21
26.561761
31
0
39
0
210
0
220
0
230
1
0
LINE
5
124
100
AcDbEntity
8
SK2
62
256
6
ByLayer
370
13
48
1
60
0
100
AcDbLine
10
25.892574
20
27.4125
30
0
11
22.717571
21
28.263239
31
0
39
0
210
0
220
0
230
1
0
LINE
5
125
100
AcDbEntity
8
SK2
62
256
6
ByLayer
370
13
48
1
60
0
100
AcDbLine
10
22.717578
20
26.561761
30
0
11
22.717571
21
28.263239
31
0
39
0
210
0
220
0
230
1
0
ENDBLK
5
127
100
AcDbEntity
8
0
100
AcDbBlockEnd
0
BLOCK
5
133
100
AcDbEntity
8
0
100
AcDbBlockBegin
2
DimnDraft3D4
70
0
10
0
20
0
30
0
3
DimnDraft3D4
0
MTEXT
5
12A
100
AcDbEntity
8
2
62
256
6
ByLayer
370
13
48
1
60
0
100
AcDbMText
10
32.696163
20
6.004443
30
0
210
0
220
0
230
1
1
\W0.7582;91%%d0'
40
4.5
41
0
44
1.084337
50
44.5
71
7
72
5
7
iso_b_vert
0
LINE
5
12B
100
AcDbEntity
8
2
62
256
6
ByLayer
370
13
48
1
60
0
100
AcDbLine
10
27.480074
20
19.9125
30
0
11
44.885381
21
19.9125
31
0
39
0
210
0
220
0
230
1
0
ARC
5
12C
100
AcDbEntity
8
2
62
256
6
ByLayer
370
13
48
1
60
0
100
AcDbCircle
39
0
10
25.90655
20
19.9125
30
0
40
15.8038303877112
210
0
220
0
230
1
100
AcDbArc
50
233.554733
51
35.445267
0
LINE
5
12D
100
AcDbEntity
8
2
62
256
6
ByLayer
370
13
48
1
60
0
100
AcDbLine
10
25.630735
20
4.111077
30
0
11
22.405581
21
3.476459
31
0
39
0
210
0
220
0
230
1
0
LINE
5
12E
100
AcDbEntity
8
2
62
256
6
ByLayer
370
13
48
1
60
0
100
AcDbLine
10
25.630735
20
4.111077
30
0
11
22.520355
21
5.174061
31
0
39
0
210
0
220
0
230
1
0
LINE
5
12F
100
AcDbEntity
8
2
62
256
6
ByLayer
370
13
48
1
60
0
100
AcDbLine
10
22.405581
20
3.476459
30
0
11
22.520355
21
5.174061
31
0
39
0
210
0
220
0
230
1
0
LINE
5
130
100
AcDbEntity
8
2
62
256
6
ByLayer
370
13
48
1
60
0
100
AcDbLine
10
41.710381
20
19.9125
30
0
11
40.701842
21
23.040952
31
0
39
0
210
0
220
0
230
1
0
LINE
5
131
100
AcDbEntity
8
2
62
256
6
ByLayer
370
13
48
1
60
0
100
AcDbLine
10
41.710381
20
19.9125
30
0
11
42.401188
21
23.126094
31
0
39
0
210
0
220
0
230
1
0
LINE
5
132
100
AcDbEntity
8
2
62
256
6
ByLayer
370
13
48
1
60
0
100
AcDbLine
10
40.701842
20
23.040952
30
0
11
42.401188
21
23.126094
31
0
39
0
210
0
220
0
230
1
0
ENDBLK
5
134
100
AcDbEntity
8
0
100
AcDbBlockEnd
0
ENDSEC
0
SECTION
2
ENTITIES
0
ARC
5
AE
100
AcDbEntity
8
1
62
256
6
ByLayer
370
18
48
1
60
0
100
AcDbCircle
39
0
10
0
20
14.0375
30
0
40
1.59999999999974
210
0
220
0
230
-1
100
AcDbArc
50
195
51
270
0
ELLIPSE
5
AF
100
AcDbEntity
8
1
62
256
6
ByLayer
370
18
48
1
60
0
100
AcDbEllipse
10
20.162052
20
4.768396
30
0
11
-1.8755776002394
21
1.94221746091426
31
0
210
0
220
0
230
1
40
0.989133
41
1.82713250607247
42
2.16202866451184
0
ELLIPSE
5
B0
100
AcDbEntity
8
1
62
256
6
ByLayer
370
18
48
1
60
0
100
AcDbEllipse
10
8.026037
20
11.383078
30
0
11
1.82950172928706
21
-1.89450449980882
31
0
210
0
220
0
230
1
40
0.989133
41
2.22855823403115
42
-0.913034419558644
0
ELLIPSE
5
B1
100
AcDbEntity
8
1
62
256
6
ByLayer
370
18
48
1
60
0
100
AcDbEllipse
10
7.604259
20
13.159257
30
0
11
-0.0224703638360175
21
-0.148307392766096
31
0
210
0
220
0
230
1
40
0.089883
41
-3.03613883155067
42
-1.45370639463249
0
ELLIPSE
5
B2
100
AcDbEntity
8
1
62
256
6
ByLayer
370
18
48
1
60
0
100
AcDbEllipse
10
7.232833
20
10.61709
30
0
11
-1.78470954218362
21
1.84812083224222
31
0
210
0
220
0
230
1
40
0.989133
41
-0.913034419558648
42
-0.159052274640808
0
ELLIPSE
5
B3
100
AcDbEntity
8
1
62
256
6
ByLayer
370
18
48
1
60
0
100
AcDbEllipse
10
16.753743
20
6.854216
30
0
11
-1.8755776002394
21
1.94221746091426
31
0
210
0
220
0
230
1
40
0.989133
41
1.49223634763308
42
1.82713250607247
0
ELLIPSE
5
B4
100
AcDbEntity
8
1
62
256
6
ByLayer
370
18
48
1
60
0
100
AcDbEllipse
10
0
20
-12.444481
30
0
11
1.59999999999939
21
1.61702248813116E-15
31
0
210
0
220
0
230
-1
40
0.004363
41
-1.5707963267949
42
-0.261799387798493
0
ELLIPSE
5
B5
100
AcDbEntity
8
1
62
256
6
ByLayer
370
18
48
1
60
0
100
AcDbEllipse
10
7.248881
20
10.632588
30
0
11
1.88890124362535
21
-1.95601449753055
31
0
210
0
220
0
230
1
40
0.989133
41
2.22855823403115
42
2.86001849922549
0
ELLIPSE
5
B6
100
AcDbEntity
8
1
62
256
6
ByLayer
370
18
48
1
60
0
100
AcDbEllipse
10
9.355744
20
1.027315
30
0
11
1.0801937660638
21
-1.11857338952655
31
0
210
0
220
0
230
1
40
0.989133
41
0.230649876645874
42
0.808310504210969
0
ELLIPSE
5
B7
100
AcDbEntity
8
1
62
256
6
ByLayer
370
18
48
1
60
0
100
AcDbEllipse
10
9.355744
20
1.027315
30
0
11
1.0801937660638
21
-1.11857338952655
31
0
210
0
220
0
230
1
40
0.989133
41
0.808310504210968
42
2.97797310692843
0
ELLIPSE
5
B8
100
AcDbEntity
8
1
62
256
6
ByLayer
370
18
48
1
60
0
100
AcDbEllipse
10
18.300184
20
8.636525
30
0
11
-1.92767697802383
21
1.99616794593965
31
0
210
0
220
0
230
1
40
0.989133
41
-2.72660105346757
42
-2.37736790815665
0
ELLIPSE
5
B9
100
AcDbEntity
8
1
62
256
6
ByLayer
370
18
48
1
60
0
100
AcDbEllipse
10
18.300184
20
8.636525
30
0
11
-1.92767697802383
21
1.99616794593965
31
0
210
0
220
0
230
1
40
0.989133
41
-0.761181448161244
42
-0.414999489676528
0
ELLIPSE
5
BA
100
AcDbEntity
8
1
62
256
6
ByLayer
370
18
48
1
60
0
100
AcDbEllipse
10
7.859814
20
9.537413
30
0
11
0.55138508155186
21
-0.570975966518777
31
0
210
0
220
0
230
1
40
0.989133
41
-3.1415908176962
42
-1.31446014751735
0
ELLIPSE
5
BB
100
AcDbEntity
8
1
62
256
6
ByLayer
370
18
48
1
60
0
100
AcDbEllipse
10
24.265518
20
-0.502562
30
0
11
0.551385081551861
21
-0.570975966518778
31
0
210
0
220
0
230
1
40
0.989133
41
-1.31446014751733
42
-3.03785315378097E-05
0
ELLIPSE
5
BC
100
AcDbEntity
8
1
62
256
6
ByLayer
370
18
48
1
60
0
100
AcDbEllipse
10
18.908308
20
9.223783
30
0
11
-1.7908292790434
21
1.85445800527294
31
0
210
0
220
0
230
1
40
0.989133
41
-3.0038162004935
42
-2.24944133743374
0
ELLIPSE
5
BD
100
AcDbEntity
8
1
62
256
6
ByLayer
370
18
48
1
60
0
100
AcDbEllipse
10
18.908308
20
9.223783
30
0
11
-1.7908292790434
21
1.85445800527294
31
0
210
0
220
0
230
1
40
0.989133
41
-0.940869540489801
42
-0.137799868405614
0
ELLIPSE
5
BE
100
AcDbEntity
8
1
62
256
6
ByLayer
370
18
48
1
60
0
100
AcDbEllipse
10
18.467535
20
9.561446
30
0
11
-1.8061117631935
21
1.87028348088039
31
0
210
0
220
0
230
1
40
0.989133
41
2.74448457225275
42
-3.14159000674371
0
ELLIPSE
5
BF
100
AcDbEntity
8
1
62
256
6
ByLayer
370
18
48
1
60
0
100
AcDbEllipse
10
19.185151
20
8.727815
30
0
11
-1.8061117631935
21
1.87028348088039
31
0
210
0
220
0
230
1
40
0.989133
41
-4.7231688692239E-06
42
0.352225513563946
0
ELLIPSE
5
C0
100
AcDbEntity
8
1
62
256
6
ByLayer
370
18
48
1
60
0
100
AcDbEllipse
10
19.176721
20
9.454868
30
0
11
1.63244717057873
21
-1.69044853079575
31
0
210
0
220
0
230
1
40
0.989133
41
-2.46373307633754
42
-2.43236429119261
0
ELLIPSE
5
C1
100
AcDbEntity
8
1
62
256
6
ByLayer
370
18
48
1
60
0
100
AcDbEllipse
10
19.02153
20
9.305002
30
0
11
1.63244717057873
21
-1.69044853079575
31
0
210
0
220
0
230
1
40
0.989133
41
-2.93331583617811
42
-2.80215317389973
0
ELLIPSE
5
C2
100
AcDbEntity
8
1
62
256
6
ByLayer
370
18
48
1
60
0
100
AcDbEllipse
10
18.107171
20
8.450134
30
0
11
1.97977635580825
21
-2.05011843096505
31
0
210
0
220
0
230
1
40
0.989133
41
2.42064397661877
42
2.66023033792918
0
ELLIPSE
5
C3
100
AcDbEntity
8
1
62
256
6
ByLayer
370
18
48
1
60
0
100
AcDbEllipse
10
18.107171
20
8.450134
30
0
11
1.97977635580825
21
-2.05011843096505
31
0
210
0
220
0
230
1
40
0.989133
41
0.481384057718429
42
0.705533954082945
0
ELLIPSE
5
C4
100
AcDbEntity
8
1
62
256
6
ByLayer
370
18
48
1
60
0
100
AcDbEllipse
10
19.411993
20
9.710186
30
0
11
-1.7908292790434
21
1.85445800527294
31
0
210
0
220
0
230
1
40
0.989133
41
0
42
6.28318530717959
0
ELLIPSE
5
C5
100
AcDbEntity
8
1
62
256
6
ByLayer
370
18
48
1
60
0
100
AcDbEllipse
10
24.769203
20
-0.016159
30
0
11
0.551385081551861
21
-0.570975966518778
31
0
210
0
220
0
230
1
40
0.989133
41
-1.31446014751735
42
0.779934954875865
0
ELLIPSE
5
C6
100
AcDbEntity
8
1
62
256
6
ByLayer
370
18
48
1
60
0
100
AcDbEllipse
10
25.103276
20
19.122901
30
0
11
0.55138508155186
21
-0.570975966518777
31
0
210
0
220
0
230
1
40
0.989133
41
0.77993495487588
42
2.87433005726907
0
ELLIPSE
5
C7
100
AcDbEntity
8
1
62
256
6
ByLayer
370
18
48
1
60
0
100
AcDbEllipse
10
8.363499
20
10.023816
30
0
11
0.55138508155186
21
-0.570975966518777
31
0
210
0
220
0
230
1
40
0.989133
41
2.87433005726904
42
-1.31446014751731
0
ELLIPSE
5
C8
100
AcDbEntity
8
1
62
256
6
ByLayer
370
18
48
1
60
0
100
AcDbEllipse
10
19.703378
20
9.228261
30
0
11
-1.45878257796398
21
1.51061358071109
31
0
210
0
220
0
230
1
40
0.989133
41
-1.03611347634593
42
0.920467304183086
0
ELLIPSE
5
C9
100
AcDbEntity
8
1
62
256
6
ByLayer
370
18
48
1
60
0
100
AcDbEllipse
10
18.932882
20
10.010826
30
0
11
1.80611176319349
21
-1.8702834808804
31
0
210
0
220
0
230
1
40
0.989133
41
-1.06000911261212
42
0.944362940449306
0
ELLIPSE
5
CA
100
AcDbEntity
8
1
62
256
6
ByLayer
370
18
48
1
60
0
100
AcDbEllipse
10
19.650498
20
9.177195
30
0
11
1.80611176319349
21
-1.8702834808804
31
0
210
0
220
0
230
1
40
0.989133
41
2.08158354097766
42
-2.1972297131405
0
ELLIPSE
5
CB
100
AcDbEntity
8
1
62
256
6
ByLayer
370
18
48
1
60
0
100
AcDbEllipse
10
19.29169
20
9.594011
30
0
11
1.63244717057873
21
-1.69044853079575
31
0
210
0
220
0
230
1
40
0.989133
41
1.1428802505651
42
1.88306623086186
0
ELLIPSE
5
CC
100
AcDbEntity
8
1
62
256
6
ByLayer
370
18
48
1
60
0
100
AcDbEllipse
10
19.29169
20
9.594011
30
0
11
1.63244717057873
21
-1.69044853079575
31
0
210
0
220
0
230
1
40
0.989133
41
-1.9987124030247
42
-1.25852642272794
0
ELLIPSE
5
CD
100
AcDbEntity
8
1
62
256
6
ByLayer
370
18
48
1
60
0
100
AcDbEllipse
10
19.34457
20
9.645077
30
0
11
-1.28511798534922
21
1.33077863062643
31
0
210
0
220
0
230
1
40
0.989133
41
-1.97193319251826
42
-1.28530563323436
0
ELLIPSE
5
CE
100
AcDbEntity
8
1
62
256
6
ByLayer
370
18
48
1
60
0
100
AcDbEllipse
10
19.34457
20
9.645077
30
0
11
-1.28511798534922
21
1.33077863062643
31
0
210
0
220
0
230
1
40
0.989133
41
1.16965946107153
42
1.85628702035542
0
ELLIPSE
5
CF
100
AcDbEntity
8
1
62
256
6
ByLayer
370
18
48
1
60
0
100
AcDbEllipse
10
18.985762
20
10.061892
30
0
11
-1.45878257796398
21
1.51061358071109
31
0
210
0
220
0
230
1
40
0.989133
41
2.10547917724388
42
-2.22112534940671
0
ELLIPSE
5
D0
100
AcDbEntity
8
1
62
256
6
ByLayer
370
18
48
1
60
0
100
AcDbEllipse
10
9.861808
20
1.516016
30
0
11
-1.0801937660638
21
1.11857338952654
31
0
210
0
220
0
230
1
40
0.989133
41
0.767845762510085
42
1.21090316772028
0
ELLIPSE
5
D1
100
AcDbEntity
8
1
62
256
6
ByLayer
370
18
48
1
60
0
100
AcDbEllipse
10
9.861808
20
1.516016
30
0
11
-1.0801937660638
21
1.11857338952654
31
0
210
0
220
0
230
1
40
0.989133
41
2.8622408649033
42
-2.97788703706611
0
ELLIPSE
5
D2
100
AcDbEntity
8
1
62
256
6
ByLayer
370
18
48
1
60
0
100
AcDbEllipse
10
9.861808
20
1.516016
30
0
11
-1.0801937660638
21
1.11857338952654
31
0
210
0
220
0
230
1
40
0.989133
41
-1.32654933988312
42
-0.883491934672916
0
ELLIPSE
5
D3
100
AcDbEntity
8
1
62
256
6
ByLayer
370
18
48
1
60
0
100
AcDbEllipse
10
9.461504
20
1.129447
30
0
11
-1.0801937660638
21
1.11857338952654
31
0
210
0
220
0
230
1
40
0.989133
41
-0.88349193467291
42
-0.279351788686541
0
ELLIPSE
5
D4
100
AcDbEntity
8
1
62
256
6
ByLayer
370
18
48
1
60
0
100
AcDbEllipse
10
9.461504
20
1.129447
30
0
11
-1.0801937660638
21
1.11857338952654
31
0
210
0
220
0
230
1
40
0.989133
41
-2.97788703706612
42
-2.3737468910797
0
ELLIPSE
5
D5
100
AcDbEntity
8
1
62
256
6
ByLayer
370
18
48
1
60
0
100
AcDbEllipse
10
9.861808
20
1.516016
30
0
11
-1.0801937660638
21
1.11857338952654
31
0
210
0
220
0
230
1
40
0.989133
41
-0.279351788686541
42
0.163705616523681
0
ELLIPSE
5
D6
100
AcDbEntity
8
1
62
256
6
ByLayer
370
18
48
1
60
0
100
AcDbEllipse
10
9.861808
20
1.516016
30
0
11
-1.0801937660638
21
1.11857338952654
31
0
210
0
220
0
230
1
40
0.989133
41
-2.3737468910797
42
-1.93068948586953
0
ELLIPSE
5
D7
100
AcDbEntity
8
1
62
256
6
ByLayer
370
18
48
1
60
0
100
AcDbEllipse
10
9.861808
20
1.516016
30
0
11
-1.0801937660638
21
1.11857338952654
31
0
210
0
220
0
230
1
40
0.989133
41
1.81504331370668
42
2.25810071891688
0
ELLIPSE
5
D8
100
AcDbEntity
8
1
62
256
6
ByLayer
370
18
48
1
60
0
100
AcDbEllipse
10
9.884547
20
1.537975
30
0
11
2.24721982843498
21
-2.32706425409542
31
0
210
0
220
0
230
1
40
0.989133
41
0
42
6.28318530717959
0
ELLIPSE
5
D9
100
AcDbEntity
8
1
62
256
6
ByLayer
370
18
48
1
60
0
100
AcDbEllipse
10
9.884547
20
1.537975
30
0
11
1.33887823824448
21
-1.38644900217653
31
0
210
0
220
0
230
1
40
0.989133
41
0
42
6.28318530717959
0
ELLIPSE
5
DA
100
AcDbEntity
8
1
62
256
6
ByLayer
370
18
48
1
60
0
100
AcDbEllipse
10
9.461504
20
1.129447
30
0
11
-1.0801937660638
21
1.11857338952654
31
0
210
0
220
0
230
1
40
0.989133
41
-1.93068948586954
42
-1.32654933988312
0
ELLIPSE
5
DB
100
AcDbEntity
8
1
62
256
6
ByLayer
370
18
48
1
60
0
100
AcDbEllipse
10
9.80364
20
1.459844
30
0
11
2.77863348183614
21
-2.87735920135446
31
0
210
0
220
0
230
1
40
0.989133
41
0
42
6.28318530717959
0
POINT
5
6C
100
AcDbEntity
8
80
62
256
6
ByLayer
370
18
48
1
60
0
100
AcDbPoint
10
0
20
0
30
0
39
0
210
0
220
0
230
1
50
360
0
POINT
5
6E
100
AcDbEntity
8
81
62
256
6
ByLayer
370
18
48
1
60
0
100
AcDbPoint
10
24.542574
20
19.5625
30
0
39
0
210
0
220
0
230
1
50
360
0
POINT
5
70
100
AcDbEntity
8
1
62
256
6
ByLayer
370
18
48
1
60
0
100
AcDbPoint
10
-125.457426
20
-12.4375
30
0
39
0
210
0
220
0
230
1
50
360
0
SPLINE
5
DC
100
AcDbEntity
8
1
62
256
6
ByLayer
370
18
48
1
60
0
100
AcDbSpline
70
4
71
3
72
8
73
4
40
0
40
0
40
0
40
0
40
1
40
1
40
1
40
1
41
1
10
16.8565746155686
20
9.75895996271092
30
0
41
1
10
16.8635383909318
20
9.76568480240942
30
0
41
1
10
16.865417705518
20
9.75980082853846
30
0
41
1
10
16.863713096839
20
9.74372614696821
30
0
0
SPLINE
5
DD
100
AcDbEntity
8
1
62
256
6
ByLayer
370
18
48
1
60
0
100
AcDbSpline
70
4
71
3
72
16
73
12
40
0
40
0
40
0
40
0
40
0.11738772646206
40
0.11738772646206
40
0.293910181169649
40
0.293910181169649
40
0.646955090584824
40
0.646955090584824
40
0.823477545292412
40
0.823477545292412
40
1
40
1
40
1
40
1
41
1
10
18.2624607960009
20
11.3677451218624
30
0
41
1
10
18.2237276202242
20
11.3594376296199
30
0
41
1
10
18.1851325109118
20
11.3501710396131
30
0
41
1
10
18.0888527698177
20
11.3245220356134
30
0
41
1
10
18.0312834417451
20
11.3068625273581
30
0
41
1
10
17.8623856168117
20
11.2480627614464
30
0
41
1
10
17.7538834423256
20
11.2009103528481
30
0
41
1
10
17.5971606446002
20
11.1183699797826
30
0
41
1
10
17.5459292395543
20
11.088879940914
30
0
41
1
10
17.4455207051739
20
11.0258673790345
30
0
41
1
10
17.396136872632
20
10.9921850003012
30
0
41
1
10
17.3484149943057
20
10.9568671472036
30
0
0
SPLINE
5
DE
100
AcDbEntity
8
1
62
256
6
ByLayer
370
18
48
1
60
0
100
AcDbSpline
70
4
71
3
72
12
73
8
40
0
40
0
40
0
40
0
40
0.371808694875233
40
0.371808694875233
40
0.743617389750465
40
0.743617389750465
40
1
40
1
40
1
40
1
41
1
10
17.3484149943058
20
10.9568671472037
30
0
41
1
10
17.3325328877061
20
10.94353539089
30
0
41
1
10
17.3050031929061
20
10.9215846622556
30
0
41
1
10
17.2394773454351
20
10.8677571000017
30
0
41
1
10
17.2008720486681
20
10.8352862857657
30
0
41
1
10
17.133742594777
20
10.7755421519917
30
0
41
1
10
17.1056028080856
20
10.7496346049638
30
0
41
1
10
17.0771428712893
20
10.7223113614998
30
0
0
SPLINE
5
DF
100
AcDbEntity
8
1
62
256
6
ByLayer
370
18
48
1
60
0
100
AcDbSpline
70
4
71
3
72
14
73
10
40
0
40
0
40
0
40
0
40
0.293736524568379
40
0.293736524568379
40
0.587473049136758
40
0.587473049136758
40
0.881209573705137
40
0.881209573705137
40
1
40
1
40
1
40
1
41
1
10
20.4066793441639
20
7.40418065972474
30
0
41
1
10
20.4900892294772
20
7.48704227529362
30
0
41
1
10
20.5673806830334
20
7.57640725573234
30
0
41
1
10
20.7093287971283
20
7.76863211285576
30
0
41
1
10
20.7725827772518
20
7.8697041560157
30
0
41
1
10
20.8829808454171
20
8.0792265613546
30
0
41
1
10
20.9303728611252
20
8.18801738764779
30
0
41
1
10
20.9858827929459
20
8.34656283713304
30
0
41
1
10
21.0006029163757
20
8.39302771961786
30
0
41
1
10
21.013882409748
20
8.43968491824458
30
0
0
SPLINE
5
E0
100
AcDbEntity
8
1
62
256
6
ByLayer
370
18
48
1
60
0
100
AcDbSpline
70
4
71
3
72
8
73
4
40
0
40
0
40
0
40
0
40
1
40
1
40
1
40
1
41
1
10
17.012031782618
20
10.5179070389537
30
0
41
1
10
17.0330043934529
20
10.5540080277942
30
0
41
1
10
17.0551992644246
20
10.5897370120496
30
0
41
1
10
17.0786194672957
20
10.6250376908815
30
0
0
SPLINE
5
E1
100
AcDbEntity
8
1
62
256
6
ByLayer
370
18
48
1
60
0
100
AcDbSpline
70
4
71
3
72
8
73
4
40
0
40
0
40
0
40
0
40
1
40
1
40
1
40
1
41
1
10
17.0929529335359
20
8.82639278357462
30
0
41
1
10
17.272221619549
20
8.88229585172473
30
0
41
1
10
17.4515382693847
20
8.93828629734139
30
0
41
1
10
17.630951737915
20
8.99445405477528
30
0
0
SPLINE
5
E2
100
AcDbEntity
8
1
62
256
6
ByLayer
370
18
48
1
60
0
100
AcDbSpline
70
4
71
3
72
8
73
4
40
0
40
0
40
0
40
0
40
1
40
1
40
1
40
1
41
1
10
20.3813844089847
20
11.6499673258998
30
0
41
1
10
20.3362995219688
20
11.5132317327264
30
0
41
1
10
20.2911034369069
20
11.376446854479
30
0
41
1
10
20.2456816119382
20
11.2395623267491
30
0
0
SPLINE
5
E3
100
AcDbEntity
8
1
62
256
6
ByLayer
370
18
48
1
60
0
100
AcDbSpline
70
4
71
3
72
8
73
4
40
0
40
0
40
0
40
0
40
1
40
1
40
1
40
1
41
1
10
21.0581886136942
20
10.2956992999135
30
0
41
1
10
21.2023766833621
20
10.3178502850777
30
0
41
1
10
21.3464340419147
20
10.3397912288947
30
0
41
1
10
21.4904268128415
20
10.3616287418249
30
0
0
SPLINE
5
E4
100
AcDbEntity
8
1
62
256
6
ByLayer
370
18
48
1
60
0
100
AcDbSpline
70
4
71
3
72
8
73
4
40
0
40
0
40
0
40
0
40
1
40
1
40
1
40
1
41
1
10
18.443458739671
20
8.05059102793967
30
0
41
1
10
18.3628115158398
20
7.8796897279401
30
0
41
1
10
18.282356139495
20
7.70885534789306
30
0
41
1
10
18.2019953373926
20
7.53805419949973
30
0
0
SPLINE
5
E5
100
AcDbEntity
8
1
62
256
6
ByLayer
370
18
48
1
60
0
100
AcDbSpline
70
4
71
3
72
8
73
4
40
0
40
0
40
0
40
0
40
1
40
1
40
1
40
1
41
1
10
17.0786194672957
20
10.6250376908815
30
0
41
1
10
17.1570232859544
20
10.7432137817078
30
0
41
1
10
17.2469155140802
20
10.8541338835408
30
0
41
1
10
17.3484149943058
20
10.9568671472036
30
0
0
SPLINE
5
E6
100
AcDbEntity
8
1
62
256
6
ByLayer
370
18
48
1
60
0
100
AcDbSpline
70
4
71
3
72
8
73
4
40
0
40
0
40
0
40
0
40
1
40
1
40
1
40
1
41
1
10
9.69192811178112
20
-0.0195413398435846
30
0
41
1
10
9.86588262411482
20
-0.0781255890117905
30
0
41
1
10
10.036914064227
20
-0.133304422530472
30
0
41
1
10
10.2061758907885
20
-0.186421634158734
30
0
0
SPLINE
5
E7
100
AcDbEntity
8
1
62
256
6
ByLayer
370
18
48
1
60
0
100
AcDbSpline
70
4
71
3
72
8
73
4
40
0
40
0
40
0
40
0
40
1
40
1
40
1
40
1
41
1
10
10.0316886555157
20
3.051573783929
30
0
41
1
10
9.86262877995375
20
3.11488472888442
30
0
41
1
10
9.70007496422392
20
3.1782503091062
30
0
41
1
10
9.54145988512744
20
3.24164896524962
30
0
0
SPLINE
5
E8
100
AcDbEntity
8
1
62
256
6
ByLayer
370
18
48
1
60
0
100
AcDbSpline
70
4
71
3
72
8
73
4
40
0
40
0
40
0
40
0
40
1
40
1
40
1
40
1
41
1
10
8.44585753834457
20
0.909944981836532
30
0
41
1
10
8.48291523562165
20
0.733815828720907
30
0
41
1
10
8.52081302103562
20
0.564323286390248
30
0
41
1
10
8.55921939167712
20
0.398848515597791
30
0
0
SPLINE
5
E9
100
AcDbEntity
8
1
62
256
6
ByLayer
370
18
48
1
60
0
100
AcDbSpline
70
4
71
3
72
10
73
6
40
0
40
0
40
0
40
0
40
0.5
40
0.5
40
1
40
1
40
1
40
1
41
1
10
11.5207743870694
20
0.942343515788934
30
0
41
1
10
11.5014615799388
20
1.0255532093868
30
0
41
1
10
11.4821671842346
20
1.11028433638009
30
0
41
1
10
11.4442675193924
20
1.28086490690327
30
0
41
1
10
11.425645594876
20
1.36678123490881
30
0
41
1
10
11.4074125337368
20
1.45343998202768
30
0
0
SPLINE
5
EA
100
AcDbEntity
8
1
62
256
6
ByLayer
370
18
48
1
60
0
100
AcDbSpline
70
4
71
3
72
10
73
6
40
0
40
0
40
0
40
0
40
0.5
40
0.5
40
1
40
1
40
1
40
1
41
1
10
8.55921939167712
20
0.398848515597791
30
0
41
1
10
8.6389796600759
20
0.36696823120792
30
0
41
1
10
8.72022085519586
20
0.334910423638178
30
0
41
1
10
8.88383281766397
20
0.271401473597734
30
0
41
1
10
8.96626762809302
20
0.239923470820116
30
0
41
1
10
9.04944816206546
20
0.208773334277168
30
0
0
SPLINE
5
EB
100
AcDbEntity
8
1
62
256
6
ByLayer
370
18
48
1
60
0
100
AcDbSpline
70
4
71
3
72
10
73
6
40
0
40
0
40
0
40
0
40
0.5
40
0.5
40
1
40
1
40
1
40
1
41
1
10
9.54145988512744
20
3.24164896524962
30
0
41
1
10
9.47328520427243
20
3.18282625501354
30
0
41
1
10
9.40470098062627
20
3.12368075237572
30
0
41
1
10
9.26644986280553
20
3.00453641058039
30
0
41
1
10
9.19722054573629
20
2.94491520914639
30
0
41
1
10
9.12856445514302
20
2.88583534982331
30
0
0
SPLINE
5
EC
100
AcDbEntity
8
1
62
256
6
ByLayer
370
18
48
1
60
0
100
AcDbSpline
70
4
71
3
72
10
73
6
40
0
40
0
40
0
40
0
40
0.5
40
0.5
40
1
40
1
40
1
40
1
41
1
10
8.2268613888466
20
2.11288381530198
30
0
41
1
10
8.24082043364746
20
2.02450405351936
30
0
41
1
10
8.25528904846726
20
1.93511272409623
30
0
41
1
10
8.28506332016656
20
1.75668555262413
30
0
41
1
10
8.30037942274595
20
1.66757682948241
30
0
41
1
10
8.31620423356003
20
1.57859246205777
30
0
0
SPLINE
5
ED
100
AcDbEntity
8
1
62
256
6
ByLayer
370
18
48
1
60
0
100
AcDbSpline
70
4
71
3
72
10
73
6
40
0
40
0
40
0
40
0
40
0.5
40
0.5
40
1
40
1
40
1
40
1
41
1
10
10.5950523121539
20
0.146197094262107
30
0
41
1
10
10.5283912407892
20
0.0890892127294762
30
0
41
1
10
10.4620212313732
20
0.0322814742982871
30
0
41
1
10
10.3324263688926
20
-0.0785582332104298
30
0
41
1
10
10.2688410224993
20
-0.132899402317378
30
0
41
1
10
10.2061758907885
20
-0.186421634158734
30
0
0
SPLINE
5
EE
100
AcDbEntity
8
1
62
256
6
ByLayer
370
18
48
1
60
0
100
AcDbSpline
70
4
71
3
72
10
73
6
40
0
40
0
40
0
40
0
40
0.5
40
0.5
40
1
40
1
40
1
40
1
41
1
10
11.1884163842389
20
2.6563788154931
30
0
41
1
10
11.1033023535105
20
2.68308903169825
30
0
41
1
10
11.017235377506
20
2.71048663683814
30
0
41
1
10
10.845498021895
20
2.76614898592965
30
0
41
1
10
10.7597573895288
20
2.79443459357111
30
0
41
1
10
10.6741686052314
20
2.82325910980825
30
0
0
SPLINE
5
EF
100
AcDbEntity
8
1
62
256
6
ByLayer
370
18
48
1
60
0
100
AcDbSpline
70
4
71
3
72
8
73
4
40
0
40
0
40
0
40
0
40
1
40
1
40
1
40
1
41
1
10
11.2777592289523
20
2.12208746224889
30
0
41
1
10
11.245596168447
20
2.30294331115172
30
0
41
1
10
11.2161760074154
20
2.48062260018551
30
0
41
1
10
11.1884163842389
20
2.6563788154931
30
0
0
SPLINE
5
F0
100
AcDbEntity
8
1
62
256
6
ByLayer
370
18
48
1
60
0
100
AcDbSpline
70
4
71
3
72
10
73
6
40
0
40
0
40
0
40
0
40
0.5
40
0.5
40
1
40
1
40
1
40
1
41
1
10
11.5207743870694
20
0.942343515788934
30
0
41
1
10
11.4525997062144
20
0.88352080555282
30
0
41
1
10
11.3840154825682
20
0.824375302915001
30
0
41
1
10
11.2457643647475
20
0.705230961119668
30
0
41
1
10
11.1765350476782
20
0.645609759685669
30
0
41
1
10
11.107878957085
20
0.586529900362592
30
0
0
SPLINE
5
F1
100
AcDbEntity
8
1
62
256
6
ByLayer
370
18
48
1
60
0
100
AcDbSpline
70
4
71
3
72
10
73
6
40
0
40
0
40
0
40
0
40
0.5
40
0.5
40
1
40
1
40
1
40
1
41
1
10
8.6157378102119
20
2.4455025437228
30
0
41
1
10
8.54907673884719
20
2.38839466219017
30
0
41
1
10
8.48270672943119
20
2.33158692375901
30
0
41
1
10
8.35311186695066
20
2.22074721625029
30
0
41
1
10
8.28952652055739
20
2.16640604714331
30
0
41
1
10
8.22686138884654
20
2.11288381530198
30
0
0
LINE
5
72
100
AcDbEntity
8
1
62
256
6
ByLayer
370
18
48
1
60
0
100
AcDbLine
10
12.538219
20
-1.460059
30
0
11
12.582274
21
-1.417515
31
0
39
0
210
0
220
0
230
1
0
LINE
5
73
100
AcDbEntity
8
1
62
256
6
ByLayer
370
18
48
1
60
0
100
AcDbLine
10
7.812114
20
10.594792
30
0
11
7.308429
21
10.108389
31
0
39
0
210
0
220
0
230
1
0
LINE
5
74
100
AcDbEntity
8
1
62
256
6
ByLayer
370
18
48
1
60
0
100
AcDbLine
10
7.025007
20
4.337203
30
0
11
6.980952
21
4.29466
31
0
39
0
210
0
220
0
230
1
0
LINE
5
75
100
AcDbEntity
8
1
62
256
6
ByLayer
370
18
48
1
60
0
100
AcDbLine
10
20.290223
20
7.291399
30
0
11
20.383281
21
7.381263
31
0
39
0
210
0
220
0
230
1
0
LINE
5
76
100
AcDbEntity
8
1
62
256
6
ByLayer
370
18
48
1
60
0
100
AcDbLine
10
17.072692
20
10.718034
30
0
11
17.025329
21
10.672296
31
0
39
0
210
0
220
0
230
1
0
LINE
5
77
100
AcDbEntity
8
1
62
256
6
ByLayer
370
18
48
1
60
0
100
AcDbLine
10
17.844386
20
11.047479
30
0
11
17.379039
21
10.598099
31
0
39
0
210
0
220
0
230
1
0
LINE
5
78
100
AcDbEntity
8
1
62
256
6
ByLayer
370
18
48
1
60
0
100
AcDbLine
10
20.273647
20
7.691163
30
0
11
20.738994
21
8.140543
31
0
39
0
210
0
220
0
230
1
0
LINE
5
79
100
AcDbEntity
8
1
62
256
6
ByLayer
370
18
48
1
60
0
100
AcDbLine
10
24.816903
20
-1.073538
30
0
11
25.320588
21
-0.587135
31
0
39
0
210
0
220
0
230
1
0
LINE
5
7A
100
AcDbEntity
8
SK1
62
256
6
ByLayer
370
18
48
1
60
0
100
AcDbLine
10
-125.457426
20
-12.4375
30
0
11
0
21
-12.4375
31
0
39
0
210
0
220
0
230
1
0
LINE
5
7C
100
AcDbEntity
8
SK1
62
256
6
ByLayer
370
18
48
1
60
0
100
AcDbLine
10
0
20
-12.4375
30
0
11
0
21
12.4375
31
0
39
0
210
0
220
0
230
1
0
LINE
5
7D
100
AcDbEntity
8
SK1
62
256
6
ByLayer
370
18
48
1
60
0
100
AcDbLine
10
-125.457426
20
12.4375
30
0
11
-125.457426
21
-12.4375
31
0
39
0
210
0
220
0
230
1
0
LINE
5
7E
100
AcDbEntity
8
SK1
62
256
6
ByLayer
370
18
48
1
60
0
100
AcDbLine
10
-125.457426
20
12.4375
30
0
11
0
21
12.4375
31
0
39
0
210
0
220
0
230
1
0
LINE
5
7F
100
AcDbEntity
8
1
62
256
6
ByLayer
370
18
48
1
60
0
100
AcDbLine
10
1.545481
20
13.62339
30
0
11
1.959615
21
15.168956
31
0
39
0
210
0
220
0
230
1
0
LINE
5
80
100
AcDbEntity
8
1
62
256
6
ByLayer
370
18
48
1
60
0
100
AcDbLine
10
12.885143
20
13.38434
30
0
11
12.751711
21
13.312571
31
0
39
0
210
0
220
0
230
1
0
LINE
5
81
100
AcDbEntity
8
1
62
256
6
ByLayer
370
18
48
1
60
0
100
AcDbLine
10
2.525071
20
17.279267
30
0
11
1.959615
21
15.168956
31
0
39
0
210
0
220
0
230
1
0
LINE
5
82
100
AcDbEntity
8
1
62
256
6
ByLayer
370
18
48
1
60
0
100
AcDbLine
10
2.70277
20
-12.46152
30
0
11
1.959615
21
15.168956
31
0
39
0
210
0
220
0
230
1
0
LINE
5
83
100
AcDbEntity
8
1
62
256
6
ByLayer
370
18
48
1
60
0
100
AcDbLine
10
1.545481
20
13.62339
30
0
11
1.545481
21
-12.442674
31
0
39
0
210
0
220
0
230
1
0
LINE
5
84
100
AcDbEntity
8
1
62
256
6
ByLayer
370
18
48
1
60
0
100
AcDbLine
10
0
20
-12.4375
30
0
11
0
21
12.4375
31
0
39
0
210
0
220
0
230
1
0
LINE
5
85
100
AcDbEntity
8
1
62
256
6
ByLayer
370
18
48
1
60
0
100
AcDbLine
10
17.661848
20
18.17269
30
0
11
2.525071
21
17.279267
31
0
39
0
210
0
220
0
230
1
0
LINE
5
86
100
AcDbEntity
8
1
62
256
6
ByLayer
370
18
48
1
60
0
100
AcDbLine
10
11.384684
20
12.568753
30
0
11
7.588395
21
13.143937
31
0
39
0
210
0
220
0
230
1
0
LINE
5
87
100
AcDbEntity
8
1
62
256
6
ByLayer
370
18
48
1
60
0
100
AcDbLine
10
18.590969
20
16.485814
30
0
11
17.661848
21
18.17269
31
0
39
0
210
0
220
0
230
1
0
LINE
5
88
100
AcDbEntity
8
1
62
256
6
ByLayer
370
18
48
1
60
0
100
AcDbLine
10
9.10891
20
8.57352
30
0
11
14.691364
21
5.157166
31
0
39
0
210
0
220
0
230
1
0
LINE
5
89
100
AcDbEntity
8
1
62
256
6
ByLayer
370
18
48
1
60
0
100
AcDbLine
10
7.625202
20
13.306953
30
0
11
11.627174
21
12.700606
31
0
39
0
210
0
220
0
230
1
0
LINE
5
8A
100
AcDbEntity
8
1
62
256
6
ByLayer
370
18
48
1
60
0
100
AcDbLine
10
1.545481
20
-12.442674
30
0
11
2.70277
21
-12.46152
31
0
39
0
210
0
220
0
230
1
0
LINE
5
8B
100
AcDbEntity
8
1
62
256
6
ByLayer
370
18
48
1
60
0
100
AcDbLine
10
8.390524
20
13.973344
30
0
11
12.751711
21
13.312571
31
0
39
0
210
0
220
0
230
1
0
LINE
5
8C
100
AcDbEntity
8
1
62
256
6
ByLayer
370
18
48
1
60
0
100
AcDbLine
10
23.640191
20
-7.249098
30
0
11
5.146529
21
-12.460379
31
0
39
0
210
0
220
0
230
1
0
LINE
5
8D
100
AcDbEntity
8
1
62
256
6
ByLayer
370
18
48
1
60
0
100
AcDbLine
10
5.146529
20
-12.460379
30
0
11
2.70277
21
-12.46152
31
0
39
0
210
0
220
0
230
1
0
LINE
5
8E
100
AcDbEntity
8
1
62
256
6
ByLayer
370
18
48
1
60
0
100
AcDbLine
10
23.640191
20
-7.249098
30
0
11
23.759872
21
-0.392587
31
0
39
0
210
0
220
0
230
1
0
LINE
5
8F
100
AcDbEntity
8
1
62
256
6
ByLayer
370
18
48
1
60
0
100
AcDbLine
10
12.7491
20
13.310392
30
0
11
12.751711
21
13.312571
31
0
39
0
210
0
220
0
230
1
0
LINE
5
90
100
AcDbEntity
8
1
62
256
6
ByLayer
370
18
48
1
60
0
100
AcDbLine
10
19.612459
20
2.14555
30
0
11
23.759872
21
-0.392587
31
0
39
0
210
0
220
0
230
1
0
LINE
5
91
100
AcDbEntity
8
1
62
256
6
ByLayer
370
18
48
1
60
0
100
AcDbLine
10
8.390524
20
13.973344
30
0
11
7.625202
21
13.306953
31
0
39
0
210
0
220
0
230
1
0
LINE
5
92
100
AcDbEntity
8
1
62
256
6
ByLayer
370
18
48
1
60
0
100
AcDbLine
10
15.370934
20
4.567212
30
0
11
18.779243
21
2.481392
31
0
39
0
210
0
220
0
230
1
0
LINE
5
93
100
AcDbEntity
8
1
62
256
6
ByLayer
370
18
48
1
60
0
100
AcDbLine
10
9.10891
20
8.57352
30
0
11
7.661551
21
8.792813
31
0
39
0
210
0
220
0
230
1
0
LINE
5
94
100
AcDbEntity
8
1
62
256
6
ByLayer
370
18
48
1
60
0
100
AcDbLine
10
10.747243
20
0.238267
30
0
11
11.107879
21
0.58653
31
0
39
0
210
0
220
0
230
1
0
LINE
5
95
100
AcDbEntity
8
1
62
256
6
ByLayer
370
18
48
1
60
0
100
AcDbLine
10
11.007109
20
1.066871
30
0
11
11.101452
21
0.580325
31
0
39
0
210
0
220
0
230
1
0
LINE
5
96
100
AcDbEntity
8
1
62
256
6
ByLayer
370
18
48
1
60
0
100
AcDbLine
10
23.858997
20
-1.174899
30
0
11
23.747234
21
-1.106501
31
0
39
0
210
0
220
0
230
1
0
LINE
5
97
100
AcDbEntity
8
1
62
256
6
ByLayer
370
18
48
1
60
0
100
AcDbLine
10
7.53481
20
8.81519
30
0
11
7.453294
21
8.865076
31
0
39
0
210
0
220
0
230
1
0
LINE
5
98
100
AcDbEntity
8
1
62
256
6
ByLayer
370
18
48
1
60
0
100
AcDbLine
10
17.092953
20
8.826393
30
0
11
17.036563
21
8.771937
31
0
39
0
210
0
220
0
230
1
0
LINE
5
99
100
AcDbEntity
8
1
62
256
6
ByLayer
370
18
48
1
60
0
100
AcDbLine
10
18.152605
20
7.490359
30
0
11
18.201995
21
7.538054
31
0
39
0
210
0
220
0
230
1
0
LINE
5
9A
100
AcDbEntity
8
1
62
256
6
ByLayer
370
18
48
1
60
0
100
AcDbLine
10
16.848483
20
9.751146
30
0
11
16.856575
21
9.75896
31
0
39
0
210
0
220
0
230
1
0
LINE
5
9B
100
AcDbEntity
8
80
62
256
6
ByLayer
370
18
48
1
60
0
100
AcDbLine
10
0
20
0
30
0
11
-5
21
0
31
0
39
0
210
0
220
0
230
1
0
LINE
5
9C
100
AcDbEntity
8
81
62
256
6
ByLayer
370
18
48
1
60
0
100
AcDbLine
10
24.542574
20
19.5625
30
0
11
34.542574
21
19.5625
31
0
39
0
210
0
220
0
230
1
0
LINE
5
9D
100
AcDbEntity
8
1
62
256
6
ByLayer
370
18
48
1
60
0
100
AcDbLine
10
24.362682
20
-0.688496
30
0
11
7.956979
21
9.351479
31
0
39
0
210
0
220
0
230
1
0
LINE
5
9E
100
AcDbEntity
8
1
62
256
6
ByLayer
370
18
48
1
60
0
100
AcDbLine
10
7.453294
20
8.865076
30
0
11
7.956979
21
9.351479
31
0
39
0
210
0
220
0
230
1
0
LINE
5
9F
100
AcDbEntity
8
1
62
256
6
ByLayer
370
18
48
1
60
0
100
AcDbLine
10
7.980841
20
10.718555
30
0
11
24.720618
21
19.81764
31
0
39
0
210
0
220
0
230
1
0
LINE
5
A0
100
AcDbEntity
8
1
62
256
6
ByLayer
370
18
48
1
60
0
100
AcDbLine
10
23.858997
20
-1.174899
30
0
11
24.362682
21
-0.688496
31
0
39
0
210
0
220
0
230
1
0
LINE
5
A1
100
AcDbEntity
8
1
62
256
6
ByLayer
370
18
48
1
60
0
100
AcDbLine
10
25.892454
20
19.100498
30
0
11
25.558381
21
-0.038561
31
0
39
0
210
0
220
0
230
1
0
LINE
5
A2
100
AcDbEntity
8
1
62
256
6
ByLayer
370
18
48
1
60
0
100
AcDbLine
10
10.031689
20
3.051574
30
0
11
9.631385
21
2.665005
31
0
39
0
210
0
220
0
230
1
0
LINE
5
A3
100
AcDbEntity
8
1
62
256
6
ByLayer
370
18
48
1
60
0
100
AcDbLine
10
11.277759
20
2.122087
30
0
11
10.877455
21
1.735518
31
0
39
0
210
0
220
0
230
1
0
LINE
5
A4
100
AcDbEntity
8
1
62
256
6
ByLayer
370
18
48
1
60
0
100
AcDbLine
10
10.776103
20
2.258212
30
0
11
10.877455
21
1.735518
31
0
39
0
210
0
220
0
230
1
0
LINE
5
A5
100
AcDbEntity
8
1
62
256
6
ByLayer
370
18
48
1
60
0
100
AcDbLine
10
8.728261
20
2.499266
30
0
11
9.129146
21
2.843483
31
0
39
0
210
0
220
0
230
1
0
LINE
5
A6
100
AcDbEntity
8
1
62
256
6
ByLayer
370
18
48
1
60
0
100
AcDbLine
10
9.54146
20
3.241649
30
0
11
9.129146
21
2.843483
31
0
39
0
210
0
220
0
230
1
0
LINE
5
A7
100
AcDbEntity
8
1
62
256
6
ByLayer
370
18
48
1
60
0
100
AcDbLine
10
11.007109
20
1.066871
30
0
11
11.407413
21
1.45344
31
0
39
0
210
0
220
0
230
1
0
LINE
5
A8
100
AcDbEntity
8
1
62
256
6
ByLayer
370
18
48
1
60
0
100
AcDbLine
10
9.129146
20
2.843483
30
0
11
9.631385
21
2.665005
31
0
39
0
210
0
220
0
230
1
0
LINE
5
A9
100
AcDbEntity
8
1
62
256
6
ByLayer
370
18
48
1
60
0
100
AcDbLine
10
8.728261
20
2.499266
30
0
11
9.128564
21
2.885835
31
0
39
0
210
0
220
0
230
1
0
LINE
5
AA
100
AcDbEntity
8
1
62
256
6
ByLayer
370
18
48
1
60
0
100
AcDbLine
10
10.273865
20
2.43669
30
0
11
10.776103
21
2.258212
31
0
39
0
210
0
220
0
230
1
0
LINE
5
AB
100
AcDbEntity
8
1
62
256
6
ByLayer
370
18
48
1
60
0
100
AcDbLine
10
8.615738
20
2.445503
30
0
11
8.215434
21
2.058934
31
0
39
0
210
0
220
0
230
1
0
LINE
5
AC
100
AcDbEntity
8
1
62
256
6
ByLayer
370
18
48
1
60
0
100
AcDbLine
10
10.273865
20
2.43669
30
0
11
10.674169
21
2.823259
31
0
39
0
210
0
220
0
230
1
0
LINE
5
AD
100
AcDbEntity
8
1
62
256
6
ByLayer
370
18
48
1
60
0
100
AcDbLine
10
11.188416
20
2.656379
30
0
11
10.776103
21
2.258212
31
0
39
0
210
0
220
0
230
1
0
MTEXT
5
F2
100
AcDbEntity
8
SK6
62
256
6
ByLayer
370
13
48
1
60
0
100
AcDbMText
10
-97.410559
20
-37.499425
30
0
210
0
220
0
230
1
1
\W0.7859;PTFNR 2525M 22
40
3.5
41
0
44
1.084337
50
0
71
7
72
5
7
iso_b_vert
0
DIMENSION
5
104
100
AcDbEntity
8
SK2
62
256
6
ByLayer
370
13
48
1
60
0
100
AcDbDimension
2
DimnDraft3D1
10
-135.207426
20
-12.4375
30
0
11
-135.207426
21
0.0625
31
0
70
32
71
5
72
1
41
1
210
0
220
0
230
1
3
Standard
100
AcDbAlignedDimension
13
-127.044926
23
12.5625
33
0
14
-127.044926
24
-12.4375
34
0
50
90
100
AcDbRotatedDimension
1001
ACAD
1000
DSTYLE
1002
{
1070
    74
1070
     0
1070
   279
1070
     0
1070
   172
1070
     1
1070
   173
1070
     1
1070
   340
1005
F3
1070
   271
1070
     1
1070
   272
1070
     2
1070
    77
1070
     1
1070
    73
1070
     0
1070
   171
1070
     3
1070
   274
1070
     4
1070
   177
1070
   150
1070
   176
1070
     9
1070
   178
1070
    43
1070
    78
1070
     8
1070
    48
1040
-0.005
1070
    41
1041
3.175
1070
   147
1041
2.25
1070
    42
1041
1.5875
1070
    44
1041
3.175
1070
   140
1041
4.5
1070
   343
1005
105
1070
   344
1005
105
1002
}
0
DIMENSION
5
11A
100
AcDbEntity
8
2
62
256
6
ByLayer
370
13
48
1
60
0
100
AcDbDimension
2
DimnDraft3D2
10
57.392574
20
19.9125
30
0
11
57.392574
21
3.7375
31
0
70
32
71
5
72
1
41
1
210
0
220
0
230
1
3
Standard
100
AcDbAlignedDimension
13
1.5875
23
-12.4375
33
0
14
27.480074
24
19.9125
34
0
50
90
100
AcDbRotatedDimension
1001
ACAD
1000
DSTYLE
1002
{
1070
    74
1070
     0
1070
   279
1070
     0
1070
   172
1070
     1
1070
   173
1070
     1
1070
   340
1005
F3
1070
   271
1070
     1
1070
   272
1070
     2
1070
    77
1070
     1
1070
    73
1070
     0
1070
   171
1070
     3
1070
   274
1070
     4
1070
   177
1070
   150
1070
   176
1070
     9
1070
   178
1070
    43
1070
    78
1070
     8
1070
    48
1040
-0.005
1070
    41
1041
3.175
1070
   147
1041
2.25
1070
    42
1041
1.5875
1070
    44
1041
3.175
1070
   140
1041
4.5
1070
   343
1005
105
1070
   344
1005
105
1002
}
0
DIMENSION
5
128
100
AcDbEntity
8
SK2
62
256
6
ByLayer
370
13
48
1
60
0
100
AcDbDimension
2
DimnDraft3D3
10
25.892574
20
27.4125
30
0
11
-49.782426
21
27.4125
31
0
70
32
71
5
72
1
41
1
210
0
220
0
230
1
3
Standard
100
AcDbAlignedDimension
13
-125.457426
23
14.15
33
0
14
25.892574
24
21.5
34
0
50
0
100
AcDbRotatedDimension
1001
ACAD
1000
DSTYLE
1002
{
1070
   279
1070
     0
1070
   172
1070
     1
1070
   173
1070
     1
1070
   340
1005
F3
1070
   271
1070
     1
1070
   272
1070
     2
1070
    77
1070
     1
1070
    73
1070
     0
1070
   171
1070
     3
1070
   274
1070
     4
1070
   177
1070
   150
1070
   176
1070
     9
1070
   178
1070
    43
1070
    78
1070
     8
1070
    48
1040
-0.005
1070
    41
1041
3.175
1070
   147
1041
2.25
1070
    42
1041
1.5875
1070
    44
1041
3.175
1070
   140
1041
4.5
1070
   343
1005
105
1070
   344
1005
105
1002
}
0
DIMENSION
5
135
100
AcDbEntity
8
2
62
256
6
ByLayer
370
13
48
1
60
0
100
AcDbDimension
2
DimnDraft3D4
10
24.305074
20
19.9125
30
0
11
33.82951
21
11.850038
31
0
70
34
71
5
72
1
41
1
210
0
220
0
230
1
3
Standard
100
AcDb2LineAngularDimension
13
25.892454
23
19.104897
33
0
14
25.508501
24
-2.891752
34
0
15
25.892574
25
19.9125
35
0
16
36.983601
26
8.640411
36
0
40
0
0
ENDSEC
0
SECTION
2
OBJECTS
0
DICTIONARY
5
19f
330
0
100
AcDbDictionary
280
0
281
1
3
ACAD_GROUP
350
1a0
3
ACAD_MLINESTYLE
350
1a1
0
DICTIONARY
5
1a0
330
0
100
AcDbDictionary
280
0
281
1
0
DICTIONARY
5
1a1
330
0
100
AcDbDictionary
280
0
281
1
3
Standard
350
18
0
MLINESTYLE
5
18
330
1a1
100
AcDbMlineStyle
2
Standard
70
0
3

62
256
51
90
52
90
71
2
49
-0.5
62
256
6
ByLayer
49
0.5
62
256
6
ByLayer
0
RASTERVARIABLES
5
18e
330

100
AcDbRasterVariables
90
0
70
1
71
1
72
1
0
ENDSEC
0
EOF
