0
SECTION
2
HEADER
9
$ACADVER
1
AC1015
9
$DWGCODEPAGE
3
ANSI_1252
9
$HANDSEED
5
1a2
9
$ANGBASE
50
0
9
$ANGDIR
70
0
9
$ATTMODE
70
1
9
$AUNITS
70
0
9
$AUPREC
70
0
9
$CECOLOR
62
256
9
$CELTSCALE
40
1
9
$CELTYPE
6
ByLayer
9
$CELWEIGHT
370
18
9
$CLAYER
8
0
9
$CMLJUST
70
0
9
$CMLSCALE
40
1
9
$CMLSTYLE
2
Standard
9
$DIMSTYLE
2
Standard
9
$TEXTSIZE
40
0.2
9
$TEXTSTYLE
7
Standard
9
$LUNITS
70
2
9
$LUPREC
70
4
9
$EXTNAMES
290
1
9
$INSUNITS
70
4
9
$LTSCALE
40
1
9
$LWDISPLAY
290
1
9
$PDMODE
70
0
9
$PDSIZE
40
0
9
$PLINEGEN
70
0
0
ENDSEC
0
SECTION
2
CLASSES
0
CLASS
1
RASTERVARIABLES
2
AcDbRasterVariables
3
ISM
90
0
280
0
281
0
0
ENDSEC
0
SECTION
2
TABLES
0
TABLE
2
VPORT
5
198
100
AcDbSymbolTable
0
VPORT
5
1
100
AcDbSymbolTableRecord
100
AcDbViewportTableRecord
2
*Active
70
0
10
0
20
0
11
1
21
1
12
-1
22
1
13
0
23
0
14
0.5
24
0.5
15
10
25
10
16
0
26
0
36
1
17
0
27
0
37
0
0
ENDTAB
0
TABLE
2
LTYPE
5
199
100
AcDbSymbolTable
0
LTYPE
5
14
100
AcDbSymbolTableRecord
100
AcDbLinetypeTableRecord
70
0
2
ByBlock
3

72
65
73
0
40
0
0
LTYPE
5
15
100
AcDbSymbolTableRecord
100
AcDbLinetypeTableRecord
70
0
2
ByLayer
3

72
65
73
0
40
0
0
LTYPE
5
16
100
AcDbSymbolTableRecord
100
AcDbLinetypeTableRecord
70
0
2
CONTINUOUS
3
Solid line
72
65
73
0
40
0
0
LTYPE
5
6A
100
AcDbSymbolTableRecord
100
AcDbLinetypeTableRecord
70
0
2
CENTER
3
____ _ ____ _ ____ _ ____
72
65
73
4
40
47.5
49
22
74
0
49
-8.5
74
0
49
8.5
74
0
49
-8.5
74
0
0
LTYPE
5
6B
100
AcDbSymbolTableRecord
100
AcDbLinetypeTableRecord
70
0
2
DASHED
3
__ __ __ __ __ __ __ __ __
72
65
73
2
40
25.72
49
12.86
74
0
49
-12.86
74
0
0
ENDTAB
0
TABLE
2
LAYER
5
19a
100
AcDbSymbolTable
0
LAYER
5
10
100
AcDbSymbolTableRecord
100
AcDbLayerTableRecord
2
0
70
0
62
7
6
CONTINUOUS
290
1
370
-3
390
0
0
LAYER
5
6D
100
AcDbSymbolTableRecord
100
AcDbLayerTableRecord
2
80
70
0
62
-6
6
CONTINUOUS
290
1
370
-3
390
0
0
LAYER
5
6F
100
AcDbSymbolTableRecord
100
AcDbLayerTableRecord
2
81
70
0
62
-3
6
CONTINUOUS
290
1
370
-3
390
0
0
LAYER
5
71
100
AcDbSymbolTableRecord
100
AcDbLayerTableRecord
2
1
70
0
62
4
6
CONTINUOUS
290
1
370
-3
390
0
0
LAYER
5
104
100
AcDbSymbolTableRecord
100
AcDbLayerTableRecord
2
2
70
0
62
7
6
CONTINUOUS
290
1
370
-3
390
0
0
LAYER
5
185
100
AcDbSymbolTableRecord
100
AcDbLayerTableRecord
2
SK1
70
0
62
4
6
CONTINUOUS
290
1
370
-3
390
0
0
LAYER
5
186
100
AcDbSymbolTableRecord
100
AcDbLayerTableRecord
2
SK6
70
0
62
5
6
CONTINUOUS
290
1
370
-3
390
0
0
LAYER
5
187
100
AcDbSymbolTableRecord
100
AcDbLayerTableRecord
2
SK2
70
0
62
7
6
CONTINUOUS
290
1
370
-3
390
0
0
ENDTAB
0
TABLE
2
STYLE
5
19b
100
AcDbSymbolTable
0
STYLE
5
11
100
AcDbSymbolTableRecord
100
AcDbTextStyleTableRecord
2
Standard
3
txt
70
0
71
0
40
0
41
1
42
0
50
0
0
STYLE
5
E9
100
AcDbSymbolTableRecord
100
AcDbTextStyleTableRecord
2
iso_b_vert
3
simplex.shx
70
0
71
0
40
0
41
1
42
0
50
0
0
STYLE
5
EA
100
AcDbSymbolTableRecord
100
AcDbTextStyleTableRecord
2
DWGDirectTextStyle
3
simplex
70
0
71
0
40
0
41
1
42
0
50
0
0
ENDTAB
0
TABLE
2
DIMSTYLE
5
19c
100
AcDbSymbolTable
100
AcDbDimStyleTable
0
DIMSTYLE
105
27
100
AcDbSymbolTableRecord
100
AcDbDimStyleTableRecord
2
Standard
70
0
3
<>
41
0.18
42
0.0625
44
0.18
140
0.18
147
0.09
73
0
74
0
77
1
271
2
275
0
278
52
280
0
340
11
0
ENDTAB
0
TABLE
2
VIEW
5
19d
100
AcDbSymbolTable
0
ENDTAB
0
TABLE
2
UCS
5
19e
100
AcDbSymbolTable
0
ENDTAB
0
TABLE
2
APPID
5
19f
100
AcDbSymbolTable
0
APPID
5
12
100
AcDbSymbolTableRecord
100
AcDbRegAppTableRecord
2
ACAD
70
0
0
ENDTAB
0
TABLE
2
BLOCK_RECORD
5
1a0
100
AcDbSymbolTable
0
BLOCK_RECORD
5
1F
100
AcDbSymbolTableRecord
100
AcDbBlockTableRecord
2
*Model_Space
340
0
70
0
0
BLOCK_RECORD
5
1B
100
AcDbSymbolTableRecord
100
AcDbBlockTableRecord
2
*Paper_Space
340
0
70
0
0
BLOCK_RECORD
5
23
100
AcDbSymbolTableRecord
100
AcDbBlockTableRecord
2
*Paper_Space0
340
0
70
0
0
BLOCK_RECORD
5
EC
100
AcDbSymbolTableRecord
100
AcDbBlockTableRecord
2
DimnDraft3D1
340
0
70
0
0
BLOCK_RECORD
5
FB
100
AcDbSymbolTableRecord
100
AcDbBlockTableRecord
2
_CLOSED
340
0
70
0
0
BLOCK_RECORD
5
102
100
AcDbSymbolTableRecord
100
AcDbBlockTableRecord
2
DimnDraft3D2
340
0
70
0
0
BLOCK_RECORD
5
111
100
AcDbSymbolTableRecord
100
AcDbBlockTableRecord
2
DimnDraft3D3
340
0
70
0
0
BLOCK_RECORD
5
11F
100
AcDbSymbolTableRecord
100
AcDbBlockTableRecord
2
DimnDraft3D4
340
0
70
0
0
ENDTAB
0
ENDSEC
0
SECTION
2
BLOCKS
0
BLOCK
5
20
100
AcDbEntity
8
0
100
AcDbBlockBegin
2
*Model_Space
70
0
10
0
20
0
30
0
3
*Model_Space
0
ENDBLK
5
21
100
AcDbEntity
8
0
100
AcDbBlockEnd
0
BLOCK
5
1C
100
AcDbEntity
8
0
100
AcDbBlockBegin
2
*Paper_Space
70
0
10
0
20
0
30
0
3
*Paper_Space
0
ENDBLK
5
1D
100
AcDbEntity
8
0
100
AcDbBlockEnd
0
BLOCK
5
24
100
AcDbEntity
8
0
100
AcDbBlockBegin
2
*Paper_Space0
70
0
10
0
20
0
30
0
3
*Paper_Space0
0
ENDBLK
5
25
100
AcDbEntity
8
0
100
AcDbBlockEnd
0
BLOCK
5
F8
100
AcDbEntity
8
0
100
AcDbBlockBegin
2
DimnDraft3D1
70
0
10
0
20
0
30
0
3
DimnDraft3D1
0
MTEXT
5
ED
100
AcDbEntity
8
SK2
62
256
6
ByLayer
370
13
48
1
60
0
100
AcDbMText
10
-226.810622
20
-1.875
30
0
210
0
220
0
230
1
1
\W0.7361;40
40
4.5
41
0
44
1.084337
50
90
71
7
72
5
7
iso_b_vert
0
LINE
5
EF
100
AcDbEntity
8
SK2
62
256
6
ByLayer
370
13
48
1
60
0
100
AcDbLine
10
-217.523122
20
-20.075
30
0
11
-228.860622
21
-20.075
31
0
39
0
210
0
220
0
230
1
0
LINE
5
F0
100
AcDbEntity
8
SK2
62
256
6
ByLayer
370
13
48
1
60
0
100
AcDbLine
10
-217.523122
20
19.925
30
0
11
-228.860622
21
19.925
31
0
39
0
210
0
220
0
230
1
0
LINE
5
F1
100
AcDbEntity
8
SK2
62
256
6
ByLayer
370
13
48
1
60
0
100
AcDbLine
10
-225.685622
20
-20.075
30
0
11
-225.685622
21
19.925
31
0
39
0
210
0
220
0
230
1
0
LINE
5
F2
100
AcDbEntity
8
SK2
62
256
6
ByLayer
370
13
48
1
60
0
100
AcDbLine
10
-225.685622
20
-20.075
30
0
11
-226.536361
21
-16.900003
31
0
39
0
210
0
220
0
230
1
0
LINE
5
F3
100
AcDbEntity
8
SK2
62
256
6
ByLayer
370
13
48
1
60
0
100
AcDbLine
10
-225.685622
20
-20.075
30
0
11
-224.834884
21
-16.899997
31
0
39
0
210
0
220
0
230
1
0
LINE
5
F4
100
AcDbEntity
8
SK2
62
256
6
ByLayer
370
13
48
1
60
0
100
AcDbLine
10
-226.536361
20
-16.900003
30
0
11
-224.834884
21
-16.899997
31
0
39
0
210
0
220
0
230
1
0
LINE
5
F5
100
AcDbEntity
8
SK2
62
256
6
ByLayer
370
13
48
1
60
0
100
AcDbLine
10
-225.685622
20
19.925
30
0
11
-224.834884
21
16.750003
31
0
39
0
210
0
220
0
230
1
0
LINE
5
F6
100
AcDbEntity
8
SK2
62
256
6
ByLayer
370
13
48
1
60
0
100
AcDbLine
10
-225.685622
20
19.925
30
0
11
-226.536361
21
16.749997
31
0
39
0
210
0
220
0
230
1
0
LINE
5
F7
100
AcDbEntity
8
SK2
62
256
6
ByLayer
370
13
48
1
60
0
100
AcDbLine
10
-224.834884
20
16.750003
30
0
11
-226.536361
21
16.749997
31
0
39
0
210
0
220
0
230
1
0
ENDBLK
5
F9
100
AcDbEntity
8
0
100
AcDbBlockEnd
0
BLOCK
5
FC
100
AcDbEntity
8
0
100
AcDbBlockBegin
2
_CLOSED
70
0
10
0
20
0
30
0
3
_CLOSED
0
LINE
5
FE
100
AcDbEntity
8
0
62
256
6
ByLayer
370
-2
48
1
60
0
100
AcDbLine
10
-1
20
0.166667
30
0
11
0
21
0
31
0
39
0
210
0
220
0
230
1
0
LINE
5
FF
100
AcDbEntity
8
0
62
256
6
ByLayer
370
-2
48
1
60
0
100
AcDbLine
10
0
20
0
30
0
11
-1
21
-0.166667
31
0
39
0
210
0
220
0
230
1
0
LINE
5
100
100
AcDbEntity
8
0
62
256
6
ByLayer
370
-2
48
1
60
0
100
AcDbLine
10
-1
20
0.166667
30
0
11
-1
21
-0.166667
31
0
39
0
210
0
220
0
230
1
0
LINE
5
101
100
AcDbEntity
8
0
62
256
6
ByLayer
370
-2
48
1
60
0
100
AcDbLine
10
0
20
0
30
0
11
-1
21
0
31
0
39
0
210
0
220
0
230
1
0
ENDBLK
5
FD
100
AcDbEntity
8
0
100
AcDbBlockEnd
0
BLOCK
5
10E
100
AcDbEntity
8
0
100
AcDbBlockBegin
2
DimnDraft3D2
70
0
10
0
20
0
30
0
3
DimnDraft3D2
0
MTEXT
5
103
100
AcDbEntity
8
2
62
256
6
ByLayer
370
13
48
1
60
0
100
AcDbMText
10
65.789378
20
-6.813158
30
0
210
0
220
0
230
1
1
\W0.6740;50
40
4.5
41
0
44
1.084337
50
90
71
7
72
5
7
iso_b_vert
0
LINE
5
105
100
AcDbEntity
8
2
62
256
6
ByLayer
370
13
48
1
60
0
100
AcDbLine
10
37.001878
20
-30.425
30
0
11
70.089378
21
-30.425
31
0
39
0
210
0
220
0
230
1
0
LINE
5
106
100
AcDbEntity
8
2
62
256
6
ByLayer
370
13
48
1
60
0
100
AcDbLine
10
1.5875
20
19.925
30
0
11
70.089378
21
19.925
31
0
39
0
210
0
220
0
230
1
0
LINE
5
107
100
AcDbEntity
8
2
62
256
6
ByLayer
370
13
48
1
60
0
100
AcDbLine
10
66.914378
20
-30.425
30
0
11
66.914378
21
19.925
31
0
39
0
210
0
220
0
230
1
0
LINE
5
108
100
AcDbEntity
8
2
62
256
6
ByLayer
370
13
48
1
60
0
100
AcDbLine
10
66.914378
20
-30.425
30
0
11
66.063639
21
-27.250003
31
0
39
0
210
0
220
0
230
1
0
LINE
5
109
100
AcDbEntity
8
2
62
256
6
ByLayer
370
13
48
1
60
0
100
AcDbLine
10
66.914378
20
-30.425
30
0
11
67.765116
21
-27.249997
31
0
39
0
210
0
220
0
230
1
0
LINE
5
10A
100
AcDbEntity
8
2
62
256
6
ByLayer
370
13
48
1
60
0
100
AcDbLine
10
66.063639
20
-27.250003
30
0
11
67.765116
21
-27.249997
31
0
39
0
210
0
220
0
230
1
0
LINE
5
10B
100
AcDbEntity
8
2
62
256
6
ByLayer
370
13
48
1
60
0
100
AcDbLine
10
66.914378
20
19.925
30
0
11
67.765116
21
16.750003
31
0
39
0
210
0
220
0
230
1
0
LINE
5
10C
100
AcDbEntity
8
2
62
256
6
ByLayer
370
13
48
1
60
0
100
AcDbLine
10
66.914378
20
19.925
30
0
11
66.063639
21
16.749997
31
0
39
0
210
0
220
0
230
1
0
LINE
5
10D
100
AcDbEntity
8
2
62
256
6
ByLayer
370
13
48
1
60
0
100
AcDbLine
10
67.765116
20
16.750003
30
0
11
66.063639
21
16.749997
31
0
39
0
210
0
220
0
230
1
0
ENDBLK
5
10F
100
AcDbEntity
8
0
100
AcDbBlockEnd
0
BLOCK
5
11C
100
AcDbEntity
8
0
100
AcDbBlockBegin
2
DimnDraft3D3
70
0
10
0
20
0
30
0
3
DimnDraft3D3
0
MTEXT
5
112
100
AcDbEntity
8
SK2
62
256
6
ByLayer
370
13
48
1
60
0
100
AcDbMText
10
-93.505359
20
-45.8
30
0
210
0
220
0
230
1
1
\W0.7138;250
40
4.5
41
0
44
1.084337
50
0
71
7
72
5
7
iso_b_vert
0
LINE
5
113
100
AcDbEntity
8
SK2
62
256
6
ByLayer
370
13
48
1
60
0
100
AcDbLine
10
-215.935622
20
-21.6625
30
0
11
-215.935622
21
-50.1
31
0
39
0
210
0
220
0
230
1
0
LINE
5
114
100
AcDbEntity
8
SK2
62
256
6
ByLayer
370
13
48
1
60
0
100
AcDbLine
10
35.414378
20
-32.0125
30
0
11
35.414378
21
-50.1
31
0
39
0
210
0
220
0
230
1
0
LINE
5
115
100
AcDbEntity
8
SK2
62
256
6
ByLayer
370
13
48
1
60
0
100
AcDbLine
10
-215.935622
20
-46.925
30
0
11
35.414378
21
-46.925
31
0
39
0
210
0
220
0
230
1
0
LINE
5
116
100
AcDbEntity
8
SK2
62
256
6
ByLayer
370
13
48
1
60
0
100
AcDbLine
10
-215.935622
20
-46.925
30
0
11
-212.760625
21
-46.074261
31
0
39
0
210
0
220
0
230
1
0
LINE
5
117
100
AcDbEntity
8
SK2
62
256
6
ByLayer
370
13
48
1
60
0
100
AcDbLine
10
-215.935622
20
-46.925
30
0
11
-212.760619
21
-47.775739
31
0
39
0
210
0
220
0
230
1
0
LINE
5
118
100
AcDbEntity
8
SK2
62
256
6
ByLayer
370
13
48
1
60
0
100
AcDbLine
10
-212.760625
20
-46.074261
30
0
11
-212.760619
21
-47.775739
31
0
39
0
210
0
220
0
230
1
0
LINE
5
119
100
AcDbEntity
8
SK2
62
256
6
ByLayer
370
13
48
1
60
0
100
AcDbLine
10
35.414378
20
-46.925
30
0
11
32.239381
21
-47.775739
31
0
39
0
210
0
220
0
230
1
0
LINE
5
11A
100
AcDbEntity
8
SK2
62
256
6
ByLayer
370
13
48
1
60
0
100
AcDbLine
10
35.414378
20
-46.925
30
0
11
32.239375
21
-46.074261
31
0
39
0
210
0
220
0
230
1
0
LINE
5
11B
100
AcDbEntity
8
SK2
62
256
6
ByLayer
370
13
48
1
60
0
100
AcDbLine
10
32.239381
20
-47.775739
30
0
11
32.239375
21
-46.074261
31
0
39
0
210
0
220
0
230
1
0
ENDBLK
5
11D
100
AcDbEntity
8
0
100
AcDbBlockEnd
0
BLOCK
5
129
100
AcDbEntity
8
0
100
AcDbBlockBegin
2
DimnDraft3D4
70
0
10
0
20
0
30
0
3
DimnDraft3D4
0
MTEXT
5
120
100
AcDbEntity
8
2
62
256
6
ByLayer
370
13
48
1
60
0
100
AcDbMText
10
37.490357
20
-21.334904
30
0
210
0
220
0
230
1
1
\W0.7582;91%%d0'
40
4.5
41
0
44
1.084337
50
315.5
71
7
72
5
7
iso_b_vert
0
LINE
5
121
100
AcDbEntity
8
2
62
256
6
ByLayer
370
13
48
1
60
0
100
AcDbLine
10
37.001878
20
-30.425
30
0
11
45.409236
21
-30.425
31
0
39
0
210
0
220
0
230
1
0
ARC
5
122
100
AcDbEntity
8
2
62
256
6
ByLayer
370
13
48
1
60
0
100
AcDbCircle
39
0
10
35.435342
20
-30.425
30
0
40
6.79889457623561
210
0
220
0
230
1
100
AcDbArc
50
301.146507
51
149.853493
0
LINE
5
123
100
AcDbEntity
8
2
62
256
6
ByLayer
370
13
48
1
60
0
100
AcDbLine
10
42.234236
20
-30.425
30
0
11
42.716036
21
-33.676497
31
0
39
0
210
0
220
0
230
1
0
LINE
5
124
100
AcDbEntity
8
2
62
256
6
ByLayer
370
13
48
1
60
0
100
AcDbLine
10
42.234236
20
-30.425
30
0
11
41.025737
21
-33.481784
31
0
39
0
210
0
220
0
230
1
0
LINE
5
125
100
AcDbEntity
8
2
62
256
6
ByLayer
370
13
48
1
60
0
100
AcDbLine
10
42.716036
20
-33.676497
30
0
11
41.025737
21
-33.481784
31
0
39
0
210
0
220
0
230
1
0
LINE
5
126
100
AcDbEntity
8
2
62
256
6
ByLayer
370
13
48
1
60
0
100
AcDbLine
10
35.316685
20
-23.627141
30
0
11
32.281463
21
-24.888804
31
0
39
0
210
0
220
0
230
1
0
LINE
5
127
100
AcDbEntity
8
2
62
256
6
ByLayer
370
13
48
1
60
0
100
AcDbLine
10
35.316685
20
-23.627141
30
0
11
32.057268
21
-23.202161
31
0
39
0
210
0
220
0
230
1
0
LINE
5
128
100
AcDbEntity
8
2
62
256
6
ByLayer
370
13
48
1
60
0
100
AcDbLine
10
32.281463
20
-24.888804
30
0
11
32.057268
21
-23.202161
31
0
39
0
210
0
220
0
230
1
0
ENDBLK
5
12A
100
AcDbEntity
8
0
100
AcDbBlockEnd
0
ENDSEC
0
SECTION
2
ENTITIES
0
ARC
5
A8
100
AcDbEntity
8
1
62
256
6
ByLayer
370
18
48
1
60
0
100
AcDbCircle
39
0
10
0
20
-21.525
30
0
40
1.6000000000001
210
0
220
0
230
-1
100
AcDbArc
50
90
51
165
0
ELLIPSE
5
A9
100
AcDbEntity
8
1
62
256
6
ByLayer
370
18
48
1
60
0
100
AcDbEllipse
10
12.959326
20
-19.784118
30
0
11
1.80611176319352
21
1.87028348088037
31
0
210
0
220
0
230
1
40
0.989133
41
0.860674541998799
42
-2.28091811159096
0
ELLIPSE
5
AA
100
AcDbEntity
8
1
62
256
6
ByLayer
370
18
48
1
60
0
100
AcDbEllipse
10
11.838264
20
-18.70152
30
0
11
1.70191300762467
21
1.76238251082958
31
0
210
0
220
0
230
1
40
0.989133
41
-2.91630511273375
42
-2.28091811159099
0
ELLIPSE
5
AB
100
AcDbEntity
8
1
62
256
6
ByLayer
370
18
48
1
60
0
100
AcDbEllipse
10
12.066467
20
-21.14229
30
0
11
-0.0146953893033551
21
0.149278416166648
31
0
210
0
220
0
230
1
40
0.095849
41
1.45855902242388
42
3.02935534921458
0
ELLIPSE
5
AC
100
AcDbEntity
8
1
62
256
6
ByLayer
370
18
48
1
60
0
100
AcDbEllipse
10
0
20
19.931981
30
0
11
1.60000000000068
21
1.61702248813247E-15
31
0
210
0
220
0
230
-1
40
0.004363
41
0.261799387799853
42
1.5707963267949
0
ELLIPSE
5
AD
100
AcDbEntity
8
1
62
256
6
ByLayer
370
18
48
1
60
0
100
AcDbEllipse
10
11.854128
20
-18.71684
30
0
11
-1.80611176319352
21
-1.87028348088037
31
0
210
0
220
0
230
1
40
0.989133
41
0.30333628981377
42
0.860674541998822
0
ELLIPSE
5
AE
100
AcDbEntity
8
1
62
256
6
ByLayer
370
18
48
1
60
0
100
AcDbEllipse
10
22.179007
20
-14.617641
30
0
11
1.87557760023943
21
1.94221746091423
31
0
210
0
220
0
230
1
40
0.989133
41
1.31446014751734
42
1.64935630595673
0
ELLIPSE
5
AF
100
AcDbEntity
8
1
62
256
6
ByLayer
370
18
48
1
60
0
100
AcDbEllipse
10
26.571535
20
-11.929498
30
0
11
1.87557760023942
21
1.94221746091423
31
0
210
0
220
0
230
1
40
0.989133
41
0.979563989077961
42
1.31446014751734
0
ELLIPSE
5
B0
100
AcDbEntity
8
1
62
256
6
ByLayer
370
18
48
1
60
0
100
AcDbEllipse
10
13.726314
20
-6.0819
30
0
11
-1.08019376606382
21
-1.11857338952653
31
0
210
0
220
0
230
1
40
0.989133
41
0.163619891556061
42
2.33328249239885
0
ELLIPSE
5
B1
100
AcDbEntity
8
1
62
256
6
ByLayer
370
18
48
1
60
0
100
AcDbEllipse
10
13.726314
20
-6.0819
30
0
11
-1.08019376606382
21
-1.11857338952653
31
0
210
0
220
0
230
1
40
0.989133
41
2.33328249239885
42
2.91094312174069
0
ELLIPSE
5
B2
100
AcDbEntity
8
1
62
256
6
ByLayer
370
18
48
1
60
0
100
AcDbEllipse
10
25.738465
20
-16.284005
30
0
11
2.41046454549289
21
2.49610910717495
31
0
210
0
220
0
230
1
40
0.989133
41
-2.67782675428981
42
-2.54179461486032
0
ELLIPSE
5
B3
100
AcDbEntity
8
1
62
256
6
ByLayer
370
18
48
1
60
0
100
AcDbEllipse
10
25.738465
20
-16.284005
30
0
11
2.41046454549289
21
2.49610910717495
31
0
210
0
220
0
230
1
40
0.989133
41
-0.678172641930206
42
-0.463785009987885
0
ELLIPSE
5
B4
100
AcDbEntity
8
1
62
256
6
ByLayer
370
18
48
1
60
0
100
AcDbEllipse
10
13.231978
20
-17.543175
30
0
11
-0.827077622327801
21
-0.856463949778148
31
0
210
0
220
0
230
1
40
0.989133
41
-0.956715194674844
42
-2.47103160566876E-06
0
ELLIPSE
5
B5
100
AcDbEntity
8
1
62
256
6
ByLayer
370
18
48
1
60
0
100
AcDbEllipse
10
33.15319
20
-5.351777
30
0
11
-0.8270776223278
21
-0.856463949778146
31
0
210
0
220
0
230
1
40
0.989133
41
-3.14156185049702
42
-2.05378510493138
0
ELLIPSE
5
B6
100
AcDbEntity
8
1
62
256
6
ByLayer
370
18
48
1
60
0
100
AcDbEllipse
10
26.648006
20
-17.162339
30
0
11
2.20554032620747
21
2.28390386607507
31
0
210
0
220
0
230
1
40
0.989133
41
-2.9923061231837
42
-2.3832297963317
0
ELLIPSE
5
B7
100
AcDbEntity
8
1
62
256
6
ByLayer
370
18
48
1
60
0
100
AcDbEllipse
10
26.648006
20
-17.162339
30
0
11
2.20554032620747
21
2.28390386607507
31
0
210
0
220
0
230
1
40
0.989133
41
-0.725058195919337
42
-0.149263237458411
0
ELLIPSE
5
B8
100
AcDbEntity
8
1
62
256
6
ByLayer
370
18
48
1
60
0
100
AcDbEllipse
10
27.181568
20
-17.677594
30
0
11
-2.07355523582026
21
-2.14722930401073
31
0
210
0
220
0
230
1
40
0.989133
41
-1.36157753820922
42
-1.1000289996834
0
ELLIPSE
5
B9
100
AcDbEntity
8
1
62
256
6
ByLayer
370
18
48
1
60
0
100
AcDbEllipse
10
27.181568
20
-17.677594
30
0
11
-2.07355523582026
21
-2.14722930401073
31
0
210
0
220
0
230
1
40
0.989133
41
-1.92591748174353
42
-1.78001927278078
0
ELLIPSE
5
BA
100
AcDbEntity
8
1
62
256
6
ByLayer
370
18
48
1
60
0
100
AcDbEllipse
10
26.122959
20
-17.557403
30
0
11
2.29237262251486
21
2.37382134111739
31
0
210
0
220
0
230
1
40
0.989133
41
-1.15170079804378E-05
42
0.263971171247237
0
ELLIPSE
5
BB
100
AcDbEntity
8
1
62
256
6
ByLayer
370
18
48
1
60
0
100
AcDbEllipse
10
26.97105
20
-16.572203
30
0
11
-2.29237262251486
21
-2.37382134111739
31
0
210
0
220
0
230
1
40
0.989133
41
-0.228450967760281
42
2.04135082333911E-05
0
ELLIPSE
5
BC
100
AcDbEntity
8
1
62
256
6
ByLayer
370
18
48
1
60
0
100
AcDbEllipse
10
26.70767
20
-17.18782
30
0
11
-2.08397511137714
21
-2.15801940101581
31
0
210
0
220
0
230
1
40
0.989133
41
-0.0831019946271176
42
-0.0464386241688943
0
ELLIPSE
5
BD
100
AcDbEntity
8
1
62
256
6
ByLayer
370
18
48
1
60
0
100
AcDbEllipse
10
25.563431
20
-16.114977
30
0
11
-2.42088442104978
21
-2.50689920418003
31
0
210
0
220
0
230
1
40
0.989133
41
2.54434446193139
42
2.6475751177593
0
ELLIPSE
5
BE
100
AcDbEntity
8
1
62
256
6
ByLayer
370
18
48
1
60
0
100
AcDbEllipse
10
25.563431
20
-16.114977
30
0
11
-2.42088442104978
21
-2.50689920418003
31
0
210
0
220
0
230
1
40
0.989133
41
0.494013614949802
42
0.577560305907556
0
ELLIPSE
5
BF
100
AcDbEntity
8
1
62
256
6
ByLayer
370
18
48
1
60
0
100
AcDbEllipse
10
33.82477
20
-6.000314
30
0
11
-0.8270776223278
21
-0.856463949778146
31
0
210
0
220
0
230
1
40
0.989133
41
2.36165769871391
42
-1.82713250607247
0
ELLIPSE
5
C0
100
AcDbEntity
8
1
62
256
6
ByLayer
370
18
48
1
60
0
100
AcDbEllipse
10
27.319586
20
-17.810876
30
0
11
2.20554032620747
21
2.28390386607507
31
0
210
0
220
0
230
1
40
0.989133
41
0
42
6.28318530717959
0
ELLIPSE
5
C1
100
AcDbEntity
8
1
62
256
6
ByLayer
370
18
48
1
60
0
100
AcDbEllipse
10
13.903558
20
-18.191712
30
0
11
-0.827077622327801
21
-0.856463949778148
31
0
210
0
220
0
230
1
40
0.989133
41
-1.82713250607249
42
0.267262596320774
0
ELLIPSE
5
C2
100
AcDbEntity
8
1
62
256
6
ByLayer
370
18
48
1
60
0
100
AcDbEllipse
10
34.23043
20
-29.240601
30
0
11
-0.827077622327803
21
-0.856463949778149
31
0
210
0
220
0
230
1
40
0.989133
41
0.267262596320721
42
2.36165769871393
0
ELLIPSE
5
C3
100
AcDbEntity
8
1
62
256
6
ByLayer
370
18
48
1
60
0
100
AcDbEllipse
10
26.757523
20
-18.170194
30
0
11
-2.29237262251486
21
-2.37382134111739
31
0
210
0
220
0
230
1
40
0.989133
41
2.22297004396632
42
-2.10732387180345
0
ELLIPSE
5
C4
100
AcDbEntity
8
1
62
256
6
ByLayer
370
18
48
1
60
0
100
AcDbEllipse
10
27.181568
20
-17.677594
30
0
11
-2.07355523582026
21
-2.14722930401073
31
0
210
0
220
0
230
1
40
0.989133
41
1.21567517184626
42
2.04156365390639
0
ELLIPSE
5
C5
100
AcDbEntity
8
1
62
256
6
ByLayer
370
18
48
1
60
0
100
AcDbEllipse
10
27.234449
20
-17.72866
30
0
11
1.72622605059073
21
1.78755940384143
31
0
210
0
220
0
230
1
40
0.989133
41
1.2339037447069
42
2.02333508104575
0
ELLIPSE
5
C6
100
AcDbEntity
8
1
62
256
6
ByLayer
370
18
48
1
60
0
100
AcDbEllipse
10
27.234449
20
-17.72866
30
0
11
1.72622605059073
21
1.78755940384143
31
0
210
0
220
0
230
1
40
0.989133
41
-1.90768890888289
42
-1.11825757254405
0
ELLIPSE
5
C7
100
AcDbEntity
8
1
62
256
6
ByLayer
370
18
48
1
60
0
100
AcDbEllipse
10
27.658494
20
-17.23606
30
0
11
1.94504343728533
21
2.01415144094809
31
0
210
0
220
0
230
1
40
0.989133
41
2.23930247606439
42
-2.12365630390153
0
ELLIPSE
5
C8
100
AcDbEntity
8
1
62
256
6
ByLayer
370
18
48
1
60
0
100
AcDbEllipse
10
27.605614
20
-17.184994
30
0
11
-2.29237262251486
21
-2.37382134111739
31
0
210
0
220
0
230
1
40
0.989133
41
-0.918622609623482
42
1.03426878178634
0
ELLIPSE
5
C9
100
AcDbEntity
8
1
62
256
6
ByLayer
370
18
48
1
60
0
100
AcDbEllipse
10
26.810403
20
-18.22126
30
0
11
1.94504343728533
21
2.01415144094809
31
0
210
0
220
0
230
1
40
0.989133
41
-0.902290177525405
42
1.01793634968825
0
ELLIPSE
5
CA
100
AcDbEntity
8
1
62
256
6
ByLayer
370
18
48
1
60
0
100
AcDbEllipse
10
14.255117
20
-6.592559
30
0
11
-2.24721982843502
21
-2.32706425409538
31
0
210
0
220
0
230
1
40
0.989133
41
0
42
6.28318530717959
0
ELLIPSE
5
CB
100
AcDbEntity
8
1
62
256
6
ByLayer
370
18
48
1
60
0
100
AcDbEllipse
10
14.232378
20
-6.5706
30
0
11
1.08019376606382
21
1.11857338952653
31
0
210
0
220
0
230
1
40
0.989133
41
0.88349193467292
42
1.32654933988311
0
ELLIPSE
5
CC
100
AcDbEntity
8
1
62
256
6
ByLayer
370
18
48
1
60
0
100
AcDbEllipse
10
14.232378
20
-6.5706
30
0
11
1.08019376606382
21
1.11857338952653
31
0
210
0
220
0
230
1
40
0.989133
41
-1.21090316772027
42
-0.767845762510093
0
ELLIPSE
5
CD
100
AcDbEntity
8
1
62
256
6
ByLayer
370
18
48
1
60
0
100
AcDbEllipse
10
14.232378
20
-6.5706
30
0
11
1.08019376606382
21
1.11857338952653
31
0
210
0
220
0
230
1
40
0.989133
41
2.97788703706616
42
-2.86224086490324
0
ELLIPSE
5
CE
100
AcDbEntity
8
1
62
256
6
ByLayer
370
18
48
1
60
0
100
AcDbEllipse
10
14.232378
20
-6.5706
30
0
11
1.08019376606382
21
1.11857338952653
31
0
210
0
220
0
230
1
40
0.989133
41
-0.163705616523708
42
0.279351788686534
0
ELLIPSE
5
CF
100
AcDbEntity
8
1
62
256
6
ByLayer
370
18
48
1
60
0
100
AcDbEllipse
10
14.232378
20
-6.5706
30
0
11
1.08019376606382
21
1.11857338952653
31
0
210
0
220
0
230
1
40
0.989133
41
-2.25810071891684
42
-1.81504331370667
0
ELLIPSE
5
D0
100
AcDbEntity
8
1
62
256
6
ByLayer
370
18
48
1
60
0
100
AcDbEllipse
10
14.232378
20
-6.5706
30
0
11
1.08019376606382
21
1.11857338952653
31
0
210
0
220
0
230
1
40
0.989133
41
1.93068948586956
42
2.37374689107974
0
ELLIPSE
5
D1
100
AcDbEntity
8
1
62
256
6
ByLayer
370
18
48
1
60
0
100
AcDbEllipse
10
14.255117
20
-6.592559
30
0
11
-1.3388782382445
21
-1.3864490021765
31
0
210
0
220
0
230
1
40
0.989133
41
0
42
6.28318530717959
0
ELLIPSE
5
D2
100
AcDbEntity
8
1
62
256
6
ByLayer
370
18
48
1
60
0
100
AcDbEllipse
10
13.832074
20
-6.184031
30
0
11
1.08019376606382
21
1.11857338952653
31
0
210
0
220
0
230
1
40
0.989133
41
-0.767845762510079
42
-0.163705616523672
0
ELLIPSE
5
D3
100
AcDbEntity
8
1
62
256
6
ByLayer
370
18
48
1
60
0
100
AcDbEllipse
10
13.832074
20
-6.184031
30
0
11
1.08019376606382
21
1.11857338952653
31
0
210
0
220
0
230
1
40
0.989133
41
-1.81504331370669
42
-1.21090316772026
0
ELLIPSE
5
D4
100
AcDbEntity
8
1
62
256
6
ByLayer
370
18
48
1
60
0
100
AcDbEllipse
10
13.832074
20
-6.184031
30
0
11
1.08019376606382
21
1.11857338952653
31
0
210
0
220
0
230
1
40
0.989133
41
-2.86224086490328
42
-2.25810071891688
0
POINT
5
6C
100
AcDbEntity
8
80
62
256
6
ByLayer
370
18
48
1
60
0
100
AcDbPoint
10
0
20
0
30
0
39
0
210
0
220
0
230
1
50
360
0
POINT
5
6E
100
AcDbEntity
8
81
62
256
6
ByLayer
370
18
48
1
60
0
100
AcDbPoint
10
34.064378
20
-30.075
30
0
39
0
210
0
220
0
230
1
50
360
0
POINT
5
70
100
AcDbEntity
8
1
62
256
6
ByLayer
370
18
48
1
60
0
100
AcDbPoint
10
-215.935622
20
19.925
30
0
39
0
210
0
220
0
230
1
50
360
0
SPLINE
5
D5
100
AcDbEntity
8
1
62
256
6
ByLayer
370
18
48
1
60
0
100
AcDbSpline
70
4
71
3
72
16
73
12
40
0
40
0
40
0
40
0
40
0.171978613344431
40
0.171978613344431
40
0.526705390682271
40
0.526705390682271
40
0.704068779351191
40
0.704068779351191
40
0.881432168020112
40
0.881432168020112
40
1
40
1
40
1
40
1
41
1
10
28.612293624379
20
-14.9152917470437
30
0
41
1
10
28.6633690264011
20
-14.9701058829904
30
0
41
1
10
28.7122754387513
20
-15.0267722098279
30
0
41
1
10
28.8551274686369
20
-15.2054367058159
30
0
41
1
10
28.9421307913621
20
-15.3332589541933
30
0
41
1
10
29.0586071707179
20
-15.5365065518447
30
0
41
1
10
29.0950373637156
20
-15.606174284305
30
0
41
1
10
29.1619144596442
20
-15.7467916802509
30
0
41
1
10
29.1925495763683
20
-15.8180540793505
30
0
41
1
10
29.2391298616985
20
-15.9384905564766
30
0
41
1
10
29.2565818343371
20
-15.9871548131039
30
0
41
1
10
29.2728309470032
20
-16.0362244047883
30
0
0
SPLINE
5
D6
100
AcDbEntity
8
1
62
256
6
ByLayer
370
18
48
1
60
0
100
AcDbSpline
70
4
71
3
72
14
73
10
40
0
40
0
40
0
40
0
40
0.266693962131777
40
0.266693962131777
40
0.450020471598833
40
0.450020471598833
40
0.633346981065888
40
0.633346981065888
40
1
40
1
40
1
40
1
41
1
10
25.6712327212391
20
-19.8370459932949
30
0
41
1
10
25.5623599195615
20
-19.807960452397
30
0
41
1
10
25.4551750820392
20
-19.7730119084842
30
0
41
1
10
25.2772276649643
20
-19.703905286337
30
0
41
1
10
25.2052617322049
20
-19.6727576419752
30
0
41
1
10
25.0645696390352
20
-19.6052796785833
30
0
41
1
10
24.996011804411
20
-19.5690635851596
30
0
41
1
10
24.7955737556217
20
-19.4531317894561
30
0
41
1
10
24.6688966194096
20
-19.3661744817511
30
0
41
1
10
24.5492256318249
20
-19.2694288863781
30
0
0
SPLINE
5
D7
100
AcDbEntity
8
1
62
256
6
ByLayer
370
18
48
1
60
0
100
AcDbSpline
70
4
71
3
72
8
73
4
40
0
40
0
40
0
40
0
40
1
40
1
40
1
40
1
41
1
10
24.5492256318249
20
-19.2694288863781
30
0
41
1
10
24.5170637210165
20
-19.235216881142
30
0
41
1
10
24.4860229316471
20
-19.2004603017499
30
0
41
1
10
24.4560909198423
20
-19.1651952353191
30
0
0
SPLINE
5
D8
100
AcDbEntity
8
1
62
256
6
ByLayer
370
18
48
1
60
0
100
AcDbSpline
70
4
71
3
72
8
73
4
40
0
40
0
40
0
40
0
40
1
40
1
40
1
40
1
41
1
10
24.889502914849
20
-16.974677026875
30
0
41
1
10
24.7090213940423
20
-16.9242265527163
30
0
41
1
10
24.5285971659909
20
-16.873882394098
30
0
41
1
10
24.3482066162307
20
-16.8236005304333
30
0
0
SPLINE
5
D9
100
AcDbEntity
8
1
62
256
6
ByLayer
370
18
48
1
60
0
100
AcDbSpline
70
4
71
3
72
8
73
4
40
0
40
0
40
0
40
0
40
1
40
1
40
1
40
1
41
1
10
28.3325750095086
20
-19.9310319901617
30
0
41
1
10
28.3724850563972
20
-20.069818246199
30
0
41
1
10
28.4122609845804
20
-20.2085464644879
30
0
41
1
10
28.4519583434245
20
-20.3472405975708
30
0
0
SPLINE
5
DA
100
AcDbEntity
8
1
62
256
6
ByLayer
370
18
48
1
60
0
100
AcDbSpline
70
4
71
3
72
8
73
4
40
0
40
0
40
0
40
0
40
1
40
1
40
1
40
1
41
1
10
30.0149302976924
20
-18.53158677991
30
0
41
1
10
29.8698072041806
20
-18.5153623028604
30
0
41
1
10
29.7246391795725
20
-18.4990646641496
30
0
41
1
10
29.579394604306
20
-18.4826421127575
30
0
0
SPLINE
5
DB
100
AcDbEntity
8
1
62
256
6
ByLayer
370
18
48
1
60
0
100
AcDbSpline
70
4
71
3
72
8
73
4
40
0
40
0
40
0
40
0
40
1
40
1
40
1
40
1
41
1
10
25.9111785704986
20
-15.0079467127725
30
0
41
1
10
25.9861433855912
20
-15.1806982324705
30
0
41
1
10
26.0611755172175
20
-15.353472970667
30
0
41
1
10
26.1363225096464
20
-15.5262871494709
30
0
0
SPLINE
5
DC
100
AcDbEntity
8
1
62
256
6
ByLayer
370
18
48
1
60
0
100
AcDbSpline
70
4
71
3
72
10
73
6
40
0
40
0
40
0
40
0
40
0.5
40
0.5
40
1
40
1
40
1
40
1
41
1
10
15.891344178698
20
-5.99692772066528
30
0
41
1
10
15.823169497843
20
-5.93810501042918
30
0
41
1
10
15.7545852741968
20
-5.87895950779136
30
0
41
1
10
15.6163341563761
20
-5.75981516599605
30
0
41
1
10
15.5471048393069
20
-5.70019396456203
30
0
41
1
10
15.4784487487136
20
-5.64111410523898
30
0
0
SPLINE
5
DD
100
AcDbEntity
8
1
62
256
6
ByLayer
370
18
48
1
60
0
100
AcDbSpline
70
4
71
3
72
8
73
4
40
0
40
0
40
0
40
0
40
1
40
1
40
1
40
1
41
1
10
13.4200179536941
20
-5.26335753915352
30
0
41
1
10
13.2509580781321
20
-5.32666848410894
30
0
41
1
10
13.0884042624023
20
-5.39003406433074
30
0
41
1
10
12.9297891833058
20
-5.45343272047415
30
0
0
SPLINE
5
DE
100
AcDbEntity
8
1
62
256
6
ByLayer
370
18
48
1
60
0
100
AcDbSpline
70
4
71
3
72
8
73
4
40
0
40
0
40
0
40
0
40
1
40
1
40
1
40
1
41
1
10
15.7779823253655
20
-6.508024186904
30
0
41
1
10
15.8150400226425
20
-6.33189503378837
30
0
41
1
10
15.8529378080565
20
-6.16240249145773
30
0
41
1
10
15.891344178698
20
-5.99692772066528
30
0
0
SPLINE
5
DF
100
AcDbEntity
8
1
62
256
6
ByLayer
370
18
48
1
60
0
100
AcDbSpline
70
4
71
3
72
10
73
6
40
0
40
0
40
0
40
0
40
0.5
40
0.5
40
1
40
1
40
1
40
1
41
1
10
13.9120296767561
20
-8.29623317012599
30
0
41
1
10
13.9917899451548
20
-8.26435288573612
30
0
41
1
10
14.0730311402748
20
-8.23229507816637
30
0
41
1
10
14.236643102743
20
-8.16878612812593
30
0
41
1
10
14.319077913172
20
-8.1373081253483
30
0
41
1
10
14.4022584471444
20
-8.10615798880534
30
0
0
SPLINE
5
E0
100
AcDbEntity
8
1
62
256
6
ByLayer
370
18
48
1
60
0
100
AcDbSpline
70
4
71
3
72
10
73
6
40
0
40
0
40
0
40
0
40
0.5
40
0.5
40
1
40
1
40
1
40
1
41
1
10
14.5767456824172
20
-4.86816257071763
30
0
41
1
10
14.4916316516888
20
-4.89487278692276
30
0
41
1
10
14.4055646756843
20
-4.92227039206266
30
0
41
1
10
14.2338273200733
20
-4.97793274115418
30
0
41
1
10
14.1480866877072
20
-5.00621834879564
30
0
41
1
10
14.0624979034098
20
-5.03504286503278
30
0
0
SPLINE
5
E1
100
AcDbEntity
8
1
62
256
6
ByLayer
370
18
48
1
60
0
100
AcDbSpline
70
4
71
3
72
10
73
6
40
0
40
0
40
0
40
0
40
0.5
40
0.5
40
1
40
1
40
1
40
1
41
1
10
13.9120296767561
20
-8.29623317012599
30
0
41
1
10
13.843854995901
20
-8.23741045988987
30
0
41
1
10
13.7752707722548
20
-8.17826495725207
30
0
41
1
10
13.6370196544341
20
-8.05912061545673
30
0
41
1
10
13.5677903373649
20
-7.99949941402272
30
0
41
1
10
13.4991342467716
20
-7.94041955469966
30
0
0
SPLINE
5
E2
100
AcDbEntity
8
1
62
256
6
ByLayer
370
18
48
1
60
0
100
AcDbSpline
70
4
71
3
72
10
73
6
40
0
40
0
40
0
40
0
40
0.5
40
0.5
40
1
40
1
40
1
40
1
41
1
10
12.9863076018405
20
-7.50008674859916
30
0
41
1
10
12.9196465304759
20
-7.44297886706653
30
0
41
1
10
12.8532765210599
20
-7.38617112863535
30
0
41
1
10
12.7236816585793
20
-7.27533142112664
30
0
41
1
10
12.660096312186
20
-7.22099025201967
30
0
41
1
10
12.5974311804752
20
-7.16746802017833
30
0
0
SPLINE
5
E3
100
AcDbEntity
8
1
62
256
6
ByLayer
370
18
48
1
60
0
100
AcDbSpline
70
4
71
3
72
8
73
4
40
0
40
0
40
0
40
0
40
1
40
1
40
1
40
1
41
1
10
12.6867740251886
20
-6.63317666693412
30
0
41
1
10
12.6546109646833
20
-6.81403251583696
30
0
41
1
10
12.6251908036517
20
-6.99171180487073
30
0
41
1
10
12.5974311804752
20
-7.16746802017833
30
0
0
SPLINE
5
E4
100
AcDbEntity
8
1
62
256
6
ByLayer
370
18
48
1
60
0
100
AcDbSpline
70
4
71
3
72
10
73
6
40
0
40
0
40
0
40
0
40
0.5
40
0.5
40
1
40
1
40
1
40
1
41
1
10
15.5589861758675
20
-7.71096302036946
30
0
41
1
10
15.5729452206684
20
-7.62258325858684
30
0
41
1
10
15.5874138354881
20
-7.53319192916371
30
0
41
1
10
15.6171881071875
20
-7.3547647576916
30
0
41
1
10
15.6325042097668
20
-7.26565603454989
30
0
41
1
10
15.6483290205809
20
-7.17667166712525
30
0
0
SPLINE
5
E5
100
AcDbEntity
8
1
62
256
6
ByLayer
370
18
48
1
60
0
100
AcDbSpline
70
4
71
3
72
10
73
6
40
0
40
0
40
0
40
0
40
0.5
40
0.5
40
1
40
1
40
1
40
1
41
1
10
12.9297891833058
20
-5.45343272047415
30
0
41
1
10
12.9104763761752
20
-5.53664241407202
30
0
41
1
10
12.891181980471
20
-5.62137354106531
30
0
41
1
10
12.8532823156288
20
-5.7919541115885
30
0
41
1
10
12.8346603911123
20
-5.87787043959403
30
0
41
1
10
12.8164273299732
20
-5.96452918671288
30
0
0
SPLINE
5
E6
100
AcDbEntity
8
1
62
256
6
ByLayer
370
18
48
1
60
0
100
AcDbSpline
70
4
71
3
72
10
73
6
40
0
40
0
40
0
40
0
40
0.5
40
0.5
40
1
40
1
40
1
40
1
41
1
10
14.9656221037825
20
-5.20078129913846
30
0
41
1
10
14.8989610324178
20
-5.14367341760581
30
0
41
1
10
14.8325910230018
20
-5.08686567917464
30
0
41
1
10
14.7029961605213
20
-4.97602597166593
30
0
41
1
10
14.639410814128
20
-4.92168480255896
30
0
41
1
10
14.5767456824172
20
-4.86816257071763
30
0
0
SPLINE
5
E7
100
AcDbEntity
8
1
62
256
6
ByLayer
370
18
48
1
60
0
100
AcDbSpline
70
4
71
3
72
8
73
4
40
0
40
0
40
0
40
0
40
1
40
1
40
1
40
1
41
1
10
15.04473839686
20
-7.87784331468461
30
0
41
1
10
15.2186929091938
20
-7.81925906551641
30
0
41
1
10
15.3897243493059
20
-7.76408023199772
30
0
41
1
10
15.5589861758675
20
-7.71096302036946
30
0
0
LINE
5
72
100
AcDbEntity
8
1
62
256
6
ByLayer
370
18
48
1
60
0
100
AcDbLine
10
34.651847
20
-5.14385
30
0
11
33.980267
21
-4.495313
31
0
39
0
210
0
220
0
230
1
0
LINE
5
73
100
AcDbEntity
8
1
62
256
6
ByLayer
370
18
48
1
60
0
100
AcDbLine
10
29.049895
20
-15.796372
30
0
11
28.415332
21
-15.183581
31
0
39
0
210
0
220
0
230
1
0
LINE
5
74
100
AcDbEntity
8
1
62
256
6
ByLayer
370
18
48
1
60
0
100
AcDbLine
10
24.678678
20
-18.946024
30
0
11
25.313241
21
-19.558815
31
0
39
0
210
0
220
0
230
1
0
LINE
5
75
100
AcDbEntity
8
1
62
256
6
ByLayer
370
18
48
1
60
0
100
AcDbLine
10
12.404901
20
-18.399639
30
0
11
13.076481
21
-19.048176
31
0
39
0
210
0
220
0
230
1
0
LINE
5
76
100
AcDbEntity
8
1
62
256
6
ByLayer
370
18
48
1
60
0
100
AcDbLine
10
5.181551
20
19.960232
30
0
11
3.441162
21
19.961044
31
0
39
0
210
0
220
0
230
1
0
LINE
5
77
100
AcDbEntity
8
1
62
256
6
ByLayer
370
18
48
1
60
0
100
AcDbLine
10
16.341822
20
-20.871189
30
0
11
12.079468
21
-21.290787
31
0
39
0
210
0
220
0
230
1
0
LINE
5
78
100
AcDbEntity
8
1
62
256
6
ByLayer
370
18
48
1
60
0
100
AcDbLine
10
25.188726
20
-9.642494
30
0
11
20.796198
21
-12.330637
31
0
39
0
210
0
220
0
230
1
0
LINE
5
79
100
AcDbEntity
8
1
62
256
6
ByLayer
370
18
48
1
60
0
100
AcDbLine
10
13.184666
20
-22.358064
30
0
11
18.157483
21
-21.868526
31
0
39
0
210
0
220
0
230
1
0
LINE
5
7A
100
AcDbEntity
8
1
62
256
6
ByLayer
370
18
48
1
60
0
100
AcDbLine
10
1.545481
20
19.930174
30
0
11
3.441162
21
19.961044
31
0
39
0
210
0
220
0
230
1
0
LINE
5
7B
100
AcDbEntity
8
1
62
256
6
ByLayer
370
18
48
1
60
0
100
AcDbLine
10
20.116628
20
-12.920591
30
0
11
13.17885
21
-17.166378
31
0
39
0
210
0
220
0
230
1
0
LINE
5
7C
100
AcDbEntity
8
1
62
256
6
ByLayer
370
18
48
1
60
0
100
AcDbLine
10
18.157483
20
-21.868526
30
0
11
19.992157
21
-22.85534
31
0
39
0
210
0
220
0
230
1
0
LINE
5
7D
100
AcDbEntity
8
1
62
256
6
ByLayer
370
18
48
1
60
0
100
AcDbLine
10
1.545481
20
19.930174
30
0
11
1.545481
21
-21.11089
31
0
39
0
210
0
220
0
230
1
0
LINE
5
7E
100
AcDbEntity
8
1
62
256
6
ByLayer
370
18
48
1
60
0
100
AcDbLine
10
13.184666
20
-22.358064
30
0
11
12.079468
21
-21.290787
31
0
39
0
210
0
220
0
230
1
0
LINE
5
7F
100
AcDbEntity
8
1
62
256
6
ByLayer
370
18
48
1
60
0
100
AcDbLine
10
1.545481
20
-21.11089
30
0
11
2.264325
21
-23.793652
31
0
39
0
210
0
220
0
230
1
0
LINE
5
80
100
AcDbEntity
8
1
62
256
6
ByLayer
370
18
48
1
60
0
100
AcDbLine
10
12.050603
20
-21.12697
30
0
11
16.082186
21
-20.73009
31
0
39
0
210
0
220
0
230
1
0
LINE
5
81
100
AcDbEntity
8
1
62
256
6
ByLayer
370
18
48
1
60
0
100
AcDbLine
10
2.264325
20
-23.793652
30
0
11
3.441162
21
19.961044
31
0
39
0
210
0
220
0
230
1
0
LINE
5
82
100
AcDbEntity
8
1
62
256
6
ByLayer
370
18
48
1
60
0
100
AcDbLine
10
22.518104
20
-28.13508
30
0
11
3.120835
21
-26.990189
31
0
39
0
210
0
220
0
230
1
0
LINE
5
83
100
AcDbEntity
8
1
62
256
6
ByLayer
370
18
48
1
60
0
100
AcDbLine
10
3.120835
20
-26.990189
30
0
11
2.264325
21
-23.793652
31
0
39
0
210
0
220
0
230
1
0
LINE
5
84
100
AcDbEntity
8
1
62
256
6
ByLayer
370
18
48
1
60
0
100
AcDbLine
10
0
20
-19.925
30
0
11
0
21
19.925
31
0
39
0
210
0
220
0
230
1
0
LINE
5
85
100
AcDbEntity
8
1
62
256
6
ByLayer
370
18
48
1
60
0
100
AcDbLine
10
32.731743
20
-1.062245
30
0
11
5.181551
21
19.960232
31
0
39
0
210
0
220
0
230
1
0
LINE
5
86
100
AcDbEntity
8
1
62
256
6
ByLayer
370
18
48
1
60
0
100
AcDbLine
10
32.803211
20
-5.156646
30
0
11
26.021943
21
-9.306652
31
0
39
0
210
0
220
0
230
1
0
LINE
5
87
100
AcDbEntity
8
1
62
256
6
ByLayer
370
18
48
1
60
0
100
AcDbLine
10
24.174104
20
-25.128511
30
0
11
22.518104
21
-28.13508
31
0
39
0
210
0
220
0
230
1
0
LINE
5
88
100
AcDbEntity
8
1
62
256
6
ByLayer
370
18
48
1
60
0
100
AcDbLine
10
32.731743
20
-1.062245
30
0
11
32.803211
21
-5.156646
31
0
39
0
210
0
220
0
230
1
0
LINE
5
89
100
AcDbEntity
8
1
62
256
6
ByLayer
370
18
48
1
60
0
100
AcDbLine
10
13.17885
20
-17.166378
30
0
11
12.733986
21
-17.210171
31
0
39
0
210
0
220
0
230
1
0
LINE
5
8A
100
AcDbEntity
8
1
62
256
6
ByLayer
370
18
48
1
60
0
100
AcDbLine
10
18.157483
20
-21.868526
30
0
11
18.115302
21
-21.835154
31
0
39
0
210
0
220
0
230
1
0
LINE
5
8B
100
AcDbEntity
8
SK1
62
256
6
ByLayer
370
18
48
1
60
0
100
AcDbLine
10
-215.935622
20
19.925
30
0
11
-215.935622
21
-19.925
31
0
39
0
210
0
220
0
230
1
0
LINE
5
8D
100
AcDbEntity
8
SK1
62
256
6
ByLayer
370
18
48
1
60
0
100
AcDbLine
10
-215.935622
20
-19.925
30
0
11
0
21
-19.925
31
0
39
0
210
0
220
0
230
1
0
LINE
5
8E
100
AcDbEntity
8
SK1
62
256
6
ByLayer
370
18
48
1
60
0
100
AcDbLine
10
0
20
-19.925
30
0
11
0
21
19.925
31
0
39
0
210
0
220
0
230
1
0
LINE
5
8F
100
AcDbEntity
8
SK1
62
256
6
ByLayer
370
18
48
1
60
0
100
AcDbLine
10
-215.935622
20
19.925
30
0
11
0
21
19.925
31
0
39
0
210
0
220
0
230
1
0
LINE
5
90
100
AcDbEntity
8
1
62
256
6
ByLayer
370
18
48
1
60
0
100
AcDbLine
10
15.117812
20
-5.292852
30
0
11
15.478449
21
-5.641114
31
0
39
0
210
0
220
0
230
1
0
LINE
5
91
100
AcDbEntity
8
1
62
256
6
ByLayer
370
18
48
1
60
0
100
AcDbLine
10
15.472022
20
-5.634909
30
0
11
15.377678
21
-6.121455
31
0
39
0
210
0
220
0
230
1
0
LINE
5
92
100
AcDbEntity
8
1
62
256
6
ByLayer
370
18
48
1
60
0
100
AcDbLine
10
13.238519
20
-17.129845
30
0
11
13.293778
21
-17.183207
31
0
39
0
210
0
220
0
230
1
0
LINE
5
93
100
AcDbEntity
8
1
62
256
6
ByLayer
370
18
48
1
60
0
100
AcDbLine
10
32.793227
20
-4.584517
30
0
11
33.214989
21
-4.991809
31
0
39
0
210
0
220
0
230
1
0
LINE
5
94
100
AcDbEntity
8
1
62
256
6
ByLayer
370
18
48
1
60
0
100
AcDbLine
10
25.911179
20
-15.007947
30
0
11
25.905598
21
-15.002558
31
0
39
0
210
0
220
0
230
1
0
LINE
5
95
100
AcDbEntity
8
1
62
256
6
ByLayer
370
18
48
1
60
0
100
AcDbLine
10
24.335691
20
-16.811514
30
0
11
24.348207
21
-16.823601
31
0
39
0
210
0
220
0
230
1
0
LINE
5
96
100
AcDbEntity
8
80
62
256
6
ByLayer
370
18
48
1
60
0
100
AcDbLine
10
0
20
0
30
0
11
-5
21
0
31
0
39
0
210
0
220
0
230
1
0
LINE
5
97
100
AcDbEntity
8
81
62
256
6
ByLayer
370
18
48
1
60
0
100
AcDbLine
10
34.064378
20
-30.075
30
0
11
44.064378
21
-30.075
31
0
39
0
210
0
220
0
230
1
0
LINE
5
98
100
AcDbEntity
8
1
62
256
6
ByLayer
370
18
48
1
60
0
100
AcDbLine
10
35.008537
20
-5.966711
30
0
11
35.414197
21
-29.206998
31
0
39
0
210
0
220
0
230
1
0
LINE
5
99
100
AcDbEntity
8
1
62
256
6
ByLayer
370
18
48
1
60
0
100
AcDbLine
10
33.656444
20
-30.282709
30
0
11
13.329572
21
-19.233821
31
0
39
0
210
0
220
0
230
1
0
LINE
5
9A
100
AcDbEntity
8
1
62
256
6
ByLayer
370
18
48
1
60
0
100
AcDbLine
10
13.293778
20
-17.183207
30
0
11
33.214989
21
-4.991809
31
0
39
0
210
0
220
0
230
1
0
LINE
5
9B
100
AcDbEntity
8
1
62
256
6
ByLayer
370
18
48
1
60
0
100
AcDbLine
10
24.549226
20
-19.269429
30
0
11
24.526851
21
-19.247822
31
0
39
0
210
0
220
0
230
1
0
LINE
5
9C
100
AcDbEntity
8
1
62
256
6
ByLayer
370
18
48
1
60
0
100
AcDbLine
10
15.044738
20
-7.877843
30
0
11
14.644435
21
-7.491274
31
0
39
0
210
0
220
0
230
1
0
LINE
5
9D
100
AcDbEntity
8
1
62
256
6
ByLayer
370
18
48
1
60
0
100
AcDbLine
10
15.146673
20
-7.312797
30
0
11
14.644435
21
-7.491274
31
0
39
0
210
0
220
0
230
1
0
LINE
5
9E
100
AcDbEntity
8
1
62
256
6
ByLayer
370
18
48
1
60
0
100
AcDbLine
10
13.09883
20
-7.553851
30
0
11
13.499716
21
-7.898067
31
0
39
0
210
0
220
0
230
1
0
LINE
5
9F
100
AcDbEntity
8
1
62
256
6
ByLayer
370
18
48
1
60
0
100
AcDbLine
10
15.777982
20
-6.508024
30
0
11
15.377678
21
-6.121455
31
0
39
0
210
0
220
0
230
1
0
LINE
5
A0
100
AcDbEntity
8
1
62
256
6
ByLayer
370
18
48
1
60
0
100
AcDbLine
10
14.001955
20
-7.719589
30
0
11
14.402258
21
-8.106158
31
0
39
0
210
0
220
0
230
1
0
LINE
5
A1
100
AcDbEntity
8
1
62
256
6
ByLayer
370
18
48
1
60
0
100
AcDbLine
10
13.91203
20
-8.296233
30
0
11
13.499716
21
-7.898067
31
0
39
0
210
0
220
0
230
1
0
LINE
5
A2
100
AcDbEntity
8
1
62
256
6
ByLayer
370
18
48
1
60
0
100
AcDbLine
10
15.248025
20
-6.790103
30
0
11
15.146673
21
-7.312797
31
0
39
0
210
0
220
0
230
1
0
LINE
5
A3
100
AcDbEntity
8
1
62
256
6
ByLayer
370
18
48
1
60
0
100
AcDbLine
10
14.001955
20
-7.719589
30
0
11
13.499716
21
-7.898067
31
0
39
0
210
0
220
0
230
1
0
LINE
5
A4
100
AcDbEntity
8
1
62
256
6
ByLayer
370
18
48
1
60
0
100
AcDbLine
10
12.986308
20
-7.500087
30
0
11
12.586004
21
-7.113518
31
0
39
0
210
0
220
0
230
1
0
LINE
5
A5
100
AcDbEntity
8
1
62
256
6
ByLayer
370
18
48
1
60
0
100
AcDbLine
10
15.558986
20
-7.710963
30
0
11
15.146673
21
-7.312797
31
0
39
0
210
0
220
0
230
1
0
LINE
5
A6
100
AcDbEntity
8
1
62
256
6
ByLayer
370
18
48
1
60
0
100
AcDbLine
10
13.09883
20
-7.553851
30
0
11
13.499134
21
-7.94042
31
0
39
0
210
0
220
0
230
1
0
LINE
5
A7
100
AcDbEntity
8
1
62
256
6
ByLayer
370
18
48
1
60
0
100
AcDbLine
10
15.248025
20
-6.790103
30
0
11
15.648329
21
-7.176672
31
0
39
0
210
0
220
0
230
1
0
MTEXT
5
E8
100
AcDbEntity
8
SK6
62
256
6
ByLayer
370
13
48
1
60
0
100
AcDbMText
10
-172.686086
20
28.910722
30
0
210
0
220
0
230
1
1
\W0.8077;PTFNL 4040S 27
40
3.5
41
0
44
1.084337
50
0
71
7
72
5
7
iso_b_vert
0
DIMENSION
5
FA
100
AcDbEntity
8
SK2
62
256
6
ByLayer
370
13
48
1
60
0
100
AcDbDimension
2
DimnDraft3D1
10
-225.685622
20
19.925
30
0
11
-225.685622
21
-0.075
31
0
70
32
71
5
72
1
41
1
210
0
220
0
230
1
3
Standard
100
AcDbAlignedDimension
13
-217.523122
23
-20.075
33
0
14
-217.523122
24
19.925
34
0
50
90
100
AcDbRotatedDimension
1001
ACAD
1000
DSTYLE
1002
{
1070
    74
1070
     0
1070
   279
1070
     0
1070
   172
1070
     1
1070
   173
1070
     1
1070
   340
1005
E9
1070
   271
1070
     1
1070
   272
1070
     2
1070
    77
1070
     1
1070
    73
1070
     0
1070
   171
1070
     3
1070
   274
1070
     4
1070
   177
1070
   150
1070
   176
1070
     9
1070
   178
1070
    43
1070
    78
1070
     8
1070
    48
1040
-0.005
1070
    41
1041
3.175
1070
   147
1041
2.25
1070
    42
1041
1.5875
1070
    44
1041
3.175
1070
   140
1041
4.5
1070
   343
1005
FB
1070
   344
1005
FB
1002
}
0
DIMENSION
5
110
100
AcDbEntity
8
2
62
256
6
ByLayer
370
13
48
1
60
0
100
AcDbDimension
2
DimnDraft3D2
10
66.914378
20
19.925
30
0
11
66.914378
21
-5.25
31
0
70
32
71
5
72
1
41
1
210
0
220
0
230
1
3
Standard
100
AcDbAlignedDimension
13
37.001878
23
-30.425
33
0
14
1.5875
24
19.925
34
0
50
90
100
AcDbRotatedDimension
1001
ACAD
1000
DSTYLE
1002
{
1070
    74
1070
     0
1070
   279
1070
     0
1070
   172
1070
     1
1070
   173
1070
     1
1070
   340
1005
E9
1070
   271
1070
     1
1070
   272
1070
     2
1070
    77
1070
     1
1070
    73
1070
     0
1070
   171
1070
     3
1070
   274
1070
     4
1070
   177
1070
   150
1070
   176
1070
     9
1070
   178
1070
    43
1070
    78
1070
     8
1070
    48
1040
-0.005
1070
    41
1041
3.175
1070
   147
1041
2.25
1070
    42
1041
1.5875
1070
    44
1041
3.175
1070
   140
1041
4.5
1070
   343
1005
FB
1070
   344
1005
FB
1002
}
0
DIMENSION
5
11E
100
AcDbEntity
8
SK2
62
256
6
ByLayer
370
13
48
1
60
0
100
AcDbDimension
2
DimnDraft3D3
10
35.414378
20
-46.925
30
0
11
-90.260622
21
-46.925
31
0
70
32
71
5
72
1
41
1
210
0
220
0
230
1
3
Standard
100
AcDbAlignedDimension
13
-215.935622
23
-21.6625
33
0
14
35.414378
24
-32.0125
34
0
50
0
100
AcDbRotatedDimension
1001
ACAD
1000
DSTYLE
1002
{
1070
   279
1070
     0
1070
   172
1070
     1
1070
   173
1070
     1
1070
   340
1005
E9
1070
   271
1070
     1
1070
   272
1070
     2
1070
    77
1070
     1
1070
    73
1070
     0
1070
   171
1070
     3
1070
   274
1070
     4
1070
   177
1070
   150
1070
   176
1070
     9
1070
   178
1070
    43
1070
    78
1070
     8
1070
    48
1040
-0.005
1070
    41
1041
3.175
1070
   147
1041
2.25
1070
    42
1041
1.5875
1070
    44
1041
3.175
1070
   140
1041
4.5
1070
   343
1005
FB
1070
   344
1005
FB
1002
}
0
DIMENSION
5
12B
100
AcDbEntity
8
2
62
256
6
ByLayer
370
13
48
1
60
0
100
AcDbDimension
2
DimnDraft3D4
10
34.942981
20
-2.217708
30
0
11
43.354841
21
-22.366058
31
0
70
34
71
5
72
1
41
1
210
0
220
0
230
1
3
Standard
100
AcDb2LineAngularDimension
13
35.414378
23
-30.425
33
0
14
33.033128
24
-30.425
34
0
15
35.414196
25
-29.213596
35
0
16
40.20075
26
-25.575685
36
0
40
0
0
ENDSEC
0
SECTION
2
OBJECTS
0
DICTIONARY
5
195
330
0
100
AcDbDictionary
280
0
281
1
3
ACAD_GROUP
350
196
3
ACAD_MLINESTYLE
350
197
0
DICTIONARY
5
196
330
0
100
AcDbDictionary
280
0
281
1
0
DICTIONARY
5
197
330
0
100
AcDbDictionary
280
0
281
1
3
Standard
350
18
0
MLINESTYLE
5
18
330
197
100
AcDbMlineStyle
2
Standard
70
0
3

62
256
51
90
52
90
71
2
49
-0.5
62
256
6
ByLayer
49
0.5
62
256
6
ByLayer
0
RASTERVARIABLES
5
184
330

100
AcDbRasterVariables
90
0
70
1
71
1
72
1
0
ENDSEC
0
EOF
