0
SECTION
2
HEADER
9
$ACADVER
1
AC1015
9
$DWGCODEPAGE
3
ANSI_1252
9
$HANDSEED
5
1b3
9
$ANGBASE
50
0
9
$ANGDIR
70
0
9
$ATTMODE
70
1
9
$AUNITS
70
0
9
$AUPREC
70
0
9
$CECOLOR
62
256
9
$CELTSCALE
40
1
9
$CELTYPE
6
ByLayer
9
$CELWEIGHT
370
18
9
$CLAYER
8
0
9
$CMLJUST
70
0
9
$CMLSCALE
40
1
9
$CMLSTYLE
2
Standard
9
$DIMSTYLE
2
Standard
9
$TEXTSIZE
40
0.2
9
$TEXTSTYLE
7
Standard
9
$LUNITS
70
2
9
$LUPREC
70
4
9
$EXTNAMES
290
1
9
$INSUNITS
70
4
9
$LTSCALE
40
1
9
$LWDISPLAY
290
1
9
$PDMODE
70
0
9
$PDSIZE
40
0
9
$PLINEGEN
70
0
0
ENDSEC
0
SECTION
2
CLASSES
0
CLASS
1
RASTERVARIABLES
2
AcDbRasterVariables
3
ISM
90
0
280
0
281
0
0
ENDSEC
0
SECTION
2
TABLES
0
TABLE
2
VPORT
5
1a9
100
AcDbSymbolTable
0
VPORT
5
1
100
AcDbSymbolTableRecord
100
AcDbViewportTableRecord
2
*Active
70
0
10
0
20
0
11
1
21
1
12
-1
22
1
13
0
23
0
14
0.5
24
0.5
15
10
25
10
16
0
26
0
36
1
17
0
27
0
37
0
0
ENDTAB
0
TABLE
2
LTYPE
5
1aa
100
AcDbSymbolTable
0
LTYPE
5
14
100
AcDbSymbolTableRecord
100
AcDbLinetypeTableRecord
70
0
2
ByBlock
3

72
65
73
0
40
0
0
LTYPE
5
15
100
AcDbSymbolTableRecord
100
AcDbLinetypeTableRecord
70
0
2
ByLayer
3

72
65
73
0
40
0
0
LTYPE
5
16
100
AcDbSymbolTableRecord
100
AcDbLinetypeTableRecord
70
0
2
CONTINUOUS
3
Solid line
72
65
73
0
40
0
0
LTYPE
5
6A
100
AcDbSymbolTableRecord
100
AcDbLinetypeTableRecord
70
0
2
CENTER
3
____ _ ____ _ ____ _ ____
72
65
73
4
40
47.5
49
22
74
0
49
-8.5
74
0
49
8.5
74
0
49
-8.5
74
0
0
LTYPE
5
6B
100
AcDbSymbolTableRecord
100
AcDbLinetypeTableRecord
70
0
2
DASHED
3
__ __ __ __ __ __ __ __ __
72
65
73
2
40
25.72
49
12.86
74
0
49
-12.86
74
0
0
ENDTAB
0
TABLE
2
LAYER
5
1ab
100
AcDbSymbolTable
0
LAYER
5
10
100
AcDbSymbolTableRecord
100
AcDbLayerTableRecord
2
0
70
0
62
7
6
CONTINUOUS
290
1
370
-3
390
0
0
LAYER
5
6D
100
AcDbSymbolTableRecord
100
AcDbLayerTableRecord
2
80
70
0
62
-6
6
CONTINUOUS
290
1
370
-3
390
0
0
LAYER
5
6F
100
AcDbSymbolTableRecord
100
AcDbLayerTableRecord
2
81
70
0
62
-3
6
CONTINUOUS
290
1
370
-3
390
0
0
LAYER
5
71
100
AcDbSymbolTableRecord
100
AcDbLayerTableRecord
2
1
70
0
62
4
6
CONTINUOUS
290
1
370
-3
390
0
0
LAYER
5
114
100
AcDbSymbolTableRecord
100
AcDbLayerTableRecord
2
2
70
0
62
7
6
CONTINUOUS
290
1
370
-3
390
0
0
LAYER
5
196
100
AcDbSymbolTableRecord
100
AcDbLayerTableRecord
2
SK1
70
0
62
4
6
CONTINUOUS
290
1
370
-3
390
0
0
LAYER
5
197
100
AcDbSymbolTableRecord
100
AcDbLayerTableRecord
2
SK6
70
0
62
5
6
CONTINUOUS
290
1
370
-3
390
0
0
LAYER
5
198
100
AcDbSymbolTableRecord
100
AcDbLayerTableRecord
2
SK2
70
0
62
7
6
CONTINUOUS
290
1
370
-3
390
0
0
ENDTAB
0
TABLE
2
STYLE
5
1ac
100
AcDbSymbolTable
0
STYLE
5
11
100
AcDbSymbolTableRecord
100
AcDbTextStyleTableRecord
2
Standard
3
txt
70
0
71
0
40
0
41
1
42
0
50
0
0
STYLE
5
F9
100
AcDbSymbolTableRecord
100
AcDbTextStyleTableRecord
2
iso_b_vert
3
simplex.shx
70
0
71
0
40
0
41
1
42
0
50
0
0
STYLE
5
FA
100
AcDbSymbolTableRecord
100
AcDbTextStyleTableRecord
2
DWGDirectTextStyle
3
simplex
70
0
71
0
40
0
41
1
42
0
50
0
0
ENDTAB
0
TABLE
2
DIMSTYLE
5
1ad
100
AcDbSymbolTable
100
AcDbDimStyleTable
0
DIMSTYLE
105
27
100
AcDbSymbolTableRecord
100
AcDbDimStyleTableRecord
2
Standard
70
0
3
<>
41
0.18
42
0.0625
44
0.18
140
0.18
147
0.09
73
0
74
0
77
1
271
2
275
0
278
52
280
0
340
11
0
ENDTAB
0
TABLE
2
VIEW
5
1ae
100
AcDbSymbolTable
0
ENDTAB
0
TABLE
2
UCS
5
1af
100
AcDbSymbolTable
0
ENDTAB
0
TABLE
2
APPID
5
1b0
100
AcDbSymbolTable
0
APPID
5
12
100
AcDbSymbolTableRecord
100
AcDbRegAppTableRecord
2
ACAD
70
0
0
ENDTAB
0
TABLE
2
BLOCK_RECORD
5
1b1
100
AcDbSymbolTable
0
BLOCK_RECORD
5
1F
100
AcDbSymbolTableRecord
100
AcDbBlockTableRecord
2
*Model_Space
340
0
70
0
0
BLOCK_RECORD
5
1B
100
AcDbSymbolTableRecord
100
AcDbBlockTableRecord
2
*Paper_Space
340
0
70
0
0
BLOCK_RECORD
5
23
100
AcDbSymbolTableRecord
100
AcDbBlockTableRecord
2
*Paper_Space0
340
0
70
0
0
BLOCK_RECORD
5
FC
100
AcDbSymbolTableRecord
100
AcDbBlockTableRecord
2
DimnDraft3D1
340
0
70
0
0
BLOCK_RECORD
5
10B
100
AcDbSymbolTableRecord
100
AcDbBlockTableRecord
2
_CLOSED
340
0
70
0
0
BLOCK_RECORD
5
112
100
AcDbSymbolTableRecord
100
AcDbBlockTableRecord
2
DimnDraft3D2
340
0
70
0
0
BLOCK_RECORD
5
121
100
AcDbSymbolTableRecord
100
AcDbBlockTableRecord
2
DimnDraft3D3
340
0
70
0
0
BLOCK_RECORD
5
12F
100
AcDbSymbolTableRecord
100
AcDbBlockTableRecord
2
DimnDraft3D4
340
0
70
0
0
ENDTAB
0
ENDSEC
0
SECTION
2
BLOCKS
0
BLOCK
5
20
100
AcDbEntity
8
0
100
AcDbBlockBegin
2
*Model_Space
70
0
10
0
20
0
30
0
3
*Model_Space
0
ENDBLK
5
21
100
AcDbEntity
8
0
100
AcDbBlockEnd
0
BLOCK
5
1C
100
AcDbEntity
8
0
100
AcDbBlockBegin
2
*Paper_Space
70
0
10
0
20
0
30
0
3
*Paper_Space
0
ENDBLK
5
1D
100
AcDbEntity
8
0
100
AcDbBlockEnd
0
BLOCK
5
24
100
AcDbEntity
8
0
100
AcDbBlockBegin
2
*Paper_Space0
70
0
10
0
20
0
30
0
3
*Paper_Space0
0
ENDBLK
5
25
100
AcDbEntity
8
0
100
AcDbBlockEnd
0
BLOCK
5
108
100
AcDbEntity
8
0
100
AcDbBlockBegin
2
DimnDraft3D1
70
0
10
0
20
0
30
0
3
DimnDraft3D1
0
MTEXT
5
FD
100
AcDbEntity
8
SK2
62
256
6
ByLayer
370
13
48
1
60
0
100
AcDbMText
10
-149.855949
20
-1.488158
30
0
210
0
220
0
230
1
1
\W0.6740;32
40
4.5
41
0
44
1.084337
50
90
71
7
72
5
7
iso_b_vert
0
LINE
5
FF
100
AcDbEntity
8
SK2
62
256
6
ByLayer
370
13
48
1
60
0
100
AcDbLine
10
-140.568449
20
16.075
30
0
11
-151.905949
21
16.075
31
0
39
0
210
0
220
0
230
1
0
LINE
5
100
100
AcDbEntity
8
SK2
62
256
6
ByLayer
370
13
48
1
60
0
100
AcDbLine
10
-140.568449
20
-15.925
30
0
11
-151.905949
21
-15.925
31
0
39
0
210
0
220
0
230
1
0
LINE
5
101
100
AcDbEntity
8
SK2
62
256
6
ByLayer
370
13
48
1
60
0
100
AcDbLine
10
-148.730949
20
16.075
30
0
11
-148.730949
21
-15.925
31
0
39
0
210
0
220
0
230
1
0
LINE
5
102
100
AcDbEntity
8
SK2
62
256
6
ByLayer
370
13
48
1
60
0
100
AcDbLine
10
-148.730949
20
16.075
30
0
11
-147.880211
21
12.900003
31
0
39
0
210
0
220
0
230
1
0
LINE
5
103
100
AcDbEntity
8
SK2
62
256
6
ByLayer
370
13
48
1
60
0
100
AcDbLine
10
-148.730949
20
16.075
30
0
11
-149.581688
21
12.899997
31
0
39
0
210
0
220
0
230
1
0
LINE
5
104
100
AcDbEntity
8
SK2
62
256
6
ByLayer
370
13
48
1
60
0
100
AcDbLine
10
-147.880211
20
12.900003
30
0
11
-149.581688
21
12.899997
31
0
39
0
210
0
220
0
230
1
0
LINE
5
105
100
AcDbEntity
8
SK2
62
256
6
ByLayer
370
13
48
1
60
0
100
AcDbLine
10
-148.730949
20
-15.925
30
0
11
-149.581688
21
-12.750003
31
0
39
0
210
0
220
0
230
1
0
LINE
5
106
100
AcDbEntity
8
SK2
62
256
6
ByLayer
370
13
48
1
60
0
100
AcDbLine
10
-148.730949
20
-15.925
30
0
11
-147.880211
21
-12.749997
31
0
39
0
210
0
220
0
230
1
0
LINE
5
107
100
AcDbEntity
8
SK2
62
256
6
ByLayer
370
13
48
1
60
0
100
AcDbLine
10
-149.581688
20
-12.750003
30
0
11
-147.880211
21
-12.749997
31
0
39
0
210
0
220
0
230
1
0
ENDBLK
5
109
100
AcDbEntity
8
0
100
AcDbBlockEnd
0
BLOCK
5
10C
100
AcDbEntity
8
0
100
AcDbBlockBegin
2
_CLOSED
70
0
10
0
20
0
30
0
3
_CLOSED
0
LINE
5
10E
100
AcDbEntity
8
0
62
256
6
ByLayer
370
-2
48
1
60
0
100
AcDbLine
10
-1
20
0.166667
30
0
11
0
21
0
31
0
39
0
210
0
220
0
230
1
0
LINE
5
10F
100
AcDbEntity
8
0
62
256
6
ByLayer
370
-2
48
1
60
0
100
AcDbLine
10
0
20
0
30
0
11
-1
21
-0.166667
31
0
39
0
210
0
220
0
230
1
0
LINE
5
110
100
AcDbEntity
8
0
62
256
6
ByLayer
370
-2
48
1
60
0
100
AcDbLine
10
-1
20
0.166667
30
0
11
-1
21
-0.166667
31
0
39
0
210
0
220
0
230
1
0
LINE
5
111
100
AcDbEntity
8
0
62
256
6
ByLayer
370
-2
48
1
60
0
100
AcDbLine
10
0
20
0
30
0
11
-1
21
0
31
0
39
0
210
0
220
0
230
1
0
ENDBLK
5
10D
100
AcDbEntity
8
0
100
AcDbBlockEnd
0
BLOCK
5
11E
100
AcDbEntity
8
0
100
AcDbBlockBegin
2
DimnDraft3D2
70
0
10
0
20
0
30
0
3
DimnDraft3D2
0
MTEXT
5
113
100
AcDbEntity
8
2
62
256
6
ByLayer
370
13
48
1
60
0
100
AcDbMText
10
67.621043
20
2.45
30
0
210
0
220
0
230
1
1
\W0.7361;40
40
4.5
41
0
44
1.084337
50
90
71
7
72
5
7
iso_b_vert
0
LINE
5
115
100
AcDbEntity
8
2
62
256
6
ByLayer
370
13
48
1
60
0
100
AcDbLine
10
-8.408835
20
-15.925
30
0
11
71.921043
21
-15.925
31
0
39
0
210
0
220
0
230
1
0
LINE
5
116
100
AcDbEntity
8
2
62
256
6
ByLayer
370
13
48
1
60
0
100
AcDbLine
10
33.956551
20
24.425
30
0
11
71.921043
21
24.425
31
0
39
0
210
0
220
0
230
1
0
LINE
5
117
100
AcDbEntity
8
2
62
256
6
ByLayer
370
13
48
1
60
0
100
AcDbLine
10
68.746043
20
-15.925
30
0
11
68.746043
21
24.425
31
0
39
0
210
0
220
0
230
1
0
LINE
5
118
100
AcDbEntity
8
2
62
256
6
ByLayer
370
13
48
1
60
0
100
AcDbLine
10
68.746043
20
-15.925
30
0
11
67.895304
21
-12.750003
31
0
39
0
210
0
220
0
230
1
0
LINE
5
119
100
AcDbEntity
8
2
62
256
6
ByLayer
370
13
48
1
60
0
100
AcDbLine
10
68.746043
20
-15.925
30
0
11
69.596782
21
-12.749997
31
0
39
0
210
0
220
0
230
1
0
LINE
5
11A
100
AcDbEntity
8
2
62
256
6
ByLayer
370
13
48
1
60
0
100
AcDbLine
10
67.895304
20
-12.750003
30
0
11
69.596782
21
-12.749997
31
0
39
0
210
0
220
0
230
1
0
LINE
5
11B
100
AcDbEntity
8
2
62
256
6
ByLayer
370
13
48
1
60
0
100
AcDbLine
10
68.746043
20
24.425
30
0
11
69.596782
21
21.250003
31
0
39
0
210
0
220
0
230
1
0
LINE
5
11C
100
AcDbEntity
8
2
62
256
6
ByLayer
370
13
48
1
60
0
100
AcDbLine
10
68.746043
20
24.425
30
0
11
67.895304
21
21.249997
31
0
39
0
210
0
220
0
230
1
0
LINE
5
11D
100
AcDbEntity
8
2
62
256
6
ByLayer
370
13
48
1
60
0
100
AcDbLine
10
69.596782
20
21.250003
30
0
11
67.895304
21
21.249997
31
0
39
0
210
0
220
0
230
1
0
ENDBLK
5
11F
100
AcDbEntity
8
0
100
AcDbBlockEnd
0
BLOCK
5
12C
100
AcDbEntity
8
0
100
AcDbBlockBegin
2
DimnDraft3D3
70
0
10
0
20
0
30
0
3
DimnDraft3D3
0
MTEXT
5
122
100
AcDbEntity
8
SK2
62
256
6
ByLayer
370
13
48
1
60
0
100
AcDbMText
10
-55.988186
20
33.05
30
0
210
0
220
0
230
1
1
\W0.6217;170
40
4.5
41
0
44
1.084337
50
0
71
7
72
5
7
iso_b_vert
0
LINE
5
123
100
AcDbEntity
8
SK2
62
256
6
ByLayer
370
13
48
1
60
0
100
AcDbLine
10
-138.980949
20
17.6625
30
0
11
-138.980949
21
35.1
31
0
39
0
210
0
220
0
230
1
0
LINE
5
124
100
AcDbEntity
8
SK2
62
256
6
ByLayer
370
13
48
1
60
0
100
AcDbLine
10
32.369051
20
26.0125
30
0
11
32.369051
21
35.1
31
0
39
0
210
0
220
0
230
1
0
LINE
5
125
100
AcDbEntity
8
SK2
62
256
6
ByLayer
370
13
48
1
60
0
100
AcDbLine
10
-138.980949
20
31.925
30
0
11
32.369051
21
31.925
31
0
39
0
210
0
220
0
230
1
0
LINE
5
126
100
AcDbEntity
8
SK2
62
256
6
ByLayer
370
13
48
1
60
0
100
AcDbLine
10
-138.980949
20
31.925
30
0
11
-135.805953
21
32.775739
31
0
39
0
210
0
220
0
230
1
0
LINE
5
127
100
AcDbEntity
8
SK2
62
256
6
ByLayer
370
13
48
1
60
0
100
AcDbLine
10
-138.980949
20
31.925
30
0
11
-135.805946
21
31.074261
31
0
39
0
210
0
220
0
230
1
0
LINE
5
128
100
AcDbEntity
8
SK2
62
256
6
ByLayer
370
13
48
1
60
0
100
AcDbLine
10
-135.805953
20
32.775739
30
0
11
-135.805946
21
31.074261
31
0
39
0
210
0
220
0
230
1
0
LINE
5
129
100
AcDbEntity
8
SK2
62
256
6
ByLayer
370
13
48
1
60
0
100
AcDbLine
10
32.369051
20
31.925
30
0
11
29.194054
21
31.074261
31
0
39
0
210
0
220
0
230
1
0
LINE
5
12A
100
AcDbEntity
8
SK2
62
256
6
ByLayer
370
13
48
1
60
0
100
AcDbLine
10
32.369051
20
31.925
30
0
11
29.194047
21
32.775739
31
0
39
0
210
0
220
0
230
1
0
LINE
5
12B
100
AcDbEntity
8
SK2
62
256
6
ByLayer
370
13
48
1
60
0
100
AcDbLine
10
29.194054
20
31.074261
30
0
11
29.194047
21
32.775739
31
0
39
0
210
0
220
0
230
1
0
ENDBLK
5
12D
100
AcDbEntity
8
0
100
AcDbBlockEnd
0
BLOCK
5
13A
100
AcDbEntity
8
0
100
AcDbBlockBegin
2
DimnDraft3D4
70
0
10
0
20
0
30
0
3
DimnDraft3D4
0
MTEXT
5
130
100
AcDbEntity
8
2
62
256
6
ByLayer
370
13
48
1
60
0
100
AcDbMText
10
47.935733
20
5.375315
30
0
210
0
220
0
230
1
1
\W0.8292;75%%d0'
40
4.5
41
0
44
1.084337
50
52.5000000000001
71
7
72
5
7
iso_b_vert
0
LINE
5
131
100
AcDbEntity
8
2
62
256
6
ByLayer
370
13
48
1
60
0
100
AcDbLine
10
37.656918
20
3.656533
30
0
11
39.459664
21
-3.071405
31
0
39
0
210
0
220
0
230
1
0
LINE
5
132
100
AcDbEntity
8
2
62
256
6
ByLayer
370
13
48
1
60
0
100
AcDbLine
10
33.956551
20
24.425
30
0
11
60.558397
21
24.425
31
0
39
0
210
0
220
0
230
1
0
ARC
5
133
100
AcDbEntity
8
2
62
256
6
ByLayer
370
13
48
1
60
0
100
AcDbCircle
39
0
10
32.092024
20
24.425
30
0
40
25.2913730240463
210
0
220
0
230
1
100
AcDbArc
50
285
51
0
0
LINE
5
134
100
AcDbEntity
8
2
62
256
6
ByLayer
370
13
48
1
60
0
100
AcDbLine
10
38.637913
20
-0.00459
30
0
11
41.431635
21
1.72731
31
0
39
0
210
0
220
0
230
1
0
LINE
5
135
100
AcDbEntity
8
2
62
256
6
ByLayer
370
13
48
1
60
0
100
AcDbLine
10
38.637913
20
-0.00459
30
0
11
41.923304
21
0.098418
31
0
39
0
210
0
220
0
230
1
0
LINE
5
136
100
AcDbEntity
8
2
62
256
6
ByLayer
370
13
48
1
60
0
100
AcDbLine
10
41.431635
20
1.72731
30
0
11
41.923304
21
0.098418
31
0
39
0
210
0
220
0
230
1
0
LINE
5
137
100
AcDbEntity
8
2
62
256
6
ByLayer
370
13
48
1
60
0
100
AcDbLine
10
57.383397
20
24.425
30
0
11
58.13422
21
21.224902
31
0
39
0
210
0
220
0
230
1
0
LINE
5
138
100
AcDbEntity
8
2
62
256
6
ByLayer
370
13
48
1
60
0
100
AcDbLine
10
57.383397
20
24.425
30
0
11
56.433578
21
21.278217
31
0
39
0
210
0
220
0
230
1
0
LINE
5
139
100
AcDbEntity
8
2
62
256
6
ByLayer
370
13
48
1
60
0
100
AcDbLine
10
58.13422
20
21.224902
30
0
11
56.433578
21
21.278217
31
0
39
0
210
0
220
0
230
1
0
ENDBLK
5
13B
100
AcDbEntity
8
0
100
AcDbBlockEnd
0
ENDSEC
0
SECTION
2
ENTITIES
0
ARC
5
B4
100
AcDbEntity
8
1
62
256
6
ByLayer
370
18
48
1
60
0
100
AcDbCircle
39
0
10
0
20
17.525
30
0
40
1.5999999999999
210
0
220
0
230
-1
100
AcDbArc
50
195
51
270
0
ELLIPSE
5
B5
100
AcDbEntity
8
1
62
256
6
ByLayer
370
18
48
1
60
0
100
AcDbEllipse
10
21.361703
20
0.732114
30
0
11
-2.19377593668341
21
1.26657712758602
31
0
210
0
220
0
230
1
40
0.989133
41
-2.84438290448127
42
-2.36165769871386
0
ELLIPSE
5
B6
100
AcDbEntity
8
1
62
256
6
ByLayer
370
18
48
1
60
0
100
AcDbEllipse
10
20.27245
20
9.439328
30
0
11
-3.1176914536239
21
1.80000000000015
31
0
210
0
220
0
230
1
40
0.989133
41
0.77993495487595
42
1.05366199765728
0
ELLIPSE
5
B7
100
AcDbEntity
8
1
62
256
6
ByLayer
370
18
48
1
60
0
100
AcDbEllipse
10
21.372858
20
0.751435
30
0
11
2.32367095292345
21
-1.34157205017862
31
0
210
0
220
0
230
1
40
0.989133
41
0.374571443070229
42
0.779934954875947
0
ELLIPSE
5
B8
100
AcDbEntity
8
1
62
256
6
ByLayer
370
18
48
1
60
0
100
AcDbEllipse
10
24.034738
20
2.198122
30
0
11
0.0374166454010243
21
-0.14525912498659
31
0
210
0
220
0
230
-1
40
0.091882
41
-0.116757266121528
42
1.46567458902691
0
ELLIPSE
5
B9
100
AcDbEntity
8
1
62
256
6
ByLayer
370
18
48
1
60
0
100
AcDbEllipse
10
19.3604
20
12.843148
30
0
11
-3.11769145362392
21
1.80000000000016
31
0
210
0
220
0
230
1
40
0.989133
41
0.490247960878824
42
0.77993495487595
0
ELLIPSE
5
BA
100
AcDbEntity
8
1
62
256
6
ByLayer
370
18
48
1
60
0
100
AcDbEllipse
10
21.185268
20
2.042189
30
0
11
2.08847741339049
21
-1.20578299681758
31
0
210
0
220
0
230
1
40
0.989133
41
-2.36165769871386
42
-0.963079676491562
0
ELLIPSE
5
BB
100
AcDbEntity
8
1
62
256
6
ByLayer
370
18
48
1
60
0
100
AcDbEllipse
10
23.813435
20
1.376699
30
0
11
0.144888873943362
21
0.0388228567653725
31
0
210
0
220
0
230
1
40
0.104528
41
-1.67494656688967
42
-0.0925141299712925
0
ELLIPSE
5
BC
100
AcDbEntity
8
1
62
256
6
ByLayer
370
18
48
1
60
0
100
AcDbEllipse
10
22.140933
20
2.08178
30
0
11
2.21837739430766
21
-1.28078078576785
31
0
210
0
220
0
230
1
40
0.989133
41
-1.3467353336129
42
0.779934954875967
0
ELLIPSE
5
BD
100
AcDbEntity
8
1
62
256
6
ByLayer
370
18
48
1
60
0
100
AcDbEllipse
10
10.475667
20
1.987234
30
0
11
3.89711431702987
21
-2.25000000000019
31
0
210
0
220
0
230
1
40
0.989133
41
0
42
6.28318530717959
0
ELLIPSE
5
BE
100
AcDbEntity
8
1
62
256
6
ByLayer
370
18
48
1
60
0
100
AcDbEllipse
10
0
20
-15.931981
30
0
11
1.59999999999862
21
1.61702248813039E-15
31
0
210
0
220
0
230
-1
40
0.004363
41
-1.57079632455877
42
-0.261799387798096
0
ELLIPSE
5
BF
100
AcDbEntity
8
1
62
256
6
ByLayer
370
18
48
1
60
0
100
AcDbEllipse
10
10.035274
20
1.22445
30
0
11
1.79267258583374
21
-1.03500000000009
31
0
210
0
220
0
230
1
40
0.989133
41
0.205544325075655
42
0.528343195976288
0
ELLIPSE
5
C0
100
AcDbEntity
8
1
62
256
6
ByLayer
370
18
48
1
60
0
100
AcDbEllipse
10
10.035274
20
1.22445
30
0
11
1.79267258583374
21
-1.03500000000009
31
0
210
0
220
0
230
1
40
0.989133
41
0.528343195976287
42
3.03965392342752
0
ELLIPSE
5
C1
100
AcDbEntity
8
1
62
256
6
ByLayer
370
18
48
1
60
0
100
AcDbEllipse
10
10.123488
20
1.377243
30
0
11
-1.79267258583374
21
1.03500000000009
31
0
210
0
220
0
230
1
40
0.989133
41
-0.185547657300241
42
6.93266659886203E-07
0
ELLIPSE
5
C2
100
AcDbEntity
8
1
62
256
6
ByLayer
370
18
48
1
60
0
100
AcDbEllipse
10
10.123488
20
1.377243
30
0
11
-1.79267258583374
21
1.03500000000009
31
0
210
0
220
0
230
1
40
0.989133
41
-2.98667539832423
42
-2.72262531805332
0
ELLIPSE
5
C3
100
AcDbEntity
8
1
62
256
6
ByLayer
370
18
48
1
60
0
100
AcDbEllipse
10
24.610533
20
12.79573
30
0
11
-3.46410161513766
21
2.00000000000016
31
0
210
0
220
0
230
1
40
0.989133
41
2.6459826779736
42
3.14158618029285
0
ELLIPSE
5
C4
100
AcDbEntity
8
1
62
256
6
ByLayer
370
18
48
1
60
0
100
AcDbEllipse
10
25.449963
20
11.678269
30
0
11
3.46410161513766
21
-2.00000000000016
31
0
210
0
220
0
230
1
40
0.989133
41
3.14158055012751
42
-2.92130831269226
0
ELLIPSE
5
C5
100
AcDbEntity
8
1
62
256
6
ByLayer
370
18
48
1
60
0
100
AcDbEllipse
10
25.176487
20
12.213265
30
0
11
-3.24759526419155
21
1.87500000000015
31
0
210
0
220
0
230
1
40
0.989133
41
9.31896942361447E-06
42
0.197477272633806
0
ELLIPSE
5
C6
100
AcDbEntity
8
1
62
256
6
ByLayer
370
18
48
1
60
0
100
AcDbEllipse
10
24.126047
20
10.670877
30
0
11
3.68060796608375
21
-2.12500000000017
31
0
210
0
220
0
230
1
40
0.989133
41
0.454987280983062
42
0.474965955306557
0
ELLIPSE
5
C7
100
AcDbEntity
8
1
62
256
6
ByLayer
370
18
48
1
60
0
100
AcDbEllipse
10
24.295493
20
10.964366
30
0
11
-3.60266567974317
21
2.08000000000017
31
0
210
0
220
0
230
1
40
0.989133
41
-2.74588832815634
42
-2.69725636072963
0
ELLIPSE
5
C8
100
AcDbEntity
8
1
62
256
6
ByLayer
370
18
48
1
60
0
100
AcDbEllipse
10
19.222875
20
2.30712
30
0
11
1.03111149638082
21
-0.595312500000049
31
0
210
0
220
0
230
1
40
0.989133
41
-1.27604132426433
42
-0.790861371918956
0
ELLIPSE
5
C9
100
AcDbEntity
8
1
62
256
6
ByLayer
370
18
48
1
60
0
100
AcDbEllipse
10
35.283288
20
6.422965
30
0
11
1.03111149638082
21
-0.595312500000049
31
0
210
0
220
0
230
1
40
0.989133
41
-0.536416981066001
42
-1.46420598427389E-05
0
ELLIPSE
5
CA
100
AcDbEntity
8
1
62
256
6
ByLayer
370
18
48
1
60
0
100
AcDbEllipse
10
25.107803
20
12.371329
30
0
11
-3.43162566249575
21
1.98125000000016
31
0
210
0
220
0
230
1
40
0.989133
41
-3.01066121634743
42
-2.45558099797324
0
ELLIPSE
5
CB
100
AcDbEntity
8
1
62
256
6
ByLayer
370
18
48
1
60
0
100
AcDbEllipse
10
25.107803
20
12.371329
30
0
11
-3.43162566249575
21
1.98125000000016
31
0
210
0
220
0
230
1
40
0.989133
41
-1.00367422712107
42
-0.112345567615521
0
ELLIPSE
5
CC
100
AcDbEntity
8
1
62
256
6
ByLayer
370
18
48
1
60
0
100
AcDbEllipse
10
25.891037
20
12.442231
30
0
11
3.46410161513766
21
-2.00000000000016
31
0
210
0
220
0
230
1
40
0.989133
41
1.61226065042171
42
-2.42603852338204
0
ELLIPSE
5
CD
100
AcDbEntity
8
1
62
256
6
ByLayer
370
18
48
1
60
0
100
AcDbEllipse
10
25.088362
20
13.623356
30
0
11
-3.03108891324545
21
1.75000000000014
31
0
210
0
220
0
230
1
40
0.989133
41
1.62439809996152
42
-2.43817597292197
0
ELLIPSE
5
CE
100
AcDbEntity
8
1
62
256
6
ByLayer
370
18
48
1
60
0
100
AcDbEllipse
10
25.471322
20
13.000961
30
0
11
3.24759526419155
21
-1.87500000000015
31
0
210
0
220
0
230
1
40
0.989133
41
0.884574678948448
42
1.44324010168094
0
ELLIPSE
5
CF
100
AcDbEntity
8
1
62
256
6
ByLayer
370
18
48
1
60
0
100
AcDbEllipse
10
25.508078
20
13.064625
30
0
11
-2.81458256229934
21
1.62500000000013
31
0
210
0
220
0
230
1
40
0.989133
41
-2.24400925550077
42
-1.71136127104939
0
ELLIPSE
5
D0
100
AcDbEntity
8
1
62
256
6
ByLayer
370
18
48
1
60
0
100
AcDbEllipse
10
25.508078
20
13.064625
30
0
11
-2.81458256229935
21
1.62500000000013
31
0
210
0
220
0
230
1
40
0.989133
41
0.897583398089056
42
1.43023138254031
0
ELLIPSE
5
D1
100
AcDbEntity
8
1
62
256
6
ByLayer
370
18
48
1
60
0
100
AcDbEllipse
10
25.927793
20
12.505894
30
0
11
-3.03108891324545
21
1.75000000000014
31
0
210
0
220
0
230
1
40
0.989133
41
-1.5171945536282
42
0.70341668066787
0
ELLIPSE
5
D2
100
AcDbEntity
8
1
62
256
6
ByLayer
370
18
48
1
60
0
100
AcDbEllipse
10
25.471322
20
13.000961
30
0
11
3.24759526419156
21
-1.87500000000015
31
0
210
0
220
0
230
1
40
0.989133
41
-2.25701797464129
42
-1.69835255190889
0
ELLIPSE
5
D3
100
AcDbEntity
8
1
62
256
6
ByLayer
370
18
48
1
60
0
100
AcDbEllipse
10
25.051606
20
13.559692
30
0
11
3.46410161513766
21
-2.00000000000016
31
0
210
0
220
0
230
1
40
0.989133
41
-1.52933200316813
42
0.715554130207699
0
ELLIPSE
5
D4
100
AcDbEntity
8
1
62
256
6
ByLayer
370
18
48
1
60
0
100
AcDbEllipse
10
10.453191
20
1.948304
30
0
11
-1.79267258583374
21
1.03500000000009
31
0
210
0
220
0
230
1
40
0.989133
41
-0.628230215660181
42
-0.18554765730025
0
ELLIPSE
5
D5
100
AcDbEntity
8
1
62
256
6
ByLayer
370
18
48
1
60
0
100
AcDbEllipse
10
10.453191
20
1.948304
30
0
11
-1.79267258583374
21
1.03500000000009
31
0
210
0
220
0
230
1
40
0.989133
41
1.46616488673305
42
1.90884744509296
0
ELLIPSE
5
D6
100
AcDbEntity
8
1
62
256
6
ByLayer
370
18
48
1
60
0
100
AcDbEllipse
10
10.468996
20
1.975679
30
0
11
2.11517258583373
21
-1.22119546181375
31
0
210
0
220
0
230
1
40
0.989133
41
0
42
6.28318530717959
0
ELLIPSE
5
D7
100
AcDbEntity
8
1
62
256
6
ByLayer
370
18
48
1
60
0
100
AcDbEllipse
10
10.123488
20
1.377243
30
0
11
-1.79267258583374
21
1.03500000000009
31
0
210
0
220
0
230
1
40
0.989133
41
-2.27994275969344
42
-1.67542776685674
0
ELLIPSE
5
D8
100
AcDbEntity
8
1
62
256
6
ByLayer
370
18
48
1
60
0
100
AcDbEllipse
10
10.453191
20
1.948304
30
0
11
-1.79267258583374
21
1.03500000000009
31
0
210
0
220
0
230
1
40
0.989133
41
2.51336243792965
42
2.95604499628955
0
ELLIPSE
5
D9
100
AcDbEntity
8
1
62
256
6
ByLayer
370
18
48
1
60
0
100
AcDbEllipse
10
10.453191
20
1.948304
30
0
11
-1.79267258583374
21
1.03500000000009
31
0
210
0
220
0
230
1
40
0.989133
41
0.418967335536442
42
0.861649893896351
0
ELLIPSE
5
DA
100
AcDbEntity
8
1
62
256
6
ByLayer
370
18
48
1
60
0
100
AcDbEllipse
10
10.468996
20
1.975679
30
0
11
3.667617585027
21
-2.11750000000018
31
0
210
0
220
0
230
1
40
0.989133
41
0
42
6.28318530717959
0
ELLIPSE
5
DB
100
AcDbEntity
8
1
62
256
6
ByLayer
370
18
48
1
60
0
100
AcDbEllipse
10
10.453191
20
1.948304
30
0
11
-1.79267258583374
21
1.03500000000009
31
0
210
0
220
0
230
1
40
0.989133
41
-2.72262531805332
42
-2.27994275969345
0
ELLIPSE
5
DC
100
AcDbEntity
8
1
62
256
6
ByLayer
370
18
48
1
60
0
100
AcDbEllipse
10
10.453191
20
1.948304
30
0
11
-1.79267258583374
21
1.03500000000009
31
0
210
0
220
0
230
1
40
0.989133
41
-1.67542776685675
42
-1.23274520849683
0
ELLIPSE
5
DD
100
AcDbEntity
8
1
62
256
6
ByLayer
370
18
48
1
60
0
100
AcDbEllipse
10
10.123488
20
1.377243
30
0
11
-1.79267258583374
21
1.03500000000009
31
0
210
0
220
0
230
1
40
0.989133
41
-1.23274520849683
42
-0.628230215660167
0
ELLIPSE
5
DE
100
AcDbEntity
8
1
62
256
6
ByLayer
370
18
48
1
60
0
100
AcDbEllipse
10
19.689678
20
3.115646
30
0
11
-1.03111149638082
21
0.595312500000049
31
0
210
0
220
0
230
1
40
0.989133
41
0.779934954875931
42
2.35073128167084
0
ELLIPSE
5
DF
100
AcDbEntity
8
1
62
256
6
ByLayer
370
18
48
1
60
0
100
AcDbEllipse
10
25.574606
20
13.179856
30
0
11
-3.43162566249575
21
1.98125000000016
31
0
210
0
220
0
230
1
40
0.989133
41
0
42
6.28318530717959
0
ELLIPSE
5
E0
100
AcDbEntity
8
1
62
256
6
ByLayer
370
18
48
1
60
0
100
AcDbEllipse
10
35.750091
20
7.231491
30
0
11
-1.03111149638082
21
0.595312500000049
31
0
210
0
220
0
230
1
40
0.989133
41
2.35073128167086
42
-2.36165769871385
0
ELLIPSE
5
E1
100
AcDbEntity
8
1
62
256
6
ByLayer
370
18
48
1
60
0
100
AcDbEllipse
10
31.459534
20
23.244066
30
0
11
-1.03111149638082
21
0.595312500000049
31
0
210
0
220
0
230
1
40
0.989133
41
-2.36165769871385
42
-0.790861371918927
0
ELLIPSE
5
E2
100
AcDbEntity
8
1
62
256
6
ByLayer
370
18
48
1
60
0
100
AcDbEllipse
10
15.399122
20
19.12822
30
0
11
-1.03111149638082
21
0.595312500000049
31
0
210
0
220
0
230
1
40
0.989133
41
-0.790861371918954
42
0.779934954875924
0
POINT
5
6C
100
AcDbEntity
8
80
62
256
6
ByLayer
370
18
48
1
60
0
100
AcDbPoint
10
0
20
0
30
0
39
0
210
0
220
0
230
1
50
360
0
POINT
5
6E
100
AcDbEntity
8
81
62
256
6
ByLayer
370
18
48
1
60
0
100
AcDbPoint
10
31.019051
20
24.075
30
0
39
0
210
0
220
0
230
1
50
360
0
POINT
5
70
100
AcDbEntity
8
1
62
256
6
ByLayer
370
18
48
1
60
0
100
AcDbPoint
10
-138.980949
20
-15.925
30
0
39
0
210
0
220
0
230
1
50
360
0
SPLINE
5
E3
100
AcDbEntity
8
1
62
256
6
ByLayer
370
18
48
1
60
0
100
AcDbSpline
70
4
71
3
72
18
73
14
40
0
40
0
40
0
40
0
40
0.0222853247556391
40
0.0222853247556391
40
0.348190216503759
40
0.348190216503759
40
0.511142662377819
40
0.511142662377819
40
0.67409510825188
40
0.67409510825188
40
0.83704755412594
40
0.83704755412594
40
1
40
1
40
1
40
1
41
1
10
21.6965017063193
20
12.5978479684629
30
0
41
1
10
21.6968784100224
20
12.6017811840497
30
0
41
1
10
21.6972595514903
20
12.6057004857645
30
0
41
1
10
21.7032814959566
20
12.6667143078299
30
0
41
1
10
21.7099173610473
20
12.7212168447976
30
0
41
1
10
21.7196588010298
20
12.7939551572739
30
0
41
1
10
21.7228471771531
20
12.8165979338265
30
0
41
1
10
21.7286128035405
20
12.8574974609811
30
0
41
1
10
21.7311791833398
20
12.8756832122269
30
0
41
1
10
21.7348203907129
20
12.9047876372452
30
0
41
1
10
21.7359228179785
20
12.9158843494616
30
0
41
1
10
21.7356575001372
20
12.9282763376065
30
0
41
1
10
21.7342612451347
20
12.9291966579969
30
0
41
1
10
21.7313794604481
20
12.9242052605032
30
0
0
SPLINE
5
E4
100
AcDbEntity
8
1
62
256
6
ByLayer
370
18
48
1
60
0
100
AcDbSpline
70
4
71
3
72
8
73
4
40
0
40
0
40
0
40
0
40
1
40
1
40
1
40
1
41
1
10
22.8308282099665
20
15.1691482081985
30
0
41
1
10
22.946385833283
20
15.2465032421665
30
0
41
1
10
23.0657657332744
20
15.3171686397418
30
0
41
1
10
23.1889456347103
20
15.3811977791142
30
0
0
SPLINE
5
E5
100
AcDbEntity
8
1
62
256
6
ByLayer
370
18
48
1
60
0
100
AcDbSpline
70
4
71
3
72
14
73
10
40
0
40
0
40
0
40
0
40
0.300166635283432
40
0.300166635283432
40
0.475344014086868
40
0.475344014086868
40
0.650521392890305
40
0.650521392890305
40
1
40
1
40
1
40
1
41
1
10
28.1876510920279
20
10.2057750734901
30
0
41
1
10
28.2773011985955
20
10.3606714111874
30
0
41
1
10
28.3555396237048
20
10.5213127338212
30
0
41
1
10
28.4616646869822
20
10.7847058558076
30
0
41
1
10
28.4969333624374
20
10.883719281376
30
0
41
1
10
28.5596393766111
20
11.0857337230953
30
0
41
1
10
28.5867554569799
20
11.1877746369382
30
0
41
1
10
28.6551782004759
20
11.4940184414501
30
0
41
1
10
28.6841154919774
20
11.6998352230388
30
0
41
1
10
28.6972892933952
20
11.9071473141902
30
0
0
SPLINE
5
E6
100
AcDbEntity
8
1
62
256
6
ByLayer
370
18
48
1
60
0
100
AcDbSpline
70
4
71
3
72
16
73
12
40
0
40
0
40
0
40
0
40
0.0065068966206711
40
0.0065068966206711
40
0.205205517296537
40
0.205205517296537
40
0.403904137972402
40
0.403904137972402
40
0.602602758648268
40
0.602602758648268
40
1
40
1
40
1
40
1
41
1
10
21.6784215851951
20
13.4778600453907
30
0
41
1
10
21.6796390516594
20
13.4819253748822
30
0
41
1
10
21.6808653462521
20
13.4859903017947
30
0
41
1
10
21.71981467929
20
13.6141594066371
30
0
41
1
10
21.7656911005465
20
13.7378609798756
30
0
41
1
10
21.873562069761
20
13.9820948502887
30
0
41
1
10
21.9355566014477
20
14.1026657113821
30
0
41
1
10
22.0760728278545
20
14.339302425428
30
0
41
1
10
22.1547746276739
20
14.4553953552441
30
0
41
1
10
22.4098424949179
20
14.7868265537787
30
0
41
1
10
22.6067678033769
20
14.98880284308
30
0
41
1
10
22.8308282099666
20
15.1691482081985
30
0
0
SPLINE
5
E7
100
AcDbEntity
8
1
62
256
6
ByLayer
370
18
48
1
60
0
100
AcDbSpline
70
4
71
3
72
8
73
4
40
0
40
0
40
0
40
0
40
1
40
1
40
1
40
1
41
1
10
22.6200367392746
20
14.9500646340156
30
0
41
1
10
22.3541374369987
20
14.7287804288461
30
0
41
1
10
22.0864868151854
20
14.5063813193138
30
0
41
1
10
21.8127274762705
20
14.2800933504369
30
0
0
SPLINE
5
E8
100
AcDbEntity
8
1
62
256
6
ByLayer
370
18
48
1
60
0
100
AcDbSpline
70
4
71
3
72
8
73
4
40
0
40
0
40
0
40
0
40
1
40
1
40
1
40
1
41
1
10
21.9787631875086
20
11.7038121986929
30
0
41
1
10
22.1513213287398
20
11.7695774492569
30
0
41
1
10
22.3239049049523
20
11.8353755280774
30
0
41
1
10
22.4965272067414
20
11.9012236515251
30
0
0
SPLINE
5
E9
100
AcDbEntity
8
1
62
256
6
ByLayer
370
18
48
1
60
0
100
AcDbSpline
70
4
71
3
72
8
73
4
40
0
40
0
40
0
40
0
40
1
40
1
40
1
40
1
41
1
10
28.5196284077551
20
14.2280261224168
30
0
41
1
10
28.6677541503544
20
14.2514449607371
30
0
41
1
10
28.8158326570949
20
14.2747990141891
30
0
41
1
10
28.9638801556093
20
14.2981105862414
30
0
0
SPLINE
5
EA
100
AcDbEntity
8
1
62
256
6
ByLayer
370
18
48
1
60
0
100
AcDbSpline
70
4
71
3
72
8
73
4
40
0
40
0
40
0
40
0
40
1
40
1
40
1
40
1
41
1
10
23.5222600522561
20
10.5357539504479
30
0
41
1
10
23.4209959682221
20
10.3749127840324
30
0
41
1
10
23.3197954001264
20
10.214088660973
30
0
41
1
10
23.2186365018155
20
10.0532757541758
30
0
0
SPLINE
5
EB
100
AcDbEntity
8
1
62
256
6
ByLayer
370
18
48
1
60
0
100
AcDbSpline
70
4
71
3
72
8
73
4
40
0
40
0
40
0
40
0
40
1
40
1
40
1
40
1
41
1
10
27.7240068413021
20
15.9486470307587
30
0
41
1
10
27.6473585857081
20
15.8302878024733
30
0
41
1
10
27.5706630870843
20
15.7119077047823
30
0
41
1
10
27.4938955622401
20
15.5934958234943
30
0
0
SPLINE
5
EC
100
AcDbEntity
8
1
62
256
6
ByLayer
370
18
48
1
60
0
100
AcDbSpline
70
4
71
3
72
10
73
6
40
0
40
0
40
0
40
0
40
0.5
40
0.5
40
1
40
1
40
1
40
1
41
1
10
8.32425107258717
20
2.89298003665144
30
0
41
1
10
8.33587949707595
20
2.773590226517
30
0
41
1
10
8.34796116018248
20
2.65291941516199
30
0
41
1
10
8.3728982885155
20
2.41225141186069
30
0
41
1
10
8.38575982541198
20
2.29218051837887
30
0
41
1
10
8.39908726234364
20
2.17242156029545
30
0
0
SPLINE
5
ED
100
AcDbEntity
8
1
62
256
6
ByLayer
370
18
48
1
60
0
100
AcDbSpline
70
4
71
3
72
10
73
6
40
0
40
0
40
0
40
0
40
0.5
40
0.5
40
1
40
1
40
1
40
1
41
1
10
12.6043637383394
20
1.04213658318528
30
0
41
1
10
12.5092461244216
20
0.969409147133405
30
0
41
1
10
12.4134187577394
20
0.896405330844061
30
0
41
1
10
12.2198876946465
20
0.749667048830815
30
0
41
1
10
12.1227526345932
20
0.676368530810265
30
0
41
1
10
12.0262262265167
20
0.60394266010934
30
0
0
SPLINE
5
EE
100
AcDbEntity
8
1
62
256
6
ByLayer
370
18
48
1
60
0
100
AcDbSpline
70
4
71
3
72
10
73
6
40
0
40
0
40
0
40
0
40
0.5
40
0.5
40
1
40
1
40
1
40
1
41
1
10
11.3019131761733
20
0.0687888092562048
30
0
41
1
10
11.2070589841266
20
-0.0001790287916208
30
0
41
1
10
11.1123624618649
20
-0.0685985276152792
30
0
41
1
10
10.9270568390389
20
-0.201770354109641
30
0
41
1
10
10.8359470368425
20
-0.266890039414051
30
0
41
1
10
10.7460084622523
20
-0.3308967782595
30
0
0
SPLINE
5
EF
100
AcDbEntity
8
1
62
256
6
ByLayer
370
18
48
1
60
0
100
AcDbSpline
70
4
71
3
72
10
73
6
40
0
40
0
40
0
40
0
40
0.5
40
0.5
40
1
40
1
40
1
40
1
41
1
10
12.3226626815504
20
3.34059167136311
30
0
41
1
10
12.2130189343683
20
3.3826410475865
30
0
41
1
10
12.1020327483213
20
3.42579985320327
30
0
41
1
10
11.8802547687124
20
3.5135624019367
30
0
41
1
10
11.7693958494009
20
3.55818988493201
30
0
41
1
10
11.6585725810203
20
3.60370205686309
30
0
0
SPLINE
5
F0
100
AcDbEntity
8
1
62
256
6
ByLayer
370
18
48
1
60
0
100
AcDbSpline
70
4
71
3
72
10
73
6
40
0
40
0
40
0
40
0
40
0.5
40
0.5
40
1
40
1
40
1
40
1
41
1
10
8.60595212937619
20
0.594524948473605
30
0
41
1
10
8.71063974345549
20
0.543891297907209
30
0
41
1
10
8.81715852390806
20
0.492994718822672
30
0
41
1
10
9.03141450163969
20
0.392203680663357
30
0
41
1
10
9.13921393922573
20
0.342277019874615
30
0
41
1
10
9.24780943200454
20
0.292906227413425
30
0
0
SPLINE
5
F1
100
AcDbEntity
8
1
62
256
6
ByLayer
370
18
48
1
60
0
100
AcDbSpline
70
4
71
3
72
8
73
4
40
0
40
0
40
0
40
0
40
1
40
1
40
1
40
1
41
1
10
12.3974988713069
20
2.62003319500712
30
0
41
1
10
12.3704084294803
20
2.86346507945817
30
0
41
1
10
12.3457883383651
20
3.10315900978415
30
0
41
1
10
12.3226626815504
20
3.34059167136314
30
0
0
SPLINE
5
F2
100
AcDbEntity
8
1
62
256
6
ByLayer
370
18
48
1
60
0
100
AcDbSpline
70
4
71
3
72
10
73
6
40
0
40
0
40
0
40
0
40
0.5
40
0.5
40
1
40
1
40
1
40
1
41
1
10
10.1826063486743
20
4.26601339809619
30
0
41
1
10
10.0874887347564
20
4.19328596204434
30
0
41
1
10
9.99166136807423
20
4.120282145755
30
0
41
1
10
9.79813030498133
20
3.97354386374178
30
0
41
1
10
9.70099524492804
20
3.9002453457212
30
0
41
1
10
9.60446883685154
20
3.82781947502031
30
0
0
SPLINE
5
F3
100
AcDbEntity
8
1
62
256
6
ByLayer
370
18
48
1
60
0
100
AcDbSpline
70
4
71
3
72
10
73
6
40
0
40
0
40
0
40
0
40
0.5
40
0.5
40
1
40
1
40
1
40
1
41
1
10
8.88015578650817
20
3.29266562416714
30
0
41
1
10
8.78530159446143
20
3.22369778611929
30
0
41
1
10
8.69060507219973
20
3.15527828729566
30
0
41
1
10
8.50529944937375
20
3.0221064608013
30
0
41
1
10
8.4141896471773
20
2.95698677549689
30
0
41
1
10
8.32425107258717
20
2.89298003665144
30
0
0
SPLINE
5
F4
100
AcDbEntity
8
1
62
256
6
ByLayer
370
18
48
1
60
0
100
AcDbSpline
70
4
71
3
72
8
73
4
40
0
40
0
40
0
40
0
40
1
40
1
40
1
40
1
41
1
10
10.0819183617222
20
-0.0677863927595297
30
0
41
1
10
10.3071868301078
20
-0.160298167711062
30
0
41
1
10
10.5279579712631
20
-0.247272427879778
30
0
41
1
10
10.7460084622524
20
-0.3308967782595
30
0
0
SPLINE
5
F5
100
AcDbEntity
8
1
62
256
6
ByLayer
370
18
48
1
60
0
100
AcDbSpline
70
4
71
3
72
8
73
4
40
0
40
0
40
0
40
0
40
1
40
1
40
1
40
1
41
1
10
10.8244636513027
20
3.96439467703604
30
0
41
1
10
10.6037235423947
20
4.06474980067779
30
0
41
1
10
10.3908004886701
20
4.16531734701866
30
0
41
1
10
10.1826063486743
20
4.26601339809619
30
0
0
SPLINE
5
F6
100
AcDbEntity
8
1
62
256
6
ByLayer
370
18
48
1
60
0
100
AcDbSpline
70
4
71
3
72
8
73
4
40
0
40
0
40
0
40
0
40
1
40
1
40
1
40
1
41
1
10
8.50888314171794
20
1.27657508926939
30
0
41
1
10
8.54050194302221
20
1.04098655350853
30
0
41
1
10
8.57297012156801
20
0.814885909354729
30
0
41
1
10
8.60595212937619
20
0.594524948473577
30
0
0
SPLINE
5
F7
100
AcDbEntity
8
1
62
256
6
ByLayer
370
18
48
1
60
0
100
AcDbSpline
70
4
71
3
72
10
73
6
40
0
40
0
40
0
40
0
40
0.5
40
0.5
40
1
40
1
40
1
40
1
41
1
10
12.6043637383394
20
1.04213658318528
30
0
41
1
10
12.5877791807479
20
1.15294211897671
30
0
41
1
10
12.5712301120468
20
1.26587515686396
30
0
41
1
10
12.5387709818367
20
1.49351467073939
30
0
41
1
10
12.5228499632146
20
1.60828638642778
30
0
41
1
10
12.5072947506812
20
1.72418672398109
30
0
0
LINE
5
72
100
AcDbEntity
8
1
62
256
6
ByLayer
370
18
48
1
60
0
100
AcDbLine
10
28.189057
20
10.208218
30
0
11
28.189678
21
10.209293
31
0
39
0
210
0
220
0
230
1
0
LINE
5
73
100
AcDbEntity
8
1
62
256
6
ByLayer
370
18
48
1
60
0
100
AcDbLine
10
28.074634
20
10.79573
30
0
11
28.515708
21
11.559692
31
0
39
0
210
0
220
0
230
1
0
LINE
5
74
100
AcDbEntity
8
1
62
256
6
ByLayer
370
18
48
1
60
0
100
AcDbLine
10
14.36801
20
19.723533
30
0
11
14.092385
21
19.246136
31
0
39
0
210
0
220
0
230
1
0
LINE
5
75
100
AcDbEntity
8
1
62
256
6
ByLayer
370
18
48
1
60
0
100
AcDbLine
10
36.314399
20
5.827652
30
0
11
36.781202
21
6.636179
31
0
39
0
210
0
220
0
230
1
0
LINE
5
76
100
AcDbEntity
8
1
62
256
6
ByLayer
370
18
48
1
60
0
100
AcDbLine
10
21.984913
20
14.185297
30
0
11
21.928892
21
14.088265
31
0
39
0
210
0
220
0
230
1
0
LINE
5
77
100
AcDbEntity
8
1
62
256
6
ByLayer
370
18
48
1
60
0
100
AcDbLine
10
22.426935
20
14.442231
30
0
11
21.985862
21
13.678269
31
0
39
0
210
0
220
0
230
1
0
LINE
5
78
100
AcDbEntity
8
1
62
256
6
ByLayer
370
18
48
1
60
0
100
AcDbLine
10
23.802408
20
1.3576
30
0
11
23.576544
21
2.200537
31
0
39
0
210
0
220
0
230
1
0
LINE
5
79
100
AcDbEntity
8
1
62
256
6
ByLayer
370
18
48
1
60
0
100
AcDbLine
10
23.736336
20
2.241506
30
0
11
23.76981
21
2.116578
31
0
39
0
210
0
220
0
230
1
0
LINE
5
7A
100
AcDbEntity
8
1
62
256
6
ByLayer
370
18
48
1
60
0
100
AcDbLine
10
14.090634
20
19.252635
30
0
11
14.191598
21
18.875834
31
0
39
0
210
0
220
0
230
1
0
LINE
5
7B
100
AcDbEntity
8
1
62
256
6
ByLayer
370
18
48
1
60
0
100
AcDbLine
10
18.538242
20
2.653936
30
0
11
18.861713
21
1.446725
31
0
39
0
210
0
220
0
230
1
0
LINE
5
7C
100
AcDbEntity
8
1
62
256
6
ByLayer
370
18
48
1
60
0
100
AcDbLine
10
24.515272
20
3.064109
30
0
11
26.905154
21
3.687694
31
0
39
0
210
0
220
0
230
1
0
LINE
5
7D
100
AcDbEntity
8
1
62
256
6
ByLayer
370
18
48
1
60
0
100
AcDbLine
10
35.868631
20
-0.732859
30
0
11
35.868631
21
5.984686
31
0
39
0
210
0
220
0
230
1
0
LINE
5
7E
100
AcDbEntity
8
1
62
256
6
ByLayer
370
18
48
1
60
0
100
AcDbLine
10
23.835554
20
2.266933
30
0
11
23.76981
21
2.116578
31
0
39
0
210
0
220
0
230
1
0
LINE
5
7F
100
AcDbEntity
8
1
62
256
6
ByLayer
370
18
48
1
60
0
100
AcDbLine
10
23.991262
20
2.306832
30
0
11
24.025391
21
2.179461
31
0
39
0
210
0
220
0
230
1
0
LINE
5
80
100
AcDbEntity
8
1
62
256
6
ByLayer
370
18
48
1
60
0
100
AcDbLine
10
24.025391
20
2.179461
30
0
11
24.141572
21
2.209776
31
0
39
0
210
0
220
0
230
1
0
LINE
5
81
100
AcDbEntity
8
1
62
256
6
ByLayer
370
18
48
1
60
0
100
AcDbLine
10
35.868631
20
-0.732859
30
0
11
5.167361
21
-15.954928
31
0
39
0
210
0
220
0
230
1
0
LINE
5
82
100
AcDbEntity
8
1
62
256
6
ByLayer
370
18
48
1
60
0
100
AcDbLine
10
23.769812
20
2.116579
30
0
11
23.958079
21
1.413957
31
0
39
0
210
0
220
0
230
1
0
LINE
5
83
100
AcDbEntity
8
1
62
256
6
ByLayer
370
18
48
1
60
0
100
AcDbLine
10
0
20
-15.925
30
0
11
0
21
15.925
31
0
39
0
210
0
220
0
230
1
0
LINE
5
84
100
AcDbEntity
8
1
62
256
6
ByLayer
370
18
48
1
60
0
100
AcDbLine
10
23.958079
20
1.413957
30
0
11
24.609009
21
2.71428
31
0
39
0
210
0
220
0
230
1
0
LINE
5
85
100
AcDbEntity
8
1
62
256
6
ByLayer
370
18
48
1
60
0
100
AcDbLine
10
1.970433
20
17.641919
30
0
11
14.090634
21
19.252635
31
0
39
0
210
0
220
0
230
1
0
LINE
5
86
100
AcDbEntity
8
1
62
256
6
ByLayer
370
18
48
1
60
0
100
AcDbLine
10
1.635307
20
17.446123
30
0
11
1.970433
21
17.641919
31
0
39
0
210
0
220
0
230
1
0
LINE
5
87
100
AcDbEntity
8
1
62
256
6
ByLayer
370
18
48
1
60
0
100
AcDbLine
10
5.167361
20
-15.954928
30
0
11
3.106652
21
-15.955597
31
0
39
0
210
0
220
0
230
1
0
LINE
5
88
100
AcDbEntity
8
1
62
256
6
ByLayer
370
18
48
1
60
0
100
AcDbLine
10
35.868631
20
-0.732859
30
0
11
35.868631
21
-3.289432
31
0
39
0
210
0
220
0
230
1
0
LINE
5
89
100
AcDbEntity
8
1
62
256
6
ByLayer
370
18
48
1
60
0
100
AcDbLine
10
1.545481
20
-15.930174
30
0
11
3.106652
21
-15.955597
31
0
39
0
210
0
220
0
230
1
0
LINE
5
8A
100
AcDbEntity
8
1
62
256
6
ByLayer
370
18
48
1
60
0
100
AcDbLine
10
1.545481
20
17.11089
30
0
11
1.635307
21
17.446123
31
0
39
0
210
0
220
0
230
1
0
LINE
5
8B
100
AcDbEntity
8
1
62
256
6
ByLayer
370
18
48
1
60
0
100
AcDbLine
10
35.396243
20
-4.107632
30
0
11
35.868631
21
-3.289432
31
0
39
0
210
0
220
0
230
1
0
LINE
5
8C
100
AcDbEntity
8
1
62
256
6
ByLayer
370
18
48
1
60
0
100
AcDbLine
10
12.424263
20
-15.786027
30
0
11
35.396243
21
-4.107632
31
0
39
0
210
0
220
0
230
1
0
LINE
5
8D
100
AcDbEntity
8
1
62
256
6
ByLayer
370
18
48
1
60
0
100
AcDbLine
10
1.545481
20
17.11089
30
0
11
1.545481
21
-15.930174
31
0
39
0
210
0
220
0
230
1
0
LINE
5
8E
100
AcDbEntity
8
1
62
256
6
ByLayer
370
18
48
1
60
0
100
AcDbLine
10
5.167361
20
-15.954928
30
0
11
12.424263
21
-15.786027
31
0
39
0
210
0
220
0
230
1
0
LINE
5
8F
100
AcDbEntity
8
1
62
256
6
ByLayer
370
18
48
1
60
0
100
AcDbLine
10
15.891784
20
11.954236
30
0
11
16.803835
21
8.550417
31
0
39
0
210
0
220
0
230
1
0
LINE
5
90
100
AcDbEntity
8
1
62
256
6
ByLayer
370
18
48
1
60
0
100
AcDbLine
10
24.073455
20
2.054252
30
0
11
24.515272
21
3.064109
31
0
39
0
210
0
220
0
230
1
0
LINE
5
91
100
AcDbEntity
8
1
62
256
6
ByLayer
370
18
48
1
60
0
100
AcDbLine
10
24.515272
20
3.064109
30
0
11
24.609009
21
2.71428
31
0
39
0
210
0
220
0
230
1
0
LINE
5
92
100
AcDbEntity
8
1
62
256
6
ByLayer
370
18
48
1
60
0
100
AcDbLine
10
3.106652
20
-15.955597
30
0
11
1.970433
21
17.641919
31
0
39
0
210
0
220
0
230
1
0
LINE
5
93
100
AcDbEntity
8
SK1
62
256
6
ByLayer
370
18
48
1
60
0
100
AcDbLine
10
0
20
-15.925
30
0
11
0
21
15.925
31
0
39
0
210
0
220
0
230
1
0
LINE
5
95
100
AcDbEntity
8
SK1
62
256
6
ByLayer
370
18
48
1
60
0
100
AcDbLine
10
-138.980949
20
-15.925
30
0
11
0
21
-15.925
31
0
39
0
210
0
220
0
230
1
0
LINE
5
96
100
AcDbEntity
8
SK1
62
256
6
ByLayer
370
18
48
1
60
0
100
AcDbLine
10
-138.980949
20
15.925
30
0
11
0
21
15.925
31
0
39
0
210
0
220
0
230
1
0
LINE
5
97
100
AcDbEntity
8
SK1
62
256
6
ByLayer
370
18
48
1
60
0
100
AcDbLine
10
-138.980949
20
15.925
30
0
11
-138.980949
21
-15.925
31
0
39
0
210
0
220
0
230
1
0
LINE
5
98
100
AcDbEntity
8
1
62
256
6
ByLayer
370
18
48
1
60
0
100
AcDbLine
10
8.356116
20
2.578019
30
0
11
8.550453
21
2.721604
31
0
39
0
210
0
220
0
230
1
0
LINE
5
99
100
AcDbEntity
8
1
62
256
6
ByLayer
370
18
48
1
60
0
100
AcDbLine
10
12.177592
20
1.153125
30
0
11
12.226405
21
0.75485
31
0
39
0
210
0
220
0
230
1
0
LINE
5
9A
100
AcDbEntity
8
1
62
256
6
ByLayer
370
18
48
1
60
0
100
AcDbLine
10
23.216011
20
10.048728
30
0
11
23.218637
21
10.053276
31
0
39
0
210
0
220
0
230
1
0
LINE
5
9B
100
AcDbEntity
8
1
62
256
6
ByLayer
370
18
48
1
60
0
100
AcDbLine
10
21.647447
20
12.77883
30
0
11
21.731379
21
12.924205
31
0
39
0
210
0
220
0
230
1
0
LINE
5
9C
100
AcDbEntity
8
1
62
256
6
ByLayer
370
18
48
1
60
0
100
AcDbLine
10
21.978763
20
11.703812
30
0
11
21.948563
21
11.651505
31
0
39
0
210
0
220
0
230
1
0
LINE
5
9D
100
AcDbEntity
8
1
62
256
6
ByLayer
370
18
48
1
60
0
100
AcDbLine
10
18.505381
20
2.757354
30
0
11
18.542506
21
2.821657
31
0
39
0
210
0
220
0
230
1
0
LINE
5
9E
100
AcDbEntity
8
1
62
256
6
ByLayer
370
18
48
1
60
0
100
AcDbLine
10
35.868627
20
5.762228
30
0
11
36.056559
21
6.087736
31
0
39
0
210
0
220
0
230
1
0
LINE
5
9F
100
AcDbEntity
8
1
62
256
6
ByLayer
370
18
48
1
60
0
100
AcDbLine
10
24.208445
20
2.36249
30
0
11
19.529344
21
1.163364
31
0
39
0
210
0
220
0
230
1
0
LINE
5
A0
100
AcDbEntity
8
1
62
256
6
ByLayer
370
18
48
1
60
0
100
AcDbLine
10
14.25195
20
18.834231
30
0
11
14.214824
21
18.769928
31
0
39
0
210
0
220
0
230
1
0
LINE
5
A1
100
AcDbEntity
8
80
62
256
6
ByLayer
370
18
48
1
60
0
100
AcDbLine
10
0
20
0
30
0
11
-5
21
0
31
0
39
0
210
0
220
0
230
1
0
LINE
5
A2
100
AcDbEntity
8
81
62
256
6
ByLayer
370
18
48
1
60
0
100
AcDbLine
10
31.019051
20
24.075
30
0
11
41.019051
21
24.075
31
0
39
0
210
0
220
0
230
1
0
LINE
5
A3
100
AcDbEntity
8
1
62
256
6
ByLayer
370
18
48
1
60
0
100
AcDbLine
10
9.274766
20
3.256758
30
0
11
9.604469
21
3.827819
31
0
39
0
210
0
220
0
230
1
0
LINE
5
A4
100
AcDbEntity
8
1
62
256
6
ByLayer
370
18
48
1
60
0
100
AcDbLine
10
11.32887
20
3.032641
30
0
11
11.981844
21
2.750276
31
0
39
0
210
0
220
0
230
1
0
LINE
5
A5
100
AcDbEntity
8
1
62
256
6
ByLayer
370
18
48
1
60
0
100
AcDbLine
10
12.322663
20
3.340592
30
0
11
11.981844
21
2.750276
31
0
39
0
210
0
220
0
230
1
0
LINE
5
A6
100
AcDbEntity
8
1
62
256
6
ByLayer
370
18
48
1
60
0
100
AcDbLine
10
8.880156
20
3.292666
30
0
11
8.550453
21
2.721604
31
0
39
0
210
0
220
0
230
1
0
LINE
5
A7
100
AcDbEntity
8
1
62
256
6
ByLayer
370
18
48
1
60
0
100
AcDbLine
10
11.32887
20
3.032641
30
0
11
11.658573
21
3.603702
31
0
39
0
210
0
220
0
230
1
0
LINE
5
A8
100
AcDbEntity
8
1
62
256
6
ByLayer
370
18
48
1
60
0
100
AcDbLine
10
9.274766
20
3.256758
30
0
11
9.841787
21
3.675698
31
0
39
0
210
0
220
0
230
1
0
LINE
5
A9
100
AcDbEntity
8
1
62
256
6
ByLayer
370
18
48
1
60
0
100
AcDbLine
10
12.397499
20
2.620033
30
0
11
12.067796
21
2.048972
31
0
39
0
210
0
220
0
230
1
0
LINE
5
AA
100
AcDbEntity
8
1
62
256
6
ByLayer
370
18
48
1
60
0
100
AcDbLine
10
10.824464
20
3.964395
30
0
11
10.494761
21
3.393333
31
0
39
0
210
0
220
0
230
1
0
LINE
5
AB
100
AcDbEntity
8
1
62
256
6
ByLayer
370
18
48
1
60
0
100
AcDbLine
10
10.182606
20
4.266013
30
0
11
9.841787
21
3.675698
31
0
39
0
210
0
220
0
230
1
0
LINE
5
AC
100
AcDbEntity
8
1
62
256
6
ByLayer
370
18
48
1
60
0
100
AcDbLine
10
11.981844
20
2.750276
30
0
11
12.067796
21
2.048972
31
0
39
0
210
0
220
0
230
1
0
LINE
5
AD
100
AcDbEntity
8
1
62
256
6
ByLayer
370
18
48
1
60
0
100
AcDbLine
10
9.841787
20
3.675698
30
0
11
10.494761
21
3.393333
31
0
39
0
210
0
220
0
230
1
0
LINE
5
AE
100
AcDbEntity
8
1
62
256
6
ByLayer
370
18
48
1
60
0
100
AcDbLine
10
12.177592
20
1.153125
30
0
11
12.507295
21
1.724187
31
0
39
0
210
0
220
0
230
1
0
LINE
5
AF
100
AcDbEntity
8
1
62
256
6
ByLayer
370
18
48
1
60
0
100
AcDbLine
10
19.996147
20
1.971891
30
0
11
19.529344
21
1.163364
31
0
39
0
210
0
220
0
230
1
0
LINE
5
B0
100
AcDbEntity
8
1
62
256
6
ByLayer
370
18
48
1
60
0
100
AcDbLine
10
36.056559
20
6.087736
30
0
11
19.996147
21
1.971891
31
0
39
0
210
0
220
0
230
1
0
LINE
5
B1
100
AcDbEntity
8
1
62
256
6
ByLayer
370
18
48
1
60
0
100
AcDbLine
10
32.606707
20
23.538055
30
0
11
36.897263
21
7.52548
31
0
39
0
210
0
220
0
230
1
0
LINE
5
B2
100
AcDbEntity
8
1
62
256
6
ByLayer
370
18
48
1
60
0
100
AcDbLine
10
15.092654
20
20.271976
30
0
11
31.153066
21
24.387821
31
0
39
0
210
0
220
0
230
1
0
LINE
5
B3
100
AcDbEntity
8
1
62
256
6
ByLayer
370
18
48
1
60
0
100
AcDbLine
10
18.542506
20
2.821657
30
0
11
14.25195
21
18.834231
31
0
39
0
210
0
220
0
230
1
0
MTEXT
5
F8
100
AcDbEntity
8
SK6
62
256
6
ByLayer
370
13
48
1
60
0
100
AcDbMText
10
-107.600749
20
-40.986925
30
0
210
0
220
0
230
1
1
\W0.7579;PSKNR 3232P 19
40
3.5
41
0
44
1.084337
50
0
71
7
72
5
7
iso_b_vert
0
DIMENSION
5
10A
100
AcDbEntity
8
SK2
62
256
6
ByLayer
370
13
48
1
60
0
100
AcDbDimension
2
DimnDraft3D1
10
-148.730949
20
-15.925
30
0
11
-148.730949
21
0.075
31
0
70
32
71
5
72
1
41
1
210
0
220
0
230
1
3
Standard
100
AcDbAlignedDimension
13
-140.568449
23
16.075
33
0
14
-140.568449
24
-15.925
34
0
50
90
100
AcDbRotatedDimension
1001
ACAD
1000
DSTYLE
1002
{
1070
    74
1070
     0
1070
   279
1070
     0
1070
   172
1070
     1
1070
   173
1070
     1
1070
   340
1005
F9
1070
   271
1070
     1
1070
   272
1070
     2
1070
    77
1070
     1
1070
    73
1070
     0
1070
   171
1070
     3
1070
   274
1070
     4
1070
   177
1070
   150
1070
   176
1070
     9
1070
   178
1070
    43
1070
    78
1070
     8
1070
    48
1040
-0.005
1070
    41
1041
3.175
1070
   147
1041
2.25
1070
    42
1041
1.5875
1070
    44
1041
3.175
1070
   140
1041
4.5
1070
   343
1005
10B
1070
   344
1005
10B
1002
}
0
DIMENSION
5
120
100
AcDbEntity
8
2
62
256
6
ByLayer
370
13
48
1
60
0
100
AcDbDimension
2
DimnDraft3D2
10
68.746043
20
24.425
30
0
11
68.746043
21
4.25
31
0
70
32
71
5
72
1
41
1
210
0
220
0
230
1
3
Standard
100
AcDbAlignedDimension
13
-8.408835
23
-15.925
33
0
14
33.956551
24
24.425
34
0
50
90
100
AcDbRotatedDimension
1001
ACAD
1000
DSTYLE
1002
{
1070
    74
1070
     0
1070
   279
1070
     0
1070
   172
1070
     1
1070
   173
1070
     1
1070
   340
1005
F9
1070
   271
1070
     1
1070
   272
1070
     2
1070
    77
1070
     1
1070
    73
1070
     0
1070
   171
1070
     3
1070
   274
1070
     4
1070
   177
1070
   150
1070
   176
1070
     9
1070
   178
1070
    43
1070
    78
1070
     8
1070
    48
1040
-0.005
1070
    41
1041
3.175
1070
   147
1041
2.25
1070
    42
1041
1.5875
1070
    44
1041
3.175
1070
   140
1041
4.5
1070
   343
1005
10B
1070
   344
1005
10B
1002
}
0
DIMENSION
5
12E
100
AcDbEntity
8
SK2
62
256
6
ByLayer
370
13
48
1
60
0
100
AcDbDimension
2
DimnDraft3D3
10
32.369051
20
31.925
30
0
11
-53.305949
21
31.925
31
0
70
32
71
5
72
1
41
1
210
0
220
0
230
1
3
Standard
100
AcDbAlignedDimension
13
-138.980949
23
17.6625
33
0
14
32.369051
24
26.0125
34
0
50
0
100
AcDbRotatedDimension
1001
ACAD
1000
DSTYLE
1002
{
1070
   279
1070
     0
1070
   172
1070
     1
1070
   173
1070
     1
1070
   340
1005
F9
1070
   271
1070
     1
1070
   272
1070
     2
1070
    77
1070
     1
1070
    73
1070
     0
1070
   171
1070
     3
1070
   274
1070
     4
1070
   177
1070
   150
1070
   176
1070
     9
1070
   178
1070
    43
1070
    78
1070
     8
1070
    48
1040
-0.005
1070
    41
1041
3.175
1070
   147
1041
2.25
1070
    42
1041
1.5875
1070
    44
1041
3.175
1070
   140
1041
4.5
1070
   343
1005
10B
1070
   344
1005
10B
1002
}
0
DIMENSION
5
13C
100
AcDbEntity
8
2
62
256
6
ByLayer
370
13
48
1
60
0
100
AcDbDimension
2
DimnDraft3D4
10
29.987801
20
24.425
30
0
11
48.586929
21
11.768014
31
0
70
34
71
5
72
1
41
1
210
0
220
0
230
1
3
Standard
100
AcDb2LineAngularDimension
13
32.328481
23
23.542531
33
0
14
37.246043
24
5.189941
34
0
15
32.369051
25
24.425
35
0
16
52.15702
26
9.028588
36
0
40
0
0
ENDSEC
0
SECTION
2
OBJECTS
0
DICTIONARY
5
1a6
330
0
100
AcDbDictionary
280
0
281
1
3
ACAD_GROUP
350
1a7
3
ACAD_MLINESTYLE
350
1a8
0
DICTIONARY
5
1a7
330
0
100
AcDbDictionary
280
0
281
1
0
DICTIONARY
5
1a8
330
0
100
AcDbDictionary
280
0
281
1
3
Standard
350
18
0
MLINESTYLE
5
18
330
1a8
100
AcDbMlineStyle
2
Standard
70
0
3

62
256
51
90
52
90
71
2
49
-0.5
62
256
6
ByLayer
49
0.5
62
256
6
ByLayer
0
RASTERVARIABLES
5
195
330

100
AcDbRasterVariables
90
0
70
1
71
1
72
1
0
ENDSEC
0
EOF
