0
SECTION
2
HEADER
9
$ACADVER
1
AC1015
9
$DWGCODEPAGE
3
ANSI_1252
9
$HANDSEED
5
1af
9
$ANGBASE
50
0
9
$ANGDIR
70
0
9
$ATTMODE
70
1
9
$AUNITS
70
0
9
$AUPREC
70
0
9
$CECOLOR
62
256
9
$CELTSCALE
40
1
9
$CELTYPE
6
ByLayer
9
$CELWEIGHT
370
18
9
$CLAYER
8
0
9
$CMLJUST
70
0
9
$CMLSCALE
40
1
9
$CMLSTYLE
2
Standard
9
$DIMSTYLE
2
Standard
9
$TEXTSIZE
40
0.2
9
$TEXTSTYLE
7
Standard
9
$LUNITS
70
2
9
$LUPREC
70
4
9
$EXTNAMES
290
1
9
$INSUNITS
70
4
9
$LTSCALE
40
1
9
$LWDISPLAY
290
1
9
$PDMODE
70
0
9
$PDSIZE
40
0
9
$PLINEGEN
70
0
0
ENDSEC
0
SECTION
2
CLASSES
0
CLASS
1
RASTERVARIABLES
2
AcDbRasterVariables
3
ISM
90
0
280
0
281
0
0
ENDSEC
0
SECTION
2
TABLES
0
TABLE
2
VPORT
5
1a5
100
AcDbSymbolTable
0
VPORT
5
1
100
AcDbSymbolTableRecord
100
AcDbViewportTableRecord
2
*Active
70
0
10
0
20
0
11
1
21
1
12
-1
22
1
13
0
23
0
14
0.5
24
0.5
15
10
25
10
16
0
26
0
36
1
17
0
27
0
37
0
0
ENDTAB
0
TABLE
2
LTYPE
5
1a6
100
AcDbSymbolTable
0
LTYPE
5
14
100
AcDbSymbolTableRecord
100
AcDbLinetypeTableRecord
70
0
2
ByBlock
3

72
65
73
0
40
0
0
LTYPE
5
15
100
AcDbSymbolTableRecord
100
AcDbLinetypeTableRecord
70
0
2
ByLayer
3

72
65
73
0
40
0
0
LTYPE
5
16
100
AcDbSymbolTableRecord
100
AcDbLinetypeTableRecord
70
0
2
CONTINUOUS
3
Solid line
72
65
73
0
40
0
0
LTYPE
5
6A
100
AcDbSymbolTableRecord
100
AcDbLinetypeTableRecord
70
0
2
CENTER
3
____ _ ____ _ ____ _ ____
72
65
73
4
40
47.5
49
22
74
0
49
-8.5
74
0
49
8.5
74
0
49
-8.5
74
0
0
LTYPE
5
6B
100
AcDbSymbolTableRecord
100
AcDbLinetypeTableRecord
70
0
2
DASHED
3
__ __ __ __ __ __ __ __ __
72
65
73
2
40
25.72
49
12.86
74
0
49
-12.86
74
0
0
ENDTAB
0
TABLE
2
LAYER
5
1a7
100
AcDbSymbolTable
0
LAYER
5
10
100
AcDbSymbolTableRecord
100
AcDbLayerTableRecord
2
0
70
0
62
7
6
CONTINUOUS
290
1
370
-3
390
0
0
LAYER
5
6D
100
AcDbSymbolTableRecord
100
AcDbLayerTableRecord
2
80
70
0
62
-6
6
CONTINUOUS
290
1
370
-3
390
0
0
LAYER
5
6F
100
AcDbSymbolTableRecord
100
AcDbLayerTableRecord
2
81
70
0
62
-3
6
CONTINUOUS
290
1
370
-3
390
0
0
LAYER
5
71
100
AcDbSymbolTableRecord
100
AcDbLayerTableRecord
2
1
70
0
62
4
6
CONTINUOUS
290
1
370
-3
390
0
0
LAYER
5
110
100
AcDbSymbolTableRecord
100
AcDbLayerTableRecord
2
2
70
0
62
7
6
CONTINUOUS
290
1
370
-3
390
0
0
LAYER
5
192
100
AcDbSymbolTableRecord
100
AcDbLayerTableRecord
2
SK1
70
0
62
4
6
CONTINUOUS
290
1
370
-3
390
0
0
LAYER
5
193
100
AcDbSymbolTableRecord
100
AcDbLayerTableRecord
2
SK6
70
0
62
5
6
CONTINUOUS
290
1
370
-3
390
0
0
LAYER
5
194
100
AcDbSymbolTableRecord
100
AcDbLayerTableRecord
2
SK2
70
0
62
7
6
CONTINUOUS
290
1
370
-3
390
0
0
ENDTAB
0
TABLE
2
STYLE
5
1a8
100
AcDbSymbolTable
0
STYLE
5
11
100
AcDbSymbolTableRecord
100
AcDbTextStyleTableRecord
2
Standard
3
txt
70
0
71
0
40
0
41
1
42
0
50
0
0
STYLE
5
F5
100
AcDbSymbolTableRecord
100
AcDbTextStyleTableRecord
2
iso_b_vert
3
simplex.shx
70
0
71
0
40
0
41
1
42
0
50
0
0
STYLE
5
F6
100
AcDbSymbolTableRecord
100
AcDbTextStyleTableRecord
2
DWGDirectTextStyle
3
simplex
70
0
71
0
40
0
41
1
42
0
50
0
0
ENDTAB
0
TABLE
2
DIMSTYLE
5
1a9
100
AcDbSymbolTable
100
AcDbDimStyleTable
0
DIMSTYLE
105
27
100
AcDbSymbolTableRecord
100
AcDbDimStyleTableRecord
2
Standard
70
0
3
<>
41
0.18
42
0.0625
44
0.18
140
0.18
147
0.09
73
0
74
0
77
1
271
2
275
0
278
52
280
0
340
11
0
ENDTAB
0
TABLE
2
VIEW
5
1aa
100
AcDbSymbolTable
0
ENDTAB
0
TABLE
2
UCS
5
1ab
100
AcDbSymbolTable
0
ENDTAB
0
TABLE
2
APPID
5
1ac
100
AcDbSymbolTable
0
APPID
5
12
100
AcDbSymbolTableRecord
100
AcDbRegAppTableRecord
2
ACAD
70
0
0
ENDTAB
0
TABLE
2
BLOCK_RECORD
5
1ad
100
AcDbSymbolTable
0
BLOCK_RECORD
5
1F
100
AcDbSymbolTableRecord
100
AcDbBlockTableRecord
2
*Model_Space
340
0
70
0
0
BLOCK_RECORD
5
1B
100
AcDbSymbolTableRecord
100
AcDbBlockTableRecord
2
*Paper_Space
340
0
70
0
0
BLOCK_RECORD
5
23
100
AcDbSymbolTableRecord
100
AcDbBlockTableRecord
2
*Paper_Space0
340
0
70
0
0
BLOCK_RECORD
5
F8
100
AcDbSymbolTableRecord
100
AcDbBlockTableRecord
2
DimnDraft3D1
340
0
70
0
0
BLOCK_RECORD
5
107
100
AcDbSymbolTableRecord
100
AcDbBlockTableRecord
2
_CLOSED
340
0
70
0
0
BLOCK_RECORD
5
10E
100
AcDbSymbolTableRecord
100
AcDbBlockTableRecord
2
DimnDraft3D2
340
0
70
0
0
BLOCK_RECORD
5
11D
100
AcDbSymbolTableRecord
100
AcDbBlockTableRecord
2
DimnDraft3D3
340
0
70
0
0
BLOCK_RECORD
5
12B
100
AcDbSymbolTableRecord
100
AcDbBlockTableRecord
2
DimnDraft3D4
340
0
70
0
0
ENDTAB
0
ENDSEC
0
SECTION
2
BLOCKS
0
BLOCK
5
20
100
AcDbEntity
8
0
100
AcDbBlockBegin
2
*Model_Space
70
0
10
0
20
0
30
0
3
*Model_Space
0
ENDBLK
5
21
100
AcDbEntity
8
0
100
AcDbBlockEnd
0
BLOCK
5
1C
100
AcDbEntity
8
0
100
AcDbBlockBegin
2
*Paper_Space
70
0
10
0
20
0
30
0
3
*Paper_Space
0
ENDBLK
5
1D
100
AcDbEntity
8
0
100
AcDbBlockEnd
0
BLOCK
5
24
100
AcDbEntity
8
0
100
AcDbBlockBegin
2
*Paper_Space0
70
0
10
0
20
0
30
0
3
*Paper_Space0
0
ENDBLK
5
25
100
AcDbEntity
8
0
100
AcDbBlockEnd
0
BLOCK
5
104
100
AcDbEntity
8
0
100
AcDbBlockBegin
2
DimnDraft3D1
70
0
10
0
20
0
30
0
3
DimnDraft3D1
0
MTEXT
5
F9
100
AcDbEntity
8
SK2
62
256
6
ByLayer
370
13
48
1
60
0
100
AcDbMText
10
-141.782133
20
-1.488158
30
0
210
0
220
0
230
1
1
\W0.6740;32
40
4.5
41
0
44
1.084337
50
90
71
7
72
5
7
iso_b_vert
0
LINE
5
FB
100
AcDbEntity
8
SK2
62
256
6
ByLayer
370
13
48
1
60
0
100
AcDbLine
10
-132.494633
20
16.075
30
0
11
-143.832133
21
16.075
31
0
39
0
210
0
220
0
230
1
0
LINE
5
FC
100
AcDbEntity
8
SK2
62
256
6
ByLayer
370
13
48
1
60
0
100
AcDbLine
10
-132.494633
20
-15.925
30
0
11
-143.832133
21
-15.925
31
0
39
0
210
0
220
0
230
1
0
LINE
5
FD
100
AcDbEntity
8
SK2
62
256
6
ByLayer
370
13
48
1
60
0
100
AcDbLine
10
-140.657133
20
16.075
30
0
11
-140.657133
21
-15.925
31
0
39
0
210
0
220
0
230
1
0
LINE
5
FE
100
AcDbEntity
8
SK2
62
256
6
ByLayer
370
13
48
1
60
0
100
AcDbLine
10
-140.657133
20
16.075
30
0
11
-139.806394
21
12.900003
31
0
39
0
210
0
220
0
230
1
0
LINE
5
FF
100
AcDbEntity
8
SK2
62
256
6
ByLayer
370
13
48
1
60
0
100
AcDbLine
10
-140.657133
20
16.075
30
0
11
-141.507871
21
12.899997
31
0
39
0
210
0
220
0
230
1
0
LINE
5
100
100
AcDbEntity
8
SK2
62
256
6
ByLayer
370
13
48
1
60
0
100
AcDbLine
10
-139.806394
20
12.900003
30
0
11
-141.507871
21
12.899997
31
0
39
0
210
0
220
0
230
1
0
LINE
5
101
100
AcDbEntity
8
SK2
62
256
6
ByLayer
370
13
48
1
60
0
100
AcDbLine
10
-140.657133
20
-15.925
30
0
11
-141.507871
21
-12.750003
31
0
39
0
210
0
220
0
230
1
0
LINE
5
102
100
AcDbEntity
8
SK2
62
256
6
ByLayer
370
13
48
1
60
0
100
AcDbLine
10
-140.657133
20
-15.925
30
0
11
-139.806394
21
-12.749997
31
0
39
0
210
0
220
0
230
1
0
LINE
5
103
100
AcDbEntity
8
SK2
62
256
6
ByLayer
370
13
48
1
60
0
100
AcDbLine
10
-141.507871
20
-12.750003
30
0
11
-139.806394
21
-12.749997
31
0
39
0
210
0
220
0
230
1
0
ENDBLK
5
105
100
AcDbEntity
8
0
100
AcDbBlockEnd
0
BLOCK
5
108
100
AcDbEntity
8
0
100
AcDbBlockBegin
2
_CLOSED
70
0
10
0
20
0
30
0
3
_CLOSED
0
LINE
5
10A
100
AcDbEntity
8
0
62
256
6
ByLayer
370
-2
48
1
60
0
100
AcDbLine
10
-1
20
0.166667
30
0
11
0
21
0
31
0
39
0
210
0
220
0
230
1
0
LINE
5
10B
100
AcDbEntity
8
0
62
256
6
ByLayer
370
-2
48
1
60
0
100
AcDbLine
10
0
20
0
30
0
11
-1
21
-0.166667
31
0
39
0
210
0
220
0
230
1
0
LINE
5
10C
100
AcDbEntity
8
0
62
256
6
ByLayer
370
-2
48
1
60
0
100
AcDbLine
10
-1
20
0.166667
30
0
11
-1
21
-0.166667
31
0
39
0
210
0
220
0
230
1
0
LINE
5
10D
100
AcDbEntity
8
0
62
256
6
ByLayer
370
-2
48
1
60
0
100
AcDbLine
10
0
20
0
30
0
11
-1
21
0
31
0
39
0
210
0
220
0
230
1
0
ENDBLK
5
109
100
AcDbEntity
8
0
100
AcDbBlockEnd
0
BLOCK
5
11A
100
AcDbEntity
8
0
100
AcDbBlockBegin
2
DimnDraft3D2
70
0
10
0
20
0
30
0
3
DimnDraft3D2
0
MTEXT
5
10F
100
AcDbEntity
8
2
62
256
6
ByLayer
370
13
48
1
60
0
100
AcDbMText
10
55.817867
20
-3.813158
30
0
210
0
220
0
230
1
1
\W0.6740;27
40
4.5
41
0
44
1.084337
50
90
71
7
72
5
7
iso_b_vert
0
LINE
5
111
100
AcDbEntity
8
2
62
256
6
ByLayer
370
13
48
1
60
0
100
AcDbLine
10
1.5875
20
-15.925
30
0
11
60.117867
21
-15.925
31
0
39
0
210
0
220
0
230
1
0
LINE
5
112
100
AcDbEntity
8
2
62
256
6
ByLayer
370
13
48
1
60
0
100
AcDbLine
10
42.030367
20
11.425
30
0
11
60.117867
21
11.425
31
0
39
0
210
0
220
0
230
1
0
LINE
5
113
100
AcDbEntity
8
2
62
256
6
ByLayer
370
13
48
1
60
0
100
AcDbLine
10
56.942867
20
-15.925
30
0
11
56.942867
21
11.425
31
0
39
0
210
0
220
0
230
1
0
LINE
5
114
100
AcDbEntity
8
2
62
256
6
ByLayer
370
13
48
1
60
0
100
AcDbLine
10
56.942867
20
-15.925
30
0
11
56.092129
21
-12.750003
31
0
39
0
210
0
220
0
230
1
0
LINE
5
115
100
AcDbEntity
8
2
62
256
6
ByLayer
370
13
48
1
60
0
100
AcDbLine
10
56.942867
20
-15.925
30
0
11
57.793606
21
-12.749997
31
0
39
0
210
0
220
0
230
1
0
LINE
5
116
100
AcDbEntity
8
2
62
256
6
ByLayer
370
13
48
1
60
0
100
AcDbLine
10
56.092129
20
-12.750003
30
0
11
57.793606
21
-12.749997
31
0
39
0
210
0
220
0
230
1
0
LINE
5
117
100
AcDbEntity
8
2
62
256
6
ByLayer
370
13
48
1
60
0
100
AcDbLine
10
56.942867
20
11.425
30
0
11
57.793606
21
8.250003
31
0
39
0
210
0
220
0
230
1
0
LINE
5
118
100
AcDbEntity
8
2
62
256
6
ByLayer
370
13
48
1
60
0
100
AcDbLine
10
56.942867
20
11.425
30
0
11
56.092129
21
8.249997
31
0
39
0
210
0
220
0
230
1
0
LINE
5
119
100
AcDbEntity
8
2
62
256
6
ByLayer
370
13
48
1
60
0
100
AcDbLine
10
57.793606
20
8.250003
30
0
11
56.092129
21
8.249997
31
0
39
0
210
0
220
0
230
1
0
ENDBLK
5
11B
100
AcDbEntity
8
0
100
AcDbBlockEnd
0
BLOCK
5
128
100
AcDbEntity
8
0
100
AcDbBlockBegin
2
DimnDraft3D3
70
0
10
0
20
0
30
0
3
DimnDraft3D3
0
MTEXT
5
11E
100
AcDbEntity
8
SK2
62
256
6
ByLayer
370
13
48
1
60
0
100
AcDbMText
10
-47.91437
20
35.691981
30
0
210
0
220
0
230
1
1
\W0.6217;170
40
4.5
41
0
44
1.084337
50
0
71
7
72
5
7
iso_b_vert
0
LINE
5
11F
100
AcDbEntity
8
SK2
62
256
6
ByLayer
370
13
48
1
60
0
100
AcDbLine
10
-130.907133
20
17.6625
30
0
11
-130.907133
21
37.741981
31
0
39
0
210
0
220
0
230
1
0
LINE
5
120
100
AcDbEntity
8
SK2
62
256
6
ByLayer
370
13
48
1
60
0
100
AcDbLine
10
40.442867
20
13.0125
30
0
11
40.442867
21
37.741981
31
0
39
0
210
0
220
0
230
1
0
LINE
5
121
100
AcDbEntity
8
SK2
62
256
6
ByLayer
370
13
48
1
60
0
100
AcDbLine
10
-130.907133
20
34.566981
30
0
11
40.442867
21
34.566981
31
0
39
0
210
0
220
0
230
1
0
LINE
5
122
100
AcDbEntity
8
SK2
62
256
6
ByLayer
370
13
48
1
60
0
100
AcDbLine
10
-130.907133
20
34.566981
30
0
11
-127.732136
21
35.41772
31
0
39
0
210
0
220
0
230
1
0
LINE
5
123
100
AcDbEntity
8
SK2
62
256
6
ByLayer
370
13
48
1
60
0
100
AcDbLine
10
-130.907133
20
34.566981
30
0
11
-127.73213
21
33.716243
31
0
39
0
210
0
220
0
230
1
0
LINE
5
124
100
AcDbEntity
8
SK2
62
256
6
ByLayer
370
13
48
1
60
0
100
AcDbLine
10
-127.732136
20
35.41772
30
0
11
-127.73213
21
33.716243
31
0
39
0
210
0
220
0
230
1
0
LINE
5
125
100
AcDbEntity
8
SK2
62
256
6
ByLayer
370
13
48
1
60
0
100
AcDbLine
10
40.442867
20
34.566981
30
0
11
37.26787
21
33.716243
31
0
39
0
210
0
220
0
230
1
0
LINE
5
126
100
AcDbEntity
8
SK2
62
256
6
ByLayer
370
13
48
1
60
0
100
AcDbLine
10
40.442867
20
34.566981
30
0
11
37.267864
21
35.41772
31
0
39
0
210
0
220
0
230
1
0
LINE
5
127
100
AcDbEntity
8
SK2
62
256
6
ByLayer
370
13
48
1
60
0
100
AcDbLine
10
37.26787
20
33.716243
30
0
11
37.267864
21
35.41772
31
0
39
0
210
0
220
0
230
1
0
ENDBLK
5
129
100
AcDbEntity
8
0
100
AcDbBlockEnd
0
BLOCK
5
136
100
AcDbEntity
8
0
100
AcDbBlockBegin
2
DimnDraft3D4
70
0
10
0
20
0
30
0
3
DimnDraft3D4
0
MTEXT
5
12C
100
AcDbEntity
8
2
62
256
6
ByLayer
370
13
48
1
60
0
100
AcDbMText
10
21.880469
20
26.356638
30
0
210
0
220
0
230
1
1
\W0.8292;75%%d0'
40
4.5
41
0
44
1.084337
50
37.5
71
7
72
5
7
iso_b_vert
0
LINE
5
12D
100
AcDbEntity
8
2
62
256
6
ByLayer
370
13
48
1
60
0
100
AcDbLine
10
40.442867
20
13.0125
30
0
11
40.442867
21
36.56389
31
0
39
0
210
0
220
0
230
1
0
LINE
5
12E
100
AcDbEntity
8
2
62
256
6
ByLayer
370
13
48
1
60
0
100
AcDbLine
10
19.026991
20
16.88634
30
0
11
15.892977
21
17.726097
31
0
39
0
210
0
220
0
230
1
0
ARC
5
12F
100
AcDbEntity
8
2
62
256
6
ByLayer
370
13
48
1
60
0
100
AcDbCircle
39
0
10
40.442867
20
11.147974
30
0
40
22.2409166693093
210
0
220
0
230
1
100
AcDbArc
50
90
51
165
0
LINE
5
130
100
AcDbEntity
8
2
62
256
6
ByLayer
370
13
48
1
60
0
100
AcDbLine
10
40.442867
20
33.38889
30
0
11
37.300189
21
32.425596
31
0
39
0
210
0
220
0
230
1
0
LINE
5
131
100
AcDbEntity
8
2
62
256
6
ByLayer
370
13
48
1
60
0
100
AcDbLine
10
40.442867
20
33.38889
30
0
11
37.239575
21
34.125993
31
0
39
0
210
0
220
0
230
1
0
LINE
5
132
100
AcDbEntity
8
2
62
256
6
ByLayer
370
13
48
1
60
0
100
AcDbLine
10
37.300189
20
32.425596
30
0
11
37.239575
21
34.125993
31
0
39
0
210
0
220
0
230
1
0
LINE
5
133
100
AcDbEntity
8
2
62
256
6
ByLayer
370
13
48
1
60
0
100
AcDbLine
10
18.959791
20
16.904347
30
0
11
19.076876
21
20.189259
31
0
39
0
210
0
220
0
230
1
0
LINE
5
134
100
AcDbEntity
8
2
62
256
6
ByLayer
370
13
48
1
60
0
100
AcDbLine
10
18.959791
20
16.904347
30
0
11
20.703649
21
19.690627
31
0
39
0
210
0
220
0
230
1
0
LINE
5
135
100
AcDbEntity
8
2
62
256
6
ByLayer
370
13
48
1
60
0
100
AcDbLine
10
19.076876
20
20.189259
30
0
11
20.703649
21
19.690627
31
0
39
0
210
0
220
0
230
1
0
ENDBLK
5
137
100
AcDbEntity
8
0
100
AcDbBlockEnd
0
ENDSEC
0
SECTION
2
ENTITIES
0
ARC
5
B1
100
AcDbEntity
8
1
62
256
6
ByLayer
370
18
48
1
60
0
100
AcDbCircle
39
0
10
0
20
17.525
30
0
40
1.6000000000004
210
0
220
0
230
-1
100
AcDbArc
50
196.634277
51
270
0
ELLIPSE
5
B2
100
AcDbEntity
8
1
62
256
6
ByLayer
370
18
48
1
60
0
100
AcDbEllipse
10
22.742691
20
3.971929
30
0
11
-1.79999999999993
21
3.11769145362402
31
0
210
0
220
0
230
1
40
0.989133
41
0.790861371919013
42
1.08054836591612
0
ELLIPSE
5
B3
100
AcDbEntity
8
1
62
256
6
ByLayer
370
18
48
1
60
0
100
AcDbEllipse
10
19.909694
20
-2.92284
30
0
11
1.20578299681744
21
-2.08847741339057
31
0
210
0
220
0
230
1
40
0.989133
41
-2.35073128167078
42
-0.952153259448494
0
ELLIPSE
5
B4
100
AcDbEntity
8
1
62
256
6
ByLayer
370
18
48
1
60
0
100
AcDbEllipse
10
10.551274
20
2.2824
30
0
11
2.24999999999991
21
-3.89711431703002
31
0
210
0
220
0
230
1
40
0.989133
41
0
42
6.28318530717959
0
ELLIPSE
5
B5
100
AcDbEntity
8
1
62
256
6
ByLayer
370
18
48
1
60
0
100
AcDbEllipse
10
0
20
-15.931981
30
0
11
1.59999999999888
21
1.61702248813065E-15
31
0
210
0
220
0
230
-1
40
0.004363
41
-1.5707963267949
42
-0.261799387798314
0
ELLIPSE
5
B6
100
AcDbEntity
8
1
62
256
6
ByLayer
370
18
48
1
60
0
100
AcDbEllipse
10
19.412136
20
-4.136325
30
0
11
-1.26657712758587
21
2.19377593668349
31
0
210
0
220
0
230
1
40
0.989133
41
-2.84440311245562
42
-2.35073128167078
0
ELLIPSE
5
B7
100
AcDbEntity
8
1
62
256
6
ByLayer
370
18
48
1
60
0
100
AcDbEllipse
10
20.761802
20
-3.357095
30
0
11
1.2807807857677
21
-2.21837739430775
31
0
210
0
220
0
230
1
40
0.989133
41
-1.33580891656983
42
0.790861371919027
0
ELLIPSE
5
B8
100
AcDbEntity
8
1
62
256
6
ByLayer
370
18
48
1
60
0
100
AcDbEllipse
10
19.431457
20
-4.12517
30
0
11
1.34157205017846
21
-2.32367095292355
31
0
210
0
220
0
230
1
40
0.989133
41
0.374600522151887
42
0.790861371919013
0
ELLIPSE
5
B9
100
AcDbEntity
8
1
62
256
6
ByLayer
370
18
48
1
60
0
100
AcDbEllipse
10
22.462869
20
-4.174176
30
0
11
0.0386464722220088
21
0.144936782266111
31
0
210
0
220
0
230
-1
40
0.093018
41
3.02597143681473
42
-1.67478201527643
0
ELLIPSE
5
BA
100
AcDbEntity
8
1
62
256
6
ByLayer
370
18
48
1
60
0
100
AcDbEllipse
10
23.617603
20
7.385917
30
0
11
-1.79999999999994
21
3.11769145362404
31
0
210
0
220
0
230
1
40
0.989133
41
0.501174377921882
42
0.790861371919014
0
ELLIPSE
5
BB
100
AcDbEntity
8
1
62
256
6
ByLayer
370
18
48
1
60
0
100
AcDbEllipse
10
21.86467
20
-4.777335
30
0
11
0.145304387133117
21
-0.0372375493268461
31
0
210
0
220
0
230
1
40
0.103393
41
-1.67608242641279
42
-0.0936499894944509
0
ELLIPSE
5
BC
100
AcDbEntity
8
1
62
256
6
ByLayer
370
18
48
1
60
0
100
AcDbEllipse
10
28.163223
20
4.779036
30
0
11
-1.99999999999992
21
3.4641016151378
31
0
210
0
220
0
230
1
40
0.989133
41
2.64853724727615
42
3.14156705632024
0
ELLIPSE
5
BD
100
AcDbEntity
8
1
62
256
6
ByLayer
370
18
48
1
60
0
100
AcDbEllipse
10
28.346511
20
3.393359
30
0
11
1.99999999999992
21
-3.4641016151378
31
0
210
0
220
0
230
1
40
0.989133
41
3.14158959134779
42
-2.91697180001575
0
ELLIPSE
5
BE
100
AcDbEntity
8
1
62
256
6
ByLayer
370
18
48
1
60
0
100
AcDbEllipse
10
28.369166
20
3.996311
30
0
11
-1.87499999999993
21
3.24759526419168
31
0
210
0
220
0
230
1
40
0.989133
41
2.86630610873435E-05
42
0.194972089298952
0
ELLIPSE
5
BF
100
AcDbEntity
8
1
62
256
6
ByLayer
370
18
48
1
60
0
100
AcDbEllipse
10
26.688745
20
3.181997
30
0
11
2.12499999999991
21
-3.6806079660839
31
0
210
0
220
0
230
1
40
0.989133
41
0.454967350362839
42
0.473915055115571
0
ELLIPSE
5
C0
100
AcDbEntity
8
1
62
256
6
ByLayer
370
18
48
1
60
0
100
AcDbEllipse
10
26.982233
20
3.351442
30
0
11
-2.07999999999992
21
3.60266567974331
31
0
210
0
220
0
230
1
40
0.989133
41
-2.74593798634165
42
-2.69781264781882
0
ELLIPSE
5
C1
100
AcDbEntity
8
1
62
256
6
ByLayer
370
18
48
1
60
0
100
AcDbEllipse
10
18.324987
20
-1.721175
30
0
11
0.595312499999977
21
-1.03111149638086
31
0
210
0
220
0
230
1
40
0.989133
41
-1.25917528156244
42
-0.779934954875893
0
ELLIPSE
5
C2
100
AcDbEntity
8
1
62
256
6
ByLayer
370
18
48
1
60
0
100
AcDbEllipse
10
9.78849
20
1.842007
30
0
11
1.03499999999996
21
-1.79267258583381
31
0
210
0
220
0
230
1
40
0.989133
41
0.205551159521396
42
1.05191564992636
0
ELLIPSE
5
C3
100
AcDbEntity
8
1
62
256
6
ByLayer
370
18
48
1
60
0
100
AcDbEllipse
10
9.78849
20
1.842007
30
0
11
1.03499999999996
21
-1.79267258583381
31
0
210
0
220
0
230
1
40
0.989133
41
1.05191613430734
42
3.04574751353261
0
ELLIPSE
5
C4
100
AcDbEntity
8
1
62
256
6
ByLayer
370
18
48
1
60
0
100
AcDbEllipse
10
9.941282
20
1.930221
30
0
11
-1.03499999999996
21
1.79267258583381
31
0
210
0
220
0
230
1
40
0.989133
41
-0.174621240257182
42
7.93274838237986E-06
0
ELLIPSE
5
C5
100
AcDbEntity
8
1
62
256
6
ByLayer
370
18
48
1
60
0
100
AcDbEllipse
10
9.941282
20
1.930221
30
0
11
-1.03499999999996
21
1.79267258583381
31
0
210
0
220
0
230
1
40
0.989133
41
-2.97539032667851
42
-2.71169890101027
0
ELLIPSE
5
C6
100
AcDbEntity
8
1
62
256
6
ByLayer
370
18
48
1
60
0
100
AcDbEllipse
10
28.389197
20
4.163753
30
0
11
-1.98124999999992
21
3.43162566249588
31
0
210
0
220
0
230
1
40
0.989133
41
-3.01065432890312
42
-2.45086177178407
0
ELLIPSE
5
C7
100
AcDbEntity
8
1
62
256
6
ByLayer
370
18
48
1
60
0
100
AcDbEllipse
10
28.389197
20
4.163753
30
0
11
-1.98124999999992
21
3.43162566249588
31
0
210
0
220
0
230
1
40
0.989133
41
-0.999936804458642
42
-0.119309057273867
0
ELLIPSE
5
C8
100
AcDbEntity
8
1
62
256
6
ByLayer
370
18
48
1
60
0
100
AcDbEllipse
10
29.110472
20
3.834432
30
0
11
1.99999999999992
21
-3.4641016151378
31
0
210
0
220
0
230
1
40
0.989133
41
1.62318706746478
42
-2.41511210633898
0
ELLIPSE
5
C9
100
AcDbEntity
8
1
62
256
6
ByLayer
370
18
48
1
60
0
100
AcDbEllipse
10
28.990848
20
5.256866
30
0
11
-1.74999999999993
21
3.03108891324557
31
0
210
0
220
0
230
1
40
0.989133
41
1.63532451700459
42
-2.4272495558789
0
ELLIPSE
5
CA
100
AcDbEntity
8
1
62
256
6
ByLayer
370
18
48
1
60
0
100
AcDbEllipse
10
29.018829
20
4.527271
30
0
11
1.87499999999992
21
-3.24759526419168
31
0
210
0
220
0
230
1
40
0.989133
41
0.895501095991521
42
1.45416651872402
0
ELLIPSE
5
CB
100
AcDbEntity
8
1
62
256
6
ByLayer
370
18
48
1
60
0
100
AcDbEllipse
10
29.082492
20
4.564027
30
0
11
-1.62499999999994
21
2.81458256229946
31
0
210
0
220
0
230
1
40
0.989133
41
0.908509815132133
42
1.44115779958339
0
ELLIPSE
5
CC
100
AcDbEntity
8
1
62
256
6
ByLayer
370
18
48
1
60
0
100
AcDbEllipse
10
29.082492
20
4.564027
30
0
11
-1.62499999999993
21
2.81458256229946
31
0
210
0
220
0
230
1
40
0.989133
41
-2.2330828384577
42
-1.70043485400634
0
ELLIPSE
5
CD
100
AcDbEntity
8
1
62
256
6
ByLayer
370
18
48
1
60
0
100
AcDbEllipse
10
29.174136
20
3.871188
30
0
11
-1.74999999999993
21
3.03108891324558
31
0
210
0
220
0
230
1
40
0.989133
41
-1.50626813658514
42
0.714343097710928
0
ELLIPSE
5
CE
100
AcDbEntity
8
1
62
256
6
ByLayer
370
18
48
1
60
0
100
AcDbEllipse
10
29.018829
20
4.527271
30
0
11
1.87499999999993
21
-3.24759526419169
31
0
210
0
220
0
230
1
40
0.989133
41
-2.24609155759823
42
-1.68742613486582
0
ELLIPSE
5
CF
100
AcDbEntity
8
1
62
256
6
ByLayer
370
18
48
1
60
0
100
AcDbEllipse
10
28.927185
20
5.22011
30
0
11
1.99999999999992
21
-3.4641016151378
31
0
210
0
220
0
230
1
40
0.989133
41
-1.51840558612506
42
0.726480547250761
0
ELLIPSE
5
D0
100
AcDbEntity
8
1
62
256
6
ByLayer
370
18
48
1
60
0
100
AcDbEllipse
10
10.512344
20
2.259924
30
0
11
-1.03499999999996
21
1.79267258583381
31
0
210
0
220
0
230
1
40
0.989133
41
-1.66450134981367
42
-1.22181879145378
0
ELLIPSE
5
D1
100
AcDbEntity
8
1
62
256
6
ByLayer
370
18
48
1
60
0
100
AcDbEllipse
10
9.941282
20
1.930221
30
0
11
-1.03499999999996
21
1.79267258583381
31
0
210
0
220
0
230
1
40
0.989133
41
-1.22181879145378
42
-0.617303798617089
0
ELLIPSE
5
D2
100
AcDbEntity
8
1
62
256
6
ByLayer
370
18
48
1
60
0
100
AcDbEllipse
10
10.539719
20
2.275729
30
0
11
1.22119546181361
21
-2.11517258583382
31
0
210
0
220
0
230
1
40
0.989133
41
0
42
6.28318530717959
0
ELLIPSE
5
D3
100
AcDbEntity
8
1
62
256
6
ByLayer
370
18
48
1
60
0
100
AcDbEllipse
10
10.512344
20
2.259924
30
0
11
-1.03499999999996
21
1.79267258583381
31
0
210
0
220
0
230
1
40
0.989133
41
-0.617303798617083
42
-0.174621240257169
0
ELLIPSE
5
D4
100
AcDbEntity
8
1
62
256
6
ByLayer
370
18
48
1
60
0
100
AcDbEllipse
10
10.512344
20
2.259924
30
0
11
-1.03499999999996
21
1.79267258583381
31
0
210
0
220
0
230
1
40
0.989133
41
1.47709130377611
42
1.91977386213602
0
ELLIPSE
5
D5
100
AcDbEntity
8
1
62
256
6
ByLayer
370
18
48
1
60
0
100
AcDbEllipse
10
10.539719
20
2.275729
30
0
11
2.11749999999992
21
-3.66761758502714
31
0
210
0
220
0
230
1
40
0.989133
41
0
42
6.28318530717959
0
ELLIPSE
5
D6
100
AcDbEntity
8
1
62
256
6
ByLayer
370
18
48
1
60
0
100
AcDbEllipse
10
9.941282
20
1.930221
30
0
11
-1.03499999999996
21
1.79267258583381
31
0
210
0
220
0
230
1
40
0.989133
41
-2.26901634265038
42
-1.66450134981368
0
ELLIPSE
5
D7
100
AcDbEntity
8
1
62
256
6
ByLayer
370
18
48
1
60
0
100
AcDbEllipse
10
10.512344
20
2.259924
30
0
11
-1.03499999999996
21
1.79267258583381
31
0
210
0
220
0
230
1
40
0.989133
41
2.52428885497272
42
2.96697141333261
0
ELLIPSE
5
D8
100
AcDbEntity
8
1
62
256
6
ByLayer
370
18
48
1
60
0
100
AcDbEllipse
10
10.512344
20
2.259924
30
0
11
-1.03499999999996
21
1.79267258583381
31
0
210
0
220
0
230
1
40
0.989133
41
-2.71169890101027
42
-2.26901634265039
0
ELLIPSE
5
D9
100
AcDbEntity
8
1
62
256
6
ByLayer
370
18
48
1
60
0
100
AcDbEllipse
10
10.512344
20
2.259924
30
0
11
-1.03499999999996
21
1.79267258583381
31
0
210
0
220
0
230
1
40
0.989133
41
0.429893752579511
42
0.872576310939421
0
ELLIPSE
5
DA
100
AcDbEntity
8
1
62
256
6
ByLayer
370
18
48
1
60
0
100
AcDbEllipse
10
19.133513
20
-1.254372
30
0
11
-0.595312499999977
21
1.03111149638086
31
0
210
0
220
0
230
1
40
0.989133
41
0.790861371919031
42
2.3616576987139
0
ELLIPSE
5
DB
100
AcDbEntity
8
1
62
256
6
ByLayer
370
18
48
1
60
0
100
AcDbEllipse
10
29.197723
20
4.630556
30
0
11
-1.98124999999992
21
3.43162566249588
31
0
210
0
220
0
230
1
40
0.989133
41
0
42
6.28318530717959
0
ELLIPSE
5
DC
100
AcDbEntity
8
1
62
256
6
ByLayer
370
18
48
1
60
0
100
AcDbEllipse
10
35.146087
20
-5.544929
30
0
11
-0.595312499999977
21
1.03111149638086
31
0
210
0
220
0
230
1
40
0.989133
41
2.36165769871393
42
-2.35073128167076
0
ELLIPSE
5
DD
100
AcDbEntity
8
1
62
256
6
ByLayer
370
18
48
1
60
0
100
AcDbEllipse
10
39.261933
20
10.515484
30
0
11
-0.595312499999977
21
1.03111149638086
31
0
210
0
220
0
230
1
40
0.989133
41
-2.35073128167077
42
-0.779934954875867
0
ELLIPSE
5
DE
100
AcDbEntity
8
1
62
256
6
ByLayer
370
18
48
1
60
0
100
AcDbEllipse
10
23.249359
20
14.80604
30
0
11
-0.595312499999977
21
1.03111149638086
31
0
210
0
220
0
230
1
40
0.989133
41
-0.779934954875851
42
0.790861371919
0
POINT
5
6C
100
AcDbEntity
8
80
62
256
6
ByLayer
370
18
48
1
60
0
100
AcDbPoint
10
0
20
0
30
0
39
0
210
0
220
0
230
1
50
360
0
POINT
5
6E
100
AcDbEntity
8
81
62
256
6
ByLayer
370
18
48
1
60
0
100
AcDbPoint
10
39.092867
20
11.075
30
0
39
0
210
0
220
0
230
1
50
360
0
POINT
5
70
100
AcDbEntity
8
1
62
256
6
ByLayer
370
18
48
1
60
0
100
AcDbPoint
10
-130.907133
20
-15.925
30
0
39
0
210
0
220
0
230
1
50
360
0
SPLINE
5
DF
100
AcDbEntity
8
1
62
256
6
ByLayer
370
18
48
1
60
0
100
AcDbSpline
70
4
71
3
72
16
73
12
40
0
40
0
40
0
40
0
40
0.329057139302633
40
0.329057139302633
40
0.496792854476974
40
0.496792854476974
40
0.664528569651316
40
0.664528569651316
40
0.832264284825658
40
0.832264284825658
40
1
40
1
40
1
40
1
41
1
10
25.5379725236244
20
6.04452692588785
30
0
41
1
10
25.5702149925687
20
6.09059266088565
30
0
41
1
10
25.6020130849121
20
6.13396254376622
30
0
41
1
10
25.6455518132421
20
6.19194359084992
30
0
41
1
10
25.659413343786
20
6.21015347969541
30
0
41
1
10
25.6844494451478
20
6.24305564822356
30
0
41
1
10
25.6955797277016
20
6.25769136449418
30
0
41
1
10
25.7129735360184
20
6.28136517061142
30
0
41
1
10
25.7193482904383
20
6.29054514735506
30
0
41
1
10
25.7251336883662
20
6.3015812984504
30
0
41
1
10
25.7243369306624
20
6.3031223384983
30
0
41
1
10
25.7193455331688
20
6.3002405538117
30
0
0
SPLINE
5
E0
100
AcDbEntity
8
1
62
256
6
ByLayer
370
18
48
1
60
0
100
AcDbSpline
70
4
71
3
72
8
73
4
40
0
40
0
40
0
40
0
40
1
40
1
40
1
40
1
41
1
10
27.7756779452036
20
7.72233321492811
30
0
41
1
10
27.9333837274456
20
7.7345459851216
30
0
41
1
10
28.0911546330527
20
7.73678462822517
30
0
41
1
10
28.2490007090671
20
7.72913358873546
30
0
0
SPLINE
5
E1
100
AcDbEntity
8
1
62
256
6
ByLayer
370
18
48
1
60
0
100
AcDbSpline
70
4
71
3
72
14
73
10
40
0
40
0
40
0
40
0
40
0.324676431495651
40
0.324676431495651
40
0.500748282223943
40
0.500748282223943
40
0.676820132952235
40
0.676820132952235
40
1
40
1
40
1
40
1
41
1
10
29.9733190290872
20
0.748219269573099
30
0
41
1
10
30.1403275474696
20
0.844417641371081
30
0
41
1
10
30.2990750207831
20
0.952905637405905
30
0
41
1
10
30.5314291742121
20
1.13889980186715
30
0
41
1
10
30.6107373391124
20
1.20787699927064
30
0
41
1
10
30.7644883589405
20
1.35314414488673
30
0
41
1
10
30.8381802472064
20
1.42875507985173
30
0
41
1
10
31.036879416155
20
1.64960489263018
30
0
41
1
10
31.1539915372351
20
1.80081607677485
30
0
41
1
10
31.2600628089773
20
1.95971454263668
30
0
0
SPLINE
5
E2
100
AcDbEntity
8
1
62
256
6
ByLayer
370
18
48
1
60
0
100
AcDbSpline
70
4
71
3
72
14
73
10
40
0
40
0
40
0
40
0
40
0.188887190675838
40
0.188887190675838
40
0.391665393006878
40
0.391665393006878
40
0.594443595337919
40
0.594443595337919
40
1
40
1
40
1
40
1
41
1
10
25.9708828081085
20
6.84011936580885
30
0
41
1
10
26.0590380045317
20
6.92314818853666
30
0
41
1
10
26.1531575163854
20
7.00233142002867
30
0
41
1
10
26.3595603165285
20
7.15691258890985
30
0
41
1
10
26.472689332685
20
7.23163740605767
30
0
41
1
10
26.7111434880839
20
7.36904465244282
30
0
41
1
10
26.8366388831047
20
7.43166225981955
30
0
41
1
10
27.2213913894175
20
7.59551679556631
30
0
41
1
10
27.492014909475
20
7.67501170187944
30
0
41
1
10
27.7756779452036
20
7.72233321492809
30
0
0
SPLINE
5
E3
100
AcDbEntity
8
1
62
256
6
ByLayer
370
18
48
1
60
0
100
AcDbSpline
70
4
71
3
72
8
73
4
40
0
40
0
40
0
40
0
40
1
40
1
40
1
40
1
41
1
10
27.4837815281128
20
7.63609799115025
30
0
41
1
10
27.1544434289325
20
7.57617018619263
30
0
41
1
10
26.8231680902681
20
7.51613376487674
30
0
41
1
10
26.4852935776415
20
7.45572734374974
30
0
0
SPLINE
5
E4
100
AcDbEntity
8
1
62
256
6
ByLayer
370
18
48
1
60
0
100
AcDbSpline
70
4
71
3
72
8
73
4
40
0
40
0
40
0
40
0
40
1
40
1
40
1
40
1
41
1
10
25.3394393473452
20
5.10985744369381
30
0
41
1
10
25.5221872906065
20
5.08230081705722
30
0
41
1
10
25.7049734672454
20
5.05476037920889
30
0
41
1
10
25.8878178859743
20
5.02724464406492
30
0
0
SPLINE
5
E5
100
AcDbEntity
8
1
62
256
6
ByLayer
370
18
48
1
60
0
100
AcDbSpline
70
4
71
3
72
8
73
4
40
0
40
0
40
0
40
0
40
1
40
1
40
1
40
1
41
1
10
32.277166261474
20
4.10080987605789
30
0
41
1
10
32.4175813950754
20
4.0487975817241
30
0
41
1
10
32.5579235463459
20
3.99675207440379
30
0
41
1
10
32.6982178110955
20
3.94468480505031
30
0
0
SPLINE
5
E6
100
AcDbEntity
8
1
62
256
6
ByLayer
370
18
48
1
60
0
100
AcDbSpline
70
4
71
3
72
8
73
4
40
0
40
0
40
0
40
0
40
1
40
1
40
1
40
1
41
1
10
26.1117843660227
20
3.33403124981743
30
0
41
1
10
25.9445208550546
20
3.24375345751332
30
0
41
1
10
25.7773209990966
20
3.15345944558897
30
0
41
1
10
25.6101629213494
20
3.06315482308989
30
0
0
SPLINE
5
E7
100
AcDbEntity
8
1
62
256
6
ByLayer
370
18
48
1
60
0
100
AcDbSpline
70
4
71
3
72
8
73
4
40
0
40
0
40
0
40
0
40
1
40
1
40
1
40
1
41
1
10
32.4274942370913
20
5.99138742565461
30
0
41
1
10
32.3027898378558
20
5.92559344587238
30
0
41
1
10
32.1780340072662
20
5.85980450341998
30
0
41
1
10
32.0531997814256
20
5.79402327030567
30
0
0
SPLINE
5
E8
100
AcDbEntity
8
1
62
256
6
ByLayer
370
18
48
1
60
0
100
AcDbSpline
70
4
71
3
72
10
73
6
40
0
40
0
40
0
40
0
40
0.5
40
0.5
40
1
40
1
40
1
40
1
41
1
10
12.8242985684026
20
2.55617985346487
30
0
41
1
10
12.7493619190172
20
2.64665657554784
30
0
41
1
10
12.6738024865226
20
2.73875404327507
30
0
41
1
10
12.5235696275867
20
2.92409949928907
30
0
41
1
10
12.4488493306349
20
3.01740115047704
30
0
41
1
10
12.3745986798929
20
3.11144843949109
30
0
0
SPLINE
5
E9
100
AcDbEntity
8
1
62
256
6
ByLayer
370
18
48
1
60
0
100
AcDbSpline
70
4
71
3
72
10
73
6
40
0
40
0
40
0
40
0
40
0.5
40
0.5
40
1
40
1
40
1
40
1
41
1
10
11.9423408771133
20
0.414769924963679
30
0
41
1
10
11.9822137438356
20
0.519525321836483
30
0
41
1
10
12.0231638123673
20
0.626112888742625
30
0
41
1
10
12.1064984880851
20
0.840506763231474
30
0
41
1
10
12.1489055214529
20
0.948375352033452
30
0
41
1
10
12.1921895219416
20
1.05704023650785
30
0
0
SPLINE
5
EA
100
AcDbEntity
8
1
62
256
6
ByLayer
370
18
48
1
60
0
100
AcDbSpline
70
4
71
3
72
10
73
6
40
0
40
0
40
0
40
0
40
0.5
40
0.5
40
1
40
1
40
1
40
1
41
1
10
11.9423408771133
20
0.414769924963679
30
0
41
1
10
11.8237623713965
20
0.398086786701384
30
0
41
1
10
11.7044326631956
20
0.381506143550524
30
0
41
1
10
11.463787338991
20
0.348615817270854
30
0
41
1
10
11.3431811989652
20
0.33240686327369
30
0
41
1
10
11.2235381759952
20
0.316651800494839
30
0
0
SPLINE
5
EB
100
AcDbEntity
8
1
62
256
6
ByLayer
370
18
48
1
60
0
100
AcDbSpline
70
4
71
3
72
10
73
6
40
0
40
0
40
0
40
0
40
0.5
40
0.5
40
1
40
1
40
1
40
1
41
1
10
10.3299345331274
20
0.20551575323924
30
0
41
1
10
10.2134696814791
20
0.191911647268626
30
0
41
1
10
10.0974160225145
20
0.178699818848287
30
0
41
1
10
9.87067618704936
20
0.1534549705122
30
0
41
1
10
9.75937357774887
20
0.141347325830111
30
0
41
1
10
9.64964016756949
20
0.129630426672122
30
0
0
SPLINE
5
EC
100
AcDbEntity
8
1
62
256
6
ByLayer
370
18
48
1
60
0
100
AcDbSpline
70
4
71
3
72
8
73
4
40
0
40
0
40
0
40
0
40
1
40
1
40
1
40
1
41
1
10
9.19994027905989
20
0.68489901269831
30
0
41
1
10
9.35086824404146
20
0.493730776446171
30
0
41
1
10
9.50061230586721
20
0.309563110298171
30
0
41
1
10
9.64964016756954
20
0.129630426672122
30
0
0
SPLINE
5
ED
100
AcDbEntity
8
1
62
256
6
ByLayer
370
18
48
1
60
0
100
AcDbSpline
70
4
71
3
72
10
73
6
40
0
40
0
40
0
40
0
40
0.5
40
0.5
40
1
40
1
40
1
40
1
41
1
10
8.23889714931505
20
1.98590085688176
30
0
41
1
10
8.30524952435741
20
1.89046800169609
30
0
41
1
10
8.37307118338424
20
1.79390312837432
30
0
41
1
10
8.5102755528942
20
1.60103567048313
30
0
41
1
10
8.57969667205259
20
1.50467453756966
30
0
41
1
10
8.6500887022645
20
1.40839947295385
30
0
0
SPLINE
5
EE
100
AcDbEntity
8
1
62
256
6
ByLayer
370
18
48
1
60
0
100
AcDbSpline
70
4
71
3
72
10
73
6
40
0
40
0
40
0
40
0
40
0.5
40
0.5
40
1
40
1
40
1
40
1
41
1
10
9.80114920616222
20
4.20319611195009
30
0
41
1
10
9.68468435451388
20
4.18959200597948
30
0
41
1
10
9.5686306955493
20
4.17638017755914
30
0
41
1
10
9.34189086008416
20
4.15113532922308
30
0
41
1
10
9.23058825078368
20
4.13902768454096
30
0
41
1
10
9.1208548406043
20
4.12731078538297
30
0
0
SPLINE
5
EF
100
AcDbEntity
8
1
62
256
6
ByLayer
370
18
48
1
60
0
100
AcDbSpline
70
4
71
3
72
8
73
4
40
0
40
0
40
0
40
0
40
1
40
1
40
1
40
1
41
1
10
12.535941588014
20
1.89167674401898
30
0
41
1
10
12.63176754756
20
2.11708626365865
30
0
41
1
10
12.7279309808949
20
2.33799456161577
30
0
41
1
10
12.8242985684026
20
2.5561798534649
30
0
0
SPLINE
5
F0
100
AcDbEntity
8
1
62
256
6
ByLayer
370
18
48
1
60
0
100
AcDbSpline
70
4
71
3
72
8
73
4
40
0
40
0
40
0
40
0
40
1
40
1
40
1
40
1
41
1
10
8.48874579414337
20
2.62817116842592
30
0
41
1
10
8.40076318328761
20
2.40729000826388
30
0
41
1
10
8.31819303612485
20
2.19422979773745
30
0
41
1
10
8.23889714931505
20
1.98590085688176
30
0
0
SPLINE
5
F1
100
AcDbEntity
8
1
62
256
6
ByLayer
370
18
48
1
60
0
100
AcDbSpline
70
4
71
3
72
8
73
4
40
0
40
0
40
0
40
0
40
1
40
1
40
1
40
1
41
1
10
11.8247471030975
20
3.83494889974662
30
0
41
1
10
11.6816624868062
20
4.03064549547639
30
0
41
1
10
11.5455117111526
20
4.22266124905505
30
0
41
1
10
11.4135555501481
20
4.41245028367453
30
0
0
SPLINE
5
F2
100
AcDbEntity
8
1
62
256
6
ByLayer
370
18
48
1
60
0
100
AcDbSpline
70
4
71
3
72
10
73
6
40
0
40
0
40
0
40
0
40
0.5
40
0.5
40
1
40
1
40
1
40
1
41
1
10
11.4135555501481
20
4.41245028367453
30
0
41
1
10
11.2949770444313
20
4.39576714541221
30
0
41
1
10
11.1756473362305
20
4.37918650226138
30
0
41
1
10
10.9350020120258
20
4.34629617598171
30
0
41
1
10
10.814395872
20
4.33008722198454
30
0
41
1
10
10.6947528490301
20
4.31433215920569
30
0
0
SPLINE
5
F3
100
AcDbEntity
8
1
62
256
6
ByLayer
370
18
48
1
60
0
100
AcDbSpline
70
4
71
3
72
10
73
6
40
0
40
0
40
0
40
0
40
0.5
40
0.5
40
1
40
1
40
1
40
1
41
1
10
9.12085484060435
20
4.12731078538297
30
0
41
1
10
9.07239769953901
20
4.01759925540745
30
0
41
1
10
9.02370985753953
20
3.90654428290676
30
0
41
1
10
8.92734669239587
20
3.68462840654075
30
0
41
1
10
8.87964048123456
20
3.57370033601325
30
0
41
1
10
8.83249786021577
20
3.46280767593709
30
0
0
LINE
5
72
100
AcDbEntity
8
1
62
256
6
ByLayer
370
18
48
1
60
0
100
AcDbLine
10
30.163223
20
1.314935
30
0
11
30.927185
21
1.756008
31
0
39
0
210
0
220
0
230
1
0
LINE
5
73
100
AcDbEntity
8
1
62
256
6
ByLayer
370
18
48
1
60
0
100
AcDbLine
10
22.654046
20
15.837152
30
0
11
22.010105
21
15.465372
31
0
39
0
210
0
220
0
230
1
0
LINE
5
74
100
AcDbEntity
8
1
62
256
6
ByLayer
370
18
48
1
60
0
100
AcDbLine
10
35.114843
20
-6.937783
30
0
11
35.7414
21
-6.57604
31
0
39
0
210
0
220
0
230
1
0
LINE
5
75
100
AcDbEntity
8
1
62
256
6
ByLayer
370
18
48
1
60
0
100
AcDbLine
10
26.589955
20
7.29921
30
0
11
26.494166
21
7.243906
31
0
39
0
210
0
220
0
230
1
0
LINE
5
76
100
AcDbEntity
8
1
62
256
6
ByLayer
370
18
48
1
60
0
100
AcDbLine
10
29.976087
20
0.749817
30
0
11
29.97674
21
0.750195
31
0
39
0
210
0
220
0
230
1
0
LINE
5
77
100
AcDbEntity
8
1
62
256
6
ByLayer
370
18
48
1
60
0
100
AcDbLine
10
27.110472
20
7.298534
30
0
11
26.346511
21
6.85746
31
0
39
0
210
0
220
0
230
1
0
LINE
5
78
100
AcDbEntity
8
SK1
62
256
6
ByLayer
370
18
48
1
60
0
100
AcDbLine
10
-130.907133
20
-15.925
30
0
11
0
21
-15.925
31
0
39
0
210
0
220
0
230
1
0
LINE
5
7A
100
AcDbEntity
8
SK1
62
256
6
ByLayer
370
18
48
1
60
0
100
AcDbLine
10
-130.907133
20
15.925
30
0
11
-130.907133
21
-15.925
31
0
39
0
210
0
220
0
230
1
0
LINE
5
7B
100
AcDbEntity
8
SK1
62
256
6
ByLayer
370
18
48
1
60
0
100
AcDbLine
10
-130.907133
20
15.925
30
0
11
0
21
15.925
31
0
39
0
210
0
220
0
230
1
0
LINE
5
7C
100
AcDbEntity
8
SK1
62
256
6
ByLayer
370
18
48
1
60
0
100
AcDbLine
10
0
20
-15.925
30
0
11
0
21
15.925
31
0
39
0
210
0
220
0
230
1
0
LINE
5
7D
100
AcDbEntity
8
1
62
256
6
ByLayer
370
18
48
1
60
0
100
AcDbLine
10
22.445448
20
-4.185645
30
0
11
22.56412
21
-4.216888
31
0
39
0
210
0
220
0
230
1
0
LINE
5
7E
100
AcDbEntity
8
1
62
256
6
ByLayer
370
18
48
1
60
0
100
AcDbLine
10
23.312446
20
-3.66557
30
0
11
25.700825
21
-4.294377
31
0
39
0
210
0
220
0
230
1
0
LINE
5
7F
100
AcDbEntity
8
1
62
256
6
ByLayer
370
18
48
1
60
0
100
AcDbLine
10
35.101691
20
-6.769413
30
0
11
35.154424
21
-6.783297
31
0
39
0
210
0
220
0
230
1
0
LINE
5
80
100
AcDbEntity
8
1
62
256
6
ByLayer
370
18
48
1
60
0
100
AcDbLine
10
22.317403
20
-4.016886
30
0
11
22.189577
21
-4.111093
31
0
39
0
210
0
220
0
230
1
0
LINE
5
81
100
AcDbEntity
8
1
62
256
6
ByLayer
370
18
48
1
60
0
100
AcDbLine
10
0
20
-15.925
30
0
11
0
21
15.925
31
0
39
0
210
0
220
0
230
1
0
LINE
5
82
100
AcDbEntity
8
1
62
256
6
ByLayer
370
18
48
1
60
0
100
AcDbLine
10
2.968879
20
-15.953353
30
0
11
2.333237
21
17.066981
31
0
39
0
210
0
220
0
230
1
0
LINE
5
83
100
AcDbEntity
8
1
62
256
6
ByLayer
370
18
48
1
60
0
100
AcDbLine
10
22.137621
20
15.431197
30
0
11
22.073002
21
15.179048
31
0
39
0
210
0
220
0
230
1
0
LINE
5
84
100
AcDbEntity
8
1
62
256
6
ByLayer
370
18
48
1
60
0
100
AcDbLine
10
21.845571
20
-4.788362
30
0
11
22.06089
21
-3.948169
31
0
39
0
210
0
220
0
230
1
0
LINE
5
85
100
AcDbEntity
8
1
62
256
6
ByLayer
370
18
48
1
60
0
100
AcDbLine
10
22.189579
20
-4.111093
30
0
11
22.008978
21
-4.815815
31
0
39
0
210
0
220
0
230
1
0
LINE
5
86
100
AcDbEntity
8
1
62
256
6
ByLayer
370
18
48
1
60
0
100
AcDbLine
10
1.545481
20
17.066981
30
0
11
1.545481
21
-15.930174
31
0
39
0
210
0
220
0
230
1
0
LINE
5
87
100
AcDbEntity
8
1
62
256
6
ByLayer
370
18
48
1
60
0
100
AcDbLine
10
32.808686
20
-15.936588
30
0
11
2.968879
21
-15.953353
31
0
39
0
210
0
220
0
230
1
0
LINE
5
88
100
AcDbEntity
8
1
62
256
6
ByLayer
370
18
48
1
60
0
100
AcDbLine
10
22.008978
20
-4.815815
30
0
11
23.222526
21
-4.016444
31
0
39
0
210
0
220
0
230
1
0
LINE
5
89
100
AcDbEntity
8
1
62
256
6
ByLayer
370
18
48
1
60
0
100
AcDbLine
10
22.220382
20
-3.990889
30
0
11
22.189577
21
-4.111093
31
0
39
0
210
0
220
0
230
1
0
LINE
5
8A
100
AcDbEntity
8
1
62
256
6
ByLayer
370
18
48
1
60
0
100
AcDbLine
10
17.90336
20
-1.091283
30
0
11
17.593061
21
-2.3021
31
0
39
0
210
0
220
0
230
1
0
LINE
5
8B
100
AcDbEntity
8
1
62
256
6
ByLayer
370
18
48
1
60
0
100
AcDbLine
10
2.333237
20
17.066981
30
0
11
1.545481
21
17.066981
31
0
39
0
210
0
220
0
230
1
0
LINE
5
8C
100
AcDbEntity
8
1
62
256
6
ByLayer
370
18
48
1
60
0
100
AcDbLine
10
23.312446
20
-3.66557
30
0
11
23.222526
21
-4.016444
31
0
39
0
210
0
220
0
230
1
0
LINE
5
8D
100
AcDbEntity
8
1
62
256
6
ByLayer
370
18
48
1
60
0
100
AcDbLine
10
1.545481
20
17.066981
30
0
11
1.533042
21
17.066981
31
0
39
0
210
0
220
0
230
1
0
LINE
5
8E
100
AcDbEntity
8
1
62
256
6
ByLayer
370
18
48
1
60
0
100
AcDbLine
10
32.808686
20
-15.936588
30
0
11
35.154424
21
-6.783297
31
0
39
0
210
0
220
0
230
1
0
LINE
5
8F
100
AcDbEntity
8
1
62
256
6
ByLayer
370
18
48
1
60
0
100
AcDbLine
10
22.426036
20
-4.31856
30
0
11
23.312446
21
-3.66557
31
0
39
0
210
0
220
0
230
1
0
LINE
5
90
100
AcDbEntity
8
1
62
256
6
ByLayer
370
18
48
1
60
0
100
AcDbLine
10
20.159319
20
8.312561
30
0
11
19.284407
21
4.898573
31
0
39
0
210
0
220
0
230
1
0
LINE
5
91
100
AcDbEntity
8
1
62
256
6
ByLayer
370
18
48
1
60
0
100
AcDbLine
10
22.137621
20
15.431197
30
0
11
16.032789
21
17.066981
31
0
39
0
210
0
220
0
230
1
0
LINE
5
92
100
AcDbEntity
8
1
62
256
6
ByLayer
370
18
48
1
60
0
100
AcDbLine
10
16.032789
20
17.066981
30
0
11
2.333237
21
17.066981
31
0
39
0
210
0
220
0
230
1
0
LINE
5
93
100
AcDbEntity
8
1
62
256
6
ByLayer
370
18
48
1
60
0
100
AcDbLine
10
1.545481
20
-15.930174
30
0
11
2.968879
21
-15.953353
31
0
39
0
210
0
220
0
230
1
0
LINE
5
94
100
AcDbEntity
8
1
62
256
6
ByLayer
370
18
48
1
60
0
100
AcDbLine
10
22.47769
20
-4.059834
30
0
11
22.445448
21
-4.185645
31
0
39
0
210
0
220
0
230
1
0
LINE
5
95
100
AcDbEntity
8
1
62
256
6
ByLayer
370
18
48
1
60
0
100
AcDbLine
10
25.605848
20
3.060663
30
0
11
25.610163
21
3.063155
31
0
39
0
210
0
220
0
230
1
0
LINE
5
96
100
AcDbEntity
8
1
62
256
6
ByLayer
370
18
48
1
60
0
100
AcDbLine
10
25.585985
20
6.223245
30
0
11
25.719346
21
6.300241
31
0
39
0
210
0
220
0
230
1
0
LINE
5
97
100
AcDbEntity
8
1
62
256
6
ByLayer
370
18
48
1
60
0
100
AcDbLine
10
25.339439
20
5.109857
30
0
11
25.288998
21
5.080735
31
0
39
0
210
0
220
0
230
1
0
LINE
5
98
100
AcDbEntity
8
1
62
256
6
ByLayer
370
18
48
1
60
0
100
AcDbLine
10
17.925455
20
-0.985029
30
0
11
17.989758
21
-0.947904
31
0
39
0
210
0
220
0
230
1
0
LINE
5
99
100
AcDbEntity
8
1
62
256
6
ByLayer
370
18
48
1
60
0
100
AcDbLine
10
22.105603
20
15.112509
30
0
11
22.0413
21
15.075383
31
0
39
0
210
0
220
0
230
1
0
LINE
5
9A
100
AcDbEntity
8
1
62
256
6
ByLayer
370
18
48
1
60
0
100
AcDbLine
10
34.787795
20
-6.729226
30
0
11
34.852098
21
-6.692101
31
0
39
0
210
0
220
0
230
1
0
LINE
5
9B
100
AcDbEntity
8
1
62
256
6
ByLayer
370
18
48
1
60
0
100
AcDbLine
10
22.697412
20
-4.118709
30
0
11
18.030998
21
-2.868347
31
0
39
0
210
0
220
0
230
1
0
LINE
5
9C
100
AcDbEntity
8
1
62
256
6
ByLayer
370
18
48
1
60
0
100
AcDbLine
10
8.997193
20
3.844529
30
0
11
9.230088
21
3.873494
31
0
39
0
210
0
220
0
230
1
0
LINE
5
9D
100
AcDbEntity
8
1
62
256
6
ByLayer
370
18
48
1
60
0
100
AcDbLine
10
11.621128
20
0.727338
30
0
11
11.465317
21
0.349027
31
0
39
0
210
0
220
0
230
1
0
LINE
5
9E
100
AcDbEntity
8
80
62
256
6
ByLayer
370
18
48
1
60
0
100
AcDbLine
10
0
20
0
30
0
11
-5
21
0
31
0
39
0
210
0
220
0
230
1
0
LINE
5
9F
100
AcDbEntity
8
81
62
256
6
ByLayer
370
18
48
1
60
0
100
AcDbLine
10
39.092867
20
11.075
30
0
11
49.092867
21
11.075
31
0
39
0
210
0
220
0
230
1
0
LINE
5
A0
100
AcDbEntity
8
1
62
256
6
ByLayer
370
18
48
1
60
0
100
AcDbLine
10
10.82324
20
4.071631
30
0
11
11.253686
21
3.505246
31
0
39
0
210
0
220
0
230
1
0
LINE
5
A1
100
AcDbEntity
8
1
62
256
6
ByLayer
370
18
48
1
60
0
100
AcDbLine
10
12.233983
20
2.215361
30
0
11
11.96488
21
1.561974
31
0
39
0
210
0
220
0
230
1
0
LINE
5
A2
100
AcDbEntity
8
1
62
256
6
ByLayer
370
18
48
1
60
0
100
AcDbLine
10
11.621128
20
0.727338
30
0
11
12.19219
21
1.05704
31
0
39
0
210
0
220
0
230
1
0
LINE
5
A3
100
AcDbEntity
8
1
62
256
6
ByLayer
370
18
48
1
60
0
100
AcDbLine
10
10.123691
20
3.98463
30
0
11
10.694753
21
4.314332
31
0
39
0
210
0
220
0
230
1
0
LINE
5
A4
100
AcDbEntity
8
1
62
256
6
ByLayer
370
18
48
1
60
0
100
AcDbLine
10
11.803537
20
2.781746
30
0
11
12.233983
21
2.215361
31
0
39
0
210
0
220
0
230
1
0
LINE
5
A5
100
AcDbEntity
8
1
62
256
6
ByLayer
370
18
48
1
60
0
100
AcDbLine
10
12.824299
20
2.55618
30
0
11
12.233983
21
2.215361
31
0
39
0
210
0
220
0
230
1
0
LINE
5
A6
100
AcDbEntity
8
1
62
256
6
ByLayer
370
18
48
1
60
0
100
AcDbLine
10
9.801149
20
4.203196
30
0
11
9.230088
21
3.873494
31
0
39
0
210
0
220
0
230
1
0
LINE
5
A7
100
AcDbEntity
8
1
62
256
6
ByLayer
370
18
48
1
60
0
100
AcDbLine
10
11.803537
20
2.781746
30
0
11
12.374599
21
3.111448
31
0
39
0
210
0
220
0
230
1
0
LINE
5
A8
100
AcDbEntity
8
1
62
256
6
ByLayer
370
18
48
1
60
0
100
AcDbLine
10
11.413556
20
4.41245
30
0
11
10.82324
21
4.071631
31
0
39
0
210
0
220
0
230
1
0
LINE
5
A9
100
AcDbEntity
8
1
62
256
6
ByLayer
370
18
48
1
60
0
100
AcDbLine
10
11.824747
20
3.834949
30
0
11
11.253686
21
3.505246
31
0
39
0
210
0
220
0
230
1
0
LINE
5
AA
100
AcDbEntity
8
1
62
256
6
ByLayer
370
18
48
1
60
0
100
AcDbLine
10
12.535942
20
1.891677
30
0
11
11.96488
21
1.561974
31
0
39
0
210
0
220
0
230
1
0
LINE
5
AB
100
AcDbEntity
8
1
62
256
6
ByLayer
370
18
48
1
60
0
100
AcDbLine
10
10.123691
20
3.98463
30
0
11
10.82324
21
4.071631
31
0
39
0
210
0
220
0
230
1
0
LINE
5
AC
100
AcDbEntity
8
1
62
256
6
ByLayer
370
18
48
1
60
0
100
AcDbLine
10
18.839524
20
-2.401545
30
0
11
18.030998
21
-2.868347
31
0
39
0
210
0
220
0
230
1
0
LINE
5
AD
100
AcDbEntity
8
1
62
256
6
ByLayer
370
18
48
1
60
0
100
AcDbLine
10
34.852098
20
-6.692101
30
0
11
18.839524
21
-2.401545
31
0
39
0
210
0
220
0
230
1
0
LINE
5
AE
100
AcDbEntity
8
1
62
256
6
ByLayer
370
18
48
1
60
0
100
AcDbLine
10
17.989758
20
-0.947904
30
0
11
22.105603
21
15.112509
31
0
39
0
210
0
220
0
230
1
0
LINE
5
AF
100
AcDbEntity
8
1
62
256
6
ByLayer
370
18
48
1
60
0
100
AcDbLine
10
40.405688
20
10.209016
30
0
11
36.289843
21
-5.851397
31
0
39
0
210
0
220
0
230
1
0
LINE
5
B0
100
AcDbEntity
8
1
62
256
6
ByLayer
370
18
48
1
60
0
100
AcDbLine
10
23.543348
20
15.953213
30
0
11
39.555922
21
11.662656
31
0
39
0
210
0
220
0
230
1
0
MTEXT
5
F4
100
AcDbEntity
8
SK6
62
256
6
ByLayer
370
13
48
1
60
0
100
AcDbMText
10
-99.526933
20
-40.986925
30
0
210
0
220
0
230
1
1
\W0.7579;PSBNR 3232P 19
40
3.5
41
0
44
1.084337
50
0
71
7
72
5
7
iso_b_vert
0
DIMENSION
5
106
100
AcDbEntity
8
SK2
62
256
6
ByLayer
370
13
48
1
60
0
100
AcDbDimension
2
DimnDraft3D1
10
-140.657133
20
-15.925
30
0
11
-140.657133
21
0.075
31
0
70
32
71
5
72
1
41
1
210
0
220
0
230
1
3
Standard
100
AcDbAlignedDimension
13
-132.494633
23
16.075
33
0
14
-132.494633
24
-15.925
34
0
50
90
100
AcDbRotatedDimension
1001
ACAD
1000
DSTYLE
1002
{
1070
    74
1070
     0
1070
   279
1070
     0
1070
   172
1070
     1
1070
   173
1070
     1
1070
   340
1005
F5
1070
   271
1070
     1
1070
   272
1070
     2
1070
    77
1070
     1
1070
    73
1070
     0
1070
   171
1070
     3
1070
   274
1070
     4
1070
   177
1070
   150
1070
   176
1070
     9
1070
   178
1070
    43
1070
    78
1070
     8
1070
    48
1040
-0.005
1070
    41
1041
3.175
1070
   147
1041
2.25
1070
    42
1041
1.5875
1070
    44
1041
3.175
1070
   140
1041
4.5
1070
   343
1005
107
1070
   344
1005
107
1002
}
0
DIMENSION
5
11C
100
AcDbEntity
8
2
62
256
6
ByLayer
370
13
48
1
60
0
100
AcDbDimension
2
DimnDraft3D2
10
56.942867
20
11.425
30
0
11
56.942867
21
-2.25
31
0
70
32
71
5
72
1
41
1
210
0
220
0
230
1
3
Standard
100
AcDbAlignedDimension
13
1.5875
23
-15.925
33
0
14
42.030367
24
11.425
34
0
50
90
100
AcDbRotatedDimension
1001
ACAD
1000
DSTYLE
1002
{
1070
    74
1070
     0
1070
   279
1070
     0
1070
   172
1070
     1
1070
   173
1070
     1
1070
   340
1005
F5
1070
   271
1070
     1
1070
   272
1070
     2
1070
    77
1070
     1
1070
    73
1070
     0
1070
   171
1070
     3
1070
   274
1070
     4
1070
   177
1070
   150
1070
   176
1070
     9
1070
   178
1070
    43
1070
    78
1070
     8
1070
    48
1040
-0.005
1070
    41
1041
3.175
1070
   147
1041
2.25
1070
    42
1041
1.5875
1070
    44
1041
3.175
1070
   140
1041
4.5
1070
   343
1005
107
1070
   344
1005
107
1002
}
0
DIMENSION
5
12A
100
AcDbEntity
8
SK2
62
256
6
ByLayer
370
13
48
1
60
0
100
AcDbDimension
2
DimnDraft3D3
10
40.442867
20
34.566981
30
0
11
-45.232133
21
34.566981
31
0
70
32
71
5
72
1
41
1
210
0
220
0
230
1
3
Standard
100
AcDbAlignedDimension
13
-130.907133
23
17.6625
33
0
14
40.442867
24
13.0125
34
0
50
0
100
AcDbRotatedDimension
1001
ACAD
1000
DSTYLE
1002
{
1070
   279
1070
     0
1070
   172
1070
     1
1070
   173
1070
     1
1070
   340
1005
F5
1070
   271
1070
     1
1070
   272
1070
     2
1070
    77
1070
     1
1070
    73
1070
     0
1070
   171
1070
     3
1070
   274
1070
     4
1070
   177
1070
   150
1070
   176
1070
     9
1070
   178
1070
    43
1070
    78
1070
     8
1070
    48
1040
-0.005
1070
    41
1041
3.175
1070
   147
1041
2.25
1070
    42
1041
1.5875
1070
    44
1041
3.175
1070
   140
1041
4.5
1070
   343
1005
107
1070
   344
1005
107
1002
}
0
DIMENSION
5
138
100
AcDbEntity
8
2
62
256
6
ByLayer
370
13
48
1
60
0
100
AcDbDimension
2
DimnDraft3D4
10
20.560399
20
16.475465
30
0
11
24.164029
21
32.362969
31
0
70
34
71
5
72
1
41
1
210
0
220
0
230
1
3
Standard
100
AcDb2LineAngularDimension
13
40.442867
23
11.425
33
0
14
40.442867
24
9.04375
34
0
15
39.560399
25
11.38443
35
0
16
26.903455
26
28.792879
36
0
40
0
0
ENDSEC
0
SECTION
2
OBJECTS
0
DICTIONARY
5
1a2
330
0
100
AcDbDictionary
280
0
281
1
3
ACAD_GROUP
350
1a3
3
ACAD_MLINESTYLE
350
1a4
0
DICTIONARY
5
1a3
330
0
100
AcDbDictionary
280
0
281
1
0
DICTIONARY
5
1a4
330
0
100
AcDbDictionary
280
0
281
1
3
Standard
350
18
0
MLINESTYLE
5
18
330
1a4
100
AcDbMlineStyle
2
Standard
70
0
3

62
256
51
90
52
90
71
2
49
-0.5
62
256
6
ByLayer
49
0.5
62
256
6
ByLayer
0
RASTERVARIABLES
5
191
330

100
AcDbRasterVariables
90
0
70
1
71
1
72
1
0
ENDSEC
0
EOF
