0
SECTION
2
HEADER
9
$ACADVER
1
AC1015
9
$DWGCODEPAGE
3
ANSI_1252
9
$HANDSEED
5
1ac
9
$ANGBASE
50
0
9
$ANGDIR
70
0
9
$ATTMODE
70
1
9
$AUNITS
70
0
9
$AUPREC
70
0
9
$CECOLOR
62
256
9
$CELTSCALE
40
1
9
$CELTYPE
6
ByLayer
9
$CELWEIGHT
370
18
9
$CLAYER
8
0
9
$CMLJUST
70
0
9
$CMLSCALE
40
1
9
$CMLSTYLE
2
Standard
9
$DIMSTYLE
2
Standard
9
$TEXTSIZE
40
0.2
9
$TEXTSTYLE
7
Standard
9
$LUNITS
70
2
9
$LUPREC
70
4
9
$EXTNAMES
290
1
9
$INSUNITS
70
4
9
$LTSCALE
40
1
9
$LWDISPLAY
290
1
9
$PDMODE
70
0
9
$PDSIZE
40
0
9
$PLINEGEN
70
0
0
ENDSEC
0
SECTION
2
CLASSES
0
CLASS
1
RASTERVARIABLES
2
AcDbRasterVariables
3
ISM
90
0
280
0
281
0
0
ENDSEC
0
SECTION
2
TABLES
0
TABLE
2
VPORT
5
1a2
100
AcDbSymbolTable
0
VPORT
5
1
100
AcDbSymbolTableRecord
100
AcDbViewportTableRecord
2
*Active
70
0
10
0
20
0
11
1
21
1
12
-1
22
1
13
0
23
0
14
0.5
24
0.5
15
10
25
10
16
0
26
0
36
1
17
0
27
0
37
0
0
ENDTAB
0
TABLE
2
LTYPE
5
1a3
100
AcDbSymbolTable
0
LTYPE
5
14
100
AcDbSymbolTableRecord
100
AcDbLinetypeTableRecord
70
0
2
ByBlock
3

72
65
73
0
40
0
0
LTYPE
5
15
100
AcDbSymbolTableRecord
100
AcDbLinetypeTableRecord
70
0
2
ByLayer
3

72
65
73
0
40
0
0
LTYPE
5
16
100
AcDbSymbolTableRecord
100
AcDbLinetypeTableRecord
70
0
2
CONTINUOUS
3
Solid line
72
65
73
0
40
0
0
LTYPE
5
6A
100
AcDbSymbolTableRecord
100
AcDbLinetypeTableRecord
70
0
2
CENTER
3
____ _ ____ _ ____ _ ____
72
65
73
4
40
47.5
49
22
74
0
49
-8.5
74
0
49
8.5
74
0
49
-8.5
74
0
0
LTYPE
5
6B
100
AcDbSymbolTableRecord
100
AcDbLinetypeTableRecord
70
0
2
DASHED
3
__ __ __ __ __ __ __ __ __
72
65
73
2
40
25.72
49
12.86
74
0
49
-12.86
74
0
0
ENDTAB
0
TABLE
2
LAYER
5
1a4
100
AcDbSymbolTable
0
LAYER
5
10
100
AcDbSymbolTableRecord
100
AcDbLayerTableRecord
2
0
70
0
62
7
6
CONTINUOUS
290
1
370
-3
390
0
0
LAYER
5
6D
100
AcDbSymbolTableRecord
100
AcDbLayerTableRecord
2
80
70
0
62
-6
6
CONTINUOUS
290
1
370
-3
390
0
0
LAYER
5
6F
100
AcDbSymbolTableRecord
100
AcDbLayerTableRecord
2
81
70
0
62
-3
6
CONTINUOUS
290
1
370
-3
390
0
0
LAYER
5
71
100
AcDbSymbolTableRecord
100
AcDbLayerTableRecord
2
1
70
0
62
4
6
CONTINUOUS
290
1
370
-3
390
0
0
LAYER
5
73
100
AcDbSymbolTableRecord
100
AcDbLayerTableRecord
2
2
70
0
62
7
6
CONTINUOUS
290
1
370
-3
390
0
0
LAYER
5
18f
100
AcDbSymbolTableRecord
100
AcDbLayerTableRecord
2
SK1
70
0
62
4
6
CONTINUOUS
290
1
370
-3
390
0
0
LAYER
5
190
100
AcDbSymbolTableRecord
100
AcDbLayerTableRecord
2
SK6
70
0
62
5
6
CONTINUOUS
290
1
370
-3
390
0
0
LAYER
5
191
100
AcDbSymbolTableRecord
100
AcDbLayerTableRecord
2
SK2
70
0
62
7
6
CONTINUOUS
290
1
370
-3
390
0
0
ENDTAB
0
TABLE
2
STYLE
5
1a5
100
AcDbSymbolTable
0
STYLE
5
11
100
AcDbSymbolTableRecord
100
AcDbTextStyleTableRecord
2
Standard
3
txt
70
0
71
0
40
0
41
1
42
0
50
0
0
STYLE
5
F3
100
AcDbSymbolTableRecord
100
AcDbTextStyleTableRecord
2
iso_b_vert
3
simplex.shx
70
0
71
0
40
0
41
1
42
0
50
0
0
STYLE
5
F4
100
AcDbSymbolTableRecord
100
AcDbTextStyleTableRecord
2
DWGDirectTextStyle
3
simplex
70
0
71
0
40
0
41
1
42
0
50
0
0
ENDTAB
0
TABLE
2
DIMSTYLE
5
1a6
100
AcDbSymbolTable
100
AcDbDimStyleTable
0
DIMSTYLE
105
27
100
AcDbSymbolTableRecord
100
AcDbDimStyleTableRecord
2
Standard
70
0
3
<>
41
0.18
42
0.0625
44
0.18
140
0.18
147
0.09
73
0
74
0
77
1
271
2
275
0
278
52
280
0
340
11
0
ENDTAB
0
TABLE
2
VIEW
5
1a7
100
AcDbSymbolTable
0
ENDTAB
0
TABLE
2
UCS
5
1a8
100
AcDbSymbolTable
0
ENDTAB
0
TABLE
2
APPID
5
1a9
100
AcDbSymbolTable
0
APPID
5
12
100
AcDbSymbolTableRecord
100
AcDbRegAppTableRecord
2
ACAD
70
0
0
ENDTAB
0
TABLE
2
BLOCK_RECORD
5
1aa
100
AcDbSymbolTable
0
BLOCK_RECORD
5
1F
100
AcDbSymbolTableRecord
100
AcDbBlockTableRecord
2
*Model_Space
340
0
70
0
0
BLOCK_RECORD
5
1B
100
AcDbSymbolTableRecord
100
AcDbBlockTableRecord
2
*Paper_Space
340
0
70
0
0
BLOCK_RECORD
5
23
100
AcDbSymbolTableRecord
100
AcDbBlockTableRecord
2
*Paper_Space0
340
0
70
0
0
BLOCK_RECORD
5
F6
100
AcDbSymbolTableRecord
100
AcDbBlockTableRecord
2
DimnDraft3D1
340
0
70
0
0
BLOCK_RECORD
5
105
100
AcDbSymbolTableRecord
100
AcDbBlockTableRecord
2
_CLOSED
340
0
70
0
0
BLOCK_RECORD
5
10C
100
AcDbSymbolTableRecord
100
AcDbBlockTableRecord
2
DimnDraft3D2
340
0
70
0
0
BLOCK_RECORD
5
11A
100
AcDbSymbolTableRecord
100
AcDbBlockTableRecord
2
DimnDraft3D3
340
0
70
0
0
BLOCK_RECORD
5
128
100
AcDbSymbolTableRecord
100
AcDbBlockTableRecord
2
DimnDraft3D4
340
0
70
0
0
ENDTAB
0
ENDSEC
0
SECTION
2
BLOCKS
0
BLOCK
5
20
100
AcDbEntity
8
0
100
AcDbBlockBegin
2
*Model_Space
70
0
10
0
20
0
30
0
3
*Model_Space
0
ENDBLK
5
21
100
AcDbEntity
8
0
100
AcDbBlockEnd
0
BLOCK
5
1C
100
AcDbEntity
8
0
100
AcDbBlockBegin
2
*Paper_Space
70
0
10
0
20
0
30
0
3
*Paper_Space
0
ENDBLK
5
1D
100
AcDbEntity
8
0
100
AcDbBlockEnd
0
BLOCK
5
24
100
AcDbEntity
8
0
100
AcDbBlockBegin
2
*Paper_Space0
70
0
10
0
20
0
30
0
3
*Paper_Space0
0
ENDBLK
5
25
100
AcDbEntity
8
0
100
AcDbBlockEnd
0
BLOCK
5
102
100
AcDbEntity
8
0
100
AcDbBlockBegin
2
DimnDraft3D1
70
0
10
0
20
0
30
0
3
DimnDraft3D1
0
MTEXT
5
F7
100
AcDbEntity
8
SK2
62
256
6
ByLayer
370
13
48
1
60
0
100
AcDbMText
10
-87.06921
20
-0.938158
30
0
210
0
220
0
230
1
1
\W0.5321;16
40
4.5
41
0
44
1.084337
50
90
71
7
72
5
7
iso_b_vert
0
LINE
5
F9
100
AcDbEntity
8
SK2
62
256
6
ByLayer
370
13
48
1
60
0
100
AcDbLine
10
-77.78171
20
8.0625
30
0
11
-89.11921
21
8.0625
31
0
39
0
210
0
220
0
230
1
0
LINE
5
FA
100
AcDbEntity
8
SK2
62
256
6
ByLayer
370
13
48
1
60
0
100
AcDbLine
10
-77.78171
20
-7.9375
30
0
11
-89.11921
21
-7.9375
31
0
39
0
210
0
220
0
230
1
0
LINE
5
FB
100
AcDbEntity
8
SK2
62
256
6
ByLayer
370
13
48
1
60
0
100
AcDbLine
10
-85.94421
20
8.0625
30
0
11
-85.94421
21
-7.9375
31
0
39
0
210
0
220
0
230
1
0
LINE
5
FC
100
AcDbEntity
8
SK2
62
256
6
ByLayer
370
13
48
1
60
0
100
AcDbLine
10
-85.94421
20
8.0625
30
0
11
-85.093471
21
4.887503
31
0
39
0
210
0
220
0
230
1
0
LINE
5
FD
100
AcDbEntity
8
SK2
62
256
6
ByLayer
370
13
48
1
60
0
100
AcDbLine
10
-85.94421
20
8.0625
30
0
11
-86.794948
21
4.887497
31
0
39
0
210
0
220
0
230
1
0
LINE
5
FE
100
AcDbEntity
8
SK2
62
256
6
ByLayer
370
13
48
1
60
0
100
AcDbLine
10
-85.093471
20
4.887503
30
0
11
-86.794948
21
4.887497
31
0
39
0
210
0
220
0
230
1
0
LINE
5
FF
100
AcDbEntity
8
SK2
62
256
6
ByLayer
370
13
48
1
60
0
100
AcDbLine
10
-85.94421
20
-7.9375
30
0
11
-86.794948
21
-4.762503
31
0
39
0
210
0
220
0
230
1
0
LINE
5
100
100
AcDbEntity
8
SK2
62
256
6
ByLayer
370
13
48
1
60
0
100
AcDbLine
10
-85.94421
20
-7.9375
30
0
11
-85.093471
21
-4.762497
31
0
39
0
210
0
220
0
230
1
0
LINE
5
101
100
AcDbEntity
8
SK2
62
256
6
ByLayer
370
13
48
1
60
0
100
AcDbLine
10
-86.794948
20
-4.762503
30
0
11
-85.093471
21
-4.762497
31
0
39
0
210
0
220
0
230
1
0
ENDBLK
5
103
100
AcDbEntity
8
0
100
AcDbBlockEnd
0
BLOCK
5
106
100
AcDbEntity
8
0
100
AcDbBlockBegin
2
_CLOSED
70
0
10
0
20
0
30
0
3
_CLOSED
0
LINE
5
108
100
AcDbEntity
8
0
62
256
6
ByLayer
370
-2
48
1
60
0
100
AcDbLine
10
-1
20
0.166667
30
0
11
0
21
0
31
0
39
0
210
0
220
0
230
1
0
LINE
5
109
100
AcDbEntity
8
0
62
256
6
ByLayer
370
-2
48
1
60
0
100
AcDbLine
10
0
20
0
30
0
11
-1
21
-0.166667
31
0
39
0
210
0
220
0
230
1
0
LINE
5
10A
100
AcDbEntity
8
0
62
256
6
ByLayer
370
-2
48
1
60
0
100
AcDbLine
10
-1
20
0.166667
30
0
11
-1
21
-0.166667
31
0
39
0
210
0
220
0
230
1
0
LINE
5
10B
100
AcDbEntity
8
0
62
256
6
ByLayer
370
-2
48
1
60
0
100
AcDbLine
10
0
20
0
30
0
11
-1
21
0
31
0
39
0
210
0
220
0
230
1
0
ENDBLK
5
107
100
AcDbEntity
8
0
100
AcDbBlockEnd
0
BLOCK
5
117
100
AcDbEntity
8
0
100
AcDbBlockBegin
2
DimnDraft3D2
70
0
10
0
20
0
30
0
3
DimnDraft3D2
0
MTEXT
5
10D
100
AcDbEntity
8
2
62
256
6
ByLayer
370
13
48
1
60
0
100
AcDbMText
10
40.53079
20
-2.263158
30
0
210
0
220
0
230
1
1
\W0.5321;13
40
4.5
41
0
44
1.084337
50
90
71
7
72
5
7
iso_b_vert
0
LINE
5
10E
100
AcDbEntity
8
2
62
256
6
ByLayer
370
13
48
1
60
0
100
AcDbLine
10
1.5875
20
-7.9375
30
0
11
44.83079
21
-7.9375
31
0
39
0
210
0
220
0
230
1
0
LINE
5
10F
100
AcDbEntity
8
2
62
256
6
ByLayer
370
13
48
1
60
0
100
AcDbLine
10
26.74329
20
5.4125
30
0
11
44.83079
21
5.4125
31
0
39
0
210
0
220
0
230
1
0
LINE
5
110
100
AcDbEntity
8
2
62
256
6
ByLayer
370
13
48
1
60
0
100
AcDbLine
10
41.65579
20
-7.9375
30
0
11
41.65579
21
5.4125
31
0
39
0
210
0
220
0
230
1
0
LINE
5
111
100
AcDbEntity
8
2
62
256
6
ByLayer
370
13
48
1
60
0
100
AcDbLine
10
41.65579
20
-7.9375
30
0
11
40.805052
21
-4.762503
31
0
39
0
210
0
220
0
230
1
0
LINE
5
112
100
AcDbEntity
8
2
62
256
6
ByLayer
370
13
48
1
60
0
100
AcDbLine
10
41.65579
20
-7.9375
30
0
11
42.506529
21
-4.762497
31
0
39
0
210
0
220
0
230
1
0
LINE
5
113
100
AcDbEntity
8
2
62
256
6
ByLayer
370
13
48
1
60
0
100
AcDbLine
10
40.805052
20
-4.762503
30
0
11
42.506529
21
-4.762497
31
0
39
0
210
0
220
0
230
1
0
LINE
5
114
100
AcDbEntity
8
2
62
256
6
ByLayer
370
13
48
1
60
0
100
AcDbLine
10
41.65579
20
5.4125
30
0
11
42.506529
21
2.237503
31
0
39
0
210
0
220
0
230
1
0
LINE
5
115
100
AcDbEntity
8
2
62
256
6
ByLayer
370
13
48
1
60
0
100
AcDbLine
10
41.65579
20
5.4125
30
0
11
40.805052
21
2.237497
31
0
39
0
210
0
220
0
230
1
0
LINE
5
116
100
AcDbEntity
8
2
62
256
6
ByLayer
370
13
48
1
60
0
100
AcDbLine
10
42.506529
20
2.237503
30
0
11
40.805052
21
2.237497
31
0
39
0
210
0
220
0
230
1
0
ENDBLK
5
118
100
AcDbEntity
8
0
100
AcDbBlockEnd
0
BLOCK
5
125
100
AcDbEntity
8
0
100
AcDbBlockBegin
2
DimnDraft3D3
70
0
10
0
20
0
30
0
3
DimnDraft3D3
0
MTEXT
5
11B
100
AcDbEntity
8
SK2
62
256
6
ByLayer
370
13
48
1
60
0
100
AcDbMText
10
-28.201446
20
26.839855
30
0
210
0
220
0
230
1
1
\W0.6217;100
40
4.5
41
0
44
1.084337
50
0
71
7
72
5
7
iso_b_vert
0
LINE
5
11C
100
AcDbEntity
8
SK2
62
256
6
ByLayer
370
13
48
1
60
0
100
AcDbLine
10
-76.19421
20
9.65
30
0
11
-76.19421
21
28.889855
31
0
39
0
210
0
220
0
230
1
0
LINE
5
11D
100
AcDbEntity
8
SK2
62
256
6
ByLayer
370
13
48
1
60
0
100
AcDbLine
10
25.15579
20
7
30
0
11
25.15579
21
28.889855
31
0
39
0
210
0
220
0
230
1
0
LINE
5
11E
100
AcDbEntity
8
SK2
62
256
6
ByLayer
370
13
48
1
60
0
100
AcDbLine
10
-76.19421
20
25.714855
30
0
11
25.15579
21
25.714855
31
0
39
0
210
0
220
0
230
1
0
LINE
5
11F
100
AcDbEntity
8
SK2
62
256
6
ByLayer
370
13
48
1
60
0
100
AcDbLine
10
-76.19421
20
25.714855
30
0
11
-73.019213
21
26.565593
31
0
39
0
210
0
220
0
230
1
0
LINE
5
120
100
AcDbEntity
8
SK2
62
256
6
ByLayer
370
13
48
1
60
0
100
AcDbLine
10
-76.19421
20
25.714855
30
0
11
-73.019206
21
24.864116
31
0
39
0
210
0
220
0
230
1
0
LINE
5
121
100
AcDbEntity
8
SK2
62
256
6
ByLayer
370
13
48
1
60
0
100
AcDbLine
10
-73.019213
20
26.565593
30
0
11
-73.019206
21
24.864116
31
0
39
0
210
0
220
0
230
1
0
LINE
5
122
100
AcDbEntity
8
SK2
62
256
6
ByLayer
370
13
48
1
60
0
100
AcDbLine
10
25.15579
20
25.714855
30
0
11
21.980794
21
24.864116
31
0
39
0
210
0
220
0
230
1
0
LINE
5
123
100
AcDbEntity
8
SK2
62
256
6
ByLayer
370
13
48
1
60
0
100
AcDbLine
10
25.15579
20
25.714855
30
0
11
21.980787
21
26.565593
31
0
39
0
210
0
220
0
230
1
0
LINE
5
124
100
AcDbEntity
8
SK2
62
256
6
ByLayer
370
13
48
1
60
0
100
AcDbLine
10
21.980794
20
24.864116
30
0
11
21.980787
21
26.565593
31
0
39
0
210
0
220
0
230
1
0
ENDBLK
5
126
100
AcDbEntity
8
0
100
AcDbBlockEnd
0
BLOCK
5
133
100
AcDbEntity
8
0
100
AcDbBlockBegin
2
DimnDraft3D4
70
0
10
0
20
0
30
0
3
DimnDraft3D4
0
MTEXT
5
129
100
AcDbEntity
8
2
62
256
6
ByLayer
370
13
48
1
60
0
100
AcDbMText
10
14.008219
20
10.77329
30
0
210
0
220
0
230
1
1
\W0.8292;75%%d0'
40
4.5
41
0
44
1.084337
50
37.5
71
7
72
5
7
iso_b_vert
0
LINE
5
12A
100
AcDbEntity
8
2
62
256
6
ByLayer
370
13
48
1
60
0
100
AcDbLine
10
25.15579
20
7
30
0
11
25.15579
21
18.463548
31
0
39
0
210
0
220
0
230
1
0
LINE
5
12B
100
AcDbEntity
8
2
62
256
6
ByLayer
370
13
48
1
60
0
100
AcDbLine
10
14.034071
20
8.207872
30
0
11
12.371055
21
8.653475
31
0
39
0
210
0
220
0
230
1
0
ARC
5
12C
100
AcDbEntity
8
2
62
256
6
ByLayer
370
13
48
1
60
0
100
AcDbCircle
39
0
10
25.15579
20
5.227816
30
0
40
10.0607324547978
210
0
220
0
230
1
100
AcDbArc
50
41.805863
51
213.194137
0
LINE
5
12D
100
AcDbEntity
8
2
62
256
6
ByLayer
370
13
48
1
60
0
100
AcDbLine
10
25.15579
20
15.288548
30
0
11
28.387575
21
15.888491
31
0
39
0
210
0
220
0
230
1
0
LINE
5
12E
100
AcDbEntity
8
2
62
256
6
ByLayer
370
13
48
1
60
0
100
AcDbLine
10
25.15579
20
15.288548
30
0
11
28.254575
21
14.19222
31
0
39
0
210
0
220
0
230
1
0
LINE
5
12F
100
AcDbEntity
8
2
62
256
6
ByLayer
370
13
48
1
60
0
100
AcDbLine
10
28.387575
20
15.888491
30
0
11
28.254575
21
14.19222
31
0
39
0
210
0
220
0
230
1
0
LINE
5
130
100
AcDbEntity
8
2
62
256
6
ByLayer
370
13
48
1
60
0
100
AcDbLine
10
15.437869
20
7.831725
30
0
11
15.694817
21
4.554784
31
0
39
0
210
0
220
0
230
1
0
LINE
5
131
100
AcDbEntity
8
2
62
256
6
ByLayer
370
13
48
1
60
0
100
AcDbLine
10
15.437869
20
7.831725
30
0
11
14.02192
21
4.865332
31
0
39
0
210
0
220
0
230
1
0
LINE
5
132
100
AcDbEntity
8
2
62
256
6
ByLayer
370
13
48
1
60
0
100
AcDbLine
10
15.694817
20
4.554784
30
0
11
14.02192
21
4.865332
31
0
39
0
210
0
220
0
230
1
0
ENDBLK
5
134
100
AcDbEntity
8
0
100
AcDbBlockEnd
0
ENDSEC
0
SECTION
2
ENTITIES
0
ARC
5
AF
100
AcDbEntity
8
1
62
256
6
ByLayer
370
18
48
1
60
0
100
AcDbCircle
39
0
10
0
20
9.5375
30
0
40
1.60000000000359
210
0
220
0
230
-1
100
AcDbArc
50
235.756479
51
270
0
ELLIPSE
5
B0
100
AcDbEntity
8
1
62
256
6
ByLayer
370
18
48
1
60
0
100
AcDbEllipse
10
15.547669
20
-2.31044
30
0
11
-0.921597218746438
21
1.59625320698294
31
0
210
0
220
0
230
1
40
0.989133
41
-2.99303969448673
42
-2.35073128167082
0
ELLIPSE
5
B1
100
AcDbEntity
8
1
62
256
6
ByLayer
370
18
48
1
60
0
100
AcDbEllipse
10
15.776858
20
-2.178118
30
0
11
0.98700255187785
21
-1.70953856705251
31
0
210
0
220
0
230
1
40
0.989133
41
-2.35073128167083
42
-1.48864663329722
0
ELLIPSE
5
B2
100
AcDbEntity
8
1
62
256
6
ByLayer
370
18
48
1
60
0
100
AcDbEllipse
10
15.566991
20
-2.299285
30
0
11
0.996592141846721
21
-1.72614822410235
31
0
210
0
220
0
230
1
40
0.989133
41
0.299447522834344
42
0.790861371918976
0
ELLIPSE
5
B3
100
AcDbEntity
8
1
62
256
6
ByLayer
370
18
48
1
60
0
100
AcDbEllipse
10
16.791201
20
3.343069
30
0
11
-0.950000000000028
21
1.64544826719042
31
0
210
0
220
0
230
1
40
0.989133
41
0.39083989832444
42
0.790861371918979
0
ELLIPSE
5
B4
100
AcDbEntity
8
1
62
256
6
ByLayer
370
18
48
1
60
0
100
AcDbEllipse
10
0
20
-7.944481
30
0
11
1.60000000000019
21
1.61702248813197E-15
31
0
210
0
220
0
230
-1
40
0.004363
41
-1.5707963267949
42
-0.261799387798749
0
ELLIPSE
5
B5
100
AcDbEntity
8
1
62
256
6
ByLayer
370
18
48
1
60
0
100
AcDbEllipse
10
16.311631
20
-1.869367
30
0
11
0.962566839592772
21
-1.66721467185562
31
0
210
0
220
0
230
1
40
0.989133
41
-0.538816645460026
42
0.693732967802159
0
ELLIPSE
5
B6
100
AcDbEntity
8
1
62
256
6
ByLayer
370
18
48
1
60
0
100
AcDbEllipse
10
17.337404
20
-2.773854
30
0
11
0.145304387133117
21
-0.037237549326844
31
0
210
0
220
0
230
1
40
0.103393
41
-1.67608242641269
42
-0.0936505712709043
0
ELLIPSE
5
B7
100
AcDbEntity
8
1
62
256
6
ByLayer
370
18
48
1
60
0
100
AcDbEllipse
10
16.41585
20
1.878412
30
0
11
-0.950000000000027
21
1.64544826719042
31
0
210
0
220
0
230
1
40
0.989133
41
0.790861371918967
42
1.1908828455135
0
ELLIPSE
5
B8
100
AcDbEntity
8
1
62
256
6
ByLayer
370
18
48
1
60
0
100
AcDbEllipse
10
15.569171
20
-2.030809
30
0
11
0.950564287714946
21
-1.64642564218275
31
0
210
0
220
0
230
1
40
0.989133
41
-2.35073128167083
42
-0.135154706533657
0
ELLIPSE
5
B9
100
AcDbEntity
8
1
62
256
6
ByLayer
370
18
48
1
60
0
100
AcDbEllipse
10
9.539488
20
0.529244
30
0
11
0.647500000000018
21
-1.12150289790084
31
0
210
0
220
0
230
1
40
0.989133
41
0.242465328339875
42
1.05191625212974
0
ELLIPSE
5
BA
100
AcDbEntity
8
1
62
256
6
ByLayer
370
18
48
1
60
0
100
AcDbEllipse
10
9.539488
20
0.529244
30
0
11
0.647500000000018
21
-1.12150289790084
31
0
210
0
220
0
230
1
40
0.989133
41
1.05191625212974
42
2.98939543282148
0
ELLIPSE
5
BB
100
AcDbEntity
8
1
62
256
6
ByLayer
370
18
48
1
60
0
100
AcDbEllipse
10
9.654082
20
0.595405
30
0
11
-0.647500000000018
21
1.12150289790084
31
0
210
0
220
0
230
1
40
0.989133
41
-0.175830937787796
42
9.30455724886609E-06
0
ELLIPSE
5
BC
100
AcDbEntity
8
1
62
256
6
ByLayer
370
18
48
1
60
0
100
AcDbEllipse
10
9.654082
20
0.595405
30
0
11
-0.647500000000018
21
1.12150289790084
31
0
210
0
220
0
230
1
40
0.989133
41
-2.95193546759047
42
-2.71048920347975
0
ELLIPSE
5
BD
100
AcDbEntity
8
1
62
256
6
ByLayer
370
18
48
1
60
0
100
AcDbEllipse
10
18.305933
20
1.270524
30
0
11
-1.06500000000003
21
1.84463411006084
31
0
210
0
220
0
230
1
40
0.989133
41
-2.62739913420666
42
-2.4190675785196
0
ELLIPSE
5
BE
100
AcDbEntity
8
1
62
256
6
ByLayer
370
18
48
1
60
0
100
AcDbEllipse
10
18.305933
20
1.270524
30
0
11
-1.06500000000003
21
1.84463411006084
31
0
210
0
220
0
230
1
40
0.989133
41
-0.710365797193465
42
-0.514146385700161
0
ELLIPSE
5
BF
100
AcDbEntity
8
1
62
256
6
ByLayer
370
18
48
1
60
0
100
AcDbEllipse
10
19.403051
20
2.223552
30
0
11
0.950000000000026
21
-1.64544826719042
31
0
210
0
220
0
230
1
40
0.989133
41
-1.37024756461581
42
0.672002984927064
0
ELLIPSE
5
C0
100
AcDbEntity
8
1
62
256
6
ByLayer
370
18
48
1
60
0
100
AcDbEllipse
10
19.442327
20
1.926621
30
0
11
0.887500000000023
21
-1.53719509171737
31
0
210
0
220
0
230
1
40
0.989133
41
-2.32094908961929
42
-2.18106581819955
0
ELLIPSE
5
C1
100
AcDbEntity
8
1
62
256
6
ByLayer
370
18
48
1
60
0
100
AcDbEllipse
10
18.804614
20
1.878045
30
0
11
-0.950000000000027
21
1.64544826719042
31
0
210
0
220
0
230
1
40
0.989133
41
2.98589126569678
42
3.14158053709617
0
ELLIPSE
5
C2
100
AcDbEntity
8
1
62
256
6
ByLayer
370
18
48
1
60
0
100
AcDbEllipse
10
19.043206
20
1.56258
30
0
11
0.900000000000025
21
-1.55884572681198
31
0
210
0
220
0
230
1
40
0.989133
41
-3.14158913121573
42
-3.01497164048619
0
ELLIPSE
5
C3
100
AcDbEntity
8
1
62
256
6
ByLayer
370
18
48
1
60
0
100
AcDbEllipse
10
14.379276
20
-1.031939
30
0
11
0.39687500000001
21
-0.687407664253892
31
0
210
0
220
0
230
1
40
0.989133
41
-1.44963427273538
42
-0.779934954875918
0
ELLIPSE
5
C4
100
AcDbEntity
8
1
62
256
6
ByLayer
370
18
48
1
60
0
100
AcDbEllipse
10
19.171757
20
1.770408
30
0
11
-0.952500000000027
21
1.64977839420934
31
0
210
0
220
0
230
1
40
0.989133
41
-3.01733013174665
42
-2.42641625622929
0
ELLIPSE
5
C5
100
AcDbEntity
8
1
62
256
6
ByLayer
370
18
48
1
60
0
100
AcDbEllipse
10
19.171757
20
1.770408
30
0
11
-0.952500000000027
21
1.64977839420934
31
0
210
0
220
0
230
1
40
0.989133
41
-1.04922053219197
42
-0.124218002692468
0
ELLIPSE
5
C6
100
AcDbEntity
8
1
62
256
6
ByLayer
370
18
48
1
60
0
100
AcDbEllipse
10
19.519801
20
1.651744
30
0
11
-0.800000000000022
21
1.38564064605509
31
0
210
0
220
0
230
1
40
0.989133
41
-1.44991278214036
42
0.657987743266004
0
ELLIPSE
5
C7
100
AcDbEntity
8
1
62
256
6
ByLayer
370
18
48
1
60
0
100
AcDbEllipse
10
19.481603
20
1.62969
30
0
11
0.950000000000026
21
-1.64544826719042
31
0
210
0
220
0
230
1
40
0.989133
41
1.67766462978838
42
-2.46958966866273
0
ELLIPSE
5
C8
100
AcDbEntity
8
1
62
256
6
ByLayer
370
18
48
1
60
0
100
AcDbEllipse
10
19.442327
20
1.926621
30
0
11
0.887500000000023
21
-1.53719509171737
31
0
210
0
220
0
230
1
40
0.989133
41
0.820643563970502
42
1.52902405074494
0
ELLIPSE
5
C9
100
AcDbEntity
8
1
62
256
6
ByLayer
370
18
48
1
60
0
100
AcDbEllipse
10
19.480525
20
1.948675
30
0
11
-0.737500000000021
21
1.27738747058203
31
0
210
0
220
0
230
1
40
0.989133
41
-2.30584680098245
42
-1.62767089148169
0
ELLIPSE
5
CA
100
AcDbEntity
8
1
62
256
6
ByLayer
370
18
48
1
60
0
100
AcDbEllipse
10
19.480525
20
1.948675
30
0
11
-0.737500000000021
21
1.27738747058203
31
0
210
0
220
0
230
1
40
0.989133
41
0.835745852607339
42
1.5139217621081
0
ELLIPSE
5
CB
100
AcDbEntity
8
1
62
256
6
ByLayer
370
18
48
1
60
0
100
AcDbEllipse
10
19.441249
20
2.245606
30
0
11
-0.800000000000022
21
1.38564064605509
31
0
210
0
220
0
230
1
40
0.989133
41
1.69167987144944
42
-2.48360491032379
0
ELLIPSE
5
CC
100
AcDbEntity
8
1
62
256
6
ByLayer
370
18
48
1
60
0
100
AcDbEllipse
10
10.099727
20
0.852698
30
0
11
1.11750000000003
21
-1.9355667774582
31
0
210
0
220
0
230
1
40
0.989133
41
0
42
6.28318530717959
0
ELLIPSE
5
CD
100
AcDbEntity
8
1
62
256
6
ByLayer
370
18
48
1
60
0
100
AcDbEllipse
10
10.072351
20
0.836893
30
0
11
-0.647500000000018
21
1.12150289790084
31
0
210
0
220
0
230
1
40
0.989133
41
-1.66329165228315
42
-1.22302848898438
0
ELLIPSE
5
CE
100
AcDbEntity
8
1
62
256
6
ByLayer
370
18
48
1
60
0
100
AcDbEllipse
10
10.099727
20
0.852698
30
0
11
0.833695461813676
21
-1.44400289790084
31
0
210
0
220
0
230
1
40
0.989133
41
0
42
6.28318530717959
0
ELLIPSE
5
CF
100
AcDbEntity
8
1
62
256
6
ByLayer
370
18
48
1
60
0
100
AcDbEllipse
10
10.072351
20
0.836893
30
0
11
-0.647500000000018
21
1.12150289790084
31
0
210
0
220
0
230
1
40
0.989133
41
2.52549855250323
42
2.96576171580199
0
ELLIPSE
5
D0
100
AcDbEntity
8
1
62
256
6
ByLayer
370
18
48
1
60
0
100
AcDbEllipse
10
10.072351
20
0.836893
30
0
11
-0.647500000000018
21
1.12150289790084
31
0
210
0
220
0
230
1
40
0.989133
41
-0.616094101088567
42
-0.175830937787785
0
ELLIPSE
5
D1
100
AcDbEntity
8
1
62
256
6
ByLayer
370
18
48
1
60
0
100
AcDbEllipse
10
9.654082
20
0.595405
30
0
11
-0.647500000000018
21
1.12150289790084
31
0
210
0
220
0
230
1
40
0.989133
41
-1.22302848898438
42
-0.616094101086568
0
ELLIPSE
5
D2
100
AcDbEntity
8
1
62
256
6
ByLayer
370
18
48
1
60
0
100
AcDbEllipse
10
10.072351
20
0.836893
30
0
11
-0.647500000000018
21
1.12150289790084
31
0
210
0
220
0
230
1
40
0.989133
41
-2.71048920347975
42
-2.270226040181
0
ELLIPSE
5
D3
100
AcDbEntity
8
1
62
256
6
ByLayer
370
18
48
1
60
0
100
AcDbEllipse
10
10.072351
20
0.836893
30
0
11
-0.647500000000018
21
1.12150289790084
31
0
210
0
220
0
230
1
40
0.989133
41
1.47830100130663
42
1.9185641646054
0
ELLIPSE
5
D4
100
AcDbEntity
8
1
62
256
6
ByLayer
370
18
48
1
60
0
100
AcDbEllipse
10
10.072351
20
0.836893
30
0
11
-0.647500000000018
21
1.12150289790084
31
0
210
0
220
0
230
1
40
0.989133
41
0.431103450110049
42
0.871366613408813
0
ELLIPSE
5
D5
100
AcDbEntity
8
1
62
256
6
ByLayer
370
18
48
1
60
0
100
AcDbEllipse
10
10.002322
20
0.796461
30
0
11
1.50000000000004
21
-2.59807621135329
31
0
210
0
220
0
230
1
40
0.989133
41
0
42
6.28318530717959
0
ELLIPSE
5
D6
100
AcDbEntity
8
1
62
256
6
ByLayer
370
18
48
1
60
0
100
AcDbEllipse
10
9.654082
20
0.595405
30
0
11
-0.647500000000018
21
1.12150289790084
31
0
210
0
220
0
230
1
40
0.989133
41
-2.27022604018099
42
-1.66329165228315
0
ELLIPSE
5
D7
100
AcDbEntity
8
1
62
256
6
ByLayer
370
18
48
1
60
0
100
AcDbEllipse
10
19.57602
20
2.003809
30
0
11
-0.952500000000027
21
1.64977839420934
31
0
210
0
220
0
230
1
40
0.989133
41
0
42
6.28318530717959
0
ELLIPSE
5
D8
100
AcDbEntity
8
1
62
256
6
ByLayer
370
18
48
1
60
0
100
AcDbEllipse
10
22.408575
20
-2.84166
30
0
11
-0.396875000000011
21
0.687407664253892
31
0
210
0
220
0
230
1
40
0.989133
41
2.36165769871386
42
-2.35073128167083
0
ELLIPSE
5
D9
100
AcDbEntity
8
1
62
256
6
ByLayer
370
18
48
1
60
0
100
AcDbEllipse
10
24.368501
20
4.806156
30
0
11
-0.396875000000011
21
0.687407664253892
31
0
210
0
220
0
230
1
40
0.989133
41
-2.35073128167083
42
-0.779934954875899
0
ELLIPSE
5
DA
100
AcDbEntity
8
1
62
256
6
ByLayer
370
18
48
1
60
0
100
AcDbEllipse
10
16.743466
20
6.849278
30
0
11
-0.396875000000011
21
0.687407664253892
31
0
210
0
220
0
230
1
40
0.989133
41
-0.779934954875918
42
0.790861371918953
0
ELLIPSE
5
DB
100
AcDbEntity
8
1
62
256
6
ByLayer
370
18
48
1
60
0
100
AcDbEllipse
10
14.783539
20
-0.798537
30
0
11
-0.396875000000011
21
0.687407664253892
31
0
210
0
220
0
230
1
40
0.989133
41
0.790861371918961
42
2.36165769871388
0
POINT
5
6C
100
AcDbEntity
8
80
62
256
6
ByLayer
370
18
48
1
60
0
100
AcDbPoint
10
0
20
0
30
0
39
0
210
0
220
0
230
1
50
360
0
POINT
5
6E
100
AcDbEntity
8
81
62
256
6
ByLayer
370
18
48
1
60
0
100
AcDbPoint
10
23.80579
20
5.0625
30
0
39
0
210
0
220
0
230
1
50
360
0
POINT
5
70
100
AcDbEntity
8
1
62
256
6
ByLayer
370
18
48
1
60
0
100
AcDbPoint
10
-76.19421
20
-7.9375
30
0
39
0
210
0
220
0
230
1
50
360
0
POINT
5
72
100
AcDbEntity
8
2
62
256
6
ByLayer
370
18
48
1
60
0
100
AcDbPoint
10
8.654363
20
0.018217
30
0
39
0
210
0
220
0
230
1
50
360
0
SPLINE
5
DC
100
AcDbEntity
8
1
62
256
6
ByLayer
370
18
48
1
60
0
100
AcDbSpline
70
4
71
3
72
10
73
6
40
0
40
0
40
0
40
0
40
0.581796952535808
40
0.581796952535808
40
1
40
1
40
1
40
1
41
1
10
17.6197583710705
20
-2.89613312156757
30
0
41
1
10
17.7115147438715
20
-2.82949361407225
30
0
41
1
10
17.803225680793
20
-2.76284220188268
30
0
41
1
10
17.9607786024303
20
-2.64825968545404
30
0
41
1
10
18.0266433626093
20
-2.60033454793455
30
0
41
1
10
18.0924831078106
20
-2.55240285706407
30
0
0
SPLINE
5
DD
100
AcDbEntity
8
1
62
256
6
ByLayer
370
18
48
1
60
0
100
AcDbSpline
70
4
71
3
72
10
73
6
40
0
40
0
40
0
40
0
40
0.5
40
0.5
40
1
40
1
40
1
40
1
41
1
10
17.6197583710714
20
-2.89613312156868
30
0
41
1
10
17.6149489213337
20
-2.89962606001052
30
0
41
1
10
17.6163620157728
20
-2.88757990967912
30
0
41
1
10
17.6287004390644
20
-2.83986214249765
30
0
41
1
10
17.6393293203346
20
-2.80435080460464
30
0
41
1
10
17.6508224370843
20
-2.76628564932213
30
0
0
SPLINE
5
DE
100
AcDbEntity
8
1
62
256
6
ByLayer
370
18
48
1
60
0
100
AcDbSpline
70
4
71
3
72
8
73
4
40
0
40
0
40
0
40
0
40
1
40
1
40
1
40
1
41
1
10
18.1771394942826
20
1.29298080022721
30
0
41
1
10
18.09412847747
20
1.24188249850619
30
0
41
1
10
18.0111504523504
20
1.19077508274807
30
0
41
1
10
17.9281935112577
20
1.13966185844893
30
0
0
SPLINE
5
DF
100
AcDbEntity
8
1
62
256
6
ByLayer
370
18
48
1
60
0
100
AcDbSpline
70
4
71
3
72
12
73
8
40
0
40
0
40
0
40
0
40
0.371179157033641
40
0.371179157033641
40
0.742358314067282
40
0.742358314067282
40
1
40
1
40
1
40
1
41
1
10
18.0564857950699
20
2.99895923549585
30
0
41
1
10
18.0641595490705
20
3.00338967943381
30
0
41
1
10
18.0612786605681
20
3.00124561137301
30
0
41
1
10
18.0392565609102
20
2.98552797691116
30
0
41
1
10
18.020840083967
20
2.97236363499604
30
0
41
1
10
17.9829914637016
20
2.94318752893707
30
0
41
1
10
17.9655450413904
20
2.92922679162524
30
0
41
1
10
17.9471158919278
20
2.91370841853893
30
0
0
SPLINE
5
E0
100
AcDbEntity
8
1
62
256
6
ByLayer
370
18
48
1
60
0
100
AcDbSpline
70
4
71
3
72
14
73
10
40
0
40
0
40
0
40
0
40
0.0255184343512421
40
0.0255184343512421
40
0.220414747480994
40
0.220414747480994
40
0.610207373740497
40
0.610207373740497
40
1
40
1
40
1
40
1
41
1
10
17.9953158051501
20
3.01617314083717
30
0
41
1
10
17.9988816226298
20
3.01904733654209
30
0
41
1
10
18.0024907417496
20
3.02192636293978
30
0
41
1
10
18.0340159409082
20
3.04680663528345
30
0
41
1
10
18.0639314523089
20
3.06865620975412
30
0
41
1
10
18.1586537428362
20
3.13227120490268
30
0
41
1
10
18.2286353169851
20
3.17218795121826
30
0
41
1
10
18.3786595722237
20
3.24242795671324
30
0
41
1
10
18.4577894530583
20
3.27242081630382
30
0
41
1
10
18.5405746335917
20
3.29653803813636
30
0
0
SPLINE
5
E1
100
AcDbEntity
8
1
62
256
6
ByLayer
370
18
48
1
60
0
100
AcDbSpline
70
4
71
3
72
10
73
6
40
0
40
0
40
0
40
0
40
0.510342847475304
40
0.510342847475304
40
1
40
1
40
1
40
1
41
1
10
19.8408349085298
20
0.121695857628453
30
0
41
1
10
19.9059463922237
20
0.170417128809049
30
0
41
1
10
19.9683689755368
20
0.223999592679007
30
0
41
1
10
20.0822251993095
20
0.335747098938015
30
0
41
1
10
20.1340498131137
20
0.393519745951949
30
0
41
1
10
20.1821139794337
20
0.454147775871121
30
0
0
SPLINE
5
E2
100
AcDbEntity
8
1
62
256
6
ByLayer
370
18
48
1
60
0
100
AcDbSpline
70
4
71
3
72
10
73
6
40
0
40
0
40
0
40
0
40
0.997007839473872
40
0.997007839473872
40
1
40
1
40
1
40
1
41
1
10
18.4290894420347
20
3.31253801299508
30
0
41
1
10
18.3477937212867
20
3.29959888917776
30
0
41
1
10
18.2701256188433
20
3.28665658535303
30
0
41
1
10
18.1935865261988
20
3.27375683906544
30
0
41
1
10
18.193357521402
20
3.27371824147454
30
0
41
1
10
18.1931285290274
20
3.27367964440302
30
0
0
SPLINE
5
E3
100
AcDbEntity
8
1
62
256
6
ByLayer
370
18
48
1
60
0
100
AcDbSpline
70
4
71
3
72
8
73
4
40
0
40
0
40
0
40
0
40
1
40
1
40
1
40
1
41
1
10
17.7249057178827
20
2.33237933247449
30
0
41
1
10
17.832799161722
20
2.3096368794568
30
0
41
1
10
17.9407162888005
20
2.28690526922813
30
0
41
1
10
18.048674378639
20
2.26419244964168
30
0
0
SPLINE
5
E4
100
AcDbEntity
8
1
62
256
6
ByLayer
370
18
48
1
60
0
100
AcDbSpline
70
4
71
3
72
8
73
4
40
0
40
0
40
0
40
0
40
1
40
1
40
1
40
1
41
1
10
20.9985525823777
20
2.73951752571537
30
0
41
1
10
20.9270444161875
20
2.69446318311543
30
0
41
1
10
20.8555046204317
20
2.64941280413996
30
0
41
1
10
20.783910080795
20
2.6043693129258
30
0
0
SPLINE
5
E5
100
AcDbEntity
8
1
62
256
6
ByLayer
370
18
48
1
60
0
100
AcDbSpline
70
4
71
3
72
8
73
4
40
0
40
0
40
0
40
0
40
1
40
1
40
1
40
1
41
1
10
20.9123751964386
20
1.63315766351133
30
0
41
1
10
20.9948761746631
20
1.59574717368179
30
0
41
1
10
21.0773265423475
20
1.55831232306156
30
0
41
1
10
21.1597476637904
20
1.52086341785136
30
0
0
SPLINE
5
E6
100
AcDbEntity
8
1
62
256
6
ByLayer
370
18
48
1
60
0
100
AcDbSpline
70
4
71
3
72
8
73
4
40
0
40
0
40
0
40
0
40
1
40
1
40
1
40
1
41
1
10
8.80664434406719
20
1.06880698406698
30
0
41
1
10
8.75137898681541
20
0.930088389427084
30
0
41
1
10
8.69951747365428
20
0.796276470475561
30
0
41
1
10
8.64971417057353
20
0.665431482174824
30
0
0
SPLINE
5
E7
100
AcDbEntity
8
1
62
256
6
ByLayer
370
18
48
1
60
0
100
AcDbSpline
70
4
71
3
72
10
73
6
40
0
40
0
40
0
40
0
40
0.5
40
0.5
40
1
40
1
40
1
40
1
41
1
10
10.9672318784245
20
-0.317740944273083
30
0
41
1
10
10.9922784463096
20
-0.251937720808428
30
0
41
1
10
11.0180019180338
20
-0.184985508333824
30
0
41
1
10
11.0703349524339
20
-0.0503603460611828
30
0
41
1
10
11.0969703292554
20
0.0173820800963824
30
0
41
1
10
11.1241620519182
20
0.0856345576190733
30
0
0
SPLINE
5
E8
100
AcDbEntity
8
1
62
256
6
ByLayer
370
18
48
1
60
0
100
AcDbSpline
70
4
71
3
72
10
73
6
40
0
40
0
40
0
40
0
40
0.5
40
0.5
40
1
40
1
40
1
40
1
41
1
10
8.64971417057353
20
0.665431482174824
30
0
41
1
10
8.6913941249498
20
0.605484313025329
30
0
41
1
10
8.73399660919534
20
0.544829170699643
30
0
41
1
10
8.82015542748258
20
0.423727358399503
30
0
41
1
10
8.8637552554668
20
0.36321650340247
30
0
41
1
10
8.90797260913354
20
0.302753172848583
30
0
0
SPLINE
5
E9
100
AcDbEntity
8
1
62
256
6
ByLayer
370
18
48
1
60
0
100
AcDbSpline
70
4
71
3
72
8
73
4
40
0
40
0
40
0
40
0
40
1
40
1
40
1
40
1
41
1
10
10.8945903630592
20
1.82122400132559
30
0
41
1
10
10.8047215497651
20
1.94411167582638
30
0
41
1
10
10.7192095231272
20
2.06470166616913
30
0
41
1
10
10.6363319244992
20
2.18390231065183
30
0
0
SPLINE
5
EA
100
AcDbEntity
8
1
62
256
6
ByLayer
370
18
48
1
60
0
100
AcDbSpline
70
4
71
3
72
8
73
4
40
0
40
0
40
0
40
0
40
1
40
1
40
1
40
1
41
1
10
10.9672318784245
20
-0.317740944273083
30
0
41
1
10
10.8182714888345
20
-0.338698593891905
30
0
41
1
10
10.666057466865
20
-0.359573837981912
30
0
41
1
10
10.5158194759602
20
-0.379351951983665
30
0
0
SPLINE
5
EB
100
AcDbEntity
8
1
62
256
6
ByLayer
370
18
48
1
60
0
100
AcDbSpline
70
4
71
3
72
10
73
6
40
0
40
0
40
0
40
0
40
0.5
40
0.5
40
1
40
1
40
1
40
1
41
1
10
9.9597832666895
20
-0.448505280668655
30
0
41
1
10
9.88659908883699
20
-0.457056852040012
30
0
41
1
10
9.81370072402058
20
-0.465357703533925
30
0
41
1
10
9.67131343782233
20
-0.481213318204368
30
0
41
1
10
9.60142268511308
20
-0.488816595160273
30
0
41
1
10
9.5325200578323
20
-0.496173744949459
30
0
0
SPLINE
5
EC
100
AcDbEntity
8
1
62
256
6
ByLayer
370
18
48
1
60
0
100
AcDbSpline
70
4
71
3
72
10
73
6
40
0
40
0
40
0
40
0
40
0.5
40
0.5
40
1
40
1
40
1
40
1
41
1
10
11.519137811758
20
1.02229708352758
30
0
41
1
10
11.4720655535984
20
1.07913100463622
30
0
41
1
10
11.4246052170533
20
1.13698146462906
30
0
41
1
10
11.330276846978
20
1.25336658400522
30
0
41
1
10
11.2833579717534
20
1.31196118618456
30
0
41
1
10
11.2367301795908
20
1.37103284942401
30
0
0
SPLINE
5
ED
100
AcDbEntity
8
1
62
256
6
ByLayer
370
18
48
1
60
0
100
AcDbSpline
70
4
71
3
72
10
73
6
40
0
40
0
40
0
40
0
40
0.5
40
0.5
40
1
40
1
40
1
40
1
41
1
10
9.62888331276417
20
2.05313797425626
30
0
41
1
10
9.55569913491166
20
2.0445864028849
30
0
41
1
10
9.48280077009525
20
2.03628555139099
30
0
41
1
10
9.34041348389701
20
2.02042993672052
30
0
41
1
10
9.27052273118773
20
2.01282665976464
30
0
41
1
10
9.20162010390698
20
2.00546950997545
30
0
0
SPLINE
5
EE
100
AcDbEntity
8
1
62
256
6
ByLayer
370
18
48
1
60
0
100
AcDbSpline
70
4
71
3
72
8
73
4
40
0
40
0
40
0
40
0
40
1
40
1
40
1
40
1
41
1
10
11.3380584446572
20
0.604979038205613
30
0
41
1
10
11.3982228568993
20
0.746526103562957
30
0
41
1
10
11.4586122995165
20
0.885261624881565
30
0
41
1
10
11.519137811758
20
1.02229708352758
30
0
0
SPLINE
5
EF
100
AcDbEntity
8
1
62
256
6
ByLayer
370
18
48
1
60
0
100
AcDbSpline
70
4
71
3
72
8
73
4
40
0
40
0
40
0
40
0
40
1
40
1
40
1
40
1
41
1
10
10.6363319244992
20
2.18390231065183
30
0
41
1
10
10.48737153491
20
2.16294466103312
30
0
41
1
10
10.3351575129414
20
2.14206941694323
30
0
41
1
10
10.1849195220374
20
2.12229130294156
30
0
0
SPLINE
5
F0
100
AcDbEntity
8
1
62
256
6
ByLayer
370
18
48
1
60
0
100
AcDbSpline
70
4
71
3
72
10
73
6
40
0
40
0
40
0
40
0
40
0.5
40
0.5
40
1
40
1
40
1
40
1
41
1
10
9.20162010390698
20
2.00546950997545
30
0
41
1
10
9.17118123223861
20
1.93655303846998
30
0
41
1
10
9.14059990821491
20
1.86679614366256
30
0
41
1
10
9.08009732202669
20
1.72745428846593
30
0
41
1
10
9.0501428979648
20
1.65779560949068
30
0
41
1
10
9.02054073680623
20
1.58815146465352
30
0
0
SPLINE
5
F1
100
AcDbEntity
8
1
62
256
6
ByLayer
370
18
48
1
60
0
100
AcDbSpline
70
4
71
3
72
8
73
4
40
0
40
0
40
0
40
0
40
1
40
1
40
1
40
1
41
1
10
9.25011242566518
20
-0.147437979052995
30
0
41
1
10
9.34488029394959
20
-0.267497182836337
30
0
41
1
10
9.43892025004357
20
-0.383163570812002
30
0
41
1
10
9.5325200578323
20
-0.496173744949459
30
0
0
LINE
5
74
100
AcDbEntity
8
1
62
256
6
ByLayer
370
18
48
1
60
0
100
AcDbLine
10
18.184685
20
3.145374
30
0
11
18.143206
21
3.121425
31
0
39
0
210
0
220
0
230
1
0
LINE
5
75
100
AcDbEntity
8
1
62
256
6
ByLayer
370
18
48
1
60
0
100
AcDbLine
10
19.754614
20
0.232596
30
0
11
20.353051
21
0.578104
31
0
39
0
210
0
220
0
230
1
0
LINE
5
76
100
AcDbEntity
8
1
62
256
6
ByLayer
370
18
48
1
60
0
100
AcDbLine
10
8.502322
20
3.394537
30
0
11
8.494571
21
3.390062
31
0
39
0
210
0
220
0
230
1
0
LINE
5
77
100
AcDbEntity
8
1
62
256
6
ByLayer
370
18
48
1
60
0
100
AcDbLine
10
11.494571
20
-1.80609
30
0
11
11.502322
21
-1.801615
31
0
39
0
210
0
220
0
230
1
0
LINE
5
78
100
AcDbEntity
8
1
62
256
6
ByLayer
370
18
48
1
60
0
100
AcDbLine
10
22.507356
20
-3.701172
30
0
11
22.80545
21
-3.529067
31
0
39
0
210
0
220
0
230
1
0
LINE
5
79
100
AcDbEntity
8
1
62
256
6
ByLayer
370
18
48
1
60
0
100
AcDbLine
10
16.346591
20
7.536686
30
0
11
16.021222
21
7.348834
31
0
39
0
210
0
220
0
230
1
0
LINE
5
7A
100
AcDbEntity
8
1
62
256
6
ByLayer
370
18
48
1
60
0
100
AcDbLine
10
18.531603
20
3.275139
30
0
11
17.933166
21
2.929631
31
0
39
0
210
0
220
0
230
1
0
LINE
5
7B
100
AcDbEntity
8
1
62
256
6
ByLayer
370
18
48
1
60
0
100
AcDbLine
10
17.318305
20
-2.784881
30
0
11
17.353829
21
-2.646262
31
0
39
0
210
0
220
0
230
1
0
LINE
5
7C
100
AcDbEntity
8
1
62
256
6
ByLayer
370
18
48
1
60
0
100
AcDbLine
10
16.033555
20
7.396962
30
0
11
15.95434
21
7.087858
31
0
39
0
210
0
220
0
230
1
0
LINE
5
7D
100
AcDbEntity
8
1
62
256
6
ByLayer
370
18
48
1
60
0
100
AcDbLine
10
13.963338
20
-0.681214
30
0
11
13.742882
21
-1.541456
31
0
39
0
210
0
220
0
230
1
0
LINE
5
7E
100
AcDbEntity
8
1
62
256
6
ByLayer
370
18
48
1
60
0
100
AcDbLine
10
22.345465
20
-3.658553
30
0
11
22.541956
21
-3.710285
31
0
39
0
210
0
220
0
230
1
0
LINE
5
7F
100
AcDbEntity
8
1
62
256
6
ByLayer
370
18
48
1
60
0
100
AcDbLine
10
17.481712
20
-2.812333
30
0
11
17.623945
21
-2.718644
31
0
39
0
210
0
220
0
230
1
0
LINE
5
80
100
AcDbEntity
8
1
62
256
6
ByLayer
370
18
48
1
60
0
100
AcDbLine
10
13.880561
20
-1.670007
30
0
11
13.886976
21
-1.644975
31
0
39
0
210
0
220
0
230
1
0
LINE
5
81
100
AcDbEntity
8
1
62
256
6
ByLayer
370
18
48
1
60
0
100
AcDbLine
10
17.650822
20
-2.766286
30
0
11
17.759203
21
-2.79482
31
0
39
0
210
0
220
0
230
1
0
LINE
5
82
100
AcDbEntity
8
1
62
256
6
ByLayer
370
18
48
1
60
0
100
AcDbLine
10
17.51332
20
-2.688996
30
0
11
17.481712
21
-2.812333
31
0
39
0
210
0
220
0
230
1
0
LINE
5
83
100
AcDbEntity
8
1
62
256
6
ByLayer
370
18
48
1
60
0
100
AcDbLine
10
14.965996
20
3.832131
30
0
11
14.590644
21
2.367475
31
0
39
0
210
0
220
0
230
1
0
LINE
5
84
100
AcDbEntity
8
1
62
256
6
ByLayer
370
18
48
1
60
0
100
AcDbLine
10
16.033555
20
7.396962
30
0
11
12.981139
21
8.214855
31
0
39
0
210
0
220
0
230
1
0
LINE
5
85
100
AcDbEntity
8
1
62
256
6
ByLayer
370
18
48
1
60
0
100
AcDbLine
10
12.981139
20
8.214855
30
0
11
1.912312
21
8.214855
31
0
39
0
210
0
220
0
230
1
0
LINE
5
86
100
AcDbEntity
8
1
62
256
6
ByLayer
370
18
48
1
60
0
100
AcDbLine
10
2.223557
20
-7.953716
30
0
11
1.912312
21
8.214855
31
0
39
0
210
0
220
0
230
1
0
LINE
5
87
100
AcDbEntity
8
1
62
256
6
ByLayer
370
18
48
1
60
0
100
AcDbLine
10
1.545481
20
-7.942674
30
0
11
2.223557
21
-7.953716
31
0
39
0
210
0
220
0
230
1
0
LINE
5
88
100
AcDbEntity
8
1
62
256
6
ByLayer
370
18
48
1
60
0
100
AcDbLine
10
1.545481
20
8.214855
30
0
11
0.900338
21
8.214855
31
0
39
0
210
0
220
0
230
1
0
LINE
5
89
100
AcDbEntity
8
1
62
256
6
ByLayer
370
18
48
1
60
0
100
AcDbLine
10
1.912312
20
8.214855
30
0
11
1.545481
21
8.214855
31
0
39
0
210
0
220
0
230
1
0
LINE
5
8A
100
AcDbEntity
8
1
62
256
6
ByLayer
370
18
48
1
60
0
100
AcDbLine
10
1.545481
20
8.214855
30
0
11
1.545481
21
-7.942674
31
0
39
0
210
0
220
0
230
1
0
LINE
5
8B
100
AcDbEntity
8
1
62
256
6
ByLayer
370
18
48
1
60
0
100
AcDbLine
10
21.45725
20
-7.94291
30
0
11
2.223557
21
-7.953716
31
0
39
0
210
0
220
0
230
1
0
LINE
5
8C
100
AcDbEntity
8
1
62
256
6
ByLayer
370
18
48
1
60
0
100
AcDbLine
10
21.45725
20
-7.94291
30
0
11
22.541956
21
-3.710285
31
0
39
0
210
0
220
0
230
1
0
LINE
5
8D
100
AcDbEntity
8
1
62
256
6
ByLayer
370
18
48
1
60
0
100
AcDbLine
10
0
20
-7.9375
30
0
11
0
21
7.9375
31
0
39
0
210
0
220
0
230
1
0
LINE
5
8E
100
AcDbEntity
8
SK1
62
256
6
ByLayer
370
18
48
1
60
0
100
AcDbLine
10
-76.19421
20
-7.9375
30
0
11
0
21
-7.9375
31
0
39
0
210
0
220
0
230
1
0
LINE
5
90
100
AcDbEntity
8
SK1
62
256
6
ByLayer
370
18
48
1
60
0
100
AcDbLine
10
-76.19421
20
7.9375
30
0
11
-76.19421
21
-7.9375
31
0
39
0
210
0
220
0
230
1
0
LINE
5
91
100
AcDbEntity
8
SK1
62
256
6
ByLayer
370
18
48
1
60
0
100
AcDbLine
10
0
20
-7.9375
30
0
11
0
21
7.9375
31
0
39
0
210
0
220
0
230
1
0
LINE
5
92
100
AcDbEntity
8
SK1
62
256
6
ByLayer
370
18
48
1
60
0
100
AcDbLine
10
-76.19421
20
7.9375
30
0
11
0
21
7.9375
31
0
39
0
210
0
220
0
230
1
0
LINE
5
93
100
AcDbEntity
8
1
62
256
6
ByLayer
370
18
48
1
60
0
100
AcDbLine
10
9.111681
20
1.799346
30
0
11
9.210614
21
1.81165
31
0
39
0
210
0
220
0
230
1
0
LINE
5
94
100
AcDbEntity
8
1
62
256
6
ByLayer
370
18
48
1
60
0
100
AcDbLine
10
10.705893
20
-0.155853
30
0
11
10.619568
21
-0.365451
31
0
39
0
210
0
220
0
230
1
0
LINE
5
95
100
AcDbEntity
8
1
62
256
6
ByLayer
370
18
48
1
60
0
100
AcDbLine
10
17.724906
20
2.332379
30
0
11
17.710646
21
2.324146
31
0
39
0
210
0
220
0
230
1
0
LINE
5
96
100
AcDbEntity
8
1
62
256
6
ByLayer
370
18
48
1
60
0
100
AcDbLine
10
17.908841
20
2.913717
30
0
11
18.056486
21
2.998959
31
0
39
0
210
0
220
0
230
1
0
LINE
5
97
100
AcDbEntity
8
1
62
256
6
ByLayer
370
18
48
1
60
0
100
AcDbLine
10
18.259018
20
3.378592
30
0
11
18.374141
21
3.39291
31
0
39
0
210
0
220
0
230
1
0
LINE
5
98
100
AcDbEntity
8
1
62
256
6
ByLayer
370
18
48
1
60
0
100
AcDbLine
10
13.976466
20
-0.619958
30
0
11
14.021036
21
-0.594225
31
0
39
0
210
0
220
0
230
1
0
LINE
5
99
100
AcDbEntity
8
1
62
256
6
ByLayer
370
18
48
1
60
0
100
AcDbLine
10
15.980962
20
7.05359
30
0
11
15.936392
21
7.027858
31
0
39
0
210
0
220
0
230
1
0
LINE
5
9A
100
AcDbEntity
8
1
62
256
6
ByLayer
370
18
48
1
60
0
100
AcDbLine
10
22.168012
20
-3.632174
30
0
11
22.212582
21
-3.606441
31
0
39
0
210
0
220
0
230
1
0
LINE
5
9B
100
AcDbEntity
8
1
62
256
6
ByLayer
370
18
48
1
60
0
100
AcDbLine
10
17.799337
20
-2.765639
30
0
11
14.183283
21
-1.79672
31
0
39
0
210
0
220
0
230
1
0
LINE
5
9C
100
AcDbEntity
8
80
62
256
6
ByLayer
370
18
48
1
60
0
100
AcDbLine
10
0
20
0
30
0
11
-5
21
0
31
0
39
0
210
0
220
0
230
1
0
LINE
5
9D
100
AcDbEntity
8
81
62
256
6
ByLayer
370
18
48
1
60
0
100
AcDbLine
10
23.80579
20
5.0625
30
0
11
33.80579
21
5.0625
31
0
39
0
210
0
220
0
230
1
0
LINE
5
9E
100
AcDbEntity
8
1
62
256
6
ByLayer
370
18
48
1
60
0
100
AcDbLine
10
11.088794
20
0.773838
30
0
11
10.919789
21
0.363491
31
0
39
0
210
0
220
0
230
1
0
LINE
5
9F
100
AcDbEntity
8
1
62
256
6
ByLayer
370
18
48
1
60
0
100
AcDbLine
10
10.705893
20
-0.155853
30
0
11
11.124162
21
0.085635
31
0
39
0
210
0
220
0
230
1
0
LINE
5
A0
100
AcDbEntity
8
1
62
256
6
ByLayer
370
18
48
1
60
0
100
AcDbLine
10
9.76665
20
1.880803
30
0
11
10.18492
21
2.122291
31
0
39
0
210
0
220
0
230
1
0
LINE
5
A1
100
AcDbEntity
8
1
62
256
6
ByLayer
370
18
48
1
60
0
100
AcDbLine
10
10.818461
20
1.129545
30
0
11
11.088794
21
0.773838
31
0
39
0
210
0
220
0
230
1
0
LINE
5
A2
100
AcDbEntity
8
1
62
256
6
ByLayer
370
18
48
1
60
0
100
AcDbLine
10
10.89459
20
1.821224
30
0
11
10.476321
21
1.579736
31
0
39
0
210
0
220
0
230
1
0
LINE
5
A3
100
AcDbEntity
8
1
62
256
6
ByLayer
370
18
48
1
60
0
100
AcDbLine
10
9.628883
20
2.053138
30
0
11
9.210614
21
1.81165
31
0
39
0
210
0
220
0
230
1
0
LINE
5
A4
100
AcDbEntity
8
1
62
256
6
ByLayer
370
18
48
1
60
0
100
AcDbLine
10
10.636332
20
2.183902
30
0
11
10.205988
21
1.935443
31
0
39
0
210
0
220
0
230
1
0
LINE
5
A5
100
AcDbEntity
8
1
62
256
6
ByLayer
370
18
48
1
60
0
100
AcDbLine
10
10.818461
20
1.129545
30
0
11
11.23673
21
1.371033
31
0
39
0
210
0
220
0
230
1
0
LINE
5
A6
100
AcDbEntity
8
1
62
256
6
ByLayer
370
18
48
1
60
0
100
AcDbLine
10
11.519138
20
1.022297
30
0
11
11.088794
21
0.773838
31
0
39
0
210
0
220
0
230
1
0
LINE
5
A7
100
AcDbEntity
8
1
62
256
6
ByLayer
370
18
48
1
60
0
100
AcDbLine
10
10.205988
20
1.935443
30
0
11
10.476321
21
1.579736
31
0
39
0
210
0
220
0
230
1
0
LINE
5
A8
100
AcDbEntity
8
1
62
256
6
ByLayer
370
18
48
1
60
0
100
AcDbLine
10
11.338058
20
0.604979
30
0
11
10.919789
21
0.363491
31
0
39
0
210
0
220
0
230
1
0
LINE
5
A9
100
AcDbEntity
8
1
62
256
6
ByLayer
370
18
48
1
60
0
100
AcDbLine
10
9.76665
20
1.880803
30
0
11
10.205988
21
1.935443
31
0
39
0
210
0
220
0
230
1
0
LINE
5
AA
100
AcDbEntity
8
1
62
256
6
ByLayer
370
18
48
1
60
0
100
AcDbLine
10
25.131004
20
4.601844
30
0
11
23.171078
21
-3.045972
31
0
39
0
210
0
220
0
230
1
0
LINE
5
AB
100
AcDbEntity
8
1
62
256
6
ByLayer
370
18
48
1
60
0
100
AcDbLine
10
14.021036
20
-0.594225
30
0
11
15.980962
21
7.05359
31
0
39
0
210
0
220
0
230
1
0
LINE
5
AC
100
AcDbEntity
8
1
62
256
6
ByLayer
370
18
48
1
60
0
100
AcDbLine
10
16.939458
20
7.61406
30
0
11
24.564494
21
5.570938
31
0
39
0
210
0
220
0
230
1
0
LINE
5
AD
100
AcDbEntity
8
1
62
256
6
ByLayer
370
18
48
1
60
0
100
AcDbLine
10
14.587546
20
-1.563319
30
0
11
14.183283
21
-1.79672
31
0
39
0
210
0
220
0
230
1
0
LINE
5
AE
100
AcDbEntity
8
1
62
256
6
ByLayer
370
18
48
1
60
0
100
AcDbLine
10
22.212582
20
-3.606441
30
0
11
14.587546
21
-1.563319
31
0
39
0
210
0
220
0
230
1
0
MTEXT
5
F2
100
AcDbEntity
8
SK6
62
256
6
ByLayer
370
13
48
1
60
0
100
AcDbMText
10
-56.480676
20
-32.999425
30
0
210
0
220
0
230
1
1
\W0.7368;PSBNR 1616H 09
40
3.5
41
0
44
1.084337
50
0
71
7
72
5
7
iso_b_vert
0
DIMENSION
5
104
100
AcDbEntity
8
SK2
62
256
6
ByLayer
370
13
48
1
60
0
100
AcDbDimension
2
DimnDraft3D1
10
-85.94421
20
-7.9375
30
0
11
-85.94421
21
0.0625
31
0
70
32
71
5
72
1
41
1
210
0
220
0
230
1
3
Standard
100
AcDbAlignedDimension
13
-77.78171
23
8.0625
33
0
14
-77.78171
24
-7.9375
34
0
50
90
100
AcDbRotatedDimension
1001
ACAD
1000
DSTYLE
1002
{
1070
    74
1070
     0
1070
   279
1070
     0
1070
   172
1070
     1
1070
   173
1070
     1
1070
   340
1005
F3
1070
   271
1070
     1
1070
   272
1070
     2
1070
    77
1070
     1
1070
    73
1070
     0
1070
   171
1070
     3
1070
   274
1070
     4
1070
   177
1070
   150
1070
   176
1070
     9
1070
   178
1070
    43
1070
    78
1070
     8
1070
    48
1040
-0.005
1070
    41
1041
3.175
1070
   147
1041
2.25
1070
    42
1041
1.5875
1070
    44
1041
3.175
1070
   140
1041
4.5
1070
   343
1005
105
1070
   344
1005
105
1002
}
0
DIMENSION
5
119
100
AcDbEntity
8
2
62
256
6
ByLayer
370
13
48
1
60
0
100
AcDbDimension
2
DimnDraft3D2
10
41.65579
20
5.4125
30
0
11
41.65579
21
-1.2625
31
0
70
32
71
5
72
1
41
1
210
0
220
0
230
1
3
Standard
100
AcDbAlignedDimension
13
1.5875
23
-7.9375
33
0
14
26.74329
24
5.4125
34
0
50
90
100
AcDbRotatedDimension
1001
ACAD
1000
DSTYLE
1002
{
1070
    74
1070
     0
1070
   279
1070
     0
1070
   172
1070
     1
1070
   173
1070
     1
1070
   340
1005
F3
1070
   271
1070
     1
1070
   272
1070
     2
1070
    77
1070
     1
1070
    73
1070
     0
1070
   171
1070
     3
1070
   274
1070
     4
1070
   177
1070
   150
1070
   176
1070
     9
1070
   178
1070
    43
1070
    78
1070
     8
1070
    48
1040
-0.005
1070
    41
1041
3.175
1070
   147
1041
2.25
1070
    42
1041
1.5875
1070
    44
1041
3.175
1070
   140
1041
4.5
1070
   343
1005
105
1070
   344
1005
105
1002
}
0
DIMENSION
5
127
100
AcDbEntity
8
SK2
62
256
6
ByLayer
370
13
48
1
60
0
100
AcDbDimension
2
DimnDraft3D3
10
25.15579
20
25.714855
30
0
11
-25.51921
21
25.714855
31
0
70
32
71
5
72
1
41
1
210
0
220
0
230
1
3
Standard
100
AcDbAlignedDimension
13
-76.19421
23
9.65
33
0
14
25.15579
24
7
34
0
50
0
100
AcDbRotatedDimension
1001
ACAD
1000
DSTYLE
1002
{
1070
   279
1070
     0
1070
   172
1070
     1
1070
   173
1070
     1
1070
   340
1005
F3
1070
   271
1070
     1
1070
   272
1070
     2
1070
    77
1070
     1
1070
    73
1070
     0
1070
   171
1070
     3
1070
   274
1070
     4
1070
   177
1070
   150
1070
   176
1070
     9
1070
   178
1070
    43
1070
    78
1070
     8
1070
    48
1040
-0.005
1070
    41
1041
3.175
1070
   147
1041
2.25
1070
    42
1041
1.5875
1070
    44
1041
3.175
1070
   140
1041
4.5
1070
   343
1005
105
1070
   344
1005
105
1002
}
0
DIMENSION
5
135
100
AcDbEntity
8
2
62
256
6
ByLayer
370
13
48
1
60
0
100
AcDbDimension
2
DimnDraft3D4
10
15.567478
20
7.796996
30
0
11
16.291778
21
16.779622
31
0
70
34
71
5
72
1
41
1
210
0
220
0
230
1
3
Standard
100
AcDb2LineAngularDimension
13
25.15579
23
5.4125
33
0
14
25.15579
24
3.825
34
0
15
24.567478
25
5.385454
35
0
16
19.031205
26
13.209531
36
0
40
0
0
ENDSEC
0
SECTION
2
OBJECTS
0
DICTIONARY
5
19f
330
0
100
AcDbDictionary
280
0
281
1
3
ACAD_GROUP
350
1a0
3
ACAD_MLINESTYLE
350
1a1
0
DICTIONARY
5
1a0
330
0
100
AcDbDictionary
280
0
281
1
0
DICTIONARY
5
1a1
330
0
100
AcDbDictionary
280
0
281
1
3
Standard
350
18
0
MLINESTYLE
5
18
330
1a1
100
AcDbMlineStyle
2
Standard
70
0
3

62
256
51
90
52
90
71
2
49
-0.5
62
256
6
ByLayer
49
0.5
62
256
6
ByLayer
0
RASTERVARIABLES
5
18e
330

100
AcDbRasterVariables
90
0
70
1
71
1
72
1
0
ENDSEC
0
EOF
