0
SECTION
2
HEADER
9
$ACADVER
1
AC1015
9
$DWGCODEPAGE
3
ANSI_1252
9
$HANDSEED
5
17e
9
$ANGBASE
50
0
9
$ANGDIR
70
0
9
$ATTMODE
70
1
9
$AUNITS
70
0
9
$AUPREC
70
0
9
$CECOLOR
62
256
9
$CELTSCALE
40
1
9
$CELTYPE
6
ByLayer
9
$CELWEIGHT
370
18
9
$CLAYER
8
0
9
$CMLJUST
70
0
9
$CMLSCALE
40
1
9
$CMLSTYLE
2
Standard
9
$DIMSTYLE
2
Standard
9
$TEXTSIZE
40
0.2
9
$TEXTSTYLE
7
Standard
9
$LUNITS
70
2
9
$LUPREC
70
4
9
$EXTNAMES
290
1
9
$INSUNITS
70
4
9
$LTSCALE
40
1
9
$LWDISPLAY
290
1
9
$PDMODE
70
0
9
$PDSIZE
40
0
9
$PLINEGEN
70
0
0
ENDSEC
0
SECTION
2
CLASSES
0
CLASS
1
RASTERVARIABLES
2
AcDbRasterVariables
3
ISM
90
0
280
0
281
0
0
ENDSEC
0
SECTION
2
TABLES
0
TABLE
2
VPORT
5
174
100
AcDbSymbolTable
0
VPORT
5
1
100
AcDbSymbolTableRecord
100
AcDbViewportTableRecord
2
*Active
70
0
10
0
20
0
11
1
21
1
12
-1
22
1
13
0
23
0
14
0.5
24
0.5
15
10
25
10
16
0
26
0
36
1
17
0
27
0
37
0
0
ENDTAB
0
TABLE
2
LTYPE
5
175
100
AcDbSymbolTable
0
LTYPE
5
14
100
AcDbSymbolTableRecord
100
AcDbLinetypeTableRecord
70
0
2
ByBlock
3

72
65
73
0
40
0
0
LTYPE
5
15
100
AcDbSymbolTableRecord
100
AcDbLinetypeTableRecord
70
0
2
ByLayer
3

72
65
73
0
40
0
0
LTYPE
5
16
100
AcDbSymbolTableRecord
100
AcDbLinetypeTableRecord
70
0
2
CONTINUOUS
3
Solid line
72
65
73
0
40
0
0
LTYPE
5
6A
100
AcDbSymbolTableRecord
100
AcDbLinetypeTableRecord
70
0
2
CENTER
3
____ _ ____ _ ____ _ ____
72
65
73
4
40
47.5
49
22
74
0
49
-8.5
74
0
49
8.5
74
0
49
-8.5
74
0
0
LTYPE
5
6B
100
AcDbSymbolTableRecord
100
AcDbLinetypeTableRecord
70
0
2
DASHED
3
__ __ __ __ __ __ __ __ __
72
65
73
2
40
25.72
49
12.86
74
0
49
-12.86
74
0
0
ENDTAB
0
TABLE
2
LAYER
5
176
100
AcDbSymbolTable
0
LAYER
5
10
100
AcDbSymbolTableRecord
100
AcDbLayerTableRecord
2
0
70
0
62
7
6
CONTINUOUS
290
1
370
-3
390
0
0
LAYER
5
6D
100
AcDbSymbolTableRecord
100
AcDbLayerTableRecord
2
80
70
0
62
-6
6
CONTINUOUS
290
1
370
-3
390
0
0
LAYER
5
6F
100
AcDbSymbolTableRecord
100
AcDbLayerTableRecord
2
81
70
0
62
-3
6
CONTINUOUS
290
1
370
-3
390
0
0
LAYER
5
71
100
AcDbSymbolTableRecord
100
AcDbLayerTableRecord
2
1
70
0
62
4
6
CONTINUOUS
290
1
370
-3
390
0
0
LAYER
5
ED
100
AcDbSymbolTableRecord
100
AcDbLayerTableRecord
2
2
70
0
62
7
6
CONTINUOUS
290
1
370
-3
390
0
0
LAYER
5
161
100
AcDbSymbolTableRecord
100
AcDbLayerTableRecord
2
SK1
70
0
62
4
6
CONTINUOUS
290
1
370
-3
390
0
0
LAYER
5
162
100
AcDbSymbolTableRecord
100
AcDbLayerTableRecord
2
SK6
70
0
62
5
6
CONTINUOUS
290
1
370
-3
390
0
0
LAYER
5
163
100
AcDbSymbolTableRecord
100
AcDbLayerTableRecord
2
SK2
70
0
62
7
6
CONTINUOUS
290
1
370
-3
390
0
0
ENDTAB
0
TABLE
2
STYLE
5
177
100
AcDbSymbolTable
0
STYLE
5
11
100
AcDbSymbolTableRecord
100
AcDbTextStyleTableRecord
2
Standard
3
txt
70
0
71
0
40
0
41
1
42
0
50
0
0
STYLE
5
D2
100
AcDbSymbolTableRecord
100
AcDbTextStyleTableRecord
2
iso_b_vert
3
simplex.shx
70
0
71
0
40
0
41
1
42
0
50
0
0
STYLE
5
D3
100
AcDbSymbolTableRecord
100
AcDbTextStyleTableRecord
2
DWGDirectTextStyle
3
simplex
70
0
71
0
40
0
41
1
42
0
50
0
0
ENDTAB
0
TABLE
2
DIMSTYLE
5
178
100
AcDbSymbolTable
100
AcDbDimStyleTable
0
DIMSTYLE
105
27
100
AcDbSymbolTableRecord
100
AcDbDimStyleTableRecord
2
Standard
70
0
3
<>
41
0.18
42
0.0625
44
0.18
140
0.18
147
0.09
73
0
74
0
77
1
271
2
275
0
278
52
280
0
340
11
0
ENDTAB
0
TABLE
2
VIEW
5
179
100
AcDbSymbolTable
0
ENDTAB
0
TABLE
2
UCS
5
17a
100
AcDbSymbolTable
0
ENDTAB
0
TABLE
2
APPID
5
17b
100
AcDbSymbolTable
0
APPID
5
12
100
AcDbSymbolTableRecord
100
AcDbRegAppTableRecord
2
ACAD
70
0
0
ENDTAB
0
TABLE
2
BLOCK_RECORD
5
17c
100
AcDbSymbolTable
0
BLOCK_RECORD
5
1F
100
AcDbSymbolTableRecord
100
AcDbBlockTableRecord
2
*Model_Space
340
0
70
0
0
BLOCK_RECORD
5
1B
100
AcDbSymbolTableRecord
100
AcDbBlockTableRecord
2
*Paper_Space
340
0
70
0
0
BLOCK_RECORD
5
23
100
AcDbSymbolTableRecord
100
AcDbBlockTableRecord
2
*Paper_Space0
340
0
70
0
0
BLOCK_RECORD
5
D5
100
AcDbSymbolTableRecord
100
AcDbBlockTableRecord
2
DimnDraft3D1
340
0
70
0
0
BLOCK_RECORD
5
E4
100
AcDbSymbolTableRecord
100
AcDbBlockTableRecord
2
_CLOSED
340
0
70
0
0
BLOCK_RECORD
5
EB
100
AcDbSymbolTableRecord
100
AcDbBlockTableRecord
2
DimnDraft3D2
340
0
70
0
0
BLOCK_RECORD
5
FA
100
AcDbSymbolTableRecord
100
AcDbBlockTableRecord
2
DimnDraft3D3
340
0
70
0
0
ENDTAB
0
ENDSEC
0
SECTION
2
BLOCKS
0
BLOCK
5
20
100
AcDbEntity
8
0
100
AcDbBlockBegin
2
*Model_Space
70
0
10
0
20
0
30
0
3
*Model_Space
0
ENDBLK
5
21
100
AcDbEntity
8
0
100
AcDbBlockEnd
0
BLOCK
5
1C
100
AcDbEntity
8
0
100
AcDbBlockBegin
2
*Paper_Space
70
0
10
0
20
0
30
0
3
*Paper_Space
0
ENDBLK
5
1D
100
AcDbEntity
8
0
100
AcDbBlockEnd
0
BLOCK
5
24
100
AcDbEntity
8
0
100
AcDbBlockBegin
2
*Paper_Space0
70
0
10
0
20
0
30
0
3
*Paper_Space0
0
ENDBLK
5
25
100
AcDbEntity
8
0
100
AcDbBlockEnd
0
BLOCK
5
E1
100
AcDbEntity
8
0
100
AcDbBlockBegin
2
DimnDraft3D1
70
0
10
0
20
0
30
0
3
DimnDraft3D1
0
MTEXT
5
D6
100
AcDbEntity
8
SK2
62
256
6
ByLayer
370
13
48
1
60
0
100
AcDbMText
10
-180.997277
20
-1.500658
30
0
210
0
220
0
230
1
1
\W0.6740;25
40
4.5
41
0
44
1.084337
50
90
71
7
72
5
7
iso_b_vert
0
LINE
5
D8
100
AcDbEntity
8
SK2
62
256
6
ByLayer
370
13
48
1
60
0
100
AcDbLine
10
-171.709777
20
12.5625
30
0
11
-183.047277
21
12.5625
31
0
39
0
210
0
220
0
230
1
0
LINE
5
D9
100
AcDbEntity
8
SK2
62
256
6
ByLayer
370
13
48
1
60
0
100
AcDbLine
10
-171.709777
20
-12.4375
30
0
11
-183.047277
21
-12.4375
31
0
39
0
210
0
220
0
230
1
0
LINE
5
DA
100
AcDbEntity
8
SK2
62
256
6
ByLayer
370
13
48
1
60
0
100
AcDbLine
10
-179.872277
20
12.5625
30
0
11
-179.872277
21
-12.4375
31
0
39
0
210
0
220
0
230
1
0
LINE
5
DB
100
AcDbEntity
8
SK2
62
256
6
ByLayer
370
13
48
1
60
0
100
AcDbLine
10
-179.872277
20
12.5625
30
0
11
-179.021538
21
9.387503
31
0
39
0
210
0
220
0
230
1
0
LINE
5
DC
100
AcDbEntity
8
SK2
62
256
6
ByLayer
370
13
48
1
60
0
100
AcDbLine
10
-179.872277
20
12.5625
30
0
11
-180.723016
21
9.387497
31
0
39
0
210
0
220
0
230
1
0
LINE
5
DD
100
AcDbEntity
8
SK2
62
256
6
ByLayer
370
13
48
1
60
0
100
AcDbLine
10
-179.021538
20
9.387503
30
0
11
-180.723016
21
9.387497
31
0
39
0
210
0
220
0
230
1
0
LINE
5
DE
100
AcDbEntity
8
SK2
62
256
6
ByLayer
370
13
48
1
60
0
100
AcDbLine
10
-179.872277
20
-12.4375
30
0
11
-180.723016
21
-9.262503
31
0
39
0
210
0
220
0
230
1
0
LINE
5
DF
100
AcDbEntity
8
SK2
62
256
6
ByLayer
370
13
48
1
60
0
100
AcDbLine
10
-179.872277
20
-12.4375
30
0
11
-179.021538
21
-9.262497
31
0
39
0
210
0
220
0
230
1
0
LINE
5
E0
100
AcDbEntity
8
SK2
62
256
6
ByLayer
370
13
48
1
60
0
100
AcDbLine
10
-180.723016
20
-9.262503
30
0
11
-179.021538
21
-9.262497
31
0
39
0
210
0
220
0
230
1
0
ENDBLK
5
E2
100
AcDbEntity
8
0
100
AcDbBlockEnd
0
BLOCK
5
E5
100
AcDbEntity
8
0
100
AcDbBlockBegin
2
_CLOSED
70
0
10
0
20
0
30
0
3
_CLOSED
0
LINE
5
E7
100
AcDbEntity
8
0
62
256
6
ByLayer
370
-2
48
1
60
0
100
AcDbLine
10
-1
20
0.166667
30
0
11
0
21
0
31
0
39
0
210
0
220
0
230
1
0
LINE
5
E8
100
AcDbEntity
8
0
62
256
6
ByLayer
370
-2
48
1
60
0
100
AcDbLine
10
0
20
0
30
0
11
-1
21
-0.166667
31
0
39
0
210
0
220
0
230
1
0
LINE
5
E9
100
AcDbEntity
8
0
62
256
6
ByLayer
370
-2
48
1
60
0
100
AcDbLine
10
-1
20
0.166667
30
0
11
-1
21
-0.166667
31
0
39
0
210
0
220
0
230
1
0
LINE
5
EA
100
AcDbEntity
8
0
62
256
6
ByLayer
370
-2
48
1
60
0
100
AcDbLine
10
0
20
0
30
0
11
-1
21
0
31
0
39
0
210
0
220
0
230
1
0
ENDBLK
5
E6
100
AcDbEntity
8
0
100
AcDbBlockEnd
0
BLOCK
5
F7
100
AcDbEntity
8
0
100
AcDbBlockBegin
2
DimnDraft3D2
70
0
10
0
20
0
30
0
3
DimnDraft3D2
0
MTEXT
5
EC
100
AcDbEntity
8
2
62
256
6
ByLayer
370
13
48
1
60
0
100
AcDbMText
10
16.602723
20
2.174342
30
0
210
0
220
0
230
1
1
\W0.6740;32
40
4.5
41
0
44
1.084337
50
90
71
7
72
5
7
iso_b_vert
0
LINE
5
EE
100
AcDbEntity
8
2
62
256
6
ByLayer
370
13
48
1
60
0
100
AcDbLine
10
-21.393881
20
-12.4375
30
0
11
20.902723
21
-12.4375
31
0
39
0
210
0
220
0
230
1
0
LINE
5
EF
100
AcDbEntity
8
2
62
256
6
ByLayer
370
13
48
1
60
0
100
AcDbLine
10
2.815223
20
19.9125
30
0
11
20.902723
21
19.9125
31
0
39
0
210
0
220
0
230
1
0
LINE
5
F0
100
AcDbEntity
8
2
62
256
6
ByLayer
370
13
48
1
60
0
100
AcDbLine
10
17.727723
20
-12.4375
30
0
11
17.727723
21
19.9125
31
0
39
0
210
0
220
0
230
1
0
LINE
5
F1
100
AcDbEntity
8
2
62
256
6
ByLayer
370
13
48
1
60
0
100
AcDbLine
10
17.727723
20
-12.4375
30
0
11
16.876984
21
-9.262503
31
0
39
0
210
0
220
0
230
1
0
LINE
5
F2
100
AcDbEntity
8
2
62
256
6
ByLayer
370
13
48
1
60
0
100
AcDbLine
10
17.727723
20
-12.4375
30
0
11
18.578462
21
-9.262497
31
0
39
0
210
0
220
0
230
1
0
LINE
5
F3
100
AcDbEntity
8
2
62
256
6
ByLayer
370
13
48
1
60
0
100
AcDbLine
10
16.876984
20
-9.262503
30
0
11
18.578462
21
-9.262497
31
0
39
0
210
0
220
0
230
1
0
LINE
5
F4
100
AcDbEntity
8
2
62
256
6
ByLayer
370
13
48
1
60
0
100
AcDbLine
10
17.727723
20
19.9125
30
0
11
18.578462
21
16.737503
31
0
39
0
210
0
220
0
230
1
0
LINE
5
F5
100
AcDbEntity
8
2
62
256
6
ByLayer
370
13
48
1
60
0
100
AcDbLine
10
17.727723
20
19.9125
30
0
11
16.876984
21
16.737497
31
0
39
0
210
0
220
0
230
1
0
LINE
5
F6
100
AcDbEntity
8
2
62
256
6
ByLayer
370
13
48
1
60
0
100
AcDbLine
10
18.578462
20
16.737503
30
0
11
16.876984
21
16.737497
31
0
39
0
210
0
220
0
230
1
0
ENDBLK
5
F8
100
AcDbEntity
8
0
100
AcDbBlockEnd
0
BLOCK
5
105
100
AcDbEntity
8
0
100
AcDbBlockBegin
2
DimnDraft3D3
70
0
10
0
20
0
30
0
3
DimnDraft3D3
0
MTEXT
5
FB
100
AcDbEntity
8
SK2
62
256
6
ByLayer
370
13
48
1
60
0
100
AcDbMText
10
-87.129514
20
38.5375
30
0
210
0
220
0
230
1
1
\W0.6217;170
40
4.5
41
0
44
1.084337
50
0
71
7
72
5
7
iso_b_vert
0
LINE
5
FC
100
AcDbEntity
8
SK2
62
256
6
ByLayer
370
13
48
1
60
0
100
AcDbLine
10
-170.122277
20
14.15
30
0
11
-170.122277
21
40.5875
31
0
39
0
210
0
220
0
230
1
0
LINE
5
FD
100
AcDbEntity
8
SK2
62
256
6
ByLayer
370
13
48
1
60
0
100
AcDbLine
10
1.227723
20
21.5
30
0
11
1.227723
21
40.5875
31
0
39
0
210
0
220
0
230
1
0
LINE
5
FE
100
AcDbEntity
8
SK2
62
256
6
ByLayer
370
13
48
1
60
0
100
AcDbLine
10
-170.122277
20
37.4125
30
0
11
1.227723
21
37.4125
31
0
39
0
210
0
220
0
230
1
0
LINE
5
FF
100
AcDbEntity
8
SK2
62
256
6
ByLayer
370
13
48
1
60
0
100
AcDbLine
10
-170.122277
20
37.4125
30
0
11
-166.94728
21
38.263239
31
0
39
0
210
0
220
0
230
1
0
LINE
5
100
100
AcDbEntity
8
SK2
62
256
6
ByLayer
370
13
48
1
60
0
100
AcDbLine
10
-170.122277
20
37.4125
30
0
11
-166.947274
21
36.561761
31
0
39
0
210
0
220
0
230
1
0
LINE
5
101
100
AcDbEntity
8
SK2
62
256
6
ByLayer
370
13
48
1
60
0
100
AcDbLine
10
-166.94728
20
38.263239
30
0
11
-166.947274
21
36.561761
31
0
39
0
210
0
220
0
230
1
0
LINE
5
102
100
AcDbEntity
8
SK2
62
256
6
ByLayer
370
13
48
1
60
0
100
AcDbLine
10
1.227723
20
37.4125
30
0
11
-1.947274
21
36.561761
31
0
39
0
210
0
220
0
230
1
0
LINE
5
103
100
AcDbEntity
8
SK2
62
256
6
ByLayer
370
13
48
1
60
0
100
AcDbLine
10
1.227723
20
37.4125
30
0
11
-1.94728
21
38.263239
31
0
39
0
210
0
220
0
230
1
0
LINE
5
104
100
AcDbEntity
8
SK2
62
256
6
ByLayer
370
13
48
1
60
0
100
AcDbLine
10
-1.947274
20
36.561761
30
0
11
-1.94728
21
38.263239
31
0
39
0
210
0
220
0
230
1
0
ENDBLK
5
106
100
AcDbEntity
8
0
100
AcDbBlockEnd
0
ENDSEC
0
SECTION
2
ENTITIES
0
ARC
5
9B
100
AcDbEntity
8
SK1
62
256
6
ByLayer
370
18
48
1
60
0
100
AcDbCircle
39
0
10
-5.931932
20
12.752845
30
0
40
4.5
210
0
220
0
230
1
100
AcDbArc
50
197.233515
51
252.766482
0
ARC
5
9C
100
AcDbEntity
8
SK1
62
256
6
ByLayer
370
18
48
1
60
0
100
AcDbCircle
39
0
10
20.152954
20
22.2375
30
0
40
10.2
210
0
220
0
230
-1
100
AcDbArc
50
240
51
286.098934
0
ARC
5
9E
100
AcDbEntity
8
1
62
256
6
ByLayer
370
18
48
1
60
0
100
AcDbCircle
39
0
10
4.772277
20
13.9125
30
0
40
2.1
210
0
220
0
230
-1
100
AcDbArc
50
180.000012
51
253.119385
0
ARC
5
9F
100
AcDbEntity
8
1
62
256
6
ByLayer
370
18
48
1
60
0
100
AcDbCircle
39
0
10
4.772277
20
13.9125
30
0
40
2.1
210
0
220
0
230
-1
100
AcDbArc
50
16.756887
51
180.000012
0
ARC
5
A2
100
AcDbEntity
8
1
62
256
6
ByLayer
370
18
48
1
60
0
100
AcDbCircle
39
0
10
-4.772277
20
13.9125
30
0
40
2.275
210
0
220
0
230
1
100
AcDbArc
50
182.053224
51
267.946776
0
ARC
5
A3
100
AcDbEntity
8
1
62
256
6
ByLayer
370
18
48
1
60
0
100
AcDbCircle
39
0
10
4.772277
20
13.9125
30
0
40
1.85000000000005
210
0
220
0
230
-1
100
AcDbArc
50
45
51
225
0
ARC
5
A4
100
AcDbEntity
8
1
62
256
6
ByLayer
370
18
48
1
60
0
100
AcDbCircle
39
0
10
-13.823244
20
4.861533
30
0
40
1.295
210
0
220
0
230
1
100
AcDbArc
50
207.612611
51
242.387389
0
ARC
5
A5
100
AcDbEntity
8
1
62
256
6
ByLayer
370
18
48
1
60
0
100
AcDbCircle
39
0
10
-13.823244
20
4.861533
30
0
40
1.295
210
0
220
0
230
1
100
AcDbArc
50
27.612611
51
62.387389
0
ARC
5
A6
100
AcDbEntity
8
1
62
256
6
ByLayer
370
18
48
1
60
0
100
AcDbCircle
39
0
10
-13.823244
20
4.861533
30
0
40
1.295
210
0
220
0
230
1
100
AcDbArc
50
302.387389
51
327.612611
0
ARC
5
A7
100
AcDbEntity
8
1
62
256
6
ByLayer
370
18
48
1
60
0
100
AcDbCircle
39
0
10
-13.823244
20
4.861533
30
0
40
1.295
210
0
220
0
230
1
100
AcDbArc
50
267.612611
51
302.387389
0
ARC
5
A8
100
AcDbEntity
8
1
62
256
6
ByLayer
370
18
48
1
60
0
100
AcDbCircle
39
0
10
-13.823244
20
4.861533
30
0
40
1.295
210
0
220
0
230
1
100
AcDbArc
50
182.387389
51
207.612611
0
ARC
5
AA
100
AcDbEntity
8
1
62
256
6
ByLayer
370
18
48
1
60
0
100
AcDbCircle
39
0
10
-13.823244
20
4.861533
30
0
40
1.295
210
0
220
0
230
1
100
AcDbArc
50
62.387389
51
87.612611
0
ARC
5
AB
100
AcDbEntity
8
1
62
256
6
ByLayer
370
18
48
1
60
0
100
AcDbCircle
39
0
10
-13.823244
20
4.861533
30
0
40
1.295
210
0
220
0
230
1
100
AcDbArc
50
87.612611
51
122.387389
0
ARC
5
AC
100
AcDbEntity
8
1
62
256
6
ByLayer
370
18
48
1
60
0
100
AcDbCircle
39
0
10
-13.823244
20
4.861533
30
0
40
1.295
210
0
220
0
230
1
100
AcDbArc
50
327.612611
51
2.387389
0
ARC
5
AD
100
AcDbEntity
8
1
62
256
6
ByLayer
370
18
48
1
60
0
100
AcDbCircle
39
0
10
-13.823244
20
4.861533
30
0
40
1.295
210
0
220
0
230
1
100
AcDbArc
50
122.387389
51
147.612611
0
ARC
5
AF
100
AcDbEntity
8
1
62
256
6
ByLayer
370
18
48
1
60
0
100
AcDbCircle
39
0
10
-13.823244
20
4.861533
30
0
40
1.295
210
0
220
0
230
1
100
AcDbArc
50
2.387389
51
27.612611
0
ARC
5
B0
100
AcDbEntity
8
1
62
256
6
ByLayer
370
18
48
1
60
0
100
AcDbCircle
39
0
10
-13.823244
20
4.861533
30
0
40
1.295
210
0
220
0
230
1
100
AcDbArc
50
242.387389
51
267.612611
0
ARC
5
B1
100
AcDbEntity
8
1
62
256
6
ByLayer
370
18
48
1
60
0
100
AcDbCircle
39
0
10
-13.823244
20
4.861533
30
0
40
1.295
210
0
220
0
230
1
100
AcDbArc
50
147.612611
51
182.387389
0
CIRCLE
5
9D
100
AcDbEntity
8
SK1
62
256
6
ByLayer
370
18
48
1
60
0
100
AcDbCircle
10
13.752533
20
4.932244
30
0
40
2.5
39
0
210
0
220
0
230
-1
0
CIRCLE
5
A0
100
AcDbEntity
8
1
62
256
6
ByLayer
370
18
48
1
60
0
100
AcDbCircle
10
4.772277
20
13.9125
30
0
40
2.67526677456137
39
0
210
0
220
0
230
-1
0
CIRCLE
5
A1
100
AcDbEntity
8
1
62
256
6
ByLayer
370
18
48
1
60
0
100
AcDbCircle
10
-4.772277
20
13.9125
30
0
40
6
39
0
210
0
220
0
230
1
0
CIRCLE
5
A9
100
AcDbEntity
8
1
62
256
6
ByLayer
370
18
48
1
60
0
100
AcDbCircle
10
13.823244
20
4.861533
30
0
40
2.235
39
0
210
0
220
0
230
-1
0
CIRCLE
5
AE
100
AcDbEntity
8
1
62
256
6
ByLayer
370
18
48
1
60
0
100
AcDbCircle
10
13.823244
20
4.861533
30
0
40
1.66739092362731
39
0
210
0
220
0
230
-1
0
ELLIPSE
5
B2
100
AcDbEntity
8
1
62
256
6
ByLayer
370
18
48
1
60
0
100
AcDbEllipse
10
-4.772277
20
13.912501
30
0
11
1.26979165613446
21
-1.34541137573956
31
0
210
0
220
0
230
-1
40
1
41
-0.0289073695285548
42
0.0315599413855406
0
ELLIPSE
5
B3
100
AcDbEntity
8
1
62
256
6
ByLayer
370
18
48
1
60
0
100
AcDbEllipse
10
-4.772276
20
13.9125
30
0
11
1.34697041471222
21
-1.26813758475543
31
0
210
0
220
0
230
-1
40
1
41
3.11126136244755
42
-3.1114566321038
0
POINT
5
6C
100
AcDbEntity
8
80
62
256
6
ByLayer
370
18
48
1
60
0
100
AcDbPoint
10
0
20
0
30
0
39
0
210
0
220
0
230
1
50
360
0
POINT
5
6E
100
AcDbEntity
8
81
62
256
6
ByLayer
370
18
48
1
60
0
100
AcDbPoint
10
-0.122277
20
19.5625
30
0
39
0
210
0
220
0
230
1
50
360
0
POINT
5
70
100
AcDbEntity
8
1
62
256
6
ByLayer
370
18
48
1
60
0
100
AcDbPoint
10
-170.122277
20
-12.4375
30
0
39
0
210
0
220
0
230
1
50
360
0
SPLINE
5
B4
100
AcDbEntity
8
SK1
62
256
6
ByLayer
370
18
48
1
60
0
100
AcDbSpline
70
4
71
3
72
18
73
14
40
0
40
0
40
0
40
0
40
0.147777540899679
40
0.147777540899679
40
0.354445212449311
40
0.354445212449311
40
0.561112883998944
40
0.561112883998944
40
0.767780555548577
40
0.767780555548577
40
0.974448227098209
40
0.974448227098209
40
1
40
1
40
1
40
1
41
1
10
-2.98404286899415
20
7.60981205764728
30
0
41
1
10
-2.96567496055542
20
7.64162620829202
30
0
41
1
10
-2.94622025688312
20
7.67532274349864
30
0
41
1
10
-2.89793697813678
20
7.75895183544344
30
0
41
1
10
-2.86820830554814
20
7.81044340680856
30
0
41
1
10
-2.80552826915346
20
7.91900841446443
30
0
41
1
10
-2.77354001810488
20
7.9744136905253
30
0
41
1
10
-2.70837013478916
20
8.08729123955146
30
0
41
1
10
-2.67485940592252
20
8.14533352454765
30
0
41
1
10
-2.60819490922171
20
8.2607998198946
30
0
41
1
10
-2.57527518996153
20
8.31781844622409
30
0
41
1
10
-2.5387427345467
20
8.38109451512787
30
0
41
1
10
-2.53472456775881
20
8.38805418415782
30
0
41
1
10
-2.53071086899388
20
8.39500611434502
30
0
0
SPLINE
5
B5
100
AcDbEntity
8
SK1
62
256
6
ByLayer
370
18
48
1
60
0
100
AcDbSpline
70
4
71
3
72
18
73
14
40
0
40
0
40
0
40
0
40
0.14693638055183
40
0.14693638055183
40
0.352427684870412
40
0.352427684870412
40
0.557918989188993
40
0.557918989188993
40
0.763410293507575
40
0.763410293507575
40
0.968901597826157
40
0.968901597826157
40
1
40
1
40
1
40
1
41
1
10
-11.0749647616132
20
15.7007339502358
30
0
41
1
10
-11.0431506109628
20
15.7191018586779
30
0
41
1
10
-11.0094540757497
20
15.7385565623539
30
0
41
1
10
-10.9258249837978
20
15.7868398411044
30
0
41
1
10
-10.8743334124327
20
15.8165685136931
30
0
41
1
10
-10.7657684047768
20
15.8792485500878
30
0
41
1
10
-10.710363128716
20
15.9112368011363
30
0
41
1
10
-10.5974855796898
20
15.976406684452
30
0
41
1
10
-10.5394432946936
20
16.0099174133187
30
0
41
1
10
-10.4239769993467
20
16.0765819100195
30
0
41
1
10
-10.3669583730172
20
16.1095016292798
30
0
41
1
10
-10.3021224270371
20
16.1469346801445
30
0
41
1
10
-10.2936042654921
20
16.1518526430055
30
0
41
1
10
-10.2850993638855
20
16.1567629502375
30
0
0
SPLINE
5
B6
100
AcDbEntity
8
1
62
256
6
ByLayer
370
18
48
1
60
0
100
AcDbSpline
70
4
71
3
72
8
73
4
40
0
40
0
40
0
40
0
40
1
40
1
40
1
40
1
41
1
10
-4.75381740195343
20
11.3928597098248
30
0
41
1
10
-4.78793374529363
20
11.4743748458379
30
0
41
1
10
-4.82130008918682
20
11.5563799007731
30
0
41
1
10
-4.85378519351087
20
11.6389606040521
30
0
0
SPLINE
5
B7
100
AcDbEntity
8
1
62
256
6
ByLayer
370
18
48
1
60
0
100
AcDbSpline
70
4
71
3
72
8
73
4
40
0
40
0
40
0
40
0
40
1
40
1
40
1
40
1
41
1
10
-7.29191710941643
20
13.9309594172878
30
0
41
1
10
-7.21040197340335
20
13.8968430739477
30
0
41
1
10
-7.12839691846818
20
13.8634767300545
30
0
41
1
10
-7.04581621518918
20
13.8309916257304
30
0
0
SPLINE
5
B8
100
AcDbEntity
8
1
62
256
6
ByLayer
370
18
48
1
60
0
100
AcDbSpline
70
4
71
3
72
8
73
4
40
0
40
0
40
0
40
0
40
1
40
1
40
1
40
1
41
1
10
-3.46412927404611
20
12.6043524548049
30
0
41
1
10
-3.50544192064001
20
12.563039808211
30
0
41
1
10
-3.54701675336446
20
12.5214649754867
30
0
41
1
10
-3.5886691629895
20
12.4798125658616
30
0
0
SPLINE
5
B9
100
AcDbEntity
8
1
62
256
6
ByLayer
370
18
48
1
60
0
100
AcDbSpline
70
4
71
3
72
8
73
4
40
0
40
0
40
0
40
0
40
1
40
1
40
1
40
1
41
1
10
-6.08042436443634
20
15.2206475451951
30
0
41
1
10
-6.12167365657405
20
15.1793982530575
30
0
41
1
10
-6.16318433131477
20
15.1378875783167
30
0
41
1
10
-6.20477262744197
20
15.0962992821896
30
0
0
SPLINE
5
BA
100
AcDbEntity
8
1
62
256
6
ByLayer
370
18
48
1
60
0
100
AcDbSpline
70
4
71
3
72
8
73
4
40
0
40
0
40
0
40
0
40
1
40
1
40
1
40
1
41
1
10
-6.48332263070176
20
15.1571605338993
30
0
41
1
10
-6.52308194116767
20
15.0678596604876
30
0
41
1
10
-6.56283286984183
20
14.9785776128888
30
0
41
1
10
-6.60259571086385
20
14.8892688097183
30
0
0
SPLINE
5
BB
100
AcDbEntity
8
1
62
256
6
ByLayer
370
18
48
1
60
0
100
AcDbSpline
70
4
71
3
72
8
73
4
40
0
40
0
40
0
40
0
40
1
40
1
40
1
40
1
41
1
10
-6.72531862804721
20
14.6136286247239
30
0
41
1
10
-6.73545156902452
20
14.5908696666611
30
0
41
1
10
-6.7455839071082
20
14.5681120627194
30
0
41
1
10
-6.75571527759456
20
14.5453566320369
30
0
0
SPLINE
5
BC
100
AcDbEntity
8
1
62
256
6
ByLayer
370
18
48
1
60
0
100
AcDbSpline
70
4
71
2
72
10
73
7
40
0
40
0
40
0
40
0.25
40
0.25
40
0.5
40
0.75
40
1
40
1
40
1
41
1
10
-4.02315546496681
20
14.6616213542744
30
0
41
1
10
-4.23699642042573
20
14.8773398928727
30
0
41
1
10
-4.52738847569623
20
14.9953826196707
30
0
41
1
10
-4.81540224663343
20
15.1124585873486
30
0
41
1
10
-5.43095283704906
20
15.1087759428175
30
0
41
1
10
-6.0131342143145
20
14.8640147833478
30
0
41
1
10
-6.23229336026947
20
14.6449070792029
30
0
0
SPLINE
5
BD
100
AcDbEntity
8
1
62
256
6
ByLayer
370
18
48
1
60
0
100
AcDbSpline
70
4
71
1
72
4
73
2
40
0
40
0
40
1
40
1
41
1
10
-3.81424619287083
20
14.8705306263704
30
0
41
1
10
-4.02315546496681
20
14.6616213542744
30
0
0
SPLINE
5
BE
100
AcDbEntity
8
1
62
256
6
ByLayer
370
18
48
1
60
0
100
AcDbSpline
70
4
71
3
72
8
73
4
40
0
40
0
40
0
40
0
40
1
40
1
40
1
40
1
41
1
10
-6.15708559097772
20
15.1392047997468
30
0
41
1
10
-6.18692969815191
20
15.1125706441637
30
0
41
1
10
-6.21582326191583
20
15.0852486477156
30
0
41
1
10
-6.24380139679164
20
15.0572705128398
30
0
0
SPLINE
5
BF
100
AcDbEntity
8
1
62
256
6
ByLayer
370
18
48
1
60
0
100
AcDbSpline
70
4
71
3
72
8
73
4
40
0
40
0
40
0
40
0
40
1
40
1
40
1
40
1
41
1
10
-3.54557201949444
20
12.5276912282636
30
0
41
1
10
-3.5722061750775
20
12.4978471210893
30
0
41
1
10
-3.59952817152561
20
12.4689535573254
30
0
41
1
10
-3.62750630640141
20
12.4409754224496
30
0
0
SPLINE
5
C0
100
AcDbEntity
8
1
62
256
6
ByLayer
370
18
48
1
60
0
100
AcDbSpline
70
4
71
3
72
10
73
6
40
0
40
0
40
0
40
0
40
0.475013080005998
40
0.475013080005998
40
1
40
1
40
1
40
1
41
1
10
-3.82769699463228
20
12.2403161473078
30
0
41
1
10
-3.49892986884021
20
12.5689384624096
30
0
41
1
10
-3.29881497261982
20
13.0222892049139
30
0
41
1
10
-3.25544916513013
20
13.997141500107
30
0
41
1
10
-3.45234734906802
20
14.5120222950725
30
0
41
1
10
-3.81424619287083
20
14.8705306263704
30
0
0
SPLINE
5
C1
100
AcDbEntity
8
1
62
256
6
ByLayer
370
18
48
1
60
0
100
AcDbSpline
70
4
71
1
72
4
73
2
40
0
40
0
40
1
40
1
41
1
10
-6.44446228987596
20
14.8570782059515
30
0
41
1
10
-6.23229199803524
20
14.6449084420396
30
0
0
SPLINE
5
C2
100
AcDbEntity
8
1
62
256
6
ByLayer
370
18
48
1
60
0
100
AcDbSpline
70
4
71
1
72
4
73
2
40
0
40
0
40
1
40
1
41
1
10
-3.82781414064141
20
12.240433293317
30
0
41
1
10
-4.03996788967657
20
12.45258160861
30
0
0
SPLINE
5
C3
100
AcDbEntity
8
1
62
256
6
ByLayer
370
18
48
1
60
0
100
AcDbSpline
70
4
71
3
72
10
73
6
40
0
40
0
40
0
40
0
40
0.524986101475674
40
0.524986101475674
40
1
40
1
40
1
40
1
41
1
10
-4.02315546496681
20
14.6616213542744
30
0
41
1
10
-3.71993594082272
20
14.3612564884693
30
0
41
1
10
-3.55562175634668
20
13.9292153085831
30
0
41
1
10
-3.59405132216045
20
13.1103499081128
30
0
41
1
10
-3.76306135634525
20
12.7291691213252
30
0
41
1
10
-4.0398697400384
20
12.4524834589718
30
0
0
SPLINE
5
C4
100
AcDbEntity
8
1
62
256
6
ByLayer
370
18
48
1
60
0
100
AcDbSpline
70
4
71
3
72
47
73
43
40
0
40
0
40
0
40
0
40
0.0226981072663048
40
0.045010658285431
40
0.0669376651818814
40
0.0884791408690302
40
0.109635099104175
40
0.130405554548692
40
0.15079052283387
40
0.170790020633089
40
0.190404065741074
40
0.209632677161092
40
0.228475875201047
40
0.246933681579599
40
0.265006119543582
40
0.282693213998194
40
0.29999499165166
40
0.316911481176351
40
0.333442713388637
40
0.349588721450168
40
0.365349541093704
40
0.380725210877179
40
0.395715772470329
40
0.41032127097904
40
0.424541755313494
40
0.43837727860743
40
0.451827898697235
40
0.464893678671423
40
0.47757468750325
40
0.489871000782008
40
0.50178270156202
40
0.549781102591335
40
0.597226932719817
40
0.644123721186102
40
0.690475122980841
40
0.736284923976387
40
0.781557046257837
40
0.826295553659344
40
0.870504657508971
40
0.914188722584628
40
0.957352273282715
40
1
40
1
40
1
40
1
41
1
10
-6.44422637846895
20
14.8568455311625
30
0
41
1
10
-6.42844434512904
20
14.8723113986254
30
0
41
1
10
-6.39714835637642
20
14.9029804261039
30
0
41
1
10
-6.34862767457798
20
14.9464963503899
30
0
41
1
10
-6.29962092843698
20
14.9877192838063
30
0
41
1
10
-6.25011306269795
20
15.0265445512966
30
0
41
1
10
-6.20026570567751
20
15.0630550784846
30
0
41
1
10
-6.15018728905284
20
15.097290794229
30
0
41
1
10
-6.09999298147369
20
15.1293082037864
30
0
41
1
10
-6.04978904320785
20
15.1591642750869
30
0
41
1
10
-5.99967692337151
20
15.1869200847862
30
0
41
1
10
-5.94975224143042
20
15.212639336752
30
0
41
1
10
-5.90010512903564
20
15.2363882399347
30
0
41
1
10
-5.85082024270082
20
15.2582350563401
30
0
41
1
10
-5.80197688471401
20
15.2782497592229
30
0
41
1
10
-5.75364911610177
20
15.296503687134
30
0
41
1
10
-5.70590588958692
20
15.313069223563
30
0
41
1
10
-5.65881119310797
20
15.3280194943096
30
0
41
1
10
-5.6124242042867
20
15.3414280843662
30
0
41
1
10
-5.5667994537842
20
15.3533687734793
30
0
41
1
10
-5.52198699624802
20
15.3639152901284
30
0
41
1
10
-5.47803258739754
20
15.3731410834574
30
0
41
1
10
-5.43497786618519
20
15.3811191125629
30
0
41
1
10
-5.39286054011433
20
15.3879216528874
30
0
41
1
10
-5.35171457522193
20
15.3936201179905
30
0
41
1
10
-5.31157038033456
20
15.3982849000654
30
0
41
1
10
-5.27245501822057
20
15.4019852141728
30
0
41
1
10
-5.23439232265645
20
15.4047889968749
30
0
41
1
10
-5.19740334995163
20
15.4067626749324
30
0
41
1
10
-5.16150563158823
20
15.4079714588579
30
0
41
1
10
-5.09121121284534
20
15.4089946180331
30
0
41
1
10
-4.98663149532962
20
15.4055854887749
30
0
41
1
10
-4.8487239521113
20
15.3906676511908
30
0
41
1
10
-4.71387909767492
20
15.3658227401552
30
0
41
1
10
-4.58277276533516
20
15.3315169830215
30
0
41
1
10
-4.45601472024993
20
15.2882518923698
30
0
41
1
10
-4.33415483208177
20
15.2365644306525
30
0
41
1
10
-4.21769791206441
20
15.1770021780972
30
0
41
1
10
-4.1070370442514
20
15.1101852502417
30
0
41
1
10
-4.00270194056878
20
15.0365528592545
30
0
41
1
10
-3.90445105082199
20
14.9572668107604
30
0
41
1
10
-3.84419374038953
20
14.89932659216
30
0
41
1
10
-3.81424619287077
20
14.8705306263704
30
0
0
SPLINE
5
C5
100
AcDbEntity
8
1
62
256
6
ByLayer
370
18
48
1
60
0
100
AcDbSpline
70
4
71
3
72
10
73
6
40
0
40
0
40
0
40
0
40
0.5
40
0.5
40
1
40
1
40
1
40
1
41
1
10
-13.1295885896176
20
3.76797584017461
30
0
41
1
10
-13.1830963925324
20
3.71446803725985
30
0
41
1
10
-13.2367402707964
20
3.66082415899581
30
0
41
1
10
-13.3420872875566
20
3.55547714223567
30
0
41
1
10
-13.3940817441033
20
3.50348268568894
30
0
41
1
10
-13.4455612007783
20
3.452003229014
30
0
0
SPLINE
5
C6
100
AcDbEntity
8
1
62
256
6
ByLayer
370
18
48
1
60
0
100
AcDbSpline
70
4
71
3
72
10
73
6
40
0
40
0
40
0
40
0
40
0.5
40
0.5
40
1
40
1
40
1
40
1
41
1
10
-12.7913960642816
20
5.89338075495959
30
0
41
1
10
-12.8622490714025
20
5.91236576099897
30
0
41
1
10
-12.9341483683381
20
5.93163111954922
30
0
41
1
10
-13.0782355936241
20
5.97023917520426
30
0
41
1
10
-13.1504988323625
20
5.98960205166665
30
0
41
1
10
-13.2230226780272
20
6.0090347575445
30
0
0
SPLINE
5
C7
100
AcDbEntity
8
1
62
256
6
ByLayer
370
18
48
1
60
0
100
AcDbSpline
70
4
71
3
72
10
73
6
40
0
40
0
40
0
40
0
40
0.5
40
0.5
40
1
40
1
40
1
40
1
41
1
10
-14.8550911725765
20
3.82968564666478
30
0
41
1
10
-14.7842381654556
20
3.81070064062544
30
0
41
1
10
-14.71233886852
20
3.79143528207516
30
0
41
1
10
-14.568251643234
20
3.75282722642012
30
0
41
1
10
-14.4959884044956
20
3.73346434995773
30
0
41
1
10
-14.423464558831
20
3.71403164407988
30
0
0
SPLINE
5
C8
100
AcDbEntity
8
1
62
256
6
ByLayer
370
18
48
1
60
0
100
AcDbSpline
70
4
71
3
72
8
73
4
40
0
40
0
40
0
40
0
40
1
40
1
40
1
40
1
41
1
10
-12.4137136466309
20
4.48385078316142
30
0
41
1
10
-12.5169854494367
20
4.38057898035558
30
0
41
1
10
-12.6233705703726
20
4.27419385941965
30
0
41
1
10
-12.7296862577915
20
4.16787817200077
30
0
0
SPLINE
5
C9
100
AcDbEntity
8
1
62
256
6
ByLayer
370
18
48
1
60
0
100
AcDbSpline
70
4
71
3
72
10
73
6
40
0
40
0
40
0
40
0
40
0.5
40
0.5
40
1
40
1
40
1
40
1
41
1
10
-14.9168009790666
20
5.55518822962361
30
0
41
1
10
-14.9703087819814
20
5.50168042670884
30
0
41
1
10
-15.0239526602455
20
5.4480365484448
30
0
41
1
10
-15.1292996770056
20
5.34268953168467
30
0
41
1
10
-15.1812941335523
20
5.29069507513793
30
0
41
1
10
-15.2327735902273
20
5.23921561846299
30
0
0
SPLINE
5
CA
100
AcDbEntity
8
1
62
256
6
ByLayer
370
18
48
1
60
0
100
AcDbSpline
70
4
71
3
72
8
73
4
40
0
40
0
40
0
40
0
40
1
40
1
40
1
40
1
41
1
10
-12.6757420616967
20
5.46175414121407
30
0
41
1
10
-12.7152377363926
20
5.60915400585833
30
0
41
1
10
-12.7536457419978
20
5.75249463419414
30
0
41
1
10
-12.7913960642816
20
5.89338075495959
30
0
0
SPLINE
5
CB
100
AcDbEntity
8
1
62
256
6
ByLayer
370
18
48
1
60
0
100
AcDbSpline
70
4
71
3
72
8
73
4
40
0
40
0
40
0
40
0
40
1
40
1
40
1
40
1
41
1
10
-14.2009260360799
20
6.27106317261041
30
0
41
1
10
-14.3041978388851
20
6.16779136980517
30
0
41
1
10
-14.4105829598204
20
6.06140624886984
30
0
41
1
10
-14.5168986472387
20
5.95509056145158
30
0
0
SPLINE
5
CC
100
AcDbEntity
8
1
62
256
6
ByLayer
370
18
48
1
60
0
100
AcDbSpline
70
4
71
3
72
8
73
4
40
0
40
0
40
0
40
0
40
1
40
1
40
1
40
1
41
1
10
-13.8771878145238
20
3.56765723159887
30
0
41
1
10
-13.7297879498795
20
3.528161556903
30
0
41
1
10
-13.5864473215437
20
3.48975355129784
30
0
41
1
10
-13.4455612007783
20
3.452003229014
30
0
0
SPLINE
5
CD
100
AcDbEntity
8
1
62
256
6
ByLayer
370
18
48
1
60
0
100
AcDbSpline
70
4
71
3
72
8
73
4
40
0
40
0
40
0
40
0
40
1
40
1
40
1
40
1
41
1
10
-13.7692994223343
20
6.15540917002551
30
0
41
1
10
-13.9166992869785
20
6.19490484472138
30
0
41
1
10
-14.0600399153144
20
6.23331285032654
30
0
41
1
10
-14.2009260360799
20
6.27106317261041
30
0
0
SPLINE
5
CE
100
AcDbEntity
8
1
62
256
6
ByLayer
370
18
48
1
60
0
100
AcDbSpline
70
4
71
3
72
8
73
4
40
0
40
0
40
0
40
0
40
1
40
1
40
1
40
1
41
1
10
-14.9707451751614
20
4.26131226041031
30
0
41
1
10
-14.9312495004655
20
4.11391239576608
30
0
41
1
10
-14.8928414948604
20
3.97057176743027
30
0
41
1
10
-14.8550911725765
20
3.82968564666478
30
0
0
SPLINE
5
CF
100
AcDbEntity
8
1
62
256
6
ByLayer
370
18
48
1
60
0
100
AcDbSpline
70
4
71
3
72
10
73
6
40
0
40
0
40
0
40
0
40
0.5
40
0.5
40
1
40
1
40
1
40
1
41
1
10
-12.4137136466309
20
4.48385078316142
30
0
41
1
10
-12.4326986526702
20
4.55470379028225
30
0
41
1
10
-12.4519640112205
20
4.62660308721789
30
0
41
1
10
-12.4905720668755
20
4.77069031250392
30
0
41
1
10
-12.5099349433379
20
4.84295355124229
30
0
41
1
10
-12.5293676492158
20
4.91547739690694
30
0
0
SPLINE
5
D0
100
AcDbEntity
8
1
62
256
6
ByLayer
370
18
48
1
60
0
100
AcDbSpline
70
4
71
3
72
10
73
6
40
0
40
0
40
0
40
0
40
0.5
40
0.5
40
1
40
1
40
1
40
1
41
1
10
-15.2327735902273
20
5.23921561846299
30
0
41
1
10
-15.2137885841879
20
5.16836261134213
30
0
41
1
10
-15.1945232256376
20
5.09646331440649
30
0
41
1
10
-15.1559151699826
20
4.95237608912049
30
0
41
1
10
-15.1365522935202
20
4.88011285038212
30
0
41
1
10
-15.1171195876424
20
4.80758900471744
30
0
0
LINE
5
72
100
AcDbEntity
8
SK1
62
256
6
ByLayer
370
18
48
1
60
0
100
AcDbLine
10
-10.771902
20
13.845149
30
0
11
-12.059224
21
15.132471
31
0
39
0
210
0
220
0
230
1
0
LINE
5
74
100
AcDbEntity
8
SK1
62
256
6
ByLayer
370
18
48
1
60
0
100
AcDbLine
10
-3.552305
20
6.625552
30
0
11
-4.839628
21
7.912875
31
0
39
0
210
0
220
0
230
1
0
LINE
5
75
100
AcDbEntity
8
SK1
62
256
6
ByLayer
370
18
48
1
60
0
100
AcDbLine
10
-10.735513
20
14.575824
30
0
11
-11.572925
21
15.413236
31
0
39
0
210
0
220
0
230
1
0
LINE
5
76
100
AcDbEntity
8
SK1
62
256
6
ByLayer
370
18
48
1
60
0
100
AcDbLine
10
-3.27154
20
7.111852
30
0
11
-4.108953
21
7.949264
31
0
39
0
210
0
220
0
230
1
0
LINE
5
77
100
AcDbEntity
8
SK1
62
256
6
ByLayer
370
18
48
1
60
0
100
AcDbLine
10
-4.090731
20
7.951322
30
0
11
-3.264118
21
7.124708
31
0
39
0
210
0
220
0
230
1
0
LINE
5
78
100
AcDbEntity
8
SK1
62
256
6
ByLayer
370
18
48
1
60
0
100
AcDbLine
10
-11.560069
20
15.420659
30
0
11
-10.733455
21
14.594046
31
0
39
0
210
0
220
0
230
1
0
LINE
5
79
100
AcDbEntity
8
SK1
62
256
6
ByLayer
370
18
48
1
60
0
100
AcDbLine
10
-10.640353
20
15.163671
30
0
11
-11.139916
21
15.663234
31
0
39
0
210
0
220
0
230
1
0
LINE
5
7A
100
AcDbEntity
8
SK1
62
256
6
ByLayer
370
18
48
1
60
0
100
AcDbLine
10
-3.021542
20
7.544861
30
0
11
-3.521106
21
8.044424
31
0
39
0
210
0
220
0
230
1
0
LINE
5
7B
100
AcDbEntity
8
SK1
62
256
6
ByLayer
370
18
48
1
60
0
100
AcDbLine
10
-3.504038
20
8.048067
30
0
11
-3.013962
21
7.557991
31
0
39
0
210
0
220
0
230
1
0
LINE
5
7C
100
AcDbEntity
8
SK1
62
256
6
ByLayer
370
18
48
1
60
0
100
AcDbLine
10
-11.126786
20
15.670815
30
0
11
-10.636709
21
15.180739
31
0
39
0
210
0
220
0
230
1
0
LINE
5
7D
100
AcDbEntity
8
SK1
62
256
6
ByLayer
370
18
48
1
60
0
100
AcDbLine
10
-3.552305
20
6.625552
30
0
11
-3.27154
21
7.111852
31
0
39
0
210
0
220
0
230
1
0
LINE
5
7E
100
AcDbEntity
8
SK1
62
256
6
ByLayer
370
18
48
1
60
0
100
AcDbLine
10
-4.985427
20
4.143313
30
0
11
-5.155689
21
3.84841
31
0
39
0
210
0
220
0
230
1
0
LINE
5
7F
100
AcDbEntity
8
SK1
62
256
6
ByLayer
370
18
48
1
60
0
100
AcDbLine
10
-14.836367
20
13.529087
30
0
11
-15.052954
21
13.404041
31
0
39
0
210
0
220
0
230
1
0
LINE
5
80
100
AcDbEntity
8
SK1
62
256
6
ByLayer
370
18
48
1
60
0
100
AcDbLine
10
-11.572925
20
15.413236
30
0
11
-11.560069
21
15.420659
31
0
39
0
210
0
220
0
230
1
0
LINE
5
81
100
AcDbEntity
8
SK1
62
256
6
ByLayer
370
18
48
1
60
0
100
AcDbLine
10
-3.013962
20
7.557991
30
0
11
-3.021542
21
7.544861
31
0
39
0
210
0
220
0
230
1
0
LINE
5
82
100
AcDbEntity
8
SK1
62
256
6
ByLayer
370
18
48
1
60
0
100
AcDbLine
10
-3.264118
20
7.124708
30
0
11
-3.021542
21
7.544861
31
0
39
0
210
0
220
0
230
1
0
LINE
5
83
100
AcDbEntity
8
SK1
62
256
6
ByLayer
370
18
48
1
60
0
100
AcDbLine
10
-4.985427
20
4.143313
30
0
11
-14.541464
21
13.69935
31
0
39
0
210
0
220
0
230
1
0
LINE
5
84
100
AcDbEntity
8
SK1
62
256
6
ByLayer
370
18
48
1
60
0
100
AcDbLine
10
-14.541464
20
13.69935
30
0
11
-14.836367
21
13.529087
31
0
39
0
210
0
220
0
230
1
0
LINE
5
85
100
AcDbEntity
8
SK1
62
256
6
ByLayer
370
18
48
1
60
0
100
AcDbLine
10
-5.155689
20
3.84841
30
0
11
-14.836367
21
13.529087
31
0
39
0
210
0
220
0
230
1
0
LINE
5
86
100
AcDbEntity
8
SK1
62
256
6
ByLayer
370
18
48
1
60
0
100
AcDbLine
10
-170.122277
20
-12.4375
30
0
11
-14.558364
21
-12.4375
31
0
39
0
210
0
220
0
230
1
0
LINE
5
87
100
AcDbEntity
8
SK1
62
256
6
ByLayer
370
18
48
1
60
0
100
AcDbLine
10
-11.126786
20
15.670815
30
0
11
-11.139916
21
15.663234
31
0
39
0
210
0
220
0
230
1
0
LINE
5
88
100
AcDbEntity
8
SK1
62
256
6
ByLayer
370
18
48
1
60
0
100
AcDbLine
10
-14.414669
20
13.772555
30
0
11
-14.541464
21
13.69935
31
0
39
0
210
0
220
0
230
1
0
LINE
5
89
100
AcDbEntity
8
SK1
62
256
6
ByLayer
370
18
48
1
60
0
100
AcDbLine
10
-11.560069
20
15.420659
30
0
11
-11.139916
21
15.663234
31
0
39
0
210
0
220
0
230
1
0
LINE
5
8A
100
AcDbEntity
8
SK1
62
256
6
ByLayer
370
18
48
1
60
0
100
AcDbLine
10
-170.122277
20
12.4375
30
0
11
-170.122277
21
-12.4375
31
0
39
0
210
0
220
0
230
1
0
LINE
5
8B
100
AcDbEntity
8
SK1
62
256
6
ByLayer
370
18
48
1
60
0
100
AcDbLine
10
-170.122277
20
12.4375
30
0
11
-22.981381
21
12.4375
31
0
39
0
210
0
220
0
230
1
0
LINE
5
8C
100
AcDbEntity
8
SK1
62
256
6
ByLayer
370
18
48
1
60
0
100
AcDbLine
10
-3.27154
20
7.111852
30
0
11
-3.264118
21
7.124708
31
0
39
0
210
0
220
0
230
1
0
LINE
5
8D
100
AcDbEntity
8
SK1
62
256
6
ByLayer
370
18
48
1
60
0
100
AcDbLine
10
-4.912222
20
4.270108
30
0
11
-4.985427
21
4.143313
31
0
39
0
210
0
220
0
230
1
0
LINE
5
8E
100
AcDbEntity
8
SK1
62
256
6
ByLayer
370
18
48
1
60
0
100
AcDbLine
10
-5.155689
20
3.84841
30
0
11
-14.558364
21
-12.4375
31
0
39
0
210
0
220
0
230
1
0
LINE
5
8F
100
AcDbEntity
8
SK1
62
256
6
ByLayer
370
18
48
1
60
0
100
AcDbLine
10
-12.059224
20
15.132471
30
0
11
-11.572925
21
15.413236
31
0
39
0
210
0
220
0
230
1
0
LINE
5
90
100
AcDbEntity
8
SK1
62
256
6
ByLayer
370
18
48
1
60
0
100
AcDbLine
10
-12.059224
20
15.132471
30
0
11
-14.414669
21
13.772555
31
0
39
0
210
0
220
0
230
1
0
LINE
5
91
100
AcDbEntity
8
SK1
62
256
6
ByLayer
370
18
48
1
60
0
100
AcDbLine
10
-14.414669
20
13.772555
30
0
11
-4.912222
21
4.270108
31
0
39
0
210
0
220
0
230
1
0
LINE
5
92
100
AcDbEntity
8
SK1
62
256
6
ByLayer
370
18
48
1
60
0
100
AcDbLine
10
-3.552305
20
6.625552
30
0
11
-4.912222
21
4.270108
31
0
39
0
210
0
220
0
230
1
0
LINE
5
93
100
AcDbEntity
8
1
62
256
6
ByLayer
370
18
48
1
60
0
100
AcDbLine
10
-4.663576
20
11.404905
30
0
11
-3.827931
21
12.24055
31
0
39
0
210
0
220
0
230
1
0
LINE
5
94
100
AcDbEntity
8
1
62
256
6
ByLayer
370
18
48
1
60
0
100
AcDbLine
10
-7.279871
20
14.0212
30
0
11
-6.444226
21
14.856846
31
0
39
0
210
0
220
0
230
1
0
LINE
5
95
100
AcDbEntity
8
80
62
256
6
ByLayer
370
18
48
1
60
0
100
AcDbLine
10
0
20
0
30
0
11
-5
21
0
31
0
39
0
210
0
220
0
230
1
0
LINE
5
96
100
AcDbEntity
8
81
62
256
6
ByLayer
370
18
48
1
60
0
100
AcDbLine
10
-0.122277
20
19.5625
30
0
11
9.877723
21
19.5625
31
0
39
0
210
0
220
0
230
1
0
LINE
5
97
100
AcDbEntity
8
1
62
256
6
ByLayer
370
18
48
1
60
0
100
AcDbLine
10
-6.232097
20
14.644711
30
0
11
-7.045816
21
13.830992
31
0
39
0
210
0
220
0
230
1
0
LINE
5
98
100
AcDbEntity
8
1
62
256
6
ByLayer
370
18
48
1
60
0
100
AcDbLine
10
-3.827931
20
12.24055
30
0
11
-3.627506
21
12.440975
31
0
39
0
210
0
220
0
230
1
0
LINE
5
99
100
AcDbEntity
8
1
62
256
6
ByLayer
370
18
48
1
60
0
100
AcDbLine
10
-6.444226
20
14.856846
30
0
11
-6.243801
21
15.057271
31
0
39
0
210
0
220
0
230
1
0
LINE
5
9A
100
AcDbEntity
8
1
62
256
6
ByLayer
370
18
48
1
60
0
100
AcDbLine
10
-4.040066
20
12.45268
30
0
11
-4.853785
21
11.638961
31
0
39
0
210
0
220
0
230
1
0
MTEXT
5
D1
100
AcDbEntity
8
SK6
62
256
6
ByLayer
370
13
48
1
60
0
100
AcDbMText
10
-138.742077
20
-37.499425
30
0
210
0
220
0
230
1
1
\W0.7472;PRGCR 3225P 12
40
3.5
41
0
44
1.084337
50
0
71
7
72
5
7
iso_b_vert
0
DIMENSION
5
E3
100
AcDbEntity
8
SK2
62
256
6
ByLayer
370
13
48
1
60
0
100
AcDbDimension
2
DimnDraft3D1
10
-179.872277
20
-12.4375
30
0
11
-179.872277
21
0.0625
31
0
70
32
71
5
72
1
41
1
210
0
220
0
230
1
3
Standard
100
AcDbAlignedDimension
13
-171.709777
23
12.5625
33
0
14
-171.709777
24
-12.4375
34
0
50
90
100
AcDbRotatedDimension
1001
ACAD
1000
DSTYLE
1002
{
1070
    74
1070
     0
1070
   279
1070
     0
1070
   172
1070
     1
1070
   173
1070
     1
1070
   340
1005
D2
1070
   271
1070
     1
1070
   272
1070
     2
1070
    77
1070
     1
1070
    73
1070
     0
1070
   171
1070
     3
1070
   274
1070
     4
1070
   177
1070
   150
1070
   176
1070
     9
1070
   178
1070
    43
1070
    78
1070
     8
1070
    48
1040
-0.005
1070
    41
1041
3.175
1070
   147
1041
2.25
1070
    42
1041
1.5875
1070
    44
1041
3.175
1070
   140
1041
4.5
1070
   343
1005
E4
1070
   344
1005
E4
1002
}
0
DIMENSION
5
F9
100
AcDbEntity
8
2
62
256
6
ByLayer
370
13
48
1
60
0
100
AcDbDimension
2
DimnDraft3D2
10
17.727723
20
19.9125
30
0
11
17.727723
21
3.7375
31
0
70
32
71
5
72
1
41
1
210
0
220
0
230
1
3
Standard
100
AcDbAlignedDimension
13
-21.393881
23
-12.4375
33
0
14
2.815223
24
19.9125
34
0
50
90
100
AcDbRotatedDimension
1001
ACAD
1000
DSTYLE
1002
{
1070
    74
1070
     0
1070
   279
1070
     0
1070
   172
1070
     1
1070
   173
1070
     1
1070
   340
1005
D2
1070
   271
1070
     1
1070
   272
1070
     2
1070
    77
1070
     1
1070
    73
1070
     0
1070
   171
1070
     3
1070
   274
1070
     4
1070
   177
1070
   150
1070
   176
1070
     9
1070
   178
1070
    43
1070
    78
1070
     8
1070
    48
1040
-0.005
1070
    41
1041
3.175
1070
   147
1041
2.25
1070
    42
1041
1.5875
1070
    44
1041
3.175
1070
   140
1041
4.5
1070
   343
1005
E4
1070
   344
1005
E4
1002
}
0
DIMENSION
5
107
100
AcDbEntity
8
SK2
62
256
6
ByLayer
370
13
48
1
60
0
100
AcDbDimension
2
DimnDraft3D3
10
1.227723
20
37.4125
30
0
11
-84.447277
21
37.4125
31
0
70
32
71
5
72
1
41
1
210
0
220
0
230
1
3
Standard
100
AcDbAlignedDimension
13
-170.122277
23
14.15
33
0
14
1.227723
24
21.5
34
0
50
0
100
AcDbRotatedDimension
1001
ACAD
1000
DSTYLE
1002
{
1070
   279
1070
     0
1070
   172
1070
     1
1070
   173
1070
     1
1070
   340
1005
D2
1070
   271
1070
     1
1070
   272
1070
     2
1070
    77
1070
     1
1070
    73
1070
     0
1070
   171
1070
     3
1070
   274
1070
     4
1070
   177
1070
   150
1070
   176
1070
     9
1070
   178
1070
    43
1070
    78
1070
     8
1070
    48
1040
-0.005
1070
    41
1041
3.175
1070
   147
1041
2.25
1070
    42
1041
1.5875
1070
    44
1041
3.175
1070
   140
1041
4.5
1070
   343
1005
E4
1070
   344
1005
E4
1002
}
0
ENDSEC
0
SECTION
2
OBJECTS
0
DICTIONARY
5
171
330
0
100
AcDbDictionary
280
0
281
1
3
ACAD_GROUP
350
172
3
ACAD_MLINESTYLE
350
173
0
DICTIONARY
5
172
330
0
100
AcDbDictionary
280
0
281
1
0
DICTIONARY
5
173
330
0
100
AcDbDictionary
280
0
281
1
3
Standard
350
18
0
MLINESTYLE
5
18
330
173
100
AcDbMlineStyle
2
Standard
70
0
3

62
256
51
90
52
90
71
2
49
-0.5
62
256
6
ByLayer
49
0.5
62
256
6
ByLayer
0
RASTERVARIABLES
5
160
330

100
AcDbRasterVariables
90
0
70
1
71
1
72
1
0
ENDSEC
0
EOF
