0
SECTION
2
HEADER
9
$ACADVER
1
AC1015
9
$DWGCODEPAGE
3
ANSI_1252
9
$HANDSEED
5
17a
9
$ANGBASE
50
0
9
$ANGDIR
70
0
9
$ATTMODE
70
1
9
$AUNITS
70
0
9
$AUPREC
70
0
9
$CECOLOR
62
256
9
$CELTSCALE
40
1
9
$CELTYPE
6
ByLayer
9
$CELWEIGHT
370
18
9
$CLAYER
8
0
9
$CMLJUST
70
0
9
$CMLSCALE
40
1
9
$CMLSTYLE
2
Standard
9
$DIMSTYLE
2
Standard
9
$TEXTSIZE
40
0.2
9
$TEXTSTYLE
7
Standard
9
$LUNITS
70
2
9
$LUPREC
70
4
9
$EXTNAMES
290
1
9
$INSUNITS
70
4
9
$LTSCALE
40
1
9
$LWDISPLAY
290
1
9
$PDMODE
70
0
9
$PDSIZE
40
0
9
$PLINEGEN
70
0
0
ENDSEC
0
SECTION
2
CLASSES
0
CLASS
1
RASTERVARIABLES
2
AcDbRasterVariables
3
ISM
90
0
280
0
281
0
0
ENDSEC
0
SECTION
2
TABLES
0
TABLE
2
VPORT
5
170
100
AcDbSymbolTable
0
VPORT
5
1
100
AcDbSymbolTableRecord
100
AcDbViewportTableRecord
2
*Active
70
0
10
0
20
0
11
1
21
1
12
-1
22
1
13
0
23
0
14
0.5
24
0.5
15
10
25
10
16
0
26
0
36
1
17
0
27
0
37
0
0
ENDTAB
0
TABLE
2
LTYPE
5
171
100
AcDbSymbolTable
0
LTYPE
5
14
100
AcDbSymbolTableRecord
100
AcDbLinetypeTableRecord
70
0
2
ByBlock
3

72
65
73
0
40
0
0
LTYPE
5
15
100
AcDbSymbolTableRecord
100
AcDbLinetypeTableRecord
70
0
2
ByLayer
3

72
65
73
0
40
0
0
LTYPE
5
16
100
AcDbSymbolTableRecord
100
AcDbLinetypeTableRecord
70
0
2
CONTINUOUS
3
Solid line
72
65
73
0
40
0
0
LTYPE
5
6A
100
AcDbSymbolTableRecord
100
AcDbLinetypeTableRecord
70
0
2
CENTER
3
____ _ ____ _ ____ _ ____
72
65
73
4
40
47.5
49
22
74
0
49
-8.5
74
0
49
8.5
74
0
49
-8.5
74
0
0
LTYPE
5
6B
100
AcDbSymbolTableRecord
100
AcDbLinetypeTableRecord
70
0
2
DASHED
3
__ __ __ __ __ __ __ __ __
72
65
73
2
40
25.72
49
12.86
74
0
49
-12.86
74
0
0
ENDTAB
0
TABLE
2
LAYER
5
172
100
AcDbSymbolTable
0
LAYER
5
10
100
AcDbSymbolTableRecord
100
AcDbLayerTableRecord
2
0
70
0
62
7
6
CONTINUOUS
290
1
370
-3
390
0
0
LAYER
5
6D
100
AcDbSymbolTableRecord
100
AcDbLayerTableRecord
2
80
70
0
62
-6
6
CONTINUOUS
290
1
370
-3
390
0
0
LAYER
5
6F
100
AcDbSymbolTableRecord
100
AcDbLayerTableRecord
2
81
70
0
62
-3
6
CONTINUOUS
290
1
370
-3
390
0
0
LAYER
5
71
100
AcDbSymbolTableRecord
100
AcDbLayerTableRecord
2
1
70
0
62
4
6
CONTINUOUS
290
1
370
-3
390
0
0
LAYER
5
73
100
AcDbSymbolTableRecord
100
AcDbLayerTableRecord
2
2
70
0
62
7
6
CONTINUOUS
290
1
370
-3
390
0
0
LAYER
5
15d
100
AcDbSymbolTableRecord
100
AcDbLayerTableRecord
2
SK1
70
0
62
4
6
CONTINUOUS
290
1
370
-3
390
0
0
LAYER
5
15e
100
AcDbSymbolTableRecord
100
AcDbLayerTableRecord
2
SK6
70
0
62
5
6
CONTINUOUS
290
1
370
-3
390
0
0
LAYER
5
15f
100
AcDbSymbolTableRecord
100
AcDbLayerTableRecord
2
SK2
70
0
62
7
6
CONTINUOUS
290
1
370
-3
390
0
0
ENDTAB
0
TABLE
2
STYLE
5
173
100
AcDbSymbolTable
0
STYLE
5
11
100
AcDbSymbolTableRecord
100
AcDbTextStyleTableRecord
2
Standard
3
txt
70
0
71
0
40
0
41
1
42
0
50
0
0
STYLE
5
CF
100
AcDbSymbolTableRecord
100
AcDbTextStyleTableRecord
2
iso_b_vert
3
simplex.shx
70
0
71
0
40
0
41
1
42
0
50
0
0
STYLE
5
D0
100
AcDbSymbolTableRecord
100
AcDbTextStyleTableRecord
2
DWGDirectTextStyle
3
simplex
70
0
71
0
40
0
41
1
42
0
50
0
0
ENDTAB
0
TABLE
2
DIMSTYLE
5
174
100
AcDbSymbolTable
100
AcDbDimStyleTable
0
DIMSTYLE
105
27
100
AcDbSymbolTableRecord
100
AcDbDimStyleTableRecord
2
Standard
70
0
3
<>
41
0.18
42
0.0625
44
0.18
140
0.18
147
0.09
73
0
74
0
77
1
271
2
275
0
278
52
280
0
340
11
0
ENDTAB
0
TABLE
2
VIEW
5
175
100
AcDbSymbolTable
0
ENDTAB
0
TABLE
2
UCS
5
176
100
AcDbSymbolTable
0
ENDTAB
0
TABLE
2
APPID
5
177
100
AcDbSymbolTable
0
APPID
5
12
100
AcDbSymbolTableRecord
100
AcDbRegAppTableRecord
2
ACAD
70
0
0
ENDTAB
0
TABLE
2
BLOCK_RECORD
5
178
100
AcDbSymbolTable
0
BLOCK_RECORD
5
1F
100
AcDbSymbolTableRecord
100
AcDbBlockTableRecord
2
*Model_Space
340
0
70
0
0
BLOCK_RECORD
5
1B
100
AcDbSymbolTableRecord
100
AcDbBlockTableRecord
2
*Paper_Space
340
0
70
0
0
BLOCK_RECORD
5
23
100
AcDbSymbolTableRecord
100
AcDbBlockTableRecord
2
*Paper_Space0
340
0
70
0
0
BLOCK_RECORD
5
D2
100
AcDbSymbolTableRecord
100
AcDbBlockTableRecord
2
DimnDraft3D1
340
0
70
0
0
BLOCK_RECORD
5
E1
100
AcDbSymbolTableRecord
100
AcDbBlockTableRecord
2
_CLOSED
340
0
70
0
0
BLOCK_RECORD
5
E8
100
AcDbSymbolTableRecord
100
AcDbBlockTableRecord
2
DimnDraft3D2
340
0
70
0
0
BLOCK_RECORD
5
F6
100
AcDbSymbolTableRecord
100
AcDbBlockTableRecord
2
DimnDraft3D3
340
0
70
0
0
ENDTAB
0
ENDSEC
0
SECTION
2
BLOCKS
0
BLOCK
5
20
100
AcDbEntity
8
0
100
AcDbBlockBegin
2
*Model_Space
70
0
10
0
20
0
30
0
3
*Model_Space
0
ENDBLK
5
21
100
AcDbEntity
8
0
100
AcDbBlockEnd
0
BLOCK
5
1C
100
AcDbEntity
8
0
100
AcDbBlockBegin
2
*Paper_Space
70
0
10
0
20
0
30
0
3
*Paper_Space
0
ENDBLK
5
1D
100
AcDbEntity
8
0
100
AcDbBlockEnd
0
BLOCK
5
24
100
AcDbEntity
8
0
100
AcDbBlockBegin
2
*Paper_Space0
70
0
10
0
20
0
30
0
3
*Paper_Space0
0
ENDBLK
5
25
100
AcDbEntity
8
0
100
AcDbBlockEnd
0
BLOCK
5
DE
100
AcDbEntity
8
0
100
AcDbBlockBegin
2
DimnDraft3D1
70
0
10
0
20
0
30
0
3
DimnDraft3D1
0
MTEXT
5
D3
100
AcDbEntity
8
SK2
62
256
6
ByLayer
370
13
48
1
60
0
100
AcDbMText
10
-160.997277
20
-1.500658
30
0
210
0
220
0
230
1
1
\W0.6740;25
40
4.5
41
0
44
1.084337
50
90
71
7
72
5
7
iso_b_vert
0
LINE
5
D5
100
AcDbEntity
8
SK2
62
256
6
ByLayer
370
13
48
1
60
0
100
AcDbLine
10
-151.709777
20
12.5625
30
0
11
-163.047277
21
12.5625
31
0
39
0
210
0
220
0
230
1
0
LINE
5
D6
100
AcDbEntity
8
SK2
62
256
6
ByLayer
370
13
48
1
60
0
100
AcDbLine
10
-151.709777
20
-12.4375
30
0
11
-163.047277
21
-12.4375
31
0
39
0
210
0
220
0
230
1
0
LINE
5
D7
100
AcDbEntity
8
SK2
62
256
6
ByLayer
370
13
48
1
60
0
100
AcDbLine
10
-159.872277
20
12.5625
30
0
11
-159.872277
21
-12.4375
31
0
39
0
210
0
220
0
230
1
0
LINE
5
D8
100
AcDbEntity
8
SK2
62
256
6
ByLayer
370
13
48
1
60
0
100
AcDbLine
10
-159.872277
20
12.5625
30
0
11
-159.021538
21
9.387503
31
0
39
0
210
0
220
0
230
1
0
LINE
5
D9
100
AcDbEntity
8
SK2
62
256
6
ByLayer
370
13
48
1
60
0
100
AcDbLine
10
-159.872277
20
12.5625
30
0
11
-160.723016
21
9.387497
31
0
39
0
210
0
220
0
230
1
0
LINE
5
DA
100
AcDbEntity
8
SK2
62
256
6
ByLayer
370
13
48
1
60
0
100
AcDbLine
10
-159.021538
20
9.387503
30
0
11
-160.723016
21
9.387497
31
0
39
0
210
0
220
0
230
1
0
LINE
5
DB
100
AcDbEntity
8
SK2
62
256
6
ByLayer
370
13
48
1
60
0
100
AcDbLine
10
-159.872277
20
-12.4375
30
0
11
-160.723016
21
-9.262503
31
0
39
0
210
0
220
0
230
1
0
LINE
5
DC
100
AcDbEntity
8
SK2
62
256
6
ByLayer
370
13
48
1
60
0
100
AcDbLine
10
-159.872277
20
-12.4375
30
0
11
-159.021538
21
-9.262497
31
0
39
0
210
0
220
0
230
1
0
LINE
5
DD
100
AcDbEntity
8
SK2
62
256
6
ByLayer
370
13
48
1
60
0
100
AcDbLine
10
-160.723016
20
-9.262503
30
0
11
-159.021538
21
-9.262497
31
0
39
0
210
0
220
0
230
1
0
ENDBLK
5
DF
100
AcDbEntity
8
0
100
AcDbBlockEnd
0
BLOCK
5
E2
100
AcDbEntity
8
0
100
AcDbBlockBegin
2
_CLOSED
70
0
10
0
20
0
30
0
3
_CLOSED
0
LINE
5
E4
100
AcDbEntity
8
0
62
256
6
ByLayer
370
-2
48
1
60
0
100
AcDbLine
10
-1
20
0.166667
30
0
11
0
21
0
31
0
39
0
210
0
220
0
230
1
0
LINE
5
E5
100
AcDbEntity
8
0
62
256
6
ByLayer
370
-2
48
1
60
0
100
AcDbLine
10
0
20
0
30
0
11
-1
21
-0.166667
31
0
39
0
210
0
220
0
230
1
0
LINE
5
E6
100
AcDbEntity
8
0
62
256
6
ByLayer
370
-2
48
1
60
0
100
AcDbLine
10
-1
20
0.166667
30
0
11
-1
21
-0.166667
31
0
39
0
210
0
220
0
230
1
0
LINE
5
E7
100
AcDbEntity
8
0
62
256
6
ByLayer
370
-2
48
1
60
0
100
AcDbLine
10
0
20
0
30
0
11
-1
21
0
31
0
39
0
210
0
220
0
230
1
0
ENDBLK
5
E3
100
AcDbEntity
8
0
100
AcDbBlockEnd
0
BLOCK
5
F3
100
AcDbEntity
8
0
100
AcDbBlockBegin
2
DimnDraft3D2
70
0
10
0
20
0
30
0
3
DimnDraft3D2
0
MTEXT
5
E9
100
AcDbEntity
8
2
62
256
6
ByLayer
370
13
48
1
60
0
100
AcDbMText
10
16.602723
20
2.174342
30
0
210
0
220
0
230
1
1
\W0.6740;32
40
4.5
41
0
44
1.084337
50
90
71
7
72
5
7
iso_b_vert
0
LINE
5
EA
100
AcDbEntity
8
2
62
256
6
ByLayer
370
13
48
1
60
0
100
AcDbLine
10
-23.529779
20
-12.4375
30
0
11
20.902723
21
-12.4375
31
0
39
0
210
0
220
0
230
1
0
LINE
5
EB
100
AcDbEntity
8
2
62
256
6
ByLayer
370
13
48
1
60
0
100
AcDbLine
10
2.815223
20
19.9125
30
0
11
20.902723
21
19.9125
31
0
39
0
210
0
220
0
230
1
0
LINE
5
EC
100
AcDbEntity
8
2
62
256
6
ByLayer
370
13
48
1
60
0
100
AcDbLine
10
17.727723
20
-12.4375
30
0
11
17.727723
21
19.9125
31
0
39
0
210
0
220
0
230
1
0
LINE
5
ED
100
AcDbEntity
8
2
62
256
6
ByLayer
370
13
48
1
60
0
100
AcDbLine
10
17.727723
20
-12.4375
30
0
11
16.876984
21
-9.262503
31
0
39
0
210
0
220
0
230
1
0
LINE
5
EE
100
AcDbEntity
8
2
62
256
6
ByLayer
370
13
48
1
60
0
100
AcDbLine
10
17.727723
20
-12.4375
30
0
11
18.578462
21
-9.262497
31
0
39
0
210
0
220
0
230
1
0
LINE
5
EF
100
AcDbEntity
8
2
62
256
6
ByLayer
370
13
48
1
60
0
100
AcDbLine
10
16.876984
20
-9.262503
30
0
11
18.578462
21
-9.262497
31
0
39
0
210
0
220
0
230
1
0
LINE
5
F0
100
AcDbEntity
8
2
62
256
6
ByLayer
370
13
48
1
60
0
100
AcDbLine
10
17.727723
20
19.9125
30
0
11
18.578462
21
16.737503
31
0
39
0
210
0
220
0
230
1
0
LINE
5
F1
100
AcDbEntity
8
2
62
256
6
ByLayer
370
13
48
1
60
0
100
AcDbLine
10
17.727723
20
19.9125
30
0
11
16.876984
21
16.737497
31
0
39
0
210
0
220
0
230
1
0
LINE
5
F2
100
AcDbEntity
8
2
62
256
6
ByLayer
370
13
48
1
60
0
100
AcDbLine
10
18.578462
20
16.737503
30
0
11
16.876984
21
16.737497
31
0
39
0
210
0
220
0
230
1
0
ENDBLK
5
F4
100
AcDbEntity
8
0
100
AcDbBlockEnd
0
BLOCK
5
101
100
AcDbEntity
8
0
100
AcDbBlockBegin
2
DimnDraft3D3
70
0
10
0
20
0
30
0
3
DimnDraft3D3
0
MTEXT
5
F7
100
AcDbEntity
8
SK2
62
256
6
ByLayer
370
13
48
1
60
0
100
AcDbMText
10
-77.129514
20
38.5375
30
0
210
0
220
0
230
1
1
\W0.6217;150
40
4.5
41
0
44
1.084337
50
0
71
7
72
5
7
iso_b_vert
0
LINE
5
F8
100
AcDbEntity
8
SK2
62
256
6
ByLayer
370
13
48
1
60
0
100
AcDbLine
10
-150.122277
20
14.15
30
0
11
-150.122277
21
40.5875
31
0
39
0
210
0
220
0
230
1
0
LINE
5
F9
100
AcDbEntity
8
SK2
62
256
6
ByLayer
370
13
48
1
60
0
100
AcDbLine
10
1.227723
20
21.5
30
0
11
1.227723
21
40.5875
31
0
39
0
210
0
220
0
230
1
0
LINE
5
FA
100
AcDbEntity
8
SK2
62
256
6
ByLayer
370
13
48
1
60
0
100
AcDbLine
10
-150.122277
20
37.4125
30
0
11
1.227723
21
37.4125
31
0
39
0
210
0
220
0
230
1
0
LINE
5
FB
100
AcDbEntity
8
SK2
62
256
6
ByLayer
370
13
48
1
60
0
100
AcDbLine
10
-150.122277
20
37.4125
30
0
11
-146.94728
21
38.263239
31
0
39
0
210
0
220
0
230
1
0
LINE
5
FC
100
AcDbEntity
8
SK2
62
256
6
ByLayer
370
13
48
1
60
0
100
AcDbLine
10
-150.122277
20
37.4125
30
0
11
-146.947274
21
36.561761
31
0
39
0
210
0
220
0
230
1
0
LINE
5
FD
100
AcDbEntity
8
SK2
62
256
6
ByLayer
370
13
48
1
60
0
100
AcDbLine
10
-146.94728
20
38.263239
30
0
11
-146.947274
21
36.561761
31
0
39
0
210
0
220
0
230
1
0
LINE
5
FE
100
AcDbEntity
8
SK2
62
256
6
ByLayer
370
13
48
1
60
0
100
AcDbLine
10
1.227723
20
37.4125
30
0
11
-1.947274
21
36.561761
31
0
39
0
210
0
220
0
230
1
0
LINE
5
FF
100
AcDbEntity
8
SK2
62
256
6
ByLayer
370
13
48
1
60
0
100
AcDbLine
10
1.227723
20
37.4125
30
0
11
-1.94728
21
38.263239
31
0
39
0
210
0
220
0
230
1
0
LINE
5
100
100
AcDbEntity
8
SK2
62
256
6
ByLayer
370
13
48
1
60
0
100
AcDbLine
10
-1.947274
20
36.561761
30
0
11
-1.94728
21
38.263239
31
0
39
0
210
0
220
0
230
1
0
ENDBLK
5
102
100
AcDbEntity
8
0
100
AcDbBlockEnd
0
ENDSEC
0
SECTION
2
ENTITIES
0
ARC
5
9A
100
AcDbEntity
8
SK1
62
256
6
ByLayer
370
18
48
1
60
0
100
AcDbCircle
39
0
10
-8.285485
20
10.399291
30
0
40
6
210
0
220
0
230
1
100
AcDbArc
50
200.784984
51
249.215015
0
ARC
5
9B
100
AcDbEntity
8
SK1
62
256
6
ByLayer
370
18
48
1
60
0
100
AcDbCircle
39
0
10
22.288852
20
22.2375
30
0
40
10.2
210
0
220
0
230
-1
100
AcDbArc
50
240
51
255.952637
0
ARC
5
9C
100
AcDbEntity
8
SK1
62
256
6
ByLayer
370
18
48
1
60
0
100
AcDbCircle
39
0
10
22.288852
20
22.2375
30
0
40
10.2
210
0
220
0
230
-1
100
AcDbArc
50
259.035472
51
286.098934
0
ARC
5
9D
100
AcDbEntity
8
1
62
256
6
ByLayer
370
18
48
1
60
0
100
AcDbCircle
39
0
10
6.772277
20
11.9125
30
0
40
2.6
210
0
220
0
230
-1
100
AcDbArc
50
179.999993
51
256.691253
0
ARC
5
9E
100
AcDbEntity
8
1
62
256
6
ByLayer
370
18
48
1
60
0
100
AcDbCircle
39
0
10
6.772277
20
11.9125
30
0
40
2.6
210
0
220
0
230
-1
100
AcDbArc
50
13.786876
51
179.999993
0
ARC
5
A1
100
AcDbEntity
8
1
62
256
6
ByLayer
370
18
48
1
60
0
100
AcDbCircle
39
0
10
6.772277
20
11.9125
30
0
40
2.32499999999979
210
0
220
0
230
-1
100
AcDbArc
50
30.407449
51
115.571903
0
ARC
5
A2
100
AcDbEntity
8
1
62
256
6
ByLayer
370
18
48
1
60
0
100
AcDbCircle
39
0
10
6.772277
20
11.9125
30
0
40
3
210
0
220
0
230
-1
100
AcDbArc
50
311.004693
51
318.995307
0
ARC
5
A3
100
AcDbEntity
8
1
62
256
6
ByLayer
370
18
48
1
60
0
100
AcDbCircle
39
0
10
6.772277
20
11.9125
30
0
40
2.32500000000019
210
0
220
0
230
-1
100
AcDbArc
50
154.428097
51
239.592551
0
ARC
5
A4
100
AcDbEntity
8
1
62
256
6
ByLayer
370
18
48
1
60
0
100
AcDbCircle
39
0
10
6.772277
20
11.9125
30
0
40
2.5
210
0
220
0
230
-1
100
AcDbArc
50
294.593058
51
335.406942
0
ARC
5
A5
100
AcDbEntity
8
1
62
256
6
ByLayer
370
18
48
1
60
0
100
AcDbCircle
39
0
10
-19.075935
20
-0.391158
30
0
40
1.295
210
0
220
0
230
1
100
AcDbArc
50
207.612611
51
242.387389
0
ARC
5
A6
100
AcDbEntity
8
1
62
256
6
ByLayer
370
18
48
1
60
0
100
AcDbCircle
39
0
10
-19.075935
20
-0.391158
30
0
40
1.295
210
0
220
0
230
1
100
AcDbArc
50
27.612611
51
62.387389
0
ARC
5
A7
100
AcDbEntity
8
1
62
256
6
ByLayer
370
18
48
1
60
0
100
AcDbCircle
39
0
10
-19.075935
20
-0.391158
30
0
40
1.295
210
0
220
0
230
1
100
AcDbArc
50
147.612611
51
182.387389
0
ARC
5
A8
100
AcDbEntity
8
1
62
256
6
ByLayer
370
18
48
1
60
0
100
AcDbCircle
39
0
10
-19.075935
20
-0.391158
30
0
40
1.295
210
0
220
0
230
1
100
AcDbArc
50
267.612611
51
302.387389
0
ARC
5
AA
100
AcDbEntity
8
1
62
256
6
ByLayer
370
18
48
1
60
0
100
AcDbCircle
39
0
10
-19.075935
20
-0.391158
30
0
40
1.295
210
0
220
0
230
1
100
AcDbArc
50
182.387389
51
207.612611
0
ARC
5
AC
100
AcDbEntity
8
1
62
256
6
ByLayer
370
18
48
1
60
0
100
AcDbCircle
39
0
10
-19.075935
20
-0.391158
30
0
40
1.295
210
0
220
0
230
1
100
AcDbArc
50
62.387389
51
87.612611
0
ARC
5
AD
100
AcDbEntity
8
1
62
256
6
ByLayer
370
18
48
1
60
0
100
AcDbCircle
39
0
10
-19.075935
20
-0.391158
30
0
40
1.295
210
0
220
0
230
1
100
AcDbArc
50
87.612611
51
122.387389
0
ARC
5
AE
100
AcDbEntity
8
1
62
256
6
ByLayer
370
18
48
1
60
0
100
AcDbCircle
39
0
10
-19.075935
20
-0.391158
30
0
40
1.295
210
0
220
0
230
1
100
AcDbArc
50
327.612611
51
2.387389
0
ARC
5
AF
100
AcDbEntity
8
1
62
256
6
ByLayer
370
18
48
1
60
0
100
AcDbCircle
39
0
10
-19.075935
20
-0.391158
30
0
40
1.295
210
0
220
0
230
1
100
AcDbArc
50
122.387389
51
147.612611
0
ARC
5
B0
100
AcDbEntity
8
1
62
256
6
ByLayer
370
18
48
1
60
0
100
AcDbCircle
39
0
10
-19.075935
20
-0.391158
30
0
40
1.295
210
0
220
0
230
1
100
AcDbArc
50
2.387389
51
27.612611
0
ARC
5
B1
100
AcDbEntity
8
1
62
256
6
ByLayer
370
18
48
1
60
0
100
AcDbCircle
39
0
10
-19.075935
20
-0.391158
30
0
40
1.295
210
0
220
0
230
1
100
AcDbArc
50
242.387389
51
267.612611
0
ARC
5
B2
100
AcDbEntity
8
1
62
256
6
ByLayer
370
18
48
1
60
0
100
AcDbCircle
39
0
10
-19.075935
20
-0.391158
30
0
40
1.295
210
0
220
0
230
1
100
AcDbArc
50
302.387389
51
327.612611
0
CIRCLE
5
9F
100
AcDbEntity
8
1
62
256
6
ByLayer
370
18
48
1
60
0
100
AcDbCircle
10
6.772277
20
11.9125
30
0
40
3.36702236608182
39
0
210
0
220
0
230
-1
0
CIRCLE
5
A0
100
AcDbEntity
8
1
62
256
6
ByLayer
370
18
48
1
60
0
100
AcDbCircle
10
-6.772277
20
11.9125
30
0
40
8
39
0
210
0
220
0
230
1
0
CIRCLE
5
A9
100
AcDbEntity
8
1
62
256
6
ByLayer
370
18
48
1
60
0
100
AcDbCircle
10
19.075935
20
-0.391158
30
0
40
2.235
39
0
210
0
220
0
230
-1
0
CIRCLE
5
AB
100
AcDbEntity
8
1
62
256
6
ByLayer
370
18
48
1
60
0
100
AcDbCircle
10
19.075935
20
-0.391158
30
0
40
1.66739092362731
39
0
210
0
220
0
230
-1
0
ELLIPSE
5
B3
100
AcDbEntity
8
SK1
62
256
6
ByLayer
370
18
48
1
60
0
100
AcDbEllipse
10
-22.288852
20
22.237499
30
0
11
9.97276262216139
21
2.14102594224848
31
0
210
0
220
0
230
-1
40
1
41
1.55334791142298
42
1.59090651995604
0
ELLIPSE
5
B4
100
AcDbEntity
8
1
62
256
6
ByLayer
370
18
48
1
60
0
100
AcDbEllipse
10
-6.693227
20
11.99155
30
0
11
-1.59099025766973
21
1.59099025766973
31
0
210
0
220
0
230
1
40
0.984808
41
-3.14159265358972
42
-1.92166223866373
0
ELLIPSE
5
B5
100
AcDbEntity
8
1
62
256
6
ByLayer
370
18
48
1
60
0
100
AcDbEllipse
10
-6.693227
20
11.99155
30
0
11
-1.59099025766973
21
1.59099025766973
31
0
210
0
220
0
230
1
40
0.984808
41
-1.21993041492604
42
-7.77620785740636E-14
0
POINT
5
6C
100
AcDbEntity
8
80
62
256
6
ByLayer
370
18
48
1
60
0
100
AcDbPoint
10
0
20
0
30
0
39
0
210
0
220
0
230
1
50
360
0
POINT
5
6E
100
AcDbEntity
8
81
62
256
6
ByLayer
370
18
48
1
60
0
100
AcDbPoint
10
-0.122277
20
19.5625
30
0
39
0
210
0
220
0
230
1
50
360
0
POINT
5
70
100
AcDbEntity
8
1
62
256
6
ByLayer
370
18
48
1
60
0
100
AcDbPoint
10
-150.122277
20
-12.4375
30
0
39
0
210
0
220
0
230
1
50
360
0
POINT
5
72
100
AcDbEntity
8
2
62
256
6
ByLayer
370
18
48
1
60
0
100
AcDbPoint
10
-6.772277
20
11.9125
30
0
39
0
210
0
220
0
230
1
50
360
0
SPLINE
5
B6
100
AcDbEntity
8
SK1
62
256
6
ByLayer
370
18
48
1
60
0
100
AcDbSpline
70
4
71
3
72
22
73
18
40
0
40
0
40
0
40
0
40
0.0021353447811503
40
0.0021353447811503
40
0.149426018370361
40
0.149426018370361
40
0.296716691959572
40
0.296716691959572
40
0.444007365548782
40
0.444007365548782
40
0.591298039137993
40
0.591298039137993
40
0.738588712727203
40
0.738588712727203
40
0.885879386316414
40
0.885879386316414
40
1
40
1
40
1
40
1
41
1
10
-3.42770641012555
20
4.70546587807985
30
0
41
1
10
-3.42810852311936
20
4.70476939794412
30
0
41
1
10
-3.4285110067857
20
4.70407227578485
30
0
41
1
10
-3.45670170850713
20
4.65524454810233
30
0
41
1
10
-3.48656379678369
20
4.60352189398708
30
0
41
1
10
-3.54841698834616
20
4.49638902359064
30
0
41
1
10
-3.58016207680839
20
4.4414049174834
30
0
41
1
10
-3.64524683239313
20
4.32867481401235
30
0
41
1
10
-3.67888315235723
20
4.27041499885485
30
0
41
1
10
-3.74526775871044
20
4.15543348781077
30
0
41
1
10
-3.77824680853854
20
4.09831209792307
30
0
41
1
10
-3.84377360489327
20
3.98481635737954
30
0
41
1
10
-3.87628584110138
20
3.92850351239929
30
0
41
1
10
-3.93814178421644
20
3.82136587617384
30
0
41
1
10
-3.96784655468275
20
3.76991570449903
30
0
41
1
10
-4.0182950471862
20
3.68253635231784
30
0
41
1
10
-4.03924026551533
20
3.64625816999609
30
0
41
1
10
-4.05883191012276
20
3.61232444613213
30
0
0
SPLINE
5
B7
100
AcDbEntity
8
SK1
62
256
6
ByLayer
370
18
48
1
60
0
100
AcDbSpline
70
4
71
3
72
22
73
18
40
0
40
0
40
0
40
0
40
0.0001840386642194
40
0.0001840386642194
40
0.147762736476158
40
0.147762736476158
40
0.295341434288096
40
0.295341434288096
40
0.442920132100035
40
0.442920132100035
40
0.590498829911973
40
0.590498829911973
40
0.738077527723911
40
0.738077527723911
40
0.88565622553585
40
0.88565622553585
40
1
40
1
40
1
40
1
41
1
10
-13.9812222592243
20
15.2559669091175
30
0
41
1
10
-13.9812822704154
20
15.2559322616402
30
0
41
1
10
-13.9813422863527
20
15.2558976114226
30
0
41
1
10
-14.0295322711389
20
15.228075110734
30
0
41
1
10
-14.0812549252541
20
15.1982130224575
30
0
41
1
10
-14.1883877956504
20
15.1363598308951
30
0
41
1
10
-14.2433719017578
20
15.1046147424329
30
0
41
1
10
-14.3561020052288
20
15.0395299868481
30
0
41
1
10
-14.4143618203864
20
15.005893666884
30
0
41
1
10
-14.5293433314305
20
14.9395090605309
30
0
41
1
10
-14.5864647213182
20
14.9065300107027
30
0
41
1
10
-14.6999604618617
20
14.841003214348
30
0
41
1
10
-14.7562733068419
20
14.8084909781399
30
0
41
1
10
-14.8634109430673
20
14.7466350350248
30
0
41
1
10
-14.9148611147422
20
14.7169302645584
30
0
41
1
10
-15.0022404669248
20
14.6664817720542
30
0
41
1
10
-15.0385186492478
20
14.6455365537243
30
0
41
1
10
-15.0724523731129
20
14.6259449091162
30
0
0
SPLINE
5
B8
100
AcDbEntity
8
SK1
62
256
6
ByLayer
370
18
48
1
60
0
100
AcDbSpline
70
4
71
3
72
10
73
6
40
0
40
0
40
0
40
0
40
0.5
40
0.5
40
1
40
1
40
1
40
1
41
1
10
-19.8130684020113
20
12.3425268089376
30
0
41
1
10
-19.8423641171755
20
12.3351968388034
30
0
41
1
10
-19.8707894041376
20
12.3282228224746
30
0
41
1
10
-19.9258509707346
20
12.3149485609766
30
0
41
1
10
-19.9516886830704
20
12.3088445740375
30
0
41
1
10
-19.9741519830948
20
12.3036103900211
30
0
0
SPLINE
5
B9
100
AcDbEntity
8
1
62
256
6
ByLayer
370
18
48
1
60
0
100
AcDbSpline
70
4
71
3
72
14
73
10
40
0
40
0
40
0
40
0
40
0.0319461768168431
40
0.0319461768168431
40
0.515973088408423
40
0.515973088408423
40
0.757986544204212
40
0.757986544204212
40
1
40
1
40
1
40
1
41
1
10
-9.19872293127685
20
12.7741004204819
30
0
41
1
10
-9.18998931632115
20
12.7828340354376
30
0
41
1
10
-9.18127467088397
20
12.7915486808748
30
0
41
1
10
-9.04081832463731
20
12.9320050271214
30
0
41
1
10
-8.91331049825919
20
13.0595128534995
30
0
41
1
10
-8.72530017097381
20
13.2475231807849
30
0
41
1
10
-8.66317043481195
20
13.3096529169467
30
0
41
1
10
-8.5394545717719
20
13.4333687799868
30
0
41
1
10
-8.4776767911253
20
13.4951465606334
30
0
41
1
10
-8.41630008549998
20
13.5565232662587
30
0
0
SPLINE
5
BA
100
AcDbEntity
8
1
62
256
6
ByLayer
370
18
48
1
60
0
100
AcDbSpline
70
4
71
3
72
14
73
10
40
0
40
0
40
0
40
0
40
0.0357965385829025
40
0.0357965385829025
40
0.51789826929145
40
0.51789826929145
40
0.758949134645725
40
0.758949134645725
40
1
40
1
40
1
40
1
41
1
10
-5.91395242450034
20
9.4827778622236
30
0
41
1
10
-5.90412175201487
20
9.49260853470901
30
0
41
1
10
-5.8943151824692
20
9.50241510425465
30
0
41
1
10
-5.75277179211679
20
9.64395849460701
30
0
41
1
10
-5.62526396573946
20
9.77146632098439
30
0
41
1
10
-5.43725363845488
20
9.95947664826889
30
0
41
1
10
-5.37512390229341
20
10.0216063844304
30
0
41
1
10
-5.25140803925382
20
10.14532224747
30
0
41
1
10
-5.18963025859887
20
10.2071000281249
30
0
41
1
10
-5.12825355298253
20
10.2684767337413
30
0
0
SPLINE
5
BB
100
AcDbEntity
8
1
62
256
6
ByLayer
370
18
48
1
60
0
100
AcDbSpline
70
4
71
3
72
50
73
46
40
0
40
0
40
0
40
0
40
0.0060108142643542
40
0.0120727895528519
40
0.0181860232239802
40
0.0243506102041141
40
0.0305666430634346
40
0.0368342120890893
40
0.0431534053557057
40
0.0495243087933624
40
0.0559470062531179
40
0.0624215795701979
40
0.0924451123180816
40
0.124965106981564
40
0.153282067185746
40
0.187659084801963
40
0.219031838729308
40
0.250399316438661
40
0.283878320913179
40
0.313055563735487
40
0.345306152423057
40
0.375538509610129
40
0.407193387407509
40
0.437832240078329
40
0.46907579801729
40
0.500004470335296
40
0.530929161612606
40
0.562176700348814
40
0.592811582755759
40
0.62447043000984
40
0.654698844440302
40
0.686953374216493
40
0.716126839782229
40
0.749609617960952
40
0.780977095670306
40
0.81234984959765
40
0.84672330439415
40
0.875043832181529
40
0.907559901729424
40
0.937587361672133
40
0.950481510075545
40
0.963169153830941
40
0.975650969857932
40
0.987927669354264
40
1
40
1
40
1
40
1
41
1
10
-9.45623766417015
20
10.59448181284
30
0
41
1
10
-9.46412726003246
20
10.6176041484733
30
0
41
1
10
-9.47997360402417
20
10.6640456254171
30
0
41
1
10
-9.50091835313776
20
10.7349468892421
30
0
41
1
10
-9.51983141953946
20
10.8070518943301
30
0
41
1
10
-9.53642466627787
20
10.8803709675709
30
0
41
1
10
-9.55067749158206
20
10.9548165284901
30
0
41
1
10
-9.56249842636089
20
11.0303218798419
30
0
41
1
10
-9.57181716603145
20
11.1068093677941
30
0
41
1
10
-9.57856017156689
20
11.1841973708751
30
0
41
1
10
-9.58265654388276
20
11.2624045291483
30
0
41
1
10
-9.58571510288743
20
11.4367961464581
30
0
41
1
10
-9.56293570991363
20
11.7176702983778
30
0
41
1
10
-9.47141426416164
20
12.0772430886721
30
0
41
1
10
-9.31596022482211
20
12.4329390251806
30
0
41
1
10
-9.10553102534408
20
12.7545748433756
30
0
41
1
10
-8.83405823014834
20
13.0432707127436
30
0
41
1
10
-8.52127886287747
20
13.2806289310207
30
0
41
1
10
-8.17993168025976
20
13.4566495951151
30
0
41
1
10
-7.81115722257664
20
13.5742089339224
30
0
41
1
10
-7.44066531595871
20
13.6278280888151
30
0
41
1
10
-7.05660189515208
20
13.6183297558304
30
0
41
1
10
-6.68566570487849
20
13.54609355075
30
0
41
1
10
-6.32847442085722
20
13.4109271076664
30
0
41
1
10
-6.00152131895038
20
13.219067637373
30
0
41
1
10
-5.71088818068415
20
12.9739114718483
30
0
41
1
10
-5.46571879678214
20
12.6832691131554
30
0
41
1
10
-5.27386362619131
20
12.3563314854318
30
0
41
1
10
-5.13868777912774
20
11.9991271051599
30
0
41
1
10
-5.06645053379924
20
11.6282068163885
30
0
41
1
10
-5.05694769368404
20
11.244127959948
30
0
41
1
10
-5.11056081619347
20
10.8736500797104
30
0
41
1
10
-5.22812111239512
20
10.5048596826645
30
0
41
1
10
-5.4041385817269
20
10.1635101641896
30
0
41
1
10
-5.64150615381823
20
9.85071861667222
30
0
41
1
10
-5.93019118421529
20
9.57925569762372
30
0
41
1
10
-6.25182571469918
20
9.36882389366838
30
0
41
1
10
-6.6075019496559
20
9.21337217258014
30
0
41
1
10
-6.96710343474274
20
9.12184537276829
30
0
41
1
10
-7.27405580508901
20
9.09693850816129
30
0
41
1
10
-7.50002183043938
20
9.10483597871018
30
0
41
1
10
-7.65400500570979
20
9.12086207851215
30
0
41
1
10
-7.80399228307459
20
9.14709121045072
30
0
41
1
10
-7.94970254622103
20
9.18206125191966
30
0
41
1
10
-8.04369381883225
20
9.21313345351498
30
0
41
1
10
-8.09029500640133
20
9.22853915507113
30
0
0
SPLINE
5
BC
100
AcDbEntity
8
1
62
256
6
ByLayer
370
18
48
1
60
0
100
AcDbSpline
70
4
71
3
72
22
73
18
40
0
40
0
40
0
40
0
40
0.0508889530350909
40
0.101172893818786
40
0.150913420364866
40
0.200174268770557
40
0.249021065126897
40
0.375534461099552
40
0.498482655062318
40
0.625525100155234
40
0.748509744957984
40
0.81148825929708
40
0.82729679582036
40
0.843033414322281
40
0.874370267806257
40
0.934797467043189
40
1
40
1
40
1
40
1
41
1
10
-9.04546858932372
20
10.8720537715024
30
0
41
1
10
-9.0520318360459
20
10.8590848189597
30
0
41
1
10
-9.0650802998897
20
10.8333011000918
30
0
41
1
10
-9.08243058769494
20
10.7931411907904
30
0
41
1
10
-9.09793845255001
20
10.7522309694314
30
0
41
1
10
-9.11142632482483
20
10.7104720726274
30
0
41
1
10
-9.12899781482167
20
10.6453021457693
30
0
41
1
10
-9.14502848840334
20
10.5547319522619
30
0
41
1
10
-9.15017049643234
20
10.4346905727997
30
0
41
1
10
-9.13875580362571
20
10.3119955902904
30
0
41
1
10
-9.11408042840714
20
10.2079648580306
30
0
41
1
10
-9.09032763974358
20
10.1418546746567
30
0
41
1
10
-9.07793014184801
20
10.1111739038387
30
0
41
1
10
-9.07047781685424
20
10.0906958309985
30
0
41
1
10
-9.05910793567762
20
10.0556881079506
30
0
41
1
10
-9.04603298474018
20
10.0047416155247
30
0
41
1
10
-9.03958887903332
20
9.96484437225192
30
0
41
1
10
-9.0362443521654
20
9.94413748006997
30
0
0
SPLINE
5
BD
100
AcDbEntity
8
1
62
256
6
ByLayer
370
18
48
1
60
0
100
AcDbSpline
70
4
71
3
72
16
73
12
40
0
40
0
40
0
40
0
40
0.25
40
0.25
40
0.375
40
0.375
40
0.5
40
0.5
40
0.75
40
0.75
40
1
40
1
40
1
40
1
41
1
10
-4.67502380275073
20
12.9160710163315
30
0
41
1
10
-4.73214243530714
20
13.0354369829421
30
0
41
1
10
-4.7986765123577
20
13.1484929589471
30
0
41
1
10
-4.91214291747894
20
13.3088576937838
30
0
41
1
10
-4.95225508681369
20
13.3607682707743
30
0
41
1
10
-5.03713286681614
20
13.4614465952715
30
0
41
1
10
-5.08209779580181
20
13.510410077726
30
0
41
1
10
-5.22282261037992
20
13.6510061534935
30
0
41
1
10
-5.32319605525208
20
13.7353674767643
30
0
41
1
10
-5.53645311034609
20
13.886182005527
30
0
41
1
10
-5.64933867526543
20
13.95263382836
30
0
41
1
10
-5.76870580290966
20
14.0097530164907
30
0
0
SPLINE
5
BE
100
AcDbEntity
8
1
62
256
6
ByLayer
370
18
48
1
60
0
100
AcDbSpline
70
4
71
3
72
21
73
17
40
0
40
0
40
0
40
0
40
0.0441041926573026
40
0.0859834238865583
40
0.12587998098963
40
0.15723858691128
40
0.172980033536542
40
0.188788695681109
40
0.251748520873171
40
0.374415094636571
40
0.501213614014178
40
0.623959016666928
40
0.750353378560159
40
0.832169287915317
40
0.915285785998615
40
1
40
1
40
1
40
1
41
1
10
-8.74063933917137
20
9.64853246707591
30
0
41
1
10
-8.72666005353744
20
9.64635578985948
30
0
41
1
10
-8.69940670708957
20
9.64211224409917
30
0
41
1
10
-8.65889120035763
20
9.63331827306956
30
0
41
1
10
-8.62218538525133
20
9.62345546673697
30
0
41
1
10
-8.59384646393471
20
9.61421667684374
30
0
41
1
10
-8.57336114747579
20
9.60675466125426
30
0
41
1
10
-8.54268539979182
20
9.59434810164186
30
0
41
1
10
-8.47668015926524
20
9.57067514778478
30
0
41
1
10
-8.3728471925192
20
9.54604240222659
30
0
41
1
10
-8.2504002296904
20
9.53462292830628
30
0
41
1
10
-8.13052723329656
20
9.53970819823195
30
0
41
1
10
-8.03000755965178
20
9.55740558992835
30
0
41
1
10
-7.94622004949065
20
9.58155620420689
30
0
41
1
10
-7.87752700662503
20
9.60723955134051
30
0
41
1
10
-7.83446102729931
20
9.62855104329776
30
0
41
1
10
-7.81272304773967
20
9.63930822991711
30
0
0
SPLINE
5
BF
100
AcDbEntity
8
1
62
256
6
ByLayer
370
18
48
1
60
0
100
AcDbSpline
70
4
71
3
72
16
73
12
40
0
40
0
40
0
40
0
40
0.0627405664241888
40
0.125411310593799
40
0.187989205154004
40
0.250512845492807
40
0.374171532305603
40
0.499997141003837
40
0.663339267479428
40
0.83000570145842
40
1
40
1
40
1
40
1
41
1
10
-9.03624435216545
20
9.94413748006997
30
0
41
1
10
-9.04661775221632
20
9.95659447886112
30
0
41
1
10
-9.06735300804587
20
9.98149461339131
30
0
41
1
10
-9.09785170551953
20
10.0194078896998
30
0
41
1
10
-9.12786363051748
20
10.0576922297157
30
0
41
1
10
-9.16698918246072
20
10.1089780203852
30
0
41
1
10
-9.21437959155378
20
10.1745287256866
30
0
41
1
10
-9.27406900603336
20
10.263291616261
30
0
41
1
10
-9.33592165914581
20
10.3638120297729
30
0
41
1
10
-9.39907546133486
20
10.4767337264439
30
0
41
1
10
-9.43705107295182
20
10.5549706889143
30
0
41
1
10
-9.45622657171043
20
10.5944758532251
30
0
0
SPLINE
5
C0
100
AcDbEntity
8
1
62
256
6
ByLayer
370
18
48
1
60
0
100
AcDbSpline
70
4
71
3
72
18
73
14
40
0
40
0
40
0
40
0
40
0.102382231957946
40
0.203574466891416
40
0.303577173496189
40
0.402391130130863
40
0.500017434520235
40
0.625789374435382
40
0.749494454580178
40
0.812016271601367
40
0.874592341261799
40
0.937236169876504
40
1
40
1
40
1
40
1
41
1
10
-8.09030096601623
20
9.22855024753082
30
0
41
1
10
-8.11414899995839
20
9.23997098735489
30
0
41
1
10
-8.16156788020095
20
9.26267972281346
30
0
41
1
10
-8.23111842947174
20
9.29903525487333
30
0
41
1
10
-8.29895041746613
20
9.33671325519754
30
0
41
1
10
-8.36496562327352
20
9.37580316161933
30
0
41
1
10
-8.43559797191892
20
9.42021103036672
30
0
41
1
10
-8.5102390509237
20
9.4703871846192
30
0
41
1
10
-8.57578829249042
20
9.51778009699311
30
0
41
1
10
-8.62708462561227
20
9.55691313275653
30
0
41
1
10
-8.66536381041851
20
9.58692109649081
30
0
41
1
10
-8.7032771541509
20
9.61741979684663
30
0
41
1
10
-8.72817733524158
20
9.6381549632321
30
0
41
1
10
-8.74063933917137
20
9.64853246707591
30
0
0
SPLINE
5
C1
100
AcDbEntity
8
1
62
256
6
ByLayer
370
18
48
1
60
0
100
AcDbSpline
70
4
71
2
72
37
73
34
40
0
40
0
40
0
40
0.03125
40
0.0625
40
0.09375
40
0.125
40
0.15625
40
0.1875
40
0.21875
40
0.25
40
0.28125
40
0.3125
40
0.34375
40
0.375
40
0.40625
40
0.4375
40
0.46875
40
0.5
40
0.53125
40
0.5625
40
0.59375
40
0.625
40
0.65625
40
0.6875
40
0.71875
40
0.75
40
0.78125
40
0.8125
40
0.84375
40
0.875
40
0.90625
40
0.9375
40
0.96875
40
1
40
1
40
1
41
1
10
-7.81270065358831
20
9.63928958000326
30
0
41
1
10
-7.67184148758019
20
9.60128189594414
30
0
41
1
10
-7.38081293602011
20
9.57239433285412
30
0
41
1
10
-7.08778505416541
20
9.59156535100041
30
0
41
1
10
-6.80108551725834
20
9.65833294623923
30
0
41
1
10
-6.52844805862151
20
9.77089624720645
30
0
41
1
10
-6.27721896207947
20
9.92621179101923
30
0
41
1
10
-6.05416001964443
20
10.1200773093443
30
0
41
1
10
-5.86525061198381
20
10.3472635495676
30
0
41
1
10
-5.71551838043149
20
10.6017073882635
30
0
41
1
10
-5.60898361098293
20
10.8766180591455
30
0
41
1
10
-5.54853816078742
20
11.1645981112329
30
0
41
1
10
-5.53582604571363
20
11.4578876308502
30
0
41
1
10
-5.5711958030297
20
11.7485798494981
30
0
41
1
10
-5.65369057726627
20
12.0288381827016
30
0
41
1
10
-5.78107458299382
20
12.291111329027
30
0
41
1
10
-5.94989519034311
20
12.5283403304448
30
0
41
1
10
-6.15560819600853
20
12.7341810804678
30
0
41
1
10
-6.3927333865372
20
12.9031491005454
30
0
41
1
10
-6.65492754846548
20
13.0306947200041
30
0
41
1
10
-6.93513368433037
20
13.1133611615891
30
0
41
1
10
-7.22580179605922
20
13.1489082551323
30
0
41
1
10
-7.51909590647119
20
13.1363746228085
30
0
41
1
10
-7.80710914390113
20
13.0761042506451
30
0
41
1
10
-8.0820807831401
20
12.9697366838072
30
0
41
1
10
-8.33661245928266
20
12.8201591540197
30
0
41
1
10
-8.56391245627287
20
12.6313864450506
30
0
41
1
10
-8.75791333860695
20
12.4084424565488
30
0
41
1
10
-8.91338110926733
20
12.1573047434579
30
0
41
1
10
-9.02610959619761
20
11.8847328053712
30
0
41
1
10
-9.09305111644971
20
11.5980712762867
30
0
41
1
10
-9.11240035914346
20
11.3050529533457
30
0
41
1
10
-9.08363687095743
20
11.0134613997338
30
0
41
1
10
-9.04548723923904
20
10.8720761656568
30
0
0
SPLINE
5
C2
100
AcDbEntity
8
1
62
256
6
ByLayer
370
18
48
1
60
0
100
AcDbSpline
70
4
71
3
72
10
73
6
40
0
40
0
40
0
40
0
40
0.5
40
0.5
40
1
40
1
40
1
40
1
41
1
10
-18.3822797830758
20
-1.48471535328352
30
0
41
1
10
-18.4357875859905
20
-1.53822315619829
30
0
41
1
10
-18.4894314642546
20
-1.59186703446232
30
0
41
1
10
-18.5947784810147
20
-1.69721405122243
30
0
41
1
10
-18.6467729375614
20
-1.7492085077692
30
0
41
1
10
-18.6982523942364
20
-1.80068796444414
30
0
0
SPLINE
5
C3
100
AcDbEntity
8
1
62
256
6
ByLayer
370
18
48
1
60
0
100
AcDbSpline
70
4
71
3
72
10
73
6
40
0
40
0
40
0
40
0
40
0.5
40
0.5
40
1
40
1
40
1
40
1
41
1
10
-18.0440872577398
20
0.640689561501489
30
0
41
1
10
-18.1149402648606
20
0.659674567540833
30
0
41
1
10
-18.1868395617962
20
0.67893992609109
30
0
41
1
10
-18.3309267870823
20
0.717547981746122
30
0
41
1
10
-18.4031900258207
20
0.736910858208546
30
0
41
1
10
-18.4757138714853
20
0.756343564086364
30
0
0
SPLINE
5
C4
100
AcDbEntity
8
1
62
256
6
ByLayer
370
18
48
1
60
0
100
AcDbSpline
70
4
71
3
72
10
73
6
40
0
40
0
40
0
40
0
40
0.5
40
0.5
40
1
40
1
40
1
40
1
41
1
10
-20.1077823660346
20
-1.42300554679335
30
0
41
1
10
-20.0369293589138
20
-1.44199055283269
30
0
41
1
10
-19.9650300619782
20
-1.46125591138295
30
0
41
1
10
-19.8209428366921
20
-1.49986396703798
30
0
41
1
10
-19.7486795979537
20
-1.51922684350041
30
0
41
1
10
-19.6761557522891
20
-1.53865954937822
30
0
0
SPLINE
5
C5
100
AcDbEntity
8
1
62
256
6
ByLayer
370
18
48
1
60
0
100
AcDbSpline
70
4
71
3
72
10
73
6
40
0
40
0
40
0
40
0
40
0.5
40
0.5
40
1
40
1
40
1
40
1
41
1
10
-20.1694921725248
20
0.302497036165477
30
0
41
1
10
-20.2229999754395
20
0.248989233250711
30
0
41
1
10
-20.2766438537036
20
0.195345354986671
30
0
41
1
10
-20.3819908704637
20
0.0899983382265646
30
0
41
1
10
-20.4339853270104
20
0.0380038816797992
30
0
41
1
10
-20.4854647836854
20
-0.013475574995141
30
0
0
SPLINE
5
C6
100
AcDbEntity
8
1
62
256
6
ByLayer
370
18
48
1
60
0
100
AcDbSpline
70
4
71
3
72
8
73
4
40
0
40
0
40
0
40
0
40
1
40
1
40
1
40
1
41
1
10
-19.4536172295379
20
1.01837197915228
30
0
41
1
10
-19.5568890323432
20
0.915100176347067
30
0
41
1
10
-19.6632741532785
20
0.808715055411739
30
0
41
1
10
-19.7695898406968
20
0.702399367993451
30
0
0
SPLINE
5
C7
100
AcDbEntity
8
1
62
256
6
ByLayer
370
18
48
1
60
0
100
AcDbSpline
70
4
71
3
72
8
73
4
40
0
40
0
40
0
40
0
40
1
40
1
40
1
40
1
41
1
10
-19.1298790079819
20
-1.68503396185923
30
0
41
1
10
-18.9824791433377
20
-1.72452963655513
30
0
41
1
10
-18.8391385150019
20
-1.76293764216027
30
0
41
1
10
-18.6982523942364
20
-1.80068796444414
30
0
0
SPLINE
5
C8
100
AcDbEntity
8
1
62
256
6
ByLayer
370
18
48
1
60
0
100
AcDbSpline
70
4
71
3
72
8
73
4
40
0
40
0
40
0
40
0
40
1
40
1
40
1
40
1
41
1
10
-19.0219906157925
20
0.902717976567374
30
0
41
1
10
-19.1693904804367
20
0.942213651263273
30
0
41
1
10
-19.3127311087725
20
0.980621656868408
30
0
41
1
10
-19.4536172295379
20
1.01837197915228
30
0
0
SPLINE
5
C9
100
AcDbEntity
8
1
62
256
6
ByLayer
370
18
48
1
60
0
100
AcDbSpline
70
4
71
3
72
8
73
4
40
0
40
0
40
0
40
0
40
1
40
1
40
1
40
1
41
1
10
-20.2234363686194
20
-0.991378933047827
30
0
41
1
10
-20.1839406939236
20
-1.13877879769205
30
0
41
1
10
-20.1455326883184
20
-1.28211942602786
30
0
41
1
10
-20.1077823660346
20
-1.42300554679335
30
0
0
SPLINE
5
CA
100
AcDbEntity
8
1
62
256
6
ByLayer
370
18
48
1
60
0
100
AcDbSpline
70
4
71
3
72
10
73
6
40
0
40
0
40
0
40
0
40
0.5
40
0.5
40
1
40
1
40
1
40
1
41
1
10
-17.6664048400889
20
-0.768840410296718
30
0
41
1
10
-17.6853898461283
20
-0.697987403175887
30
0
41
1
10
-17.7046552046786
20
-0.626088106240246
30
0
41
1
10
-17.7432632603336
20
-0.482000880954217
30
0
41
1
10
-17.762626136796
20
-0.409737642215845
30
0
41
1
10
-17.7820588426739
20
-0.337213796551197
30
0
0
SPLINE
5
CB
100
AcDbEntity
8
1
62
256
6
ByLayer
370
18
48
1
60
0
100
AcDbSpline
70
4
71
3
72
8
73
4
40
0
40
0
40
0
40
0
40
1
40
1
40
1
40
1
41
1
10
-17.9284332551549
20
0.209062947755967
30
0
41
1
10
-17.9679289298508
20
0.356462812400196
30
0
41
1
10
-18.0063369354559
20
0.499803440736002
30
0
41
1
10
-18.0440872577398
20
0.640689561501489
30
0
0
SPLINE
5
CC
100
AcDbEntity
8
1
62
256
6
ByLayer
370
18
48
1
60
0
100
AcDbSpline
70
4
71
3
72
10
73
6
40
0
40
0
40
0
40
0
40
0.5
40
0.5
40
1
40
1
40
1
40
1
41
1
10
-20.4854647836854
20
-0.013475574995141
30
0
41
1
10
-20.466479777646
20
-0.0843285821159725
30
0
41
1
10
-20.4472144190958
20
-0.156227879051613
30
0
41
1
10
-20.4086063634408
20
-0.300315104337642
30
0
41
1
10
-20.3892434869783
20
-0.372578343076015
30
0
41
1
10
-20.3698107811005
20
-0.445102188740662
30
0
0
SPLINE
5
CD
100
AcDbEntity
8
1
62
256
6
ByLayer
370
18
48
1
60
0
100
AcDbSpline
70
4
71
3
72
8
73
4
40
0
40
0
40
0
40
0
40
1
40
1
40
1
40
1
41
1
10
-17.6664048400889
20
-0.768840410296718
30
0
41
1
10
-17.7696766428948
20
-0.872112213102525
30
0
41
1
10
-17.8760617638307
20
-0.978497334038479
30
0
41
1
10
-17.9823774512496
20
-1.08481302145736
30
0
0
LINE
5
74
100
AcDbEntity
8
1
62
256
6
ByLayer
370
18
48
1
60
0
100
AcDbLine
10
-5.732565
20
9.770231
30
0
11
-5.347812
21
10.154984
31
0
39
0
210
0
220
0
230
1
0
LINE
5
75
100
AcDbEntity
8
1
62
256
6
ByLayer
370
18
48
1
60
0
100
AcDbLine
10
-8.529792
20
13.336965
30
0
11
-8.914545
21
12.952212
31
0
39
0
210
0
220
0
230
1
0
LINE
5
76
100
AcDbEntity
8
SK1
62
256
6
ByLayer
370
18
48
1
60
0
100
AcDbLine
10
-14.752004
20
12.481748
30
0
11
-16.228663
21
13.958407
31
0
39
0
210
0
220
0
230
1
0
LINE
5
78
100
AcDbEntity
8
SK1
62
256
6
ByLayer
370
18
48
1
60
0
100
AcDbLine
10
-14.633668
20
13.395316
30
0
11
-15.574462
21
14.33611
31
0
39
0
210
0
220
0
230
1
0
LINE
5
79
100
AcDbEntity
8
SK1
62
256
6
ByLayer
370
18
48
1
60
0
100
AcDbLine
10
-4.72637
20
2.456114
30
0
11
-6.203029
21
3.932773
31
0
39
0
210
0
220
0
230
1
0
LINE
5
7A
100
AcDbEntity
8
SK1
62
256
6
ByLayer
370
18
48
1
60
0
100
AcDbLine
10
-4.348667
20
3.110315
30
0
11
-5.289461
21
4.051109
31
0
39
0
210
0
220
0
230
1
0
LINE
5
7B
100
AcDbEntity
8
SK1
62
256
6
ByLayer
370
18
48
1
60
0
100
AcDbLine
10
-5.272404
20
4.054331
30
0
11
-4.341244
21
3.123172
31
0
39
0
210
0
220
0
230
1
0
LINE
5
7C
100
AcDbEntity
8
SK1
62
256
6
ByLayer
370
18
48
1
60
0
100
AcDbLine
10
-15.561605
20
14.343532
30
0
11
-14.630445
21
13.412373
31
0
39
0
210
0
220
0
230
1
0
LINE
5
7D
100
AcDbEntity
8
SK1
62
256
6
ByLayer
370
18
48
1
60
0
100
AcDbLine
10
-4.09208
20
3.554738
30
0
11
-4.718092
21
4.180751
31
0
39
0
210
0
220
0
230
1
0
LINE
5
7E
100
AcDbEntity
8
SK1
62
256
6
ByLayer
370
18
48
1
60
0
100
AcDbLine
10
-14.504026
20
13.966684
30
0
11
-15.130039
21
14.592697
31
0
39
0
210
0
220
0
230
1
0
LINE
5
7F
100
AcDbEntity
8
SK1
62
256
6
ByLayer
370
18
48
1
60
0
100
AcDbLine
10
-15.116909
20
14.600278
30
0
11
-14.49966
21
13.983029
31
0
39
0
210
0
220
0
230
1
0
LINE
5
80
100
AcDbEntity
8
SK1
62
256
6
ByLayer
370
18
48
1
60
0
100
AcDbLine
10
-4.701747
20
4.185116
30
0
11
-4.084499
21
3.567868
31
0
39
0
210
0
220
0
230
1
0
LINE
5
81
100
AcDbEntity
8
SK1
62
256
6
ByLayer
370
18
48
1
60
0
100
AcDbLine
10
-4.72637
20
2.456114
30
0
11
-4.348667
21
3.110315
31
0
39
0
210
0
220
0
230
1
0
LINE
5
82
100
AcDbEntity
8
SK1
62
256
6
ByLayer
370
18
48
1
60
0
100
AcDbLine
10
-6.869392
20
-1.255708
30
0
11
-20.3488
21
12.2237
31
0
39
0
210
0
220
0
230
1
0
LINE
5
83
100
AcDbEntity
8
SK1
62
256
6
ByLayer
370
18
48
1
60
0
100
AcDbLine
10
-150.122277
20
12.4375
30
0
11
-150.122277
21
-12.4375
31
0
39
0
210
0
220
0
230
1
0
LINE
5
84
100
AcDbEntity
8
SK1
62
256
6
ByLayer
370
18
48
1
60
0
100
AcDbLine
10
-6.703012
20
-0.96753
30
0
11
-6.869392
21
-1.255708
31
0
39
0
210
0
220
0
230
1
0
LINE
5
85
100
AcDbEntity
8
SK1
62
256
6
ByLayer
370
18
48
1
60
0
100
AcDbLine
10
-15.116909
20
14.600278
30
0
11
-15.130039
21
14.592697
31
0
39
0
210
0
220
0
230
1
0
LINE
5
86
100
AcDbEntity
8
SK1
62
256
6
ByLayer
370
18
48
1
60
0
100
AcDbLine
10
-16.228663
20
13.958407
30
0
11
-15.574462
21
14.33611
31
0
39
0
210
0
220
0
230
1
0
LINE
5
87
100
AcDbEntity
8
SK1
62
256
6
ByLayer
370
18
48
1
60
0
100
AcDbLine
10
-6.869392
20
-1.255708
30
0
11
-13.325202
21
-12.4375
31
0
39
0
210
0
220
0
230
1
0
LINE
5
88
100
AcDbEntity
8
SK1
62
256
6
ByLayer
370
18
48
1
60
0
100
AcDbLine
10
-150.122277
20
12.4375
30
0
11
-25.117279
21
12.4375
31
0
39
0
210
0
220
0
230
1
0
LINE
5
89
100
AcDbEntity
8
SK1
62
256
6
ByLayer
370
18
48
1
60
0
100
AcDbLine
10
-4.348667
20
3.110315
30
0
11
-4.341244
21
3.123172
31
0
39
0
210
0
220
0
230
1
0
LINE
5
8A
100
AcDbEntity
8
SK1
62
256
6
ByLayer
370
18
48
1
60
0
100
AcDbLine
10
-16.228663
20
13.958407
30
0
11
-17.188852
21
13.404041
31
0
39
0
210
0
220
0
230
1
0
LINE
5
8B
100
AcDbEntity
8
SK1
62
256
6
ByLayer
370
18
48
1
60
0
100
AcDbLine
10
-15.574462
20
14.33611
30
0
11
-15.561605
21
14.343532
31
0
39
0
210
0
220
0
230
1
0
LINE
5
8C
100
AcDbEntity
8
SK1
62
256
6
ByLayer
370
18
48
1
60
0
100
AcDbLine
10
-15.561605
20
14.343532
30
0
11
-15.130039
21
14.592697
31
0
39
0
210
0
220
0
230
1
0
LINE
5
8D
100
AcDbEntity
8
SK1
62
256
6
ByLayer
370
18
48
1
60
0
100
AcDbLine
10
-4.341244
20
3.123172
30
0
11
-4.09208
21
3.554738
31
0
39
0
210
0
220
0
230
1
0
LINE
5
8E
100
AcDbEntity
8
SK1
62
256
6
ByLayer
370
18
48
1
60
0
100
AcDbLine
10
-4.084499
20
3.567868
30
0
11
-4.09208
21
3.554738
31
0
39
0
210
0
220
0
230
1
0
LINE
5
8F
100
AcDbEntity
8
SK1
62
256
6
ByLayer
370
18
48
1
60
0
100
AcDbLine
10
-19.813068
20
12.342527
30
0
11
-6.629807
21
-0.840735
31
0
39
0
210
0
220
0
230
1
0
LINE
5
90
100
AcDbEntity
8
SK1
62
256
6
ByLayer
370
18
48
1
60
0
100
AcDbLine
10
-6.629807
20
-0.840735
30
0
11
-6.703012
21
-0.96753
31
0
39
0
210
0
220
0
230
1
0
LINE
5
91
100
AcDbEntity
8
SK1
62
256
6
ByLayer
370
18
48
1
60
0
100
AcDbLine
10
-150.122277
20
-12.4375
30
0
11
-13.325202
21
-12.4375
31
0
39
0
210
0
220
0
230
1
0
LINE
5
92
100
AcDbEntity
8
SK1
62
256
6
ByLayer
370
18
48
1
60
0
100
AcDbLine
10
-6.703012
20
-0.96753
30
0
11
-19.974152
21
12.30361
31
0
39
0
210
0
220
0
230
1
0
LINE
5
93
100
AcDbEntity
8
SK1
62
256
6
ByLayer
370
18
48
1
60
0
100
AcDbLine
10
-4.72637
20
2.456114
30
0
11
-6.629807
21
-0.840735
31
0
39
0
210
0
220
0
230
1
0
LINE
5
94
100
AcDbEntity
8
1
62
256
6
ByLayer
370
18
48
1
60
0
100
AcDbLine
10
-8.610752
20
13.750976
30
0
11
-8.4163
21
13.556523
31
0
39
0
210
0
220
0
230
1
0
LINE
5
95
100
AcDbEntity
8
1
62
256
6
ByLayer
370
18
48
1
60
0
100
AcDbLine
10
-4.933801
20
10.074024
30
0
11
-5.128254
21
10.268477
31
0
39
0
210
0
220
0
230
1
0
LINE
5
96
100
AcDbEntity
8
80
62
256
6
ByLayer
370
18
48
1
60
0
100
AcDbLine
10
0
20
0
30
0
11
-5
21
0
31
0
39
0
210
0
220
0
230
1
0
LINE
5
97
100
AcDbEntity
8
81
62
256
6
ByLayer
370
18
48
1
60
0
100
AcDbLine
10
-0.122277
20
19.5625
30
0
11
9.877723
21
19.5625
31
0
39
0
210
0
220
0
230
1
0
LINE
5
98
100
AcDbEntity
8
1
62
256
6
ByLayer
370
18
48
1
60
0
100
AcDbLine
10
-5.347812
20
10.154984
30
0
11
-5.102236
21
10.40056
31
0
39
0
210
0
220
0
230
1
0
LINE
5
99
100
AcDbEntity
8
1
62
256
6
ByLayer
370
18
48
1
60
0
100
AcDbLine
10
-8.529792
20
13.336965
30
0
11
-8.284217
21
13.582541
31
0
39
0
210
0
220
0
230
1
0
MTEXT
5
CE
100
AcDbEntity
8
SK6
62
256
6
ByLayer
370
13
48
1
60
0
100
AcDbMText
10
-122.07541
20
-37.499425
30
0
210
0
220
0
230
1
1
\W0.7485;PRGCR 2525M 16
40
3.5
41
0
44
1.084337
50
0
71
7
72
5
7
iso_b_vert
0
DIMENSION
5
E0
100
AcDbEntity
8
SK2
62
256
6
ByLayer
370
13
48
1
60
0
100
AcDbDimension
2
DimnDraft3D1
10
-159.872277
20
-12.4375
30
0
11
-159.872277
21
0.0625
31
0
70
32
71
5
72
1
41
1
210
0
220
0
230
1
3
Standard
100
AcDbAlignedDimension
13
-151.709777
23
12.5625
33
0
14
-151.709777
24
-12.4375
34
0
50
90
100
AcDbRotatedDimension
1001
ACAD
1000
DSTYLE
1002
{
1070
    74
1070
     0
1070
   279
1070
     0
1070
   172
1070
     1
1070
   173
1070
     1
1070
   340
1005
CF
1070
   271
1070
     1
1070
   272
1070
     2
1070
    77
1070
     1
1070
    73
1070
     0
1070
   171
1070
     3
1070
   274
1070
     4
1070
   177
1070
   150
1070
   176
1070
     9
1070
   178
1070
    43
1070
    78
1070
     8
1070
    48
1040
-0.005
1070
    41
1041
3.175
1070
   147
1041
2.25
1070
    42
1041
1.5875
1070
    44
1041
3.175
1070
   140
1041
4.5
1070
   343
1005
E1
1070
   344
1005
E1
1002
}
0
DIMENSION
5
F5
100
AcDbEntity
8
2
62
256
6
ByLayer
370
13
48
1
60
0
100
AcDbDimension
2
DimnDraft3D2
10
17.727723
20
19.9125
30
0
11
17.727723
21
3.7375
31
0
70
32
71
5
72
1
41
1
210
0
220
0
230
1
3
Standard
100
AcDbAlignedDimension
13
-23.529779
23
-12.4375
33
0
14
2.815223
24
19.9125
34
0
50
90
100
AcDbRotatedDimension
1001
ACAD
1000
DSTYLE
1002
{
1070
    74
1070
     0
1070
   279
1070
     0
1070
   172
1070
     1
1070
   173
1070
     1
1070
   340
1005
CF
1070
   271
1070
     1
1070
   272
1070
     2
1070
    77
1070
     1
1070
    73
1070
     0
1070
   171
1070
     3
1070
   274
1070
     4
1070
   177
1070
   150
1070
   176
1070
     9
1070
   178
1070
    43
1070
    78
1070
     8
1070
    48
1040
-0.005
1070
    41
1041
3.175
1070
   147
1041
2.25
1070
    42
1041
1.5875
1070
    44
1041
3.175
1070
   140
1041
4.5
1070
   343
1005
E1
1070
   344
1005
E1
1002
}
0
DIMENSION
5
103
100
AcDbEntity
8
SK2
62
256
6
ByLayer
370
13
48
1
60
0
100
AcDbDimension
2
DimnDraft3D3
10
1.227723
20
37.4125
30
0
11
-74.447277
21
37.4125
31
0
70
32
71
5
72
1
41
1
210
0
220
0
230
1
3
Standard
100
AcDbAlignedDimension
13
-150.122277
23
14.15
33
0
14
1.227723
24
21.5
34
0
50
0
100
AcDbRotatedDimension
1001
ACAD
1000
DSTYLE
1002
{
1070
   279
1070
     0
1070
   172
1070
     1
1070
   173
1070
     1
1070
   340
1005
CF
1070
   271
1070
     1
1070
   272
1070
     2
1070
    77
1070
     1
1070
    73
1070
     0
1070
   171
1070
     3
1070
   274
1070
     4
1070
   177
1070
   150
1070
   176
1070
     9
1070
   178
1070
    43
1070
    78
1070
     8
1070
    48
1040
-0.005
1070
    41
1041
3.175
1070
   147
1041
2.25
1070
    42
1041
1.5875
1070
    44
1041
3.175
1070
   140
1041
4.5
1070
   343
1005
E1
1070
   344
1005
E1
1002
}
0
ENDSEC
0
SECTION
2
OBJECTS
0
DICTIONARY
5
16d
330
0
100
AcDbDictionary
280
0
281
1
3
ACAD_GROUP
350
16e
3
ACAD_MLINESTYLE
350
16f
0
DICTIONARY
5
16e
330
0
100
AcDbDictionary
280
0
281
1
0
DICTIONARY
5
16f
330
0
100
AcDbDictionary
280
0
281
1
3
Standard
350
18
0
MLINESTYLE
5
18
330
16f
100
AcDbMlineStyle
2
Standard
70
0
3

62
256
51
90
52
90
71
2
49
-0.5
62
256
6
ByLayer
49
0.5
62
256
6
ByLayer
0
RASTERVARIABLES
5
15c
330

100
AcDbRasterVariables
90
0
70
1
71
1
72
1
0
ENDSEC
0
EOF
