0
SECTION
2
HEADER
9
$ACADVER
1
AC1015
9
$DWGCODEPAGE
3
ANSI_1252
9
$HANDSEED
5
1c6
9
$ANGBASE
50
0
9
$ANGDIR
70
0
9
$ATTMODE
70
1
9
$AUNITS
70
0
9
$AUPREC
70
0
9
$CECOLOR
62
256
9
$CELTSCALE
40
1
9
$CELTYPE
6
ByLayer
9
$CELWEIGHT
370
18
9
$CLAYER
8
0
9
$CMLJUST
70
0
9
$CMLSCALE
40
1
9
$CMLSTYLE
2
Standard
9
$DIMSTYLE
2
Standard
9
$TEXTSIZE
40
0.2
9
$TEXTSTYLE
7
Standard
9
$LUNITS
70
2
9
$LUPREC
70
4
9
$EXTNAMES
290
1
9
$INSUNITS
70
4
9
$LTSCALE
40
1
9
$LWDISPLAY
290
1
9
$PDMODE
70
0
9
$PDSIZE
40
0
9
$PLINEGEN
70
0
0
ENDSEC
0
SECTION
2
CLASSES
0
CLASS
1
RASTERVARIABLES
2
AcDbRasterVariables
3
ISM
90
0
280
0
281
0
0
ENDSEC
0
SECTION
2
TABLES
0
TABLE
2
VPORT
5
1bc
100
AcDbSymbolTable
0
VPORT
5
1
100
AcDbSymbolTableRecord
100
AcDbViewportTableRecord
2
*Active
70
0
10
0
20
0
11
1
21
1
12
-1
22
1
13
0
23
0
14
0.5
24
0.5
15
10
25
10
16
0
26
0
36
1
17
0
27
0
37
0
0
ENDTAB
0
TABLE
2
LTYPE
5
1bd
100
AcDbSymbolTable
0
LTYPE
5
14
100
AcDbSymbolTableRecord
100
AcDbLinetypeTableRecord
70
0
2
ByBlock
3

72
65
73
0
40
0
0
LTYPE
5
15
100
AcDbSymbolTableRecord
100
AcDbLinetypeTableRecord
70
0
2
ByLayer
3

72
65
73
0
40
0
0
LTYPE
5
16
100
AcDbSymbolTableRecord
100
AcDbLinetypeTableRecord
70
0
2
CONTINUOUS
3
Solid line
72
65
73
0
40
0
0
LTYPE
5
6A
100
AcDbSymbolTableRecord
100
AcDbLinetypeTableRecord
70
0
2
CENTER
3
____ _ ____ _ ____ _ ____
72
65
73
4
40
47.5
49
22
74
0
49
-8.5
74
0
49
8.5
74
0
49
-8.5
74
0
0
LTYPE
5
6B
100
AcDbSymbolTableRecord
100
AcDbLinetypeTableRecord
70
0
2
DASHED
3
__ __ __ __ __ __ __ __ __
72
65
73
2
40
25.72
49
12.86
74
0
49
-12.86
74
0
0
ENDTAB
0
TABLE
2
LAYER
5
1be
100
AcDbSymbolTable
0
LAYER
5
10
100
AcDbSymbolTableRecord
100
AcDbLayerTableRecord
2
0
70
0
62
7
6
CONTINUOUS
290
1
370
-3
390
0
0
LAYER
5
6D
100
AcDbSymbolTableRecord
100
AcDbLayerTableRecord
2
80
70
0
62
-6
6
CONTINUOUS
290
1
370
-3
390
0
0
LAYER
5
6F
100
AcDbSymbolTableRecord
100
AcDbLayerTableRecord
2
81
70
0
62
-3
6
CONTINUOUS
290
1
370
-3
390
0
0
LAYER
5
71
100
AcDbSymbolTableRecord
100
AcDbLayerTableRecord
2
1
70
0
62
4
6
CONTINUOUS
290
1
370
-3
390
0
0
LAYER
5
128
100
AcDbSymbolTableRecord
100
AcDbLayerTableRecord
2
2
70
0
62
7
6
CONTINUOUS
290
1
370
-3
390
0
0
LAYER
5
1a9
100
AcDbSymbolTableRecord
100
AcDbLayerTableRecord
2
SK1
70
0
62
4
6
CONTINUOUS
290
1
370
-3
390
0
0
LAYER
5
1aa
100
AcDbSymbolTableRecord
100
AcDbLayerTableRecord
2
SK6
70
0
62
5
6
CONTINUOUS
290
1
370
-3
390
0
0
LAYER
5
1ab
100
AcDbSymbolTableRecord
100
AcDbLayerTableRecord
2
SK2
70
0
62
7
6
CONTINUOUS
290
1
370
-3
390
0
0
ENDTAB
0
TABLE
2
STYLE
5
1bf
100
AcDbSymbolTable
0
STYLE
5
11
100
AcDbSymbolTableRecord
100
AcDbTextStyleTableRecord
2
Standard
3
txt
70
0
71
0
40
0
41
1
42
0
50
0
0
STYLE
5
10D
100
AcDbSymbolTableRecord
100
AcDbTextStyleTableRecord
2
iso_b_vert
3
simplex.shx
70
0
71
0
40
0
41
1
42
0
50
0
0
STYLE
5
10E
100
AcDbSymbolTableRecord
100
AcDbTextStyleTableRecord
2
DWGDirectTextStyle
3
simplex
70
0
71
0
40
0
41
1
42
0
50
0
0
ENDTAB
0
TABLE
2
DIMSTYLE
5
1c0
100
AcDbSymbolTable
100
AcDbDimStyleTable
0
DIMSTYLE
105
27
100
AcDbSymbolTableRecord
100
AcDbDimStyleTableRecord
2
Standard
70
0
3
<>
41
0.18
42
0.0625
44
0.18
140
0.18
147
0.09
73
0
74
0
77
1
271
2
275
0
278
52
280
0
340
11
0
ENDTAB
0
TABLE
2
VIEW
5
1c1
100
AcDbSymbolTable
0
ENDTAB
0
TABLE
2
UCS
5
1c2
100
AcDbSymbolTable
0
ENDTAB
0
TABLE
2
APPID
5
1c3
100
AcDbSymbolTable
0
APPID
5
12
100
AcDbSymbolTableRecord
100
AcDbRegAppTableRecord
2
ACAD
70
0
0
ENDTAB
0
TABLE
2
BLOCK_RECORD
5
1c4
100
AcDbSymbolTable
0
BLOCK_RECORD
5
1F
100
AcDbSymbolTableRecord
100
AcDbBlockTableRecord
2
*Model_Space
340
0
70
0
0
BLOCK_RECORD
5
1B
100
AcDbSymbolTableRecord
100
AcDbBlockTableRecord
2
*Paper_Space
340
0
70
0
0
BLOCK_RECORD
5
23
100
AcDbSymbolTableRecord
100
AcDbBlockTableRecord
2
*Paper_Space0
340
0
70
0
0
BLOCK_RECORD
5
110
100
AcDbSymbolTableRecord
100
AcDbBlockTableRecord
2
DimnDraft3D1
340
0
70
0
0
BLOCK_RECORD
5
11F
100
AcDbSymbolTableRecord
100
AcDbBlockTableRecord
2
_CLOSED
340
0
70
0
0
BLOCK_RECORD
5
126
100
AcDbSymbolTableRecord
100
AcDbBlockTableRecord
2
DimnDraft3D2
340
0
70
0
0
BLOCK_RECORD
5
135
100
AcDbSymbolTableRecord
100
AcDbBlockTableRecord
2
DimnDraft3D3
340
0
70
0
0
BLOCK_RECORD
5
143
100
AcDbSymbolTableRecord
100
AcDbBlockTableRecord
2
DimnDraft3D4
340
0
70
0
0
ENDTAB
0
ENDSEC
0
SECTION
2
BLOCKS
0
BLOCK
5
20
100
AcDbEntity
8
0
100
AcDbBlockBegin
2
*Model_Space
70
0
10
0
20
0
30
0
3
*Model_Space
0
ENDBLK
5
21
100
AcDbEntity
8
0
100
AcDbBlockEnd
0
BLOCK
5
1C
100
AcDbEntity
8
0
100
AcDbBlockBegin
2
*Paper_Space
70
0
10
0
20
0
30
0
3
*Paper_Space
0
ENDBLK
5
1D
100
AcDbEntity
8
0
100
AcDbBlockEnd
0
BLOCK
5
24
100
AcDbEntity
8
0
100
AcDbBlockBegin
2
*Paper_Space0
70
0
10
0
20
0
30
0
3
*Paper_Space0
0
ENDBLK
5
25
100
AcDbEntity
8
0
100
AcDbBlockEnd
0
BLOCK
5
11C
100
AcDbEntity
8
0
100
AcDbBlockBegin
2
DimnDraft3D1
70
0
10
0
20
0
30
0
3
DimnDraft3D1
0
MTEXT
5
111
100
AcDbEntity
8
SK2
62
256
6
ByLayer
370
13
48
1
60
0
100
AcDbMText
10
-140.657203
20
-1.488158
30
0
210
0
220
0
230
1
1
\W0.6740;32
40
4.5
41
0
44
1.084337
50
90
71
7
72
5
7
iso_b_vert
0
LINE
5
113
100
AcDbEntity
8
SK2
62
256
6
ByLayer
370
13
48
1
60
0
100
AcDbLine
10
-131.369703
20
16.075
30
0
11
-142.707203
21
16.075
31
0
39
0
210
0
220
0
230
1
0
LINE
5
114
100
AcDbEntity
8
SK2
62
256
6
ByLayer
370
13
48
1
60
0
100
AcDbLine
10
-131.369703
20
-15.925
30
0
11
-142.707203
21
-15.925
31
0
39
0
210
0
220
0
230
1
0
LINE
5
115
100
AcDbEntity
8
SK2
62
256
6
ByLayer
370
13
48
1
60
0
100
AcDbLine
10
-139.532203
20
16.075
30
0
11
-139.532203
21
-15.925
31
0
39
0
210
0
220
0
230
1
0
LINE
5
116
100
AcDbEntity
8
SK2
62
256
6
ByLayer
370
13
48
1
60
0
100
AcDbLine
10
-139.532203
20
16.075
30
0
11
-138.681465
21
12.900003
31
0
39
0
210
0
220
0
230
1
0
LINE
5
117
100
AcDbEntity
8
SK2
62
256
6
ByLayer
370
13
48
1
60
0
100
AcDbLine
10
-139.532203
20
16.075
30
0
11
-140.382942
21
12.899997
31
0
39
0
210
0
220
0
230
1
0
LINE
5
118
100
AcDbEntity
8
SK2
62
256
6
ByLayer
370
13
48
1
60
0
100
AcDbLine
10
-138.681465
20
12.900003
30
0
11
-140.382942
21
12.899997
31
0
39
0
210
0
220
0
230
1
0
LINE
5
119
100
AcDbEntity
8
SK2
62
256
6
ByLayer
370
13
48
1
60
0
100
AcDbLine
10
-139.532203
20
-15.925
30
0
11
-140.382942
21
-12.750003
31
0
39
0
210
0
220
0
230
1
0
LINE
5
11A
100
AcDbEntity
8
SK2
62
256
6
ByLayer
370
13
48
1
60
0
100
AcDbLine
10
-139.532203
20
-15.925
30
0
11
-138.681465
21
-12.749997
31
0
39
0
210
0
220
0
230
1
0
LINE
5
11B
100
AcDbEntity
8
SK2
62
256
6
ByLayer
370
13
48
1
60
0
100
AcDbLine
10
-140.382942
20
-12.750003
30
0
11
-138.681465
21
-12.749997
31
0
39
0
210
0
220
0
230
1
0
ENDBLK
5
11D
100
AcDbEntity
8
0
100
AcDbBlockEnd
0
BLOCK
5
120
100
AcDbEntity
8
0
100
AcDbBlockBegin
2
_CLOSED
70
0
10
0
20
0
30
0
3
_CLOSED
0
LINE
5
122
100
AcDbEntity
8
0
62
256
6
ByLayer
370
-2
48
1
60
0
100
AcDbLine
10
-1
20
0.166667
30
0
11
0
21
0
31
0
39
0
210
0
220
0
230
1
0
LINE
5
123
100
AcDbEntity
8
0
62
256
6
ByLayer
370
-2
48
1
60
0
100
AcDbLine
10
0
20
0
30
0
11
-1
21
-0.166667
31
0
39
0
210
0
220
0
230
1
0
LINE
5
124
100
AcDbEntity
8
0
62
256
6
ByLayer
370
-2
48
1
60
0
100
AcDbLine
10
-1
20
0.166667
30
0
11
-1
21
-0.166667
31
0
39
0
210
0
220
0
230
1
0
LINE
5
125
100
AcDbEntity
8
0
62
256
6
ByLayer
370
-2
48
1
60
0
100
AcDbLine
10
0
20
0
30
0
11
-1
21
0
31
0
39
0
210
0
220
0
230
1
0
ENDBLK
5
121
100
AcDbEntity
8
0
100
AcDbBlockEnd
0
BLOCK
5
132
100
AcDbEntity
8
0
100
AcDbBlockBegin
2
DimnDraft3D2
70
0
10
0
20
0
30
0
3
DimnDraft3D2
0
MTEXT
5
127
100
AcDbEntity
8
2
62
256
6
ByLayer
370
13
48
1
60
0
100
AcDbMText
10
56.942797
20
2.45
30
0
210
0
220
0
230
1
1
\W0.7361;40
40
4.5
41
0
44
1.084337
50
90
71
7
72
5
7
iso_b_vert
0
LINE
5
129
100
AcDbEntity
8
2
62
256
6
ByLayer
370
13
48
1
60
0
100
AcDbLine
10
1.5875
20
-15.925
30
0
11
61.242797
21
-15.925
31
0
39
0
210
0
220
0
230
1
0
LINE
5
12A
100
AcDbEntity
8
2
62
256
6
ByLayer
370
13
48
1
60
0
100
AcDbLine
10
43.155297
20
24.425
30
0
11
61.242797
21
24.425
31
0
39
0
210
0
220
0
230
1
0
LINE
5
12B
100
AcDbEntity
8
2
62
256
6
ByLayer
370
13
48
1
60
0
100
AcDbLine
10
58.067797
20
-15.925
30
0
11
58.067797
21
24.425
31
0
39
0
210
0
220
0
230
1
0
LINE
5
12C
100
AcDbEntity
8
2
62
256
6
ByLayer
370
13
48
1
60
0
100
AcDbLine
10
58.067797
20
-15.925
30
0
11
57.217058
21
-12.750003
31
0
39
0
210
0
220
0
230
1
0
LINE
5
12D
100
AcDbEntity
8
2
62
256
6
ByLayer
370
13
48
1
60
0
100
AcDbLine
10
58.067797
20
-15.925
30
0
11
58.918535
21
-12.749997
31
0
39
0
210
0
220
0
230
1
0
LINE
5
12E
100
AcDbEntity
8
2
62
256
6
ByLayer
370
13
48
1
60
0
100
AcDbLine
10
57.217058
20
-12.750003
30
0
11
58.918535
21
-12.749997
31
0
39
0
210
0
220
0
230
1
0
LINE
5
12F
100
AcDbEntity
8
2
62
256
6
ByLayer
370
13
48
1
60
0
100
AcDbLine
10
58.067797
20
24.425
30
0
11
58.918535
21
21.250003
31
0
39
0
210
0
220
0
230
1
0
LINE
5
130
100
AcDbEntity
8
2
62
256
6
ByLayer
370
13
48
1
60
0
100
AcDbLine
10
58.067797
20
24.425
30
0
11
57.217058
21
21.249997
31
0
39
0
210
0
220
0
230
1
0
LINE
5
131
100
AcDbEntity
8
2
62
256
6
ByLayer
370
13
48
1
60
0
100
AcDbLine
10
58.918535
20
21.250003
30
0
11
57.217058
21
21.249997
31
0
39
0
210
0
220
0
230
1
0
ENDBLK
5
133
100
AcDbEntity
8
0
100
AcDbBlockEnd
0
BLOCK
5
140
100
AcDbEntity
8
0
100
AcDbBlockBegin
2
DimnDraft3D3
70
0
10
0
20
0
30
0
3
DimnDraft3D3
0
MTEXT
5
136
100
AcDbEntity
8
SK2
62
256
6
ByLayer
370
13
48
1
60
0
100
AcDbMText
10
-46.78944
20
43.05
30
0
210
0
220
0
230
1
1
\W0.6217;170
40
4.5
41
0
44
1.084337
50
0
71
7
72
5
7
iso_b_vert
0
LINE
5
137
100
AcDbEntity
8
SK2
62
256
6
ByLayer
370
13
48
1
60
0
100
AcDbLine
10
-129.782203
20
17.6625
30
0
11
-129.782203
21
45.1
31
0
39
0
210
0
220
0
230
1
0
LINE
5
138
100
AcDbEntity
8
SK2
62
256
6
ByLayer
370
13
48
1
60
0
100
AcDbLine
10
41.567797
20
26.0125
30
0
11
41.567797
21
45.1
31
0
39
0
210
0
220
0
230
1
0
LINE
5
139
100
AcDbEntity
8
SK2
62
256
6
ByLayer
370
13
48
1
60
0
100
AcDbLine
10
-129.782203
20
41.925
30
0
11
41.567797
21
41.925
31
0
39
0
210
0
220
0
230
1
0
LINE
5
13A
100
AcDbEntity
8
SK2
62
256
6
ByLayer
370
13
48
1
60
0
100
AcDbLine
10
-129.782203
20
41.925
30
0
11
-126.607206
21
42.775739
31
0
39
0
210
0
220
0
230
1
0
LINE
5
13B
100
AcDbEntity
8
SK2
62
256
6
ByLayer
370
13
48
1
60
0
100
AcDbLine
10
-129.782203
20
41.925
30
0
11
-126.6072
21
41.074261
31
0
39
0
210
0
220
0
230
1
0
LINE
5
13C
100
AcDbEntity
8
SK2
62
256
6
ByLayer
370
13
48
1
60
0
100
AcDbLine
10
-126.607206
20
42.775739
30
0
11
-126.6072
21
41.074261
31
0
39
0
210
0
220
0
230
1
0
LINE
5
13D
100
AcDbEntity
8
SK2
62
256
6
ByLayer
370
13
48
1
60
0
100
AcDbLine
10
41.567797
20
41.925
30
0
11
38.3928
21
41.074261
31
0
39
0
210
0
220
0
230
1
0
LINE
5
13E
100
AcDbEntity
8
SK2
62
256
6
ByLayer
370
13
48
1
60
0
100
AcDbLine
10
41.567797
20
41.925
30
0
11
38.392794
21
42.775739
31
0
39
0
210
0
220
0
230
1
0
LINE
5
13F
100
AcDbEntity
8
SK2
62
256
6
ByLayer
370
13
48
1
60
0
100
AcDbLine
10
38.3928
20
41.074261
30
0
11
38.392794
21
42.775739
31
0
39
0
210
0
220
0
230
1
0
ENDBLK
5
141
100
AcDbEntity
8
0
100
AcDbBlockEnd
0
BLOCK
5
14D
100
AcDbEntity
8
0
100
AcDbBlockBegin
2
DimnDraft3D4
70
0
10
0
20
0
30
0
3
DimnDraft3D4
0
MTEXT
5
144
100
AcDbEntity
8
2
62
256
6
ByLayer
370
13
48
1
60
0
100
AcDbMText
10
27.963814
20
29.839082
30
0
210
0
220
0
230
1
1
\W0.8292;93%%d0'
40
4.5
41
0
44
1.084337
50
46.5
71
7
72
5
7
iso_b_vert
0
LINE
5
145
100
AcDbEntity
8
2
62
256
6
ByLayer
370
13
48
1
60
0
100
AcDbLine
10
41.567797
20
26.0125
30
0
11
41.567797
21
40.083093
31
0
39
0
210
0
220
0
230
1
0
ARC
5
146
100
AcDbEntity
8
2
62
256
6
ByLayer
370
13
48
1
60
0
100
AcDbCircle
39
0
10
41.567797
20
24.467688
30
0
40
12.4404046845569
210
0
220
0
230
1
100
AcDbArc
50
90
51
183
0
LINE
5
147
100
AcDbEntity
8
2
62
256
6
ByLayer
370
13
48
1
60
0
100
AcDbLine
10
41.567797
20
36.908093
30
0
11
38.453144
21
35.857713
31
0
39
0
210
0
220
0
230
1
0
LINE
5
148
100
AcDbEntity
8
2
62
256
6
ByLayer
370
13
48
1
60
0
100
AcDbLine
10
41.567797
20
36.908093
30
0
11
38.345232
21
37.555764
31
0
39
0
210
0
220
0
230
1
0
LINE
5
149
100
AcDbEntity
8
2
62
256
6
ByLayer
370
13
48
1
60
0
100
AcDbLine
10
38.453144
20
35.857713
30
0
11
38.345232
21
37.555764
31
0
39
0
210
0
220
0
230
1
0
LINE
5
14A
100
AcDbEntity
8
2
62
256
6
ByLayer
370
13
48
1
60
0
100
AcDbLine
10
29.144441
20
23.816607
30
0
11
28.329001
21
27.000853
31
0
39
0
210
0
220
0
230
1
0
LINE
5
14B
100
AcDbEntity
8
2
62
256
6
ByLayer
370
13
48
1
60
0
100
AcDbLine
10
29.144441
20
23.816607
30
0
11
30.030373
21
26.981971
31
0
39
0
210
0
220
0
230
1
0
LINE
5
14C
100
AcDbEntity
8
2
62
256
6
ByLayer
370
13
48
1
60
0
100
AcDbLine
10
28.329001
20
27.000853
30
0
11
30.030373
21
26.981971
31
0
39
0
210
0
220
0
230
1
0
ENDBLK
5
14E
100
AcDbEntity
8
0
100
AcDbBlockEnd
0
ENDSEC
0
SECTION
2
ENTITIES
0
ARC
5
C0
100
AcDbEntity
8
1
62
256
6
ByLayer
370
18
48
1
60
0
100
AcDbCircle
39
0
10
0
20
17.525
30
0
40
1.60000000000002
210
0
220
0
230
-1
100
AcDbArc
50
195
51
270
0
ELLIPSE
5
C1
100
AcDbEntity
8
1
62
256
6
ByLayer
370
18
48
1
60
0
100
AcDbEllipse
10
13.253221
20
11.355353
30
0
11
0.938734102740339
21
-1.29567676692619
31
0
210
0
220
0
230
1
40
0.155788
41
-1.54798996892076
42
-0.482523932228432
0
ELLIPSE
5
C2
100
AcDbEntity
8
1
62
256
6
ByLayer
370
18
48
1
60
0
100
AcDbEllipse
10
14.959017
20
8.595591
30
0
11
-2.2330824107396
21
2.29201722219651
31
0
210
0
220
0
230
1
40
0.987534
41
-1.49047303045787
42
-1.00557713592235
0
ELLIPSE
5
C3
100
AcDbEntity
8
1
62
256
6
ByLayer
370
18
48
1
60
0
100
AcDbEllipse
10
14.959017
20
8.595591
30
0
11
-2.2330824107396
21
2.29201722219651
31
0
210
0
220
0
230
1
40
0.987534
41
-0.632535335777201
42
-0.143598835140126
0
ELLIPSE
5
C4
100
AcDbEntity
8
1
62
256
6
ByLayer
370
18
48
1
60
0
100
AcDbEllipse
10
17.216378
20
11.153381
30
0
11
1.05392669754999
21
1.20384322741433
31
0
210
0
220
0
230
1
40
0.01263
41
1.7283601341269
42
1.83870832317906
0
ELLIPSE
5
C5
100
AcDbEntity
8
1
62
256
6
ByLayer
370
18
48
1
60
0
100
AcDbEllipse
10
25.035797
20
10.209732
30
0
11
0.0958602922575337
21
0.155667897653372
31
0
210
0
220
0
230
-1
40
0.022144
41
3.01106452656959
42
-1.68968892551771
0
ELLIPSE
5
C6
100
AcDbEntity
8
1
62
256
6
ByLayer
370
18
48
1
60
0
100
AcDbEllipse
10
23.79317
20
14.018308
30
0
11
1.81437945872593
21
-1.86226399303466
31
0
210
0
220
0
230
1
40
0.987534
41
-2.8954630783133
42
-2.55412530611388
0
ELLIPSE
5
C7
100
AcDbEntity
8
1
62
256
6
ByLayer
370
18
48
1
60
0
100
AcDbEllipse
10
0
20
-15.931981
30
0
11
1.60000000000007
21
1.61702248813185E-15
31
0
210
0
220
0
230
-1
40
0.004363
41
-1.5707963267949
42
-0.261799387798645
0
ELLIPSE
5
C8
100
AcDbEntity
8
1
62
256
6
ByLayer
370
18
48
1
60
0
100
AcDbEllipse
10
21.67386
20
9.159127
30
0
11
1.75510285115551
21
-1.80142297580602
31
0
210
0
220
0
230
1
40
0.987534
41
-0.6661706854149
42
0.24612957527651
0
ELLIPSE
5
C9
100
AcDbEntity
8
1
62
256
6
ByLayer
370
18
48
1
60
0
100
AcDbEllipse
10
25.41459
20
16.667004
30
0
11
1.81437945872593
21
-1.86226399303465
31
0
210
0
220
0
230
1
40
0.987534
41
3.04638445666689
42
-2.89546307831331
0
ELLIPSE
5
CA
100
AcDbEntity
8
1
62
256
6
ByLayer
370
18
48
1
60
0
100
AcDbEllipse
10
21.086227
20
9.663215
30
0
11
-1.68531902581989
21
1.72979743761238
31
0
210
0
220
0
230
1
40
0.987534
41
0.246129575276479
42
0.861220807495312
0
ELLIPSE
5
CB
100
AcDbEntity
8
1
62
256
6
ByLayer
370
18
48
1
60
0
100
AcDbEllipse
10
16.010942
20
9.620467
30
0
11
1.09367097152216
21
-1.16789284136088
31
0
210
0
220
0
230
-1
40
0.954089
41
-3.01686955682662
42
-1.66999536150861
0
ELLIPSE
5
CC
100
AcDbEntity
8
1
62
256
6
ByLayer
370
18
48
1
60
0
100
AcDbEllipse
10
3.358775
20
4.186702
30
0
11
0.017501323686602
21
1.96492628642756
31
0
210
0
220
0
230
-1
40
0.211073
41
2.96421888908074
42
-1.74817009130431
0
ELLIPSE
5
CD
100
AcDbEntity
8
1
62
256
6
ByLayer
370
18
48
1
60
0
100
AcDbEllipse
10
19.612441
20
10.799112
30
0
11
0.553909113601427
21
-0.568527709412023
31
0
210
0
220
0
230
1
40
0.987534
41
-2.05627389022541
42
-0.713801513320405
0
ELLIPSE
5
CE
100
AcDbEntity
8
1
62
256
6
ByLayer
370
18
48
1
60
0
100
AcDbEllipse
10
29.837812
20
16.868824
30
0
11
-1.79902701715209
21
1.84650637463206
31
0
210
0
220
0
230
1
40
0.987534
41
-2.94391696274906
42
-2.54002600343851
0
ELLIPSE
5
CF
100
AcDbEntity
8
1
62
256
6
ByLayer
370
18
48
1
60
0
100
AcDbEllipse
10
29.837812
20
16.868824
30
0
11
-1.79902701715209
21
1.84650637463206
31
0
210
0
220
0
230
1
40
0.987534
41
-0.938697240715167
42
-0.197674269185651
0
ELLIPSE
5
D0
100
AcDbEntity
8
1
62
256
6
ByLayer
370
18
48
1
60
0
100
AcDbEllipse
10
33.560692
20
13.09381
30
0
11
0.837405904027354
21
-0.859506458323689
31
0
210
0
220
0
230
1
40
0.987534
41
-0.233835969021966
42
4.61459178704122E-06
0
ELLIPSE
5
D1
100
AcDbEntity
8
1
62
256
6
ByLayer
370
18
48
1
60
0
100
AcDbEllipse
10
29.189534
20
16.237215
30
0
11
-1.93650115306325
21
1.98760868487354
31
0
210
0
220
0
230
1
40
0.987534
41
-2.6792284864597
42
-2.4830403361125
0
ELLIPSE
5
D2
100
AcDbEntity
8
1
62
256
6
ByLayer
370
18
48
1
60
0
100
AcDbEllipse
10
29.189534
20
16.237215
30
0
11
-1.93650115306325
21
1.98760868487354
31
0
210
0
220
0
230
1
40
0.987534
41
-0.707340581141779
42
-0.462334480131131
0
ELLIPSE
5
D3
100
AcDbEntity
8
1
62
256
6
ByLayer
370
18
48
1
60
0
100
AcDbEllipse
10
30.263337
20
17.89749
30
0
11
1.81437945872593
21
-1.86226399303466
31
0
210
0
220
0
230
1
40
0.987534
41
-1.4890504223125
42
0.358197683290105
0
ELLIPSE
5
D4
100
AcDbEntity
8
1
62
256
6
ByLayer
370
18
48
1
60
0
100
AcDbEllipse
10
30.336705
20
17.354889
30
0
11
1.6399198953869
21
-1.68320014755056
31
0
210
0
220
0
230
1
40
0.987534
41
-2.58487766018389
42
-2.34663043062033
0
ELLIPSE
5
D5
100
AcDbEntity
8
1
62
256
6
ByLayer
370
18
48
1
60
0
100
AcDbEllipse
10
29.677068
20
17.326295
30
0
11
-1.81437945872593
21
1.86226399303466
31
0
210
0
220
0
230
1
40
0.987534
41
2.84347804410174
42
3.14158514802219
0
ELLIPSE
5
D6
100
AcDbEntity
8
1
62
256
6
ByLayer
370
18
48
1
60
0
100
AcDbEllipse
10
28.983776
20
16.036748
30
0
11
1.98883902206497
21
-2.04132783851876
31
0
210
0
220
0
230
1
40
0.987534
41
2.52891192301872
42
2.61093886523928
0
ELLIPSE
5
D7
100
AcDbEntity
8
1
62
256
6
ByLayer
370
18
48
1
60
0
100
AcDbEllipse
10
28.983776
20
16.036748
30
0
11
1.98883902206497
21
-2.04132783851876
31
0
210
0
220
0
230
1
40
0.987534
41
0.53067338130606
42
0.644797593459284
0
ELLIPSE
5
D8
100
AcDbEntity
8
1
62
256
6
ByLayer
370
18
48
1
60
0
100
AcDbEllipse
10
28.983776
20
16.036748
30
0
11
2.07012279951088
21
-2.12475683195636
31
0
210
0
220
0
230
1
40
0.987534
41
2.36274421319841
42
2.38554986737479
0
ELLIPSE
5
D9
100
AcDbEntity
8
1
62
256
6
ByLayer
370
18
48
1
60
0
100
AcDbEllipse
10
14.813547
20
15.223509
30
0
11
1.08513848396878
21
-1.11377711891111
31
0
210
0
220
0
230
1
40
0.987534
41
0.166063775877553
42
0.804690822844406
0
ELLIPSE
5
DA
100
AcDbEntity
8
1
62
256
6
ByLayer
370
18
48
1
60
0
100
AcDbEllipse
10
14.813547
20
15.223509
30
0
11
1.08513848396878
21
-1.11377711891111
31
0
210
0
220
0
230
1
40
0.987534
41
0.80469017589323
42
2.8938495261287
0
ELLIPSE
5
DB
100
AcDbEntity
8
1
62
256
6
ByLayer
370
18
48
1
60
0
100
AcDbEllipse
10
14.926291
20
15.333354
30
0
11
-1.08513848396877
21
1.11377711891112
31
0
210
0
220
0
230
1
40
0.987534
41
-0.422459640635512
42
-0.212803999713409
0
ELLIPSE
5
DC
100
AcDbEntity
8
1
62
256
6
ByLayer
370
18
48
1
60
0
100
AcDbEllipse
10
14.926291
20
15.333354
30
0
11
-1.08513848396877
21
1.11377711891112
31
0
210
0
220
0
230
1
40
0.987534
41
-3.05435612323207
42
-2.95991214823888
0
ELLIPSE
5
DD
100
AcDbEntity
8
1
62
256
6
ByLayer
370
18
48
1
60
0
100
AcDbEllipse
10
28.972619
20
22.612691
30
0
11
-0.837405904027351
21
0.859506458323691
31
0
210
0
220
0
230
1
40
0.987534
41
-0.713801513320383
42
-0.233835969021971
0
ELLIPSE
5
DE
100
AcDbEntity
8
1
62
256
6
ByLayer
370
18
48
1
60
0
100
AcDbEllipse
10
26.830857
20
21.341355
30
0
11
-0.837405904027351
21
0.859506458323691
31
0
210
0
220
0
230
1
40
0.987534
41
-0.233835969021909
42
0.24612957527649
0
ELLIPSE
5
DF
100
AcDbEntity
8
1
62
256
6
ByLayer
370
18
48
1
60
0
100
AcDbEllipse
10
32.134855
20
12.51999
30
0
11
-0.837405904027351
21
0.859506458323691
31
0
210
0
220
0
230
1
40
0.987534
41
2.42779114026939
42
2.90775668456786
0
ELLIPSE
5
E0
100
AcDbEntity
8
1
62
256
6
ByLayer
370
18
48
1
60
0
100
AcDbEllipse
10
40.779108
20
23.636053
30
0
11
-0.553909113601425
21
0.568527709412025
31
0
210
0
220
0
230
1
40
0.987534
41
-2.89546307831329
42
-0.713801513320407
0
ELLIPSE
5
E1
100
AcDbEntity
8
1
62
256
6
ByLayer
370
18
48
1
60
0
100
AcDbEllipse
10
34.276617
20
13.791326
30
0
11
-0.837405904027351
21
0.859506458323691
31
0
210
0
220
0
230
1
40
0.987534
41
2.90775668456785
42
-2.89546307831331
0
ELLIPSE
5
E2
100
AcDbEntity
8
1
62
256
6
ByLayer
370
18
48
1
60
0
100
AcDbEllipse
10
20.328366
20
11.496628
30
0
11
-0.553909113601425
21
0.568527709412025
31
0
210
0
220
0
230
1
40
0.987534
41
0.246129575276505
42
2.42779114026939
0
ELLIPSE
5
E3
100
AcDbEntity
8
1
62
256
6
ByLayer
370
18
48
1
60
0
100
AcDbEllipse
10
30.553737
20
17.566341
30
0
11
-1.79902701715209
21
1.84650637463206
31
0
210
0
220
0
230
1
40
0.987534
41
0
42
6.28318530717959
0
ELLIPSE
5
E4
100
AcDbEntity
8
1
62
256
6
ByLayer
370
18
48
1
60
0
100
AcDbEllipse
10
30.410072
20
16.812288
30
0
11
1.81437945872593
21
-1.86226399303466
31
0
210
0
220
0
230
1
40
0.987534
41
1.49541828381847
42
-2.7833949702997
0
ELLIPSE
5
E5
100
AcDbEntity
8
1
62
256
6
ByLayer
370
18
48
1
60
0
100
AcDbEllipse
10
30.336705
20
17.354889
30
0
11
1.6399198953869
21
-1.68320014755056
31
0
210
0
220
0
230
1
40
0.987534
41
0.556714993405918
42
1.29690097370267
0
ELLIPSE
5
E6
100
AcDbEntity
8
1
62
256
6
ByLayer
370
18
48
1
60
0
100
AcDbEllipse
10
30.370528
20
17.387842
30
0
11
-1.43056841938006
21
1.46832353296964
31
0
210
0
220
0
230
1
40
0.987534
41
0.571248083191526
42
1.28236788391705
0
ELLIPSE
5
E7
100
AcDbEntity
8
1
62
256
6
ByLayer
370
18
48
1
60
0
100
AcDbEllipse
10
30.443895
20
16.845242
30
0
11
-1.60502798271909
21
1.64738737845374
31
0
210
0
220
0
230
1
40
0.987534
41
-1.63313016874083
42
0.345153482259601
0
ELLIPSE
5
E8
100
AcDbEntity
8
1
62
256
6
ByLayer
370
18
48
1
60
0
100
AcDbEllipse
10
30.297161
20
17.930443
30
0
11
-1.60502798271909
21
1.64738737845374
31
0
210
0
220
0
230
1
40
0.987534
41
1.50846248484897
42
-2.79643917133017
0
ELLIPSE
5
E9
100
AcDbEntity
8
1
62
256
6
ByLayer
370
18
48
1
60
0
100
AcDbEllipse
10
30.370528
20
17.387842
30
0
11
-1.43056841938006
21
1.46832353296964
31
0
210
0
220
0
230
1
40
0.987534
41
-2.57034457039827
42
-1.85922476967275
0
ELLIPSE
5
EA
100
AcDbEntity
8
1
62
256
6
ByLayer
370
18
48
1
60
0
100
AcDbEllipse
10
14.926291
20
15.333354
30
0
11
-1.08513848396877
21
1.11377711891112
31
0
210
0
220
0
230
1
40
0.987534
41
-2.51685474302872
42
-1.9127145970423
0
ELLIPSE
5
EB
100
AcDbEntity
8
1
62
256
6
ByLayer
370
18
48
1
60
0
100
AcDbEllipse
10
15.353027
20
15.749117
30
0
11
-1.08513848396877
21
1.11377711891112
31
0
210
0
220
0
230
1
40
0.987534
41
2.27607560774411
42
2.71913301295428
0
ELLIPSE
5
EC
100
AcDbEntity
8
1
62
256
6
ByLayer
370
18
48
1
60
0
100
AcDbEllipse
10
15.291018
20
15.688703
30
0
11
2.79135301342451
21
-2.86502152774563
31
0
210
0
220
0
230
1
40
0.987534
41
0
42
6.28318530717959
0
ELLIPSE
5
ED
100
AcDbEntity
8
1
62
256
6
ByLayer
370
18
48
1
60
0
100
AcDbEllipse
10
15.353027
20
15.749117
30
0
11
-1.08513848396877
21
1.11377711891112
31
0
210
0
220
0
230
1
40
0.987534
41
1.2288780565475
42
1.67193546175769
0
ELLIPSE
5
EE
100
AcDbEntity
8
1
62
256
6
ByLayer
370
18
48
1
60
0
100
AcDbEllipse
10
15.377267
20
15.772734
30
0
11
1.34500711567854
21
-1.38050412214344
31
0
210
0
220
0
230
1
40
0.987534
41
0
42
6.28318530717959
0
ELLIPSE
5
EF
100
AcDbEntity
8
1
62
256
6
ByLayer
370
18
48
1
60
0
100
AcDbEllipse
10
15.353027
20
15.749117
30
0
11
-1.08513848396877
21
1.11377711891112
31
0
210
0
220
0
230
1
40
0.987534
41
-1.9127145970423
42
-1.46965719183212
0
ELLIPSE
5
F0
100
AcDbEntity
8
1
62
256
6
ByLayer
370
18
48
1
60
0
100
AcDbEllipse
10
14.926291
20
15.333354
30
0
11
-1.08513848396877
21
1.11377711891112
31
0
210
0
220
0
230
1
40
0.987534
41
-1.46965719183211
42
-0.865517045845722
0
ELLIPSE
5
F1
100
AcDbEntity
8
1
62
256
6
ByLayer
370
18
48
1
60
0
100
AcDbEllipse
10
15.377267
20
15.772734
30
0
11
2.25750674960707
21
-2.31708616056428
31
0
210
0
220
0
230
1
40
0.987534
41
0
42
6.28318530717959
0
ELLIPSE
5
F2
100
AcDbEntity
8
1
62
256
6
ByLayer
370
18
48
1
60
0
100
AcDbEllipse
10
15.353027
20
15.749117
30
0
11
-1.08513848396877
21
1.11377711891112
31
0
210
0
220
0
230
1
40
0.987534
41
-0.86551704584571
42
-0.422459640635498
0
ELLIPSE
5
F3
100
AcDbEntity
8
1
62
256
6
ByLayer
370
18
48
1
60
0
100
AcDbEllipse
10
15.353027
20
15.749117
30
0
11
-1.08513848396877
21
1.11377711891112
31
0
210
0
220
0
230
1
40
0.987534
41
-2.95991214823889
42
-2.51685474302872
0
ELLIPSE
5
F4
100
AcDbEntity
8
1
62
256
6
ByLayer
370
18
48
1
60
0
100
AcDbEllipse
10
15.353027
20
15.749117
30
0
11
-1.08513848396877
21
1.11377711891112
31
0
210
0
220
0
230
1
40
0.987534
41
0.181680505350904
42
0.624737910561099
0
POINT
5
6C
100
AcDbEntity
8
80
62
256
6
ByLayer
370
18
48
1
60
0
100
AcDbPoint
10
0
20
0
30
0
39
0
210
0
220
0
230
1
50
360
0
POINT
5
6E
100
AcDbEntity
8
81
62
256
6
ByLayer
370
18
48
1
60
0
100
AcDbPoint
10
40.217797
20
24.075
30
0
39
0
210
0
220
0
230
1
50
360
0
POINT
5
70
100
AcDbEntity
8
1
62
256
6
ByLayer
370
18
48
1
60
0
100
AcDbPoint
10
-129.782203
20
-15.925
30
0
39
0
210
0
220
0
230
1
50
360
0
SPLINE
5
F5
100
AcDbEntity
8
1
62
256
6
ByLayer
370
18
48
1
60
0
100
AcDbSpline
70
4
71
3
72
9
73
5
40
0
40
0
40
0
40
0
40
0.739181483022385
40
1
40
1
40
1
40
1
41
1
10
31.5532723625765
20
15.5222007786336
30
0
41
1
10
31.4813935726568
20
15.4445372433529
30
0
41
1
10
31.3769281684217
20
15.3468788640531
30
0
41
1
10
31.2578672500692
20
15.2686820031603
30
0
41
1
10
31.2260425471791
20
15.2491772010219
30
0
0
SPLINE
5
F6
100
AcDbEntity
8
1
62
256
6
ByLayer
370
18
48
1
60
0
100
AcDbSpline
70
4
71
3
72
10
73
6
40
0
40
0
40
0
40
0
40
0.131407178483459
40
0.131407178483459
40
1
40
1
40
1
40
1
41
1
10
18.7305171287208
20
9.24428962002978
30
0
41
1
10
18.7280421418712
20
9.25656645841997
30
0
41
1
10
18.7256724115148
20
9.26885701576086
30
0
41
1
10
18.7084496773112
20
9.36246169655368
30
0
41
1
10
18.6980280314496
20
9.44455799753283
30
0
41
1
10
18.692290318362
20
9.5275888430962
30
0
0
SPLINE
5
F7
100
AcDbEntity
8
1
62
256
6
ByLayer
370
18
48
1
60
0
100
AcDbSpline
70
4
71
3
72
8
73
4
40
0
40
0
40
0
40
0
40
1
40
1
40
1
40
1
41
1
10
21.6532945392569
20
6.66155340182411
30
0
41
1
10
21.7533359996383
20
6.65832462467284
30
0
41
1
10
21.8536013792676
20
6.6616438430745
30
0
41
1
10
21.9543459423878
20
6.67176224311768
30
0
0
SPLINE
5
F8
100
AcDbEntity
8
1
62
256
6
ByLayer
370
18
48
1
60
0
100
AcDbSpline
70
4
71
3
72
8
73
4
40
0
40
0
40
0
40
0
40
1
40
1
40
1
40
1
41
1
10
23.6210192615297
20
18.5550335486465
30
0
41
1
10
23.6750986356062
20
18.600412277533
30
0
41
1
10
23.7291773083978
20
18.6457898610867
30
0
41
1
10
23.7832552734253
20
18.6911662887264
30
0
0
SPLINE
5
F9
100
AcDbEntity
8
1
62
256
6
ByLayer
370
18
48
1
60
0
100
AcDbSpline
70
4
71
3
72
8
73
4
40
0
40
0
40
0
40
0
40
1
40
1
40
1
40
1
41
1
10
28.5734867882753
20
16.4511236227806
30
0
41
1
10
28.501122088762
20
16.3995695876692
30
0
41
1
10
28.4287909544589
20
16.3480051025501
30
0
41
1
10
28.3564849298264
20
16.2964328225737
30
0
0
SPLINE
5
FA
100
AcDbEntity
8
1
62
256
6
ByLayer
370
18
48
1
60
0
100
AcDbSpline
70
4
71
3
72
14
73
10
40
0
40
0
40
0
40
0
40
0.292804977845765
40
0.292804977845765
40
0.737795398459555
40
0.737795398459555
40
0.960290608766449
40
0.960290608766449
40
1
40
1
40
1
40
1
41
1
10
31.4607867454899
20
15.1810374281099
30
0
41
1
10
31.511894746438
20
15.2399520472085
30
0
41
1
10
31.5601473498941
20
15.3012805117922
30
0
41
1
10
31.6746609639155
20
15.4617338739449
30
0
41
1
10
31.7373634031575
20
15.5645122491485
30
0
41
1
10
31.8192290623665
20
15.7210004516601
30
0
41
1
10
31.8446543098052
20
15.7737855110265
30
0
41
1
10
31.8724396184517
20
15.8360900191506
30
0
41
1
10
31.8765805771353
20
15.8455115071221
30
0
41
1
10
31.8806558479853
20
15.8549128140616
30
0
0
SPLINE
5
FB
100
AcDbEntity
8
1
62
256
6
ByLayer
370
18
48
1
60
0
100
AcDbSpline
70
4
71
3
72
12
73
8
40
0
40
0
40
0
40
0
40
0.115919248932895
40
0.115919248932895
40
0.625253024234745
40
0.625253024234745
40
1
40
1
40
1
40
1
41
1
10
28.2444222495551
20
18.3322997208261
30
0
41
1
10
28.2370371992746
20
18.3251493176585
30
0
41
1
10
28.2296121603694
20
18.317846814235
30
0
41
1
10
28.1894139147591
20
18.2776634976789
30
0
41
1
10
28.1559763696343
20
18.2419001997197
30
0
41
1
10
28.0990282934122
20
18.1762639016702
30
0
41
1
10
28.0751770102696
20
18.1472944619036
30
0
41
1
10
28.0517561451811
20
18.1172430955044
30
0
0
SPLINE
5
FC
100
AcDbEntity
8
1
62
256
6
ByLayer
370
18
48
1
60
0
100
AcDbSpline
70
4
71
3
72
10
73
6
40
0
40
0
40
0
40
0
40
0.749505221263553
40
0.749505221263553
40
1
40
1
40
1
40
1
41
1
10
28.9561873592196
20
18.8923257476021
30
0
41
1
10
28.8045150010739
20
18.8575648894865
30
0
41
1
10
28.6448219947004
20
18.8225528573035
30
0
41
1
10
28.425276599017
20
18.7756363774347
30
0
41
1
10
28.3696771283442
20
18.7638645571194
30
0
41
1
10
28.3134889397638
20
18.752081023919
30
0
0
SPLINE
5
FD
100
AcDbEntity
8
1
62
256
6
ByLayer
370
18
48
1
60
0
100
AcDbSpline
70
4
71
3
72
8
73
4
40
0
40
0
40
0
40
0
40
1
40
1
40
1
40
1
41
1
10
32.3579601316451
20
16.9164899370175
30
0
41
1
10
32.4411291709346
20
16.8715519649785
30
0
41
1
10
32.5242374666149
20
16.8265821421103
30
0
41
1
10
32.6073048177191
20
16.7815908952865
30
0
0
SPLINE
5
FE
100
AcDbEntity
8
1
62
256
6
ByLayer
370
18
48
1
60
0
100
AcDbSpline
70
4
71
3
72
8
73
4
40
0
40
0
40
0
40
0
40
1
40
1
40
1
40
1
41
1
10
28.0661045053072
20
17.9281868070323
30
0
41
1
10
28.1717284575053
20
17.9051721617195
30
0
41
1
10
28.2773866578341
20
17.8821724161034
30
0
41
1
10
28.383095639769
20
17.8591948154669
30
0
0
SPLINE
5
FF
100
AcDbEntity
8
1
62
256
6
ByLayer
370
18
48
1
60
0
100
AcDbSpline
70
4
71
3
72
8
73
4
40
0
40
0
40
0
40
0
40
1
40
1
40
1
40
1
41
1
10
32.380533194976
20
18.4587202776581
30
0
41
1
10
32.309596855396
20
18.4139944971965
30
0
41
1
10
32.2386159698705
20
18.3692739273398
30
0
41
1
10
32.1675689831387
20
18.3245611297037
30
0
0
SPLINE
5
100
100
AcDbEntity
8
1
62
256
6
ByLayer
370
18
48
1
60
0
100
AcDbSpline
70
4
71
3
72
10
73
6
40
0
40
0
40
0
40
0
40
0.5
40
0.5
40
1
40
1
40
1
40
1
41
1
10
16.4305682541095
20
14.3710435470471
30
0
41
1
10
16.3417784538533
20
14.357706714727
30
0
41
1
10
16.2523850275949
20
14.3445402948128
30
0
41
1
10
16.0720024246536
20
14.3186579585546
30
0
41
1
10
15.9815829450874
20
14.3060283486782
30
0
41
1
10
15.8918026122422
20
14.2938939897318
30
0
0
SPLINE
5
101
100
AcDbEntity
8
1
62
256
6
ByLayer
370
18
48
1
60
0
100
AcDbSpline
70
4
71
3
72
10
73
6
40
0
40
0
40
0
40
0
40
0.5
40
0.5
40
1
40
1
40
1
40
1
41
1
10
15.2189730257854
20
14.2111579796321
30
0
41
1
10
15.1312151055157
20
14.2014678283725
30
0
41
1
10
15.0437236537386
20
14.1922362429072
30
0
41
1
10
14.8726943754843
20
14.1748968966438
30
0
41
1
10
14.7886828147584
20
14.1667337093007
30
0
41
1
10
14.7058123909892
20
14.1589550459126
30
0
0
SPLINE
5
102
100
AcDbEntity
8
1
62
256
6
ByLayer
370
18
48
1
60
0
100
AcDbSpline
70
4
71
3
72
10
73
6
40
0
40
0
40
0
40
0
40
0.5
40
0.5
40
1
40
1
40
1
40
1
41
1
10
17.0905858611393
20
15.973679134707
30
0
41
1
10
17.0344375627864
20
16.0405016445659
30
0
41
1
10
16.9777839517248
20
16.1086258155868
30
0
41
1
10
16.8650532709302
20
16.2459761428642
30
0
41
1
10
16.8089294809914
20
16.3152557682466
30
0
41
1
10
16.7530921438212
20
16.3852522200056
30
0
0
SPLINE
5
103
100
AcDbEntity
8
1
62
256
6
ByLayer
370
18
48
1
60
0
100
AcDbSpline
70
4
71
3
72
10
73
6
40
0
40
0
40
0
40
0
40
0.5
40
0.5
40
1
40
1
40
1
40
1
41
1
10
14.8142523767249
20
17.2043406538176
30
0
41
1
10
14.7264944564552
20
17.1946505025579
30
0
41
1
10
14.6390030046781
20
17.1854189170927
30
0
41
1
10
14.4679737264238
20
17.1680795708292
30
0
41
1
10
14.3839621656978
20
17.1599163834861
30
0
41
1
10
14.3010917419286
20
17.152137720098
30
0
0
SPLINE
5
104
100
AcDbEntity
8
1
62
256
6
ByLayer
370
18
48
1
60
0
100
AcDbSpline
70
4
71
3
72
8
73
4
40
0
40
0
40
0
40
0
40
1
40
1
40
1
40
1
41
1
10
16.8765114330546
20
15.4724831802953
30
0
41
1
10
16.9478518363561
20
15.6419168129315
30
0
41
1
10
17.0192126658035
20
15.808623433629
30
0
41
1
10
17.0905858611393
20
15.973679134707
30
0
0
SPLINE
5
105
100
AcDbEntity
8
1
62
256
6
ByLayer
370
18
48
1
60
0
100
AcDbSpline
70
4
71
3
72
10
73
6
40
0
40
0
40
0
40
0
40
0.5
40
0.5
40
1
40
1
40
1
40
1
41
1
10
16.0258476050489
20
17.3642262212325
30
0
41
1
10
15.9370578047928
20
17.3508893889124
30
0
41
1
10
15.8476643785344
20
17.3377229689983
30
0
41
1
10
15.6672817755931
20
17.31184063274
30
0
41
1
10
15.576862296027
20
17.2992110228636
30
0
41
1
10
15.4870819631816
20
17.2870766639172
30
0
0
SPLINE
5
106
100
AcDbEntity
8
1
62
256
6
ByLayer
370
18
48
1
60
0
100
AcDbSpline
70
4
71
3
72
8
73
4
40
0
40
0
40
0
40
0
40
1
40
1
40
1
40
1
41
1
10
14.3683186736711
20
14.5705281312111
30
0
41
1
10
14.4818050006144
20
14.4282641800314
30
0
41
1
10
14.594153203236
20
14.2918414804679
30
0
41
1
10
14.7058123909892
20
14.1589550459126
30
0
0
SPLINE
5
107
100
AcDbEntity
8
1
62
256
6
ByLayer
370
18
48
1
60
0
100
AcDbSpline
70
4
71
3
72
8
73
4
40
0
40
0
40
0
40
0
40
1
40
1
40
1
40
1
41
1
10
13.8295435559124
20
16.025751463254
30
0
41
1
10
13.7634209869995
20
15.8614014984378
30
0
41
1
10
13.7010975677008
20
15.7034999082812
30
0
41
1
10
13.6410741348988
20
15.5495021324381
30
0
0
SPLINE
5
108
100
AcDbEntity
8
1
62
256
6
ByLayer
370
18
48
1
60
0
100
AcDbSpline
70
4
71
3
72
10
73
6
40
0
40
0
40
0
40
0
40
0.5
40
0.5
40
1
40
1
40
1
40
1
41
1
10
16.4305682541095
20
14.3710435470471
30
0
41
1
10
16.4607512930599
20
14.44848198483
30
0
41
1
10
16.4917034412429
20
14.5273787959482
30
0
41
1
10
16.554568079105
20
14.6863215982747
30
0
41
1
10
16.5865041684496
20
14.7664297056507
30
0
41
1
10
16.6190376751231
20
14.847292877863
30
0
0
SPLINE
5
109
100
AcDbEntity
8
1
62
256
6
ByLayer
370
18
48
1
60
0
100
AcDbSpline
70
4
71
3
72
10
73
6
40
0
40
0
40
0
40
0
40
0.5
40
0.5
40
1
40
1
40
1
40
1
41
1
10
13.6410741348988
20
15.5495021324381
30
0
41
1
10
13.691515156799
20
15.4771190977559
30
0
41
1
10
13.7430243359805
20
15.4039827740191
30
0
41
1
10
13.8470930960365
20
15.2581932506235
30
0
41
1
10
13.8996927774071
20
15.185480132342
30
0
41
1
10
13.9529628451459
20
15.1129824235438
30
0
0
SPLINE
5
10A
100
AcDbEntity
8
1
62
256
6
ByLayer
370
18
48
1
60
0
100
AcDbSpline
70
4
71
3
72
8
73
4
40
0
40
0
40
0
40
0
40
1
40
1
40
1
40
1
41
1
10
16.337736315296
20
16.9277065123382
30
0
41
1
10
16.2294678227411
20
17.0750541313378
30
0
41
1
10
16.1261570302682
20
17.2202818614422
30
0
41
1
10
16.0258476050489
20
17.3642262212325
30
0
0
SPLINE
5
10B
100
AcDbEntity
8
1
62
256
6
ByLayer
370
18
48
1
60
0
100
AcDbSpline
70
4
71
3
72
10
73
6
40
0
40
0
40
0
40
0
40
0.5
40
0.5
40
1
40
1
40
1
40
1
41
1
10
14.3010917419286
20
17.152137720098
30
0
41
1
10
14.2652014265256
20
17.0691387574917
30
0
41
1
10
14.2291048464625
20
16.9852297936577
30
0
41
1
10
14.1575782878618
20
16.8178477952131
30
0
41
1
10
14.1221180899489
20
16.7343061949379
30
0
41
1
10
14.087017313844
20
16.6509417656864
30
0
0
LINE
5
72
100
AcDbEntity
8
1
62
256
6
ByLayer
370
18
48
1
60
0
100
AcDbLine
10
12.499665
20
18.553724
30
0
11
12.452701
21
18.507967
31
0
39
0
210
0
220
0
230
1
0
LINE
5
73
100
AcDbEntity
8
1
62
256
6
ByLayer
370
18
48
1
60
0
100
AcDbLine
10
34.398098
20
12.234304
30
0
11
35.114023
21
12.93182
31
0
39
0
210
0
220
0
230
1
0
LINE
5
74
100
AcDbEntity
8
1
62
256
6
ByLayer
370
18
48
1
60
0
100
AcDbLine
10
25.993451
20
22.200861
30
0
11
25.607478
21
21.824813
31
0
39
0
210
0
220
0
230
1
0
LINE
5
75
100
AcDbEntity
8
1
62
256
6
ByLayer
370
18
48
1
60
0
100
AcDbLine
10
18.035407
20
12.777924
30
0
11
18.082371
21
12.823681
31
0
39
0
210
0
220
0
230
1
0
LINE
5
76
100
AcDbEntity
8
1
62
256
6
ByLayer
370
18
48
1
60
0
100
AcDbLine
10
28.595692
20
18.674552
30
0
11
28.238209
21
18.326261
31
0
39
0
210
0
220
0
230
1
0
LINE
5
77
100
AcDbEntity
8
1
62
256
6
ByLayer
370
18
48
1
60
0
100
AcDbLine
10
31.491448
20
15.464031
30
0
11
32.077717
21
16.035226
31
0
39
0
210
0
220
0
230
1
0
LINE
5
78
100
AcDbEntity
8
1
62
256
6
ByLayer
370
18
48
1
60
0
100
AcDbLine
10
26.377463
20
2.799463
30
0
11
26.208746
21
2.650093
31
0
39
0
210
0
220
0
230
1
0
LINE
5
79
100
AcDbEntity
8
1
62
256
6
ByLayer
370
18
48
1
60
0
100
AcDbLine
10
23.809518
20
7.834297
30
0
11
23.238294
21
7.190264
31
0
39
0
210
0
220
0
230
1
0
LINE
5
7A
100
AcDbEntity
8
1
62
256
6
ByLayer
370
18
48
1
60
0
100
AcDbLine
10
32.777068
20
11.322422
30
0
11
32.282247
21
11.294321
31
0
39
0
210
0
220
0
230
1
0
LINE
5
7B
100
AcDbEntity
8
1
62
256
6
ByLayer
370
18
48
1
60
0
100
AcDbLine
10
30.928401
20
11.217433
30
0
11
25.698717
21
10.92043
31
0
39
0
210
0
220
0
230
1
0
LINE
5
7C
100
AcDbEntity
8
1
62
256
6
ByLayer
370
18
48
1
60
0
100
AcDbLine
10
25.029093
20
10.292398
30
0
11
23.045924
21
7.05276
31
0
39
0
210
0
220
0
230
1
0
LINE
5
7D
100
AcDbEntity
8
1
62
256
6
ByLayer
370
18
48
1
60
0
100
AcDbLine
10
25.021004
20
10.193376
30
0
11
25.083391
21
10.29529
31
0
39
0
210
0
220
0
230
1
0
LINE
5
7E
100
AcDbEntity
8
1
62
256
6
ByLayer
370
18
48
1
60
0
100
AcDbLine
10
18.689034
20
9.801964
30
0
11
18.999932
21
10.309836
31
0
39
0
210
0
220
0
230
1
0
LINE
5
7F
100
AcDbEntity
8
1
62
256
6
ByLayer
370
18
48
1
60
0
100
AcDbLine
10
25.021004
20
10.193376
30
0
11
25.06444
21
10.195842
31
0
39
0
210
0
220
0
230
1
0
LINE
5
80
100
AcDbEntity
8
1
62
256
6
ByLayer
370
18
48
1
60
0
100
AcDbLine
10
22.768866
20
6.898511
30
0
11
24.84041
21
10.282515
31
0
39
0
210
0
220
0
230
1
0
LINE
5
81
100
AcDbEntity
8
1
62
256
6
ByLayer
370
18
48
1
60
0
100
AcDbLine
10
19.041824
20
10.261705
30
0
11
18.686618
21
9.681452
31
0
39
0
210
0
220
0
230
1
0
LINE
5
82
100
AcDbEntity
8
1
62
256
6
ByLayer
370
18
48
1
60
0
100
AcDbLine
10
1.545481
20
17.11089
30
0
11
2.464569
21
20.540973
31
0
39
0
210
0
220
0
230
1
0
LINE
5
83
100
AcDbEntity
8
1
62
256
6
ByLayer
370
18
48
1
60
0
100
AcDbLine
10
25.698717
20
10.92043
30
0
11
23.809518
21
7.834297
31
0
39
0
210
0
220
0
230
1
0
LINE
5
84
100
AcDbEntity
8
1
62
256
6
ByLayer
370
18
48
1
60
0
100
AcDbLine
10
25.704653
20
21.829896
30
0
11
2.483854
21
20.612946
31
0
39
0
210
0
220
0
230
1
0
LINE
5
85
100
AcDbEntity
8
1
62
256
6
ByLayer
370
18
48
1
60
0
100
AcDbLine
10
24.941201
20
10.055112
30
0
11
25.698717
21
10.92043
31
0
39
0
210
0
220
0
230
1
0
LINE
5
86
100
AcDbEntity
8
1
62
256
6
ByLayer
370
18
48
1
60
0
100
AcDbLine
10
2.464569
20
20.540973
30
0
11
2.947452
21
3.843636
31
0
39
0
210
0
220
0
230
1
0
LINE
5
87
100
AcDbEntity
8
1
62
256
6
ByLayer
370
18
48
1
60
0
100
AcDbLine
10
17.304075
20
-5.233464
30
0
11
5.843623
21
-15.379726
31
0
39
0
210
0
220
0
230
1
0
LINE
5
88
100
AcDbEntity
8
1
62
256
6
ByLayer
370
18
48
1
60
0
100
AcDbLine
10
26.208763
20
2.650108
30
0
11
17.011425
21
10.774461
31
0
39
0
210
0
220
0
230
1
0
LINE
5
89
100
AcDbEntity
8
1
62
256
6
ByLayer
370
18
48
1
60
0
100
AcDbLine
10
17.304075
20
-5.233464
30
0
11
26.208763
21
2.650108
31
0
39
0
210
0
220
0
230
1
0
LINE
5
8A
100
AcDbEntity
8
1
62
256
6
ByLayer
370
18
48
1
60
0
100
AcDbLine
10
17.035988
20
10.977629
30
0
11
18.69229
21
9.527589
31
0
39
0
210
0
220
0
230
1
0
LINE
5
8B
100
AcDbEntity
8
1
62
256
6
ByLayer
370
18
48
1
60
0
100
AcDbLine
10
2.464569
20
20.540973
30
0
11
2.483854
21
20.612946
31
0
39
0
210
0
220
0
230
1
0
LINE
5
8C
100
AcDbEntity
8
1
62
256
6
ByLayer
370
18
48
1
60
0
100
AcDbLine
10
3.414728
20
2.251953
30
0
11
5.843623
21
4.277782
31
0
39
0
210
0
220
0
230
1
0
LINE
5
8D
100
AcDbEntity
8
1
62
256
6
ByLayer
370
18
48
1
60
0
100
AcDbLine
10
0
20
-15.925
30
0
11
0
21
15.925
31
0
39
0
210
0
220
0
230
1
0
LINE
5
8E
100
AcDbEntity
8
1
62
256
6
ByLayer
370
18
48
1
60
0
100
AcDbLine
10
5.843623
20
4.277782
30
0
11
7.489578
21
5.479239
31
0
39
0
210
0
220
0
230
1
0
LINE
5
8F
100
AcDbEntity
8
1
62
256
6
ByLayer
370
18
48
1
60
0
100
AcDbLine
10
1.545481
20
17.11089
30
0
11
1.545481
21
-15.930174
31
0
39
0
210
0
220
0
230
1
0
LINE
5
90
100
AcDbEntity
8
1
62
256
6
ByLayer
370
18
48
1
60
0
100
AcDbLine
10
21.585383
20
15.387882
30
0
11
23.206803
21
18.036578
31
0
39
0
210
0
220
0
230
1
0
LINE
5
91
100
AcDbEntity
8
1
62
256
6
ByLayer
370
18
48
1
60
0
100
AcDbLine
10
7.489578
20
5.479239
30
0
11
15.064382
21
10.909095
31
0
39
0
210
0
220
0
230
1
0
LINE
5
92
100
AcDbEntity
8
1
62
256
6
ByLayer
370
18
48
1
60
0
100
AcDbLine
10
5.843623
20
-15.379726
30
0
11
5.155478
21
-15.988961
31
0
39
0
210
0
220
0
230
1
0
LINE
5
93
100
AcDbEntity
8
1
62
256
6
ByLayer
370
18
48
1
60
0
100
AcDbLine
10
1.545481
20
-15.930174
30
0
11
5.155478
21
-15.988961
31
0
39
0
210
0
220
0
230
1
0
LINE
5
94
100
AcDbEntity
8
1
62
256
6
ByLayer
370
18
48
1
60
0
100
AcDbLine
10
26.377463
20
2.799463
30
0
11
28.958485
21
5.084514
31
0
39
0
210
0
220
0
230
1
0
LINE
5
95
100
AcDbEntity
8
1
62
256
6
ByLayer
370
18
48
1
60
0
100
AcDbLine
10
25.704653
20
21.829896
30
0
11
23.783255
21
18.691166
31
0
39
0
210
0
220
0
230
1
0
LINE
5
96
100
AcDbEntity
8
1
62
256
6
ByLayer
370
18
48
1
60
0
100
AcDbLine
10
2.947452
20
3.843636
30
0
11
13.072831
21
11.1796
31
0
39
0
210
0
220
0
230
1
0
LINE
5
97
100
AcDbEntity
8
1
62
256
6
ByLayer
370
18
48
1
60
0
100
AcDbLine
10
5.843623
20
4.277782
30
0
11
5.843623
21
-15.379726
31
0
39
0
210
0
220
0
230
1
0
LINE
5
98
100
AcDbEntity
8
1
62
256
6
ByLayer
370
18
48
1
60
0
100
AcDbLine
10
21.954346
20
6.671762
30
0
11
26.377463
21
2.799463
31
0
39
0
210
0
220
0
230
1
0
LINE
5
99
100
AcDbEntity
8
1
62
256
6
ByLayer
370
18
48
1
60
0
100
AcDbLine
10
21.263675
20
14.575266
30
0
11
19.035485
21
10.935368
31
0
39
0
210
0
220
0
230
1
0
LINE
5
9A
100
AcDbEntity
8
1
62
256
6
ByLayer
370
18
48
1
60
0
100
AcDbLine
10
7.489578
20
5.479239
30
0
11
17.304075
21
-5.233464
31
0
39
0
210
0
220
0
230
1
0
LINE
5
9B
100
AcDbEntity
8
1
62
256
6
ByLayer
370
18
48
1
60
0
100
AcDbLine
10
28.958485
20
5.084514
30
0
11
32.777068
21
11.322422
31
0
39
0
210
0
220
0
230
1
0
LINE
5
9C
100
AcDbEntity
8
SK1
62
256
6
ByLayer
370
18
48
1
60
0
100
AcDbLine
10
-129.782203
20
15.925
30
0
11
-129.782203
21
-15.925
31
0
39
0
210
0
220
0
230
1
0
LINE
5
9E
100
AcDbEntity
8
SK1
62
256
6
ByLayer
370
18
48
1
60
0
100
AcDbLine
10
-129.782203
20
15.925
30
0
11
0
21
15.925
31
0
39
0
210
0
220
0
230
1
0
LINE
5
9F
100
AcDbEntity
8
SK1
62
256
6
ByLayer
370
18
48
1
60
0
100
AcDbLine
10
0
20
-15.925
30
0
11
0
21
15.925
31
0
39
0
210
0
220
0
230
1
0
LINE
5
A0
100
AcDbEntity
8
SK1
62
256
6
ByLayer
370
18
48
1
60
0
100
AcDbLine
10
-129.782203
20
-15.925
30
0
11
0
21
-15.925
31
0
39
0
210
0
220
0
230
1
0
LINE
5
A1
100
AcDbEntity
8
1
62
256
6
ByLayer
370
18
48
1
60
0
100
AcDbLine
10
32.164195
20
11.282193
30
0
11
32.212118
21
11.328883
31
0
39
0
210
0
220
0
230
1
0
LINE
5
A2
100
AcDbEntity
8
1
62
256
6
ByLayer
370
18
48
1
60
0
100
AcDbLine
10
25.15482
20
10.299029
30
0
11
19.663548
21
10.011244
31
0
39
0
210
0
220
0
230
1
0
LINE
5
A3
100
AcDbEntity
8
1
62
256
6
ByLayer
370
18
48
1
60
0
100
AcDbLine
10
19.606432
20
11.868053
30
0
11
19.654355
21
11.914743
31
0
39
0
210
0
220
0
230
1
0
LINE
5
A4
100
AcDbEntity
8
1
62
256
6
ByLayer
370
18
48
1
60
0
100
AcDbLine
10
25.811878
20
21.973466
30
0
11
25.662228
21
21.827664
31
0
39
0
210
0
220
0
230
1
0
LINE
5
A5
100
AcDbEntity
8
1
62
256
6
ByLayer
370
18
48
1
60
0
100
AcDbLine
10
32.752796
20
11.492258
30
0
11
32.566175
21
11.310435
31
0
39
0
210
0
220
0
230
1
0
LINE
5
A6
100
AcDbEntity
8
1
62
256
6
ByLayer
370
18
48
1
60
0
100
AcDbLine
10
34.178634
20
12.066078
30
0
11
32.692184
21
11.183731
31
0
39
0
210
0
220
0
230
1
0
LINE
5
A7
100
AcDbEntity
8
1
62
256
6
ByLayer
370
18
48
1
60
0
100
AcDbLine
10
28.066105
20
17.928187
30
0
11
28.006645
21
17.870257
31
0
39
0
210
0
220
0
230
1
0
LINE
5
A8
100
AcDbEntity
8
1
62
256
6
ByLayer
370
18
48
1
60
0
100
AcDbLine
10
16.192301
20
14.431529
30
0
11
16.150493
21
14.330012
31
0
39
0
210
0
220
0
230
1
0
LINE
5
A9
100
AcDbEntity
8
1
62
256
6
ByLayer
370
18
48
1
60
0
100
AcDbLine
10
14.132218
20
16.757184
30
0
11
14.387516
21
16.788577
31
0
39
0
210
0
220
0
230
1
0
LINE
5
AA
100
AcDbEntity
8
80
62
256
6
ByLayer
370
18
48
1
60
0
100
AcDbLine
10
0
20
0
30
0
11
-5
21
0
31
0
39
0
210
0
220
0
230
1
0
LINE
5
AB
100
AcDbEntity
8
81
62
256
6
ByLayer
370
18
48
1
60
0
100
AcDbLine
10
40.217797
20
24.075
30
0
11
50.217797
21
24.075
31
0
39
0
210
0
220
0
230
1
0
LINE
5
AC
100
AcDbEntity
8
1
62
256
6
ByLayer
370
18
48
1
60
0
100
AcDbLine
10
34.894559
20
12.763594
30
0
11
32.752796
21
11.492258
31
0
39
0
210
0
220
0
230
1
0
LINE
5
AD
100
AcDbEntity
8
1
62
256
6
ByLayer
370
18
48
1
60
0
100
AcDbLine
10
34.178634
20
12.066078
30
0
11
34.894559
21
12.763594
31
0
39
0
210
0
220
0
230
1
0
LINE
5
AE
100
AcDbEntity
8
1
62
256
6
ByLayer
370
18
48
1
60
0
100
AcDbLine
10
32.212118
20
11.328883
30
0
11
20.379473
21
10.70876
31
0
39
0
210
0
220
0
230
1
0
LINE
5
AF
100
AcDbEntity
8
1
62
256
6
ByLayer
370
18
48
1
60
0
100
AcDbLine
10
19.654355
20
11.914743
30
0
11
25.811878
21
21.973466
31
0
39
0
210
0
220
0
230
1
0
LINE
5
B0
100
AcDbEntity
8
1
62
256
6
ByLayer
370
18
48
1
60
0
100
AcDbLine
10
41.453119
20
23.217938
30
0
11
35.295596
21
13.159215
31
0
39
0
210
0
220
0
230
1
0
LINE
5
B1
100
AcDbEntity
8
1
62
256
6
ByLayer
370
18
48
1
60
0
100
AcDbLine
10
20.379473
20
10.70876
30
0
11
19.663548
21
10.011244
31
0
39
0
210
0
220
0
230
1
0
LINE
5
B2
100
AcDbEntity
8
1
62
256
6
ByLayer
370
18
48
1
60
0
100
AcDbLine
10
28.895356
20
23.803798
30
0
11
40.728001
21
24.423921
31
0
39
0
210
0
220
0
230
1
0
LINE
5
B3
100
AcDbEntity
8
1
62
256
6
ByLayer
370
18
48
1
60
0
100
AcDbLine
10
26.212915
20
22.369087
30
0
11
28.354678
21
23.640423
31
0
39
0
210
0
220
0
230
1
0
LINE
5
B4
100
AcDbEntity
8
1
62
256
6
ByLayer
370
18
48
1
60
0
100
AcDbLine
10
14.814252
20
17.204341
30
0
11
14.387516
21
16.788577
31
0
39
0
210
0
220
0
230
1
0
LINE
5
B5
100
AcDbEntity
8
1
62
256
6
ByLayer
370
18
48
1
60
0
100
AcDbLine
10
16.326356
20
15.969489
30
0
11
16.753092
21
16.385252
31
0
39
0
210
0
220
0
230
1
0
LINE
5
B6
100
AcDbEntity
8
1
62
256
6
ByLayer
370
18
48
1
60
0
100
AcDbLine
10
15.586309
20
16.935989
30
0
11
15.911
21
16.511943
31
0
39
0
210
0
220
0
230
1
0
LINE
5
B7
100
AcDbEntity
8
1
62
256
6
ByLayer
370
18
48
1
60
0
100
AcDbLine
10
17.090586
20
15.973679
30
0
11
16.651047
21
15.545442
31
0
39
0
210
0
220
0
230
1
0
LINE
5
B8
100
AcDbEntity
8
1
62
256
6
ByLayer
370
18
48
1
60
0
100
AcDbLine
10
15.060346
20
16.871313
30
0
11
15.586309
21
16.935989
31
0
39
0
210
0
220
0
230
1
0
LINE
5
B9
100
AcDbEntity
8
1
62
256
6
ByLayer
370
18
48
1
60
0
100
AcDbLine
10
16.337736
20
16.927707
30
0
11
15.911
21
16.511943
31
0
39
0
210
0
220
0
230
1
0
LINE
5
BA
100
AcDbEntity
8
1
62
256
6
ByLayer
370
18
48
1
60
0
100
AcDbLine
10
16.876511
20
15.472483
30
0
11
16.449775
21
15.05672
31
0
39
0
210
0
220
0
230
1
0
LINE
5
BB
100
AcDbEntity
8
1
62
256
6
ByLayer
370
18
48
1
60
0
100
AcDbLine
10
16.651047
20
15.545442
30
0
11
16.449775
21
15.05672
31
0
39
0
210
0
220
0
230
1
0
LINE
5
BC
100
AcDbEntity
8
1
62
256
6
ByLayer
370
18
48
1
60
0
100
AcDbLine
10
16.025848
20
17.364226
30
0
11
15.586309
21
16.935989
31
0
39
0
210
0
220
0
230
1
0
LINE
5
BD
100
AcDbEntity
8
1
62
256
6
ByLayer
370
18
48
1
60
0
100
AcDbLine
10
16.192301
20
14.431529
30
0
11
16.619038
21
14.847293
31
0
39
0
210
0
220
0
230
1
0
LINE
5
BE
100
AcDbEntity
8
1
62
256
6
ByLayer
370
18
48
1
60
0
100
AcDbLine
10
15.060346
20
16.871313
30
0
11
15.487082
21
17.287077
31
0
39
0
210
0
220
0
230
1
0
LINE
5
BF
100
AcDbEntity
8
1
62
256
6
ByLayer
370
18
48
1
60
0
100
AcDbLine
10
16.326356
20
15.969489
30
0
11
16.651047
21
15.545442
31
0
39
0
210
0
220
0
230
1
0
MTEXT
5
10C
100
AcDbEntity
8
SK6
62
256
6
ByLayer
370
13
48
1
60
0
100
AcDbMText
10
-98.402003
20
-40.986925
30
0
210
0
220
0
230
1
1
\W0.7606;PDJNR 3232P 15HP
40
3.5
41
0
44
1.084337
50
0
71
7
72
5
7
iso_b_vert
0
DIMENSION
5
11E
100
AcDbEntity
8
SK2
62
256
6
ByLayer
370
13
48
1
60
0
100
AcDbDimension
2
DimnDraft3D1
10
-139.532203
20
-15.925
30
0
11
-139.532203
21
0.075
31
0
70
32
71
5
72
1
41
1
210
0
220
0
230
1
3
Standard
100
AcDbAlignedDimension
13
-131.369703
23
16.075
33
0
14
-131.369703
24
-15.925
34
0
50
90
100
AcDbRotatedDimension
1001
ACAD
1000
DSTYLE
1002
{
1070
    74
1070
     0
1070
   279
1070
     0
1070
   172
1070
     1
1070
   173
1070
     1
1070
   340
1005
10D
1070
   271
1070
     1
1070
   272
1070
     2
1070
    77
1070
     1
1070
    73
1070
     0
1070
   171
1070
     3
1070
   274
1070
     4
1070
   177
1070
   150
1070
   176
1070
     9
1070
   178
1070
    43
1070
    78
1070
     8
1070
    48
1040
-0.005
1070
    41
1041
3.175
1070
   147
1041
2.25
1070
    42
1041
1.5875
1070
    44
1041
3.175
1070
   140
1041
4.5
1070
   343
1005
11F
1070
   344
1005
11F
1002
}
0
DIMENSION
5
134
100
AcDbEntity
8
2
62
256
6
ByLayer
370
13
48
1
60
0
100
AcDbDimension
2
DimnDraft3D2
10
58.067797
20
24.425
30
0
11
58.067797
21
4.25
31
0
70
32
71
5
72
1
41
1
210
0
220
0
230
1
3
Standard
100
AcDbAlignedDimension
13
1.5875
23
-15.925
33
0
14
43.155297
24
24.425
34
0
50
90
100
AcDbRotatedDimension
1001
ACAD
1000
DSTYLE
1002
{
1070
    74
1070
     0
1070
   279
1070
     0
1070
   172
1070
     1
1070
   173
1070
     1
1070
   340
1005
10D
1070
   271
1070
     1
1070
   272
1070
     2
1070
    77
1070
     1
1070
    73
1070
     0
1070
   171
1070
     3
1070
   274
1070
     4
1070
   177
1070
   150
1070
   176
1070
     9
1070
   178
1070
    43
1070
    78
1070
     8
1070
    48
1040
-0.005
1070
    41
1041
3.175
1070
   147
1041
2.25
1070
    42
1041
1.5875
1070
    44
1041
3.175
1070
   140
1041
4.5
1070
   343
1005
11F
1070
   344
1005
11F
1002
}
0
DIMENSION
5
142
100
AcDbEntity
8
SK2
62
256
6
ByLayer
370
13
48
1
60
0
100
AcDbDimension
2
DimnDraft3D3
10
41.567797
20
41.925
30
0
11
-44.107203
21
41.925
31
0
70
32
71
5
72
1
41
1
210
0
220
0
230
1
3
Standard
100
AcDbAlignedDimension
13
-129.782203
23
17.6625
33
0
14
41.567797
24
26.0125
34
0
50
0
100
AcDbRotatedDimension
1001
ACAD
1000
DSTYLE
1002
{
1070
   279
1070
     0
1070
   172
1070
     1
1070
   173
1070
     1
1070
   340
1005
10D
1070
   271
1070
     1
1070
   272
1070
     2
1070
    77
1070
     1
1070
    73
1070
     0
1070
   171
1070
     3
1070
   274
1070
     4
1070
   177
1070
   150
1070
   176
1070
     9
1070
   178
1070
    43
1070
    78
1070
     8
1070
    48
1040
-0.005
1070
    41
1041
3.175
1070
   147
1041
2.25
1070
    42
1041
1.5875
1070
    44
1041
3.175
1070
   140
1041
4.5
1070
   343
1005
11F
1070
   344
1005
11F
1002
}
0
DIMENSION
5
14F
100
AcDbEntity
8
2
62
256
6
ByLayer
370
13
48
1
60
0
100
AcDbDimension
2
DimnDraft3D4
10
25.732505
20
23.637796
30
0
11
29.279661
21
36.128693
31
0
70
34
71
5
72
1
41
1
210
0
220
0
230
1
3
Standard
100
AcDb2LineAngularDimension
13
41.567797
23
24.425
33
0
14
41.567797
24
22.8375
34
0
15
40.732505
25
24.423912
35
0
16
32.543846
26
33.031097
36
0
40
0
0
ENDSEC
0
SECTION
2
OBJECTS
0
DICTIONARY
5
1b9
330
0
100
AcDbDictionary
280
0
281
1
3
ACAD_GROUP
350
1ba
3
ACAD_MLINESTYLE
350
1bb
0
DICTIONARY
5
1ba
330
0
100
AcDbDictionary
280
0
281
1
0
DICTIONARY
5
1bb
330
0
100
AcDbDictionary
280
0
281
1
3
Standard
350
18
0
MLINESTYLE
5
18
330
1bb
100
AcDbMlineStyle
2
Standard
70
0
3

62
256
51
90
52
90
71
2
49
-0.5
62
256
6
ByLayer
49
0.5
62
256
6
ByLayer
0
RASTERVARIABLES
5
1a8
330

100
AcDbRasterVariables
90
0
70
1
71
1
72
1
0
ENDSEC
0
EOF
