0
SECTION
2
HEADER
9
$ACADVER
1
AC1015
9
$DWGCODEPAGE
3
ANSI_1252
9
$HANDSEED
5
1b1
9
$ANGBASE
50
0
9
$ANGDIR
70
0
9
$ATTMODE
70
1
9
$AUNITS
70
0
9
$AUPREC
70
0
9
$CECOLOR
62
256
9
$CELTSCALE
40
1
9
$CELTYPE
6
ByLayer
9
$CELWEIGHT
370
18
9
$CLAYER
8
0
9
$CMLJUST
70
0
9
$CMLSCALE
40
1
9
$CMLSTYLE
2
Standard
9
$DIMSTYLE
2
Standard
9
$TEXTSIZE
40
0.2
9
$TEXTSTYLE
7
Standard
9
$LUNITS
70
2
9
$LUPREC
70
4
9
$EXTNAMES
290
1
9
$INSUNITS
70
4
9
$LTSCALE
40
1
9
$LWDISPLAY
290
1
9
$PDMODE
70
0
9
$PDSIZE
40
0
9
$PLINEGEN
70
0
0
ENDSEC
0
SECTION
2
CLASSES
0
CLASS
1
RASTERVARIABLES
2
AcDbRasterVariables
3
ISM
90
0
280
0
281
0
0
ENDSEC
0
SECTION
2
TABLES
0
TABLE
2
VPORT
5
1a7
100
AcDbSymbolTable
0
VPORT
5
1
100
AcDbSymbolTableRecord
100
AcDbViewportTableRecord
2
*Active
70
0
10
0
20
0
11
1
21
1
12
-1
22
1
13
0
23
0
14
0.5
24
0.5
15
10
25
10
16
0
26
0
36
1
17
0
27
0
37
0
0
ENDTAB
0
TABLE
2
LTYPE
5
1a8
100
AcDbSymbolTable
0
LTYPE
5
14
100
AcDbSymbolTableRecord
100
AcDbLinetypeTableRecord
70
0
2
ByBlock
3

72
65
73
0
40
0
0
LTYPE
5
15
100
AcDbSymbolTableRecord
100
AcDbLinetypeTableRecord
70
0
2
ByLayer
3

72
65
73
0
40
0
0
LTYPE
5
16
100
AcDbSymbolTableRecord
100
AcDbLinetypeTableRecord
70
0
2
CONTINUOUS
3
Solid line
72
65
73
0
40
0
0
LTYPE
5
6A
100
AcDbSymbolTableRecord
100
AcDbLinetypeTableRecord
70
0
2
CENTER
3
____ _ ____ _ ____ _ ____
72
65
73
4
40
47.5
49
22
74
0
49
-8.5
74
0
49
8.5
74
0
49
-8.5
74
0
0
LTYPE
5
6B
100
AcDbSymbolTableRecord
100
AcDbLinetypeTableRecord
70
0
2
DASHED
3
__ __ __ __ __ __ __ __ __
72
65
73
2
40
25.72
49
12.86
74
0
49
-12.86
74
0
0
ENDTAB
0
TABLE
2
LAYER
5
1a9
100
AcDbSymbolTable
0
LAYER
5
10
100
AcDbSymbolTableRecord
100
AcDbLayerTableRecord
2
0
70
0
62
7
6
CONTINUOUS
290
1
370
-3
390
0
0
LAYER
5
6D
100
AcDbSymbolTableRecord
100
AcDbLayerTableRecord
2
80
70
0
62
-6
6
CONTINUOUS
290
1
370
-3
390
0
0
LAYER
5
6F
100
AcDbSymbolTableRecord
100
AcDbLayerTableRecord
2
81
70
0
62
-3
6
CONTINUOUS
290
1
370
-3
390
0
0
LAYER
5
71
100
AcDbSymbolTableRecord
100
AcDbLayerTableRecord
2
1
70
0
62
4
6
CONTINUOUS
290
1
370
-3
390
0
0
LAYER
5
113
100
AcDbSymbolTableRecord
100
AcDbLayerTableRecord
2
2
70
0
62
7
6
CONTINUOUS
290
1
370
-3
390
0
0
LAYER
5
194
100
AcDbSymbolTableRecord
100
AcDbLayerTableRecord
2
SK1
70
0
62
4
6
CONTINUOUS
290
1
370
-3
390
0
0
LAYER
5
195
100
AcDbSymbolTableRecord
100
AcDbLayerTableRecord
2
SK6
70
0
62
5
6
CONTINUOUS
290
1
370
-3
390
0
0
LAYER
5
196
100
AcDbSymbolTableRecord
100
AcDbLayerTableRecord
2
SK2
70
0
62
7
6
CONTINUOUS
290
1
370
-3
390
0
0
ENDTAB
0
TABLE
2
STYLE
5
1aa
100
AcDbSymbolTable
0
STYLE
5
11
100
AcDbSymbolTableRecord
100
AcDbTextStyleTableRecord
2
Standard
3
txt
70
0
71
0
40
0
41
1
42
0
50
0
0
STYLE
5
F8
100
AcDbSymbolTableRecord
100
AcDbTextStyleTableRecord
2
iso_b_vert
3
simplex.shx
70
0
71
0
40
0
41
1
42
0
50
0
0
STYLE
5
F9
100
AcDbSymbolTableRecord
100
AcDbTextStyleTableRecord
2
DWGDirectTextStyle
3
simplex
70
0
71
0
40
0
41
1
42
0
50
0
0
ENDTAB
0
TABLE
2
DIMSTYLE
5
1ab
100
AcDbSymbolTable
100
AcDbDimStyleTable
0
DIMSTYLE
105
27
100
AcDbSymbolTableRecord
100
AcDbDimStyleTableRecord
2
Standard
70
0
3
<>
41
0.18
42
0.0625
44
0.18
140
0.18
147
0.09
73
0
74
0
77
1
271
2
275
0
278
52
280
0
340
11
0
ENDTAB
0
TABLE
2
VIEW
5
1ac
100
AcDbSymbolTable
0
ENDTAB
0
TABLE
2
UCS
5
1ad
100
AcDbSymbolTable
0
ENDTAB
0
TABLE
2
APPID
5
1ae
100
AcDbSymbolTable
0
APPID
5
12
100
AcDbSymbolTableRecord
100
AcDbRegAppTableRecord
2
ACAD
70
0
0
ENDTAB
0
TABLE
2
BLOCK_RECORD
5
1af
100
AcDbSymbolTable
0
BLOCK_RECORD
5
1F
100
AcDbSymbolTableRecord
100
AcDbBlockTableRecord
2
*Model_Space
340
0
70
0
0
BLOCK_RECORD
5
1B
100
AcDbSymbolTableRecord
100
AcDbBlockTableRecord
2
*Paper_Space
340
0
70
0
0
BLOCK_RECORD
5
23
100
AcDbSymbolTableRecord
100
AcDbBlockTableRecord
2
*Paper_Space0
340
0
70
0
0
BLOCK_RECORD
5
FB
100
AcDbSymbolTableRecord
100
AcDbBlockTableRecord
2
DimnDraft3D1
340
0
70
0
0
BLOCK_RECORD
5
10A
100
AcDbSymbolTableRecord
100
AcDbBlockTableRecord
2
_CLOSED
340
0
70
0
0
BLOCK_RECORD
5
111
100
AcDbSymbolTableRecord
100
AcDbBlockTableRecord
2
DimnDraft3D2
340
0
70
0
0
BLOCK_RECORD
5
120
100
AcDbSymbolTableRecord
100
AcDbBlockTableRecord
2
DimnDraft3D3
340
0
70
0
0
BLOCK_RECORD
5
12E
100
AcDbSymbolTableRecord
100
AcDbBlockTableRecord
2
DimnDraft3D4
340
0
70
0
0
ENDTAB
0
ENDSEC
0
SECTION
2
BLOCKS
0
BLOCK
5
20
100
AcDbEntity
8
0
100
AcDbBlockBegin
2
*Model_Space
70
0
10
0
20
0
30
0
3
*Model_Space
0
ENDBLK
5
21
100
AcDbEntity
8
0
100
AcDbBlockEnd
0
BLOCK
5
1C
100
AcDbEntity
8
0
100
AcDbBlockBegin
2
*Paper_Space
70
0
10
0
20
0
30
0
3
*Paper_Space
0
ENDBLK
5
1D
100
AcDbEntity
8
0
100
AcDbBlockEnd
0
BLOCK
5
24
100
AcDbEntity
8
0
100
AcDbBlockBegin
2
*Paper_Space0
70
0
10
0
20
0
30
0
3
*Paper_Space0
0
ENDBLK
5
25
100
AcDbEntity
8
0
100
AcDbBlockEnd
0
BLOCK
5
107
100
AcDbEntity
8
0
100
AcDbBlockBegin
2
DimnDraft3D1
70
0
10
0
20
0
30
0
3
DimnDraft3D1
0
MTEXT
5
FC
100
AcDbEntity
8
SK2
62
256
6
ByLayer
370
13
48
1
60
0
100
AcDbMText
10
-146.004294
20
-1.488158
30
0
210
0
220
0
230
1
1
\W0.6740;32
40
4.5
41
0
44
1.084337
50
90
71
7
72
5
7
iso_b_vert
0
LINE
5
FE
100
AcDbEntity
8
SK2
62
256
6
ByLayer
370
13
48
1
60
0
100
AcDbLine
10
-136.716794
20
16.075
30
0
11
-148.054294
21
16.075
31
0
39
0
210
0
220
0
230
1
0
LINE
5
FF
100
AcDbEntity
8
SK2
62
256
6
ByLayer
370
13
48
1
60
0
100
AcDbLine
10
-136.716794
20
-15.925
30
0
11
-148.054294
21
-15.925
31
0
39
0
210
0
220
0
230
1
0
LINE
5
100
100
AcDbEntity
8
SK2
62
256
6
ByLayer
370
13
48
1
60
0
100
AcDbLine
10
-144.879294
20
16.075
30
0
11
-144.879294
21
-15.925
31
0
39
0
210
0
220
0
230
1
0
LINE
5
101
100
AcDbEntity
8
SK2
62
256
6
ByLayer
370
13
48
1
60
0
100
AcDbLine
10
-144.879294
20
16.075
30
0
11
-144.028556
21
12.900003
31
0
39
0
210
0
220
0
230
1
0
LINE
5
102
100
AcDbEntity
8
SK2
62
256
6
ByLayer
370
13
48
1
60
0
100
AcDbLine
10
-144.879294
20
16.075
30
0
11
-145.730033
21
12.899997
31
0
39
0
210
0
220
0
230
1
0
LINE
5
103
100
AcDbEntity
8
SK2
62
256
6
ByLayer
370
13
48
1
60
0
100
AcDbLine
10
-144.028556
20
12.900003
30
0
11
-145.730033
21
12.899997
31
0
39
0
210
0
220
0
230
1
0
LINE
5
104
100
AcDbEntity
8
SK2
62
256
6
ByLayer
370
13
48
1
60
0
100
AcDbLine
10
-144.879294
20
-15.925
30
0
11
-145.730033
21
-12.750003
31
0
39
0
210
0
220
0
230
1
0
LINE
5
105
100
AcDbEntity
8
SK2
62
256
6
ByLayer
370
13
48
1
60
0
100
AcDbLine
10
-144.879294
20
-15.925
30
0
11
-144.028556
21
-12.749997
31
0
39
0
210
0
220
0
230
1
0
LINE
5
106
100
AcDbEntity
8
SK2
62
256
6
ByLayer
370
13
48
1
60
0
100
AcDbLine
10
-145.730033
20
-12.750003
30
0
11
-144.028556
21
-12.749997
31
0
39
0
210
0
220
0
230
1
0
ENDBLK
5
108
100
AcDbEntity
8
0
100
AcDbBlockEnd
0
BLOCK
5
10B
100
AcDbEntity
8
0
100
AcDbBlockBegin
2
_CLOSED
70
0
10
0
20
0
30
0
3
_CLOSED
0
LINE
5
10D
100
AcDbEntity
8
0
62
256
6
ByLayer
370
-2
48
1
60
0
100
AcDbLine
10
-1
20
0.166667
30
0
11
0
21
0
31
0
39
0
210
0
220
0
230
1
0
LINE
5
10E
100
AcDbEntity
8
0
62
256
6
ByLayer
370
-2
48
1
60
0
100
AcDbLine
10
0
20
0
30
0
11
-1
21
-0.166667
31
0
39
0
210
0
220
0
230
1
0
LINE
5
10F
100
AcDbEntity
8
0
62
256
6
ByLayer
370
-2
48
1
60
0
100
AcDbLine
10
-1
20
0.166667
30
0
11
-1
21
-0.166667
31
0
39
0
210
0
220
0
230
1
0
LINE
5
110
100
AcDbEntity
8
0
62
256
6
ByLayer
370
-2
48
1
60
0
100
AcDbLine
10
0
20
0
30
0
11
-1
21
0
31
0
39
0
210
0
220
0
230
1
0
ENDBLK
5
10C
100
AcDbEntity
8
0
100
AcDbBlockEnd
0
BLOCK
5
11D
100
AcDbEntity
8
0
100
AcDbBlockBegin
2
DimnDraft3D2
70
0
10
0
20
0
30
0
3
DimnDraft3D2
0
MTEXT
5
112
100
AcDbEntity
8
2
62
256
6
ByLayer
370
13
48
1
60
0
100
AcDbMText
10
51.595706
20
2.45
30
0
210
0
220
0
230
1
1
\W0.7361;40
40
4.5
41
0
44
1.084337
50
90
71
7
72
5
7
iso_b_vert
0
LINE
5
114
100
AcDbEntity
8
2
62
256
6
ByLayer
370
13
48
1
60
0
100
AcDbLine
10
1.5875
20
-15.925
30
0
11
55.895706
21
-15.925
31
0
39
0
210
0
220
0
230
1
0
LINE
5
115
100
AcDbEntity
8
2
62
256
6
ByLayer
370
13
48
1
60
0
100
AcDbLine
10
37.808206
20
24.425
30
0
11
55.895706
21
24.425
31
0
39
0
210
0
220
0
230
1
0
LINE
5
116
100
AcDbEntity
8
2
62
256
6
ByLayer
370
13
48
1
60
0
100
AcDbLine
10
52.720706
20
-15.925
30
0
11
52.720706
21
24.425
31
0
39
0
210
0
220
0
230
1
0
LINE
5
117
100
AcDbEntity
8
2
62
256
6
ByLayer
370
13
48
1
60
0
100
AcDbLine
10
52.720706
20
-15.925
30
0
11
51.869967
21
-12.750003
31
0
39
0
210
0
220
0
230
1
0
LINE
5
118
100
AcDbEntity
8
2
62
256
6
ByLayer
370
13
48
1
60
0
100
AcDbLine
10
52.720706
20
-15.925
30
0
11
53.571444
21
-12.749997
31
0
39
0
210
0
220
0
230
1
0
LINE
5
119
100
AcDbEntity
8
2
62
256
6
ByLayer
370
13
48
1
60
0
100
AcDbLine
10
51.869967
20
-12.750003
30
0
11
53.571444
21
-12.749997
31
0
39
0
210
0
220
0
230
1
0
LINE
5
11A
100
AcDbEntity
8
2
62
256
6
ByLayer
370
13
48
1
60
0
100
AcDbLine
10
52.720706
20
24.425
30
0
11
53.571444
21
21.250003
31
0
39
0
210
0
220
0
230
1
0
LINE
5
11B
100
AcDbEntity
8
2
62
256
6
ByLayer
370
13
48
1
60
0
100
AcDbLine
10
52.720706
20
24.425
30
0
11
51.869967
21
21.249997
31
0
39
0
210
0
220
0
230
1
0
LINE
5
11C
100
AcDbEntity
8
2
62
256
6
ByLayer
370
13
48
1
60
0
100
AcDbLine
10
53.571444
20
21.250003
30
0
11
51.869967
21
21.249997
31
0
39
0
210
0
220
0
230
1
0
ENDBLK
5
11E
100
AcDbEntity
8
0
100
AcDbBlockEnd
0
BLOCK
5
12B
100
AcDbEntity
8
0
100
AcDbBlockBegin
2
DimnDraft3D3
70
0
10
0
20
0
30
0
3
DimnDraft3D3
0
MTEXT
5
121
100
AcDbEntity
8
SK2
62
256
6
ByLayer
370
13
48
1
60
0
100
AcDbMText
10
-52.136531
20
43.05
30
0
210
0
220
0
230
1
1
\W0.6217;170
40
4.5
41
0
44
1.084337
50
0
71
7
72
5
7
iso_b_vert
0
LINE
5
122
100
AcDbEntity
8
SK2
62
256
6
ByLayer
370
13
48
1
60
0
100
AcDbLine
10
-135.129294
20
17.6625
30
0
11
-135.129294
21
45.1
31
0
39
0
210
0
220
0
230
1
0
LINE
5
123
100
AcDbEntity
8
SK2
62
256
6
ByLayer
370
13
48
1
60
0
100
AcDbLine
10
36.220706
20
26.0125
30
0
11
36.220706
21
45.1
31
0
39
0
210
0
220
0
230
1
0
LINE
5
124
100
AcDbEntity
8
SK2
62
256
6
ByLayer
370
13
48
1
60
0
100
AcDbLine
10
-135.129294
20
41.925
30
0
11
36.220706
21
41.925
31
0
39
0
210
0
220
0
230
1
0
LINE
5
125
100
AcDbEntity
8
SK2
62
256
6
ByLayer
370
13
48
1
60
0
100
AcDbLine
10
-135.129294
20
41.925
30
0
11
-131.954298
21
42.775739
31
0
39
0
210
0
220
0
230
1
0
LINE
5
126
100
AcDbEntity
8
SK2
62
256
6
ByLayer
370
13
48
1
60
0
100
AcDbLine
10
-135.129294
20
41.925
30
0
11
-131.954291
21
41.074261
31
0
39
0
210
0
220
0
230
1
0
LINE
5
127
100
AcDbEntity
8
SK2
62
256
6
ByLayer
370
13
48
1
60
0
100
AcDbLine
10
-131.954298
20
42.775739
30
0
11
-131.954291
21
41.074261
31
0
39
0
210
0
220
0
230
1
0
LINE
5
128
100
AcDbEntity
8
SK2
62
256
6
ByLayer
370
13
48
1
60
0
100
AcDbLine
10
36.220706
20
41.925
30
0
11
33.045709
21
41.074261
31
0
39
0
210
0
220
0
230
1
0
LINE
5
129
100
AcDbEntity
8
SK2
62
256
6
ByLayer
370
13
48
1
60
0
100
AcDbLine
10
36.220706
20
41.925
30
0
11
33.045702
21
42.775739
31
0
39
0
210
0
220
0
230
1
0
LINE
5
12A
100
AcDbEntity
8
SK2
62
256
6
ByLayer
370
13
48
1
60
0
100
AcDbLine
10
33.045709
20
41.074261
30
0
11
33.045702
21
42.775739
31
0
39
0
210
0
220
0
230
1
0
ENDBLK
5
12C
100
AcDbEntity
8
0
100
AcDbBlockEnd
0
BLOCK
5
138
100
AcDbEntity
8
0
100
AcDbBlockBegin
2
DimnDraft3D4
70
0
10
0
20
0
30
0
3
DimnDraft3D4
0
MTEXT
5
12F
100
AcDbEntity
8
2
62
256
6
ByLayer
370
13
48
1
60
0
100
AcDbMText
10
22.616722
20
29.839082
30
0
210
0
220
0
230
1
1
\W0.8292;93%%d0'
40
4.5
41
0
44
1.084337
50
46.5
71
7
72
5
7
iso_b_vert
0
LINE
5
130
100
AcDbEntity
8
2
62
256
6
ByLayer
370
13
48
1
60
0
100
AcDbLine
10
36.220706
20
26.0125
30
0
11
36.220706
21
40.083093
31
0
39
0
210
0
220
0
230
1
0
ARC
5
131
100
AcDbEntity
8
2
62
256
6
ByLayer
370
13
48
1
60
0
100
AcDbCircle
39
0
10
36.220706
20
24.467688
30
0
40
12.440404684557
210
0
220
0
230
1
100
AcDbArc
50
90
51
183
0
LINE
5
132
100
AcDbEntity
8
2
62
256
6
ByLayer
370
13
48
1
60
0
100
AcDbLine
10
36.220706
20
36.908093
30
0
11
33.106053
21
35.857713
31
0
39
0
210
0
220
0
230
1
0
LINE
5
133
100
AcDbEntity
8
2
62
256
6
ByLayer
370
13
48
1
60
0
100
AcDbLine
10
36.220706
20
36.908093
30
0
11
32.998141
21
37.555764
31
0
39
0
210
0
220
0
230
1
0
LINE
5
134
100
AcDbEntity
8
2
62
256
6
ByLayer
370
13
48
1
60
0
100
AcDbLine
10
33.106053
20
35.857713
30
0
11
32.998141
21
37.555764
31
0
39
0
210
0
220
0
230
1
0
LINE
5
135
100
AcDbEntity
8
2
62
256
6
ByLayer
370
13
48
1
60
0
100
AcDbLine
10
23.79735
20
23.816607
30
0
11
22.98191
21
27.000853
31
0
39
0
210
0
220
0
230
1
0
LINE
5
136
100
AcDbEntity
8
2
62
256
6
ByLayer
370
13
48
1
60
0
100
AcDbLine
10
23.79735
20
23.816607
30
0
11
24.683282
21
26.981971
31
0
39
0
210
0
220
0
230
1
0
LINE
5
137
100
AcDbEntity
8
2
62
256
6
ByLayer
370
13
48
1
60
0
100
AcDbLine
10
22.98191
20
27.000853
30
0
11
24.683282
21
26.981971
31
0
39
0
210
0
220
0
230
1
0
ENDBLK
5
139
100
AcDbEntity
8
0
100
AcDbBlockEnd
0
ENDSEC
0
SECTION
2
ENTITIES
0
ARC
5
B3
100
AcDbEntity
8
1
62
256
6
ByLayer
370
18
48
1
60
0
100
AcDbCircle
39
0
10
0
20
17.525
30
0
40
1.60000000000039
210
0
220
0
230
-1
100
AcDbArc
50
195
51
270
0
ELLIPSE
5
B4
100
AcDbEntity
8
1
62
256
6
ByLayer
370
18
48
1
60
0
100
AcDbEllipse
10
15.739136
20
9.663215
30
0
11
1.68531902581988
21
-1.7297974376124
31
0
210
0
220
0
230
1
40
0.987534
41
-2.89546307831329
42
-1.45178563078509
0
ELLIPSE
5
B5
100
AcDbEntity
8
1
62
256
6
ByLayer
370
18
48
1
60
0
100
AcDbEllipse
10
0
20
-15.931981
30
0
11
1.59999999999932
21
1.61702248813109E-15
31
0
210
0
220
0
230
-1
40
0.004363
41
-1.5707963267949
42
-0.261799387798504
0
ELLIPSE
5
B6
100
AcDbEntity
8
1
62
256
6
ByLayer
370
18
48
1
60
0
100
AcDbEllipse
10
20.067498
20
16.667004
30
0
11
-1.81437945872591
21
1.86226399303467
31
0
210
0
220
0
230
1
40
0.987534
41
-0.0952081969229113
42
0.246129575276485
0
ELLIPSE
5
B7
100
AcDbEntity
8
1
62
256
6
ByLayer
370
18
48
1
60
0
100
AcDbEllipse
10
16.326769
20
9.159127
30
0
11
-1.7551028511555
21
1.80142297580604
31
0
210
0
220
0
230
1
40
0.987534
41
1.37698988262265
42
-2.89546307831329
0
ELLIPSE
5
B8
100
AcDbEntity
8
1
62
256
6
ByLayer
370
18
48
1
60
0
100
AcDbEllipse
10
19.688706
20
10.209732
30
0
11
0.0958602922575337
21
0.155667897653372
31
0
210
0
220
0
230
-1
40
0.022144
41
3.01106452656959
42
-1.68968892551771
0
ELLIPSE
5
B9
100
AcDbEntity
8
1
62
256
6
ByLayer
370
18
48
1
60
0
100
AcDbEllipse
10
18.446079
20
14.018308
30
0
11
-1.81437945872592
21
1.86226399303468
31
0
210
0
220
0
230
1
40
0.987534
41
0.246129575276485
42
0.587467347475905
0
ELLIPSE
5
BA
100
AcDbEntity
8
1
62
256
6
ByLayer
370
18
48
1
60
0
100
AcDbEllipse
10
14.26535
20
10.799112
30
0
11
0.55390911360142
21
-0.56852770941203
31
0
210
0
220
0
230
1
40
0.987534
41
-2.05627389022541
42
-0.713801513320404
0
ELLIPSE
5
BB
100
AcDbEntity
8
1
62
256
6
ByLayer
370
18
48
1
60
0
100
AcDbEllipse
10
24.490721
20
16.868824
30
0
11
-1.79902701715208
21
1.84650637463207
31
0
210
0
220
0
230
1
40
0.987534
41
-2.94391696274905
42
-2.5400260034385
0
ELLIPSE
5
BC
100
AcDbEntity
8
1
62
256
6
ByLayer
370
18
48
1
60
0
100
AcDbEllipse
10
24.490721
20
16.868824
30
0
11
-1.79902701715208
21
1.84650637463207
31
0
210
0
220
0
230
1
40
0.987534
41
-0.938697240715167
42
-0.197674269185651
0
ELLIPSE
5
BD
100
AcDbEntity
8
1
62
256
6
ByLayer
370
18
48
1
60
0
100
AcDbEllipse
10
28.213601
20
13.09381
30
0
11
0.837405904027343
21
-0.859506458323699
31
0
210
0
220
0
230
1
40
0.987534
41
-0.233835969021966
42
4.61459178704123E-06
0
ELLIPSE
5
BE
100
AcDbEntity
8
1
62
256
6
ByLayer
370
18
48
1
60
0
100
AcDbEllipse
10
24.916246
20
17.89749
30
0
11
1.81437945872591
21
-1.86226399303468
31
0
210
0
220
0
230
1
40
0.987534
41
-1.4890504223125
42
0.358197683290104
0
ELLIPSE
5
BF
100
AcDbEntity
8
1
62
256
6
ByLayer
370
18
48
1
60
0
100
AcDbEllipse
10
24.989613
20
17.354889
30
0
11
1.63991989538688
21
-1.68320014755058
31
0
210
0
220
0
230
1
40
0.987534
41
-2.58487766018389
42
-2.34663043062033
0
ELLIPSE
5
C0
100
AcDbEntity
8
1
62
256
6
ByLayer
370
18
48
1
60
0
100
AcDbEllipse
10
24.329977
20
17.326295
30
0
11
-1.81437945872592
21
1.86226399303468
31
0
210
0
220
0
230
1
40
0.987534
41
2.84347804410174
42
3.14158514802219
0
ELLIPSE
5
C1
100
AcDbEntity
8
1
62
256
6
ByLayer
370
18
48
1
60
0
100
AcDbEllipse
10
23.842442
20
16.237215
30
0
11
-1.93650115306324
21
1.98760868487355
31
0
210
0
220
0
230
1
40
0.987534
41
-2.6792284864597
42
-2.4830403361125
0
ELLIPSE
5
C2
100
AcDbEntity
8
1
62
256
6
ByLayer
370
18
48
1
60
0
100
AcDbEllipse
10
23.842442
20
16.237215
30
0
11
-1.93650115306324
21
1.98760868487355
31
0
210
0
220
0
230
1
40
0.987534
41
-0.707340581141778
42
-0.462334480131128
0
ELLIPSE
5
C3
100
AcDbEntity
8
1
62
256
6
ByLayer
370
18
48
1
60
0
100
AcDbEllipse
10
23.636684
20
16.036748
30
0
11
1.98883902206494
21
-2.04132783851879
31
0
210
0
220
0
230
1
40
0.987534
41
2.52891192301872
42
2.61093886523927
0
ELLIPSE
5
C4
100
AcDbEntity
8
1
62
256
6
ByLayer
370
18
48
1
60
0
100
AcDbEllipse
10
23.636684
20
16.036748
30
0
11
1.98883902206494
21
-2.04132783851879
31
0
210
0
220
0
230
1
40
0.987534
41
0.530673381306056
42
0.644797593459282
0
ELLIPSE
5
C5
100
AcDbEntity
8
1
62
256
6
ByLayer
370
18
48
1
60
0
100
AcDbEllipse
10
23.636684
20
16.036748
30
0
11
2.07012279951085
21
-2.12475683195639
31
0
210
0
220
0
230
1
40
0.987534
41
2.36274421319842
42
2.38554986737481
0
ELLIPSE
5
C6
100
AcDbEntity
8
1
62
256
6
ByLayer
370
18
48
1
60
0
100
AcDbEllipse
10
9.466456
20
15.223509
30
0
11
1.08513848396877
21
-1.11377711891113
31
0
210
0
220
0
230
1
40
0.987534
41
0.166063775877548
42
0.804690822844401
0
ELLIPSE
5
C7
100
AcDbEntity
8
1
62
256
6
ByLayer
370
18
48
1
60
0
100
AcDbEllipse
10
9.466456
20
15.223509
30
0
11
1.08513848396877
21
-1.11377711891113
31
0
210
0
220
0
230
1
40
0.987534
41
0.804690175893223
42
2.8938495261287
0
ELLIPSE
5
C8
100
AcDbEntity
8
1
62
256
6
ByLayer
370
18
48
1
60
0
100
AcDbEllipse
10
9.5792
20
15.333354
30
0
11
-1.08513848396877
21
1.11377711891112
31
0
210
0
220
0
230
1
40
0.987534
41
-0.422459640635512
42
-0.212803999713409
0
ELLIPSE
5
C9
100
AcDbEntity
8
1
62
256
6
ByLayer
370
18
48
1
60
0
100
AcDbEllipse
10
9.5792
20
15.333354
30
0
11
-1.08513848396877
21
1.11377711891112
31
0
210
0
220
0
230
1
40
0.987534
41
-3.05435612323207
42
-2.95991214823888
0
ELLIPSE
5
CA
100
AcDbEntity
8
1
62
256
6
ByLayer
370
18
48
1
60
0
100
AcDbEllipse
10
28.929526
20
13.791326
30
0
11
-0.837405904027346
21
0.859506458323697
31
0
210
0
220
0
230
1
40
0.987534
41
2.90775668456785
42
-2.89546307831331
0
ELLIPSE
5
CB
100
AcDbEntity
8
1
62
256
6
ByLayer
370
18
48
1
60
0
100
AcDbEllipse
10
14.981275
20
11.496628
30
0
11
-0.553909113601421
21
0.568527709412028
31
0
210
0
220
0
230
1
40
0.987534
41
0.246129575276505
42
2.42779114026939
0
ELLIPSE
5
CC
100
AcDbEntity
8
1
62
256
6
ByLayer
370
18
48
1
60
0
100
AcDbEllipse
10
25.206646
20
17.566341
30
0
11
-1.79902701715208
21
1.84650637463207
31
0
210
0
220
0
230
1
40
0.987534
41
0
42
6.28318530717959
0
ELLIPSE
5
CD
100
AcDbEntity
8
1
62
256
6
ByLayer
370
18
48
1
60
0
100
AcDbEllipse
10
23.625528
20
22.612691
30
0
11
-0.837405904027346
21
0.859506458323697
31
0
210
0
220
0
230
1
40
0.987534
41
-0.713801513320383
42
-0.233835969021971
0
ELLIPSE
5
CE
100
AcDbEntity
8
1
62
256
6
ByLayer
370
18
48
1
60
0
100
AcDbEllipse
10
21.483766
20
21.341355
30
0
11
-0.837405904027346
21
0.859506458323697
31
0
210
0
220
0
230
1
40
0.987534
41
-0.233835969021909
42
0.24612957527649
0
ELLIPSE
5
CF
100
AcDbEntity
8
1
62
256
6
ByLayer
370
18
48
1
60
0
100
AcDbEllipse
10
26.787763
20
12.51999
30
0
11
-0.837405904027346
21
0.859506458323697
31
0
210
0
220
0
230
1
40
0.987534
41
2.42779114026939
42
2.90775668456786
0
ELLIPSE
5
D0
100
AcDbEntity
8
1
62
256
6
ByLayer
370
18
48
1
60
0
100
AcDbEllipse
10
35.432016
20
23.636053
30
0
11
-0.553909113601421
21
0.568527709412028
31
0
210
0
220
0
230
1
40
0.987534
41
-2.89546307831329
42
-0.713801513320407
0
ELLIPSE
5
D1
100
AcDbEntity
8
1
62
256
6
ByLayer
370
18
48
1
60
0
100
AcDbEllipse
10
25.062981
20
16.812288
30
0
11
1.81437945872591
21
-1.86226399303468
31
0
210
0
220
0
230
1
40
0.987534
41
1.49541828381847
42
-2.7833949702997
0
ELLIPSE
5
D2
100
AcDbEntity
8
1
62
256
6
ByLayer
370
18
48
1
60
0
100
AcDbEllipse
10
24.950069
20
17.930443
30
0
11
-1.60502798271908
21
1.64738737845375
31
0
210
0
220
0
230
1
40
0.987534
41
1.50846248484897
42
-2.79643917133017
0
ELLIPSE
5
D3
100
AcDbEntity
8
1
62
256
6
ByLayer
370
18
48
1
60
0
100
AcDbEllipse
10
24.989613
20
17.354889
30
0
11
1.63991989538688
21
-1.68320014755058
31
0
210
0
220
0
230
1
40
0.987534
41
0.556714993405916
42
1.29690097370267
0
ELLIPSE
5
D4
100
AcDbEntity
8
1
62
256
6
ByLayer
370
18
48
1
60
0
100
AcDbEllipse
10
25.023437
20
17.387842
30
0
11
-1.43056841938005
21
1.46832353296965
31
0
210
0
220
0
230
1
40
0.987534
41
-2.57034457039827
42
-1.85922476967275
0
ELLIPSE
5
D5
100
AcDbEntity
8
1
62
256
6
ByLayer
370
18
48
1
60
0
100
AcDbEllipse
10
25.023437
20
17.387842
30
0
11
-1.43056841938005
21
1.46832353296965
31
0
210
0
220
0
230
1
40
0.987534
41
0.571248083191527
42
1.28236788391705
0
ELLIPSE
5
D6
100
AcDbEntity
8
1
62
256
6
ByLayer
370
18
48
1
60
0
100
AcDbEllipse
10
25.096804
20
16.845242
30
0
11
-1.60502798271908
21
1.64738737845375
31
0
210
0
220
0
230
1
40
0.987534
41
-1.63313016874083
42
0.345153482259601
0
ELLIPSE
5
D7
100
AcDbEntity
8
1
62
256
6
ByLayer
370
18
48
1
60
0
100
AcDbEllipse
10
10.005936
20
15.749117
30
0
11
-1.08513848396877
21
1.11377711891112
31
0
210
0
220
0
230
1
40
0.987534
41
0.181680505350904
42
0.624737910561099
0
ELLIPSE
5
D8
100
AcDbEntity
8
1
62
256
6
ByLayer
370
18
48
1
60
0
100
AcDbEllipse
10
9.943927
20
15.688703
30
0
11
2.79135301342448
21
-2.86502152774566
31
0
210
0
220
0
230
1
40
0.987534
41
0
42
6.28318530717959
0
ELLIPSE
5
D9
100
AcDbEntity
8
1
62
256
6
ByLayer
370
18
48
1
60
0
100
AcDbEllipse
10
10.005936
20
15.749117
30
0
11
-1.08513848396877
21
1.11377711891112
31
0
210
0
220
0
230
1
40
0.987534
41
-1.9127145970423
42
-1.46965719183212
0
ELLIPSE
5
DA
100
AcDbEntity
8
1
62
256
6
ByLayer
370
18
48
1
60
0
100
AcDbEllipse
10
9.5792
20
15.333354
30
0
11
-1.08513848396877
21
1.11377711891112
31
0
210
0
220
0
230
1
40
0.987534
41
-1.46965719183211
42
-0.865517045845722
0
ELLIPSE
5
DB
100
AcDbEntity
8
1
62
256
6
ByLayer
370
18
48
1
60
0
100
AcDbEllipse
10
10.005936
20
15.749117
30
0
11
-1.08513848396877
21
1.11377711891112
31
0
210
0
220
0
230
1
40
0.987534
41
-2.95991214823889
42
-2.51685474302872
0
ELLIPSE
5
DC
100
AcDbEntity
8
1
62
256
6
ByLayer
370
18
48
1
60
0
100
AcDbEllipse
10
10.005936
20
15.749117
30
0
11
-1.08513848396877
21
1.11377711891112
31
0
210
0
220
0
230
1
40
0.987534
41
1.2288780565475
42
1.67193546175769
0
ELLIPSE
5
DD
100
AcDbEntity
8
1
62
256
6
ByLayer
370
18
48
1
60
0
100
AcDbEllipse
10
9.5792
20
15.333354
30
0
11
-1.08513848396877
21
1.11377711891112
31
0
210
0
220
0
230
1
40
0.987534
41
-2.51685474302872
42
-1.9127145970423
0
ELLIPSE
5
DE
100
AcDbEntity
8
1
62
256
6
ByLayer
370
18
48
1
60
0
100
AcDbEllipse
10
10.030176
20
15.772734
30
0
11
2.25750674960705
21
-2.31708616056431
31
0
210
0
220
0
230
1
40
0.987534
41
0
42
6.28318530717959
0
ELLIPSE
5
DF
100
AcDbEntity
8
1
62
256
6
ByLayer
370
18
48
1
60
0
100
AcDbEllipse
10
10.030176
20
15.772734
30
0
11
1.34500711567852
21
-1.38050412214346
31
0
210
0
220
0
230
1
40
0.987534
41
0
42
6.28318530717959
0
ELLIPSE
5
E0
100
AcDbEntity
8
1
62
256
6
ByLayer
370
18
48
1
60
0
100
AcDbEllipse
10
10.005936
20
15.749117
30
0
11
-1.08513848396877
21
1.11377711891112
31
0
210
0
220
0
230
1
40
0.987534
41
-0.86551704584571
42
-0.422459640635499
0
ELLIPSE
5
E1
100
AcDbEntity
8
1
62
256
6
ByLayer
370
18
48
1
60
0
100
AcDbEllipse
10
10.005936
20
15.749117
30
0
11
-1.08513848396877
21
1.11377711891112
31
0
210
0
220
0
230
1
40
0.987534
41
2.27607560774411
42
2.71913301295428
0
POINT
5
6C
100
AcDbEntity
8
80
62
256
6
ByLayer
370
18
48
1
60
0
100
AcDbPoint
10
0
20
0
30
0
39
0
210
0
220
0
230
1
50
360
0
POINT
5
6E
100
AcDbEntity
8
81
62
256
6
ByLayer
370
18
48
1
60
0
100
AcDbPoint
10
34.870706
20
24.075
30
0
39
0
210
0
220
0
230
1
50
360
0
POINT
5
70
100
AcDbEntity
8
1
62
256
6
ByLayer
370
18
48
1
60
0
100
AcDbPoint
10
-135.129294
20
-15.925
30
0
39
0
210
0
220
0
230
1
50
360
0
SPLINE
5
E2
100
AcDbEntity
8
1
62
256
6
ByLayer
370
18
48
1
60
0
100
AcDbSpline
70
4
71
3
72
9
73
5
40
0
40
0
40
0
40
0
40
0.739181483022385
40
1
40
1
40
1
40
1
41
1
10
26.2061811679191
20
15.5222007786336
30
0
41
1
10
26.1343023779994
20
15.4445372433529
30
0
41
1
10
26.0298369737643
20
15.3468788640531
30
0
41
1
10
25.9107760554118
20
15.2686820031603
30
0
41
1
10
25.8789513525217
20
15.2491772010219
30
0
0
SPLINE
5
E3
100
AcDbEntity
8
1
62
256
6
ByLayer
370
18
48
1
60
0
100
AcDbSpline
70
4
71
3
72
8
73
4
40
0
40
0
40
0
40
0
40
1
40
1
40
1
40
1
41
1
10
18.2739280668724
20
18.5550335486465
30
0
41
1
10
18.3280074409488
20
18.600412277533
30
0
41
1
10
18.3820861137405
20
18.6457898610867
30
0
41
1
10
18.4361640787679
20
18.6911662887264
30
0
0
SPLINE
5
E4
100
AcDbEntity
8
1
62
256
6
ByLayer
370
18
48
1
60
0
100
AcDbSpline
70
4
71
3
72
8
73
4
40
0
40
0
40
0
40
0
40
1
40
1
40
1
40
1
41
1
10
23.226395593618
20
16.4511236227806
30
0
41
1
10
23.1540308941046
20
16.3995695876692
30
0
41
1
10
23.0816997598015
20
16.3480051025501
30
0
41
1
10
23.009393735169
20
16.2964328225737
30
0
0
SPLINE
5
E5
100
AcDbEntity
8
1
62
256
6
ByLayer
370
18
48
1
60
0
100
AcDbSpline
70
4
71
3
72
12
73
8
40
0
40
0
40
0
40
0
40
0.115919248932895
40
0.115919248932895
40
0.625253024234745
40
0.625253024234745
40
1
40
1
40
1
40
1
41
1
10
22.8973310548977
20
18.3322997208261
30
0
41
1
10
22.8899460046172
20
18.3251493176585
30
0
41
1
10
22.8825209657121
20
18.317846814235
30
0
41
1
10
22.8423227201018
20
18.2776634976789
30
0
41
1
10
22.8088851749769
20
18.2419001997197
30
0
41
1
10
22.7519370987549
20
18.1762639016702
30
0
41
1
10
22.7280858156122
20
18.1472944619036
30
0
41
1
10
22.7046649505237
20
18.1172430955044
30
0
0
SPLINE
5
E6
100
AcDbEntity
8
1
62
256
6
ByLayer
370
18
48
1
60
0
100
AcDbSpline
70
4
71
3
72
10
73
6
40
0
40
0
40
0
40
0
40
0.749505221263553
40
0.749505221263553
40
1
40
1
40
1
40
1
41
1
10
23.6090961645622
20
18.8923257476021
30
0
41
1
10
23.4574238064166
20
18.8575648894865
30
0
41
1
10
23.297730800043
20
18.8225528573035
30
0
41
1
10
23.0781854043596
20
18.7756363774347
30
0
41
1
10
23.0225859336868
20
18.7638645571194
30
0
41
1
10
22.9663977451064
20
18.752081023919
30
0
0
SPLINE
5
E7
100
AcDbEntity
8
1
62
256
6
ByLayer
370
18
48
1
60
0
100
AcDbSpline
70
4
71
3
72
14
73
10
40
0
40
0
40
0
40
0
40
0.292804977845765
40
0.292804977845765
40
0.737795398459555
40
0.737795398459555
40
0.960290608766449
40
0.960290608766449
40
1
40
1
40
1
40
1
41
1
10
26.1136955508325
20
15.1810374281099
30
0
41
1
10
26.1648035517807
20
15.2399520472085
30
0
41
1
10
26.2130561552368
20
15.3012805117922
30
0
41
1
10
26.3275697692582
20
15.4617338739449
30
0
41
1
10
26.3902722085001
20
15.5645122491485
30
0
41
1
10
26.4721378677091
20
15.7210004516601
30
0
41
1
10
26.4975631151478
20
15.7737855110265
30
0
41
1
10
26.5253484237943
20
15.8360900191506
30
0
41
1
10
26.5294893824779
20
15.8455115071221
30
0
41
1
10
26.5335646533279
20
15.8549128140616
30
0
0
SPLINE
5
E8
100
AcDbEntity
8
1
62
256
6
ByLayer
370
18
48
1
60
0
100
AcDbSpline
70
4
71
3
72
8
73
4
40
0
40
0
40
0
40
0
40
1
40
1
40
1
40
1
41
1
10
27.0108689369877
20
16.9164899370175
30
0
41
1
10
27.0940379762773
20
16.8715519649785
30
0
41
1
10
27.1771462719576
20
16.8265821421103
30
0
41
1
10
27.2602136230618
20
16.7815908952865
30
0
0
SPLINE
5
E9
100
AcDbEntity
8
1
62
256
6
ByLayer
370
18
48
1
60
0
100
AcDbSpline
70
4
71
3
72
8
73
4
40
0
40
0
40
0
40
0
40
1
40
1
40
1
40
1
41
1
10
27.0334420003186
20
18.4587202776581
30
0
41
1
10
26.9625056607386
20
18.4139944971965
30
0
41
1
10
26.8915247752131
20
18.3692739273398
30
0
41
1
10
26.8204777884814
20
18.3245611297037
30
0
0
SPLINE
5
EA
100
AcDbEntity
8
1
62
256
6
ByLayer
370
18
48
1
60
0
100
AcDbSpline
70
4
71
3
72
8
73
4
40
0
40
0
40
0
40
0
40
1
40
1
40
1
40
1
41
1
10
22.7190133106498
20
17.9281868070323
30
0
41
1
10
22.8246372628479
20
17.9051721617195
30
0
41
1
10
22.9302954631768
20
17.8821724161034
30
0
41
1
10
23.0360044451116
20
17.8591948154669
30
0
0
SPLINE
5
EB
100
AcDbEntity
8
1
62
256
6
ByLayer
370
18
48
1
60
0
100
AcDbSpline
70
4
71
3
72
8
73
4
40
0
40
0
40
0
40
0
40
1
40
1
40
1
40
1
41
1
10
9.0212274790137
20
14.5705281312111
30
0
41
1
10
9.13471380595706
20
14.4282641800314
30
0
41
1
10
9.24706200857867
20
14.2918414804679
30
0
41
1
10
9.35872119633183
20
14.1589550459126
30
0
0
SPLINE
5
EC
100
AcDbEntity
8
1
62
256
6
ByLayer
370
18
48
1
60
0
100
AcDbSpline
70
4
71
3
72
8
73
4
40
0
40
0
40
0
40
0
40
1
40
1
40
1
40
1
41
1
10
8.48245236125507
20
16.025751463254
30
0
41
1
10
8.41632979234214
20
15.8614014984378
30
0
41
1
10
8.35400637304343
20
15.7034999082812
30
0
41
1
10
8.29398294024145
20
15.5495021324381
30
0
0
SPLINE
5
ED
100
AcDbEntity
8
1
62
256
6
ByLayer
370
18
48
1
60
0
100
AcDbSpline
70
4
71
3
72
10
73
6
40
0
40
0
40
0
40
0
40
0.5
40
0.5
40
1
40
1
40
1
40
1
41
1
10
11.0834770594521
20
14.3710435470471
30
0
41
1
10
11.1136600984025
20
14.44848198483
30
0
41
1
10
11.1446122465855
20
14.5273787959482
30
0
41
1
10
11.2074768844476
20
14.6863215982747
30
0
41
1
10
11.2394129737922
20
14.7664297056507
30
0
41
1
10
11.2719464804657
20
14.847292877863
30
0
0
SPLINE
5
EE
100
AcDbEntity
8
1
62
256
6
ByLayer
370
18
48
1
60
0
100
AcDbSpline
70
4
71
3
72
8
73
4
40
0
40
0
40
0
40
0
40
1
40
1
40
1
40
1
41
1
10
10.9906451206387
20
16.9277065123382
30
0
41
1
10
10.8823766280838
20
17.0750541313378
30
0
41
1
10
10.7790658356109
20
17.2202818614422
30
0
41
1
10
10.6787564103915
20
17.3642262212325
30
0
0
SPLINE
5
EF
100
AcDbEntity
8
1
62
256
6
ByLayer
370
18
48
1
60
0
100
AcDbSpline
70
4
71
3
72
10
73
6
40
0
40
0
40
0
40
0
40
0.5
40
0.5
40
1
40
1
40
1
40
1
41
1
10
9.87188183112806
20
14.2111579796321
30
0
41
1
10
9.78412391085834
20
14.2014678283725
30
0
41
1
10
9.69663245908123
20
14.1922362429072
30
0
41
1
10
9.52560318082698
20
14.1748968966438
30
0
41
1
10
9.44159162010101
20
14.1667337093007
30
0
41
1
10
9.35872119633183
20
14.1589550459126
30
0
0
SPLINE
5
F0
100
AcDbEntity
8
1
62
256
6
ByLayer
370
18
48
1
60
0
100
AcDbSpline
70
4
71
3
72
10
73
6
40
0
40
0
40
0
40
0
40
0.5
40
0.5
40
1
40
1
40
1
40
1
41
1
10
11.0834770594521
20
14.3710435470471
30
0
41
1
10
10.9946872591959
20
14.357706714727
30
0
41
1
10
10.9052938329375
20
14.3445402948128
30
0
41
1
10
10.7249112299962
20
14.3186579585546
30
0
41
1
10
10.6344917504301
20
14.3060283486782
30
0
41
1
10
10.5447114175848
20
14.2938939897318
30
0
0
SPLINE
5
F1
100
AcDbEntity
8
1
62
256
6
ByLayer
370
18
48
1
60
0
100
AcDbSpline
70
4
71
3
72
10
73
6
40
0
40
0
40
0
40
0
40
0.5
40
0.5
40
1
40
1
40
1
40
1
41
1
10
11.7434946664819
20
15.973679134707
30
0
41
1
10
11.6873463681291
20
16.0405016445659
30
0
41
1
10
11.6306927570674
20
16.1086258155868
30
0
41
1
10
11.5179620762729
20
16.2459761428642
30
0
41
1
10
11.4618382863341
20
16.3152557682466
30
0
41
1
10
11.4060009491638
20
16.3852522200056
30
0
0
SPLINE
5
F2
100
AcDbEntity
8
1
62
256
6
ByLayer
370
18
48
1
60
0
100
AcDbSpline
70
4
71
3
72
10
73
6
40
0
40
0
40
0
40
0
40
0.5
40
0.5
40
1
40
1
40
1
40
1
41
1
10
8.29398294024145
20
15.5495021324381
30
0
41
1
10
8.34442396214166
20
15.4771190977559
30
0
41
1
10
8.3959331413231
20
15.4039827740191
30
0
41
1
10
8.50000190137916
20
15.2581932506235
30
0
41
1
10
8.55260158274973
20
15.185480132342
30
0
41
1
10
8.60587165048855
20
15.1129824235438
30
0
0
SPLINE
5
F3
100
AcDbEntity
8
1
62
256
6
ByLayer
370
18
48
1
60
0
100
AcDbSpline
70
4
71
3
72
10
73
6
40
0
40
0
40
0
40
0
40
0.5
40
0.5
40
1
40
1
40
1
40
1
41
1
10
9.46716118206757
20
17.2043406538176
30
0
41
1
10
9.37940326179779
20
17.1946505025579
30
0
41
1
10
9.29191181002068
20
17.1854189170927
30
0
41
1
10
9.12088253176643
20
17.1680795708292
30
0
41
1
10
9.03687097104046
20
17.1599163834861
30
0
41
1
10
8.95400054727128
20
17.152137720098
30
0
0
SPLINE
5
F4
100
AcDbEntity
8
1
62
256
6
ByLayer
370
18
48
1
60
0
100
AcDbSpline
70
4
71
3
72
8
73
4
40
0
40
0
40
0
40
0
40
1
40
1
40
1
40
1
41
1
10
11.5294202383973
20
15.4724831802953
30
0
41
1
10
11.6007606416987
20
15.6419168129315
30
0
41
1
10
11.6721214711462
20
15.808623433629
30
0
41
1
10
11.7434946664819
20
15.973679134707
30
0
0
SPLINE
5
F5
100
AcDbEntity
8
1
62
256
6
ByLayer
370
18
48
1
60
0
100
AcDbSpline
70
4
71
3
72
10
73
6
40
0
40
0
40
0
40
0
40
0.5
40
0.5
40
1
40
1
40
1
40
1
41
1
10
8.95400054727128
20
17.152137720098
30
0
41
1
10
8.91811023186824
20
17.0691387574917
30
0
41
1
10
8.8820136518051
20
16.9852297936577
30
0
41
1
10
8.81048709320442
20
16.8178477952131
30
0
41
1
10
8.77502689529155
20
16.7343061949379
30
0
41
1
10
8.73992611918663
20
16.6509417656864
30
0
0
SPLINE
5
F6
100
AcDbEntity
8
1
62
256
6
ByLayer
370
18
48
1
60
0
100
AcDbSpline
70
4
71
3
72
10
73
6
40
0
40
0
40
0
40
0
40
0.5
40
0.5
40
1
40
1
40
1
40
1
41
1
10
10.6787564103915
20
17.3642262212325
30
0
41
1
10
10.5899666101354
20
17.3508893889124
30
0
41
1
10
10.500573183877
20
17.3377229689983
30
0
41
1
10
10.3201905809357
20
17.31184063274
30
0
41
1
10
10.2297711013696
20
17.2992110228636
30
0
41
1
10
10.1399907685243
20
17.2870766639172
30
0
0
LINE
5
72
100
AcDbEntity
8
1
62
256
6
ByLayer
370
18
48
1
60
0
100
AcDbLine
10
7.152574
20
18.553724
30
0
11
7.10561
21
18.507967
31
0
39
0
210
0
220
0
230
1
0
LINE
5
73
100
AcDbEntity
8
1
62
256
6
ByLayer
370
18
48
1
60
0
100
AcDbLine
10
29.051007
20
12.234304
30
0
11
29.766932
21
12.93182
31
0
39
0
210
0
220
0
230
1
0
LINE
5
74
100
AcDbEntity
8
1
62
256
6
ByLayer
370
18
48
1
60
0
100
AcDbLine
10
20.64636
20
22.200861
30
0
11
20.260387
21
21.824813
31
0
39
0
210
0
220
0
230
1
0
LINE
5
75
100
AcDbEntity
8
1
62
256
6
ByLayer
370
18
48
1
60
0
100
AcDbLine
10
12.688316
20
12.777924
30
0
11
12.73528
21
12.823681
31
0
39
0
210
0
220
0
230
1
0
LINE
5
76
100
AcDbEntity
8
1
62
256
6
ByLayer
370
18
48
1
60
0
100
AcDbLine
10
23.248601
20
18.674552
30
0
11
22.891118
21
18.326261
31
0
39
0
210
0
220
0
230
1
0
LINE
5
77
100
AcDbEntity
8
1
62
256
6
ByLayer
370
18
48
1
60
0
100
AcDbLine
10
26.144356
20
15.464031
30
0
11
26.730626
21
16.035226
31
0
39
0
210
0
220
0
230
1
0
LINE
5
78
100
AcDbEntity
8
1
62
256
6
ByLayer
370
18
48
1
60
0
100
AcDbLine
10
13.694733
20
10.261705
30
0
11
13.339526
21
9.681452
31
0
39
0
210
0
220
0
230
1
0
LINE
5
79
100
AcDbEntity
8
1
62
256
6
ByLayer
370
18
48
1
60
0
100
AcDbLine
10
20.351626
20
10.92043
30
0
11
25.58131
21
11.217433
31
0
39
0
210
0
220
0
230
1
0
LINE
5
7A
100
AcDbEntity
8
1
62
256
6
ByLayer
370
18
48
1
60
0
100
AcDbLine
10
26.935155
20
11.294321
30
0
11
27.429976
21
11.322422
31
0
39
0
210
0
220
0
230
1
0
LINE
5
7B
100
AcDbEntity
8
1
62
256
6
ByLayer
370
18
48
1
60
0
100
AcDbLine
10
18.462426
20
7.834297
30
0
11
17.891202
21
7.190264
31
0
39
0
210
0
220
0
230
1
0
LINE
5
7C
100
AcDbEntity
8
1
62
256
6
ByLayer
370
18
48
1
60
0
100
AcDbLine
10
19.682002
20
10.292398
30
0
11
17.698833
21
7.05276
31
0
39
0
210
0
220
0
230
1
0
LINE
5
7D
100
AcDbEntity
8
1
62
256
6
ByLayer
370
18
48
1
60
0
100
AcDbLine
10
19.673913
20
10.193376
30
0
11
19.7363
21
10.29529
31
0
39
0
210
0
220
0
230
1
0
LINE
5
7E
100
AcDbEntity
8
1
62
256
6
ByLayer
370
18
48
1
60
0
100
AcDbLine
10
13.341943
20
9.801964
30
0
11
13.652841
21
10.309836
31
0
39
0
210
0
220
0
230
1
0
LINE
5
7F
100
AcDbEntity
8
1
62
256
6
ByLayer
370
18
48
1
60
0
100
AcDbLine
10
19.673913
20
10.193376
30
0
11
19.717349
21
10.195842
31
0
39
0
210
0
220
0
230
1
0
LINE
5
80
100
AcDbEntity
8
1
62
256
6
ByLayer
370
18
48
1
60
0
100
AcDbLine
10
17.421775
20
6.898511
30
0
11
19.493318
21
10.282515
31
0
39
0
210
0
220
0
230
1
0
LINE
5
81
100
AcDbEntity
8
1
62
256
6
ByLayer
370
18
48
1
60
0
100
AcDbLine
10
17.859711
20
18.036578
30
0
11
16.238292
21
15.387882
31
0
39
0
210
0
220
0
230
1
0
LINE
5
82
100
AcDbEntity
8
1
62
256
6
ByLayer
370
18
48
1
60
0
100
AcDbLine
10
19.59411
20
10.055112
30
0
11
20.351626
21
10.92043
31
0
39
0
210
0
220
0
230
1
0
LINE
5
83
100
AcDbEntity
8
1
62
256
6
ByLayer
370
18
48
1
60
0
100
AcDbLine
10
1.545481
20
-15.930174
30
0
11
3.361444
21
-15.959746
31
0
39
0
210
0
220
0
230
1
0
LINE
5
84
100
AcDbEntity
8
1
62
256
6
ByLayer
370
18
48
1
60
0
100
AcDbLine
10
10.731238
20
-15.956073
30
0
11
3.361444
21
-15.959746
31
0
39
0
210
0
220
0
230
1
0
LINE
5
85
100
AcDbEntity
8
1
62
256
6
ByLayer
370
18
48
1
60
0
100
AcDbLine
10
3.361444
20
-15.959746
30
0
11
2.321313
21
20.006334
31
0
39
0
210
0
220
0
230
1
0
LINE
5
86
100
AcDbEntity
8
1
62
256
6
ByLayer
370
18
48
1
60
0
100
AcDbLine
10
0
20
-15.925
30
0
11
0
21
15.925
31
0
39
0
210
0
220
0
230
1
0
LINE
5
87
100
AcDbEntity
8
1
62
256
6
ByLayer
370
18
48
1
60
0
100
AcDbLine
10
2.560011
20
20.897166
30
0
11
2.321313
21
20.006334
31
0
39
0
210
0
220
0
230
1
0
LINE
5
88
100
AcDbEntity
8
1
62
256
6
ByLayer
370
18
48
1
60
0
100
AcDbLine
10
27.429976
20
11.322422
30
0
11
10.731238
21
-15.956073
31
0
39
0
210
0
220
0
230
1
0
LINE
5
89
100
AcDbEntity
8
1
62
256
6
ByLayer
370
18
48
1
60
0
100
AcDbLine
10
13.688393
20
10.935368
30
0
11
15.916584
21
14.575266
31
0
39
0
210
0
220
0
230
1
0
LINE
5
8A
100
AcDbEntity
8
1
62
256
6
ByLayer
370
18
48
1
60
0
100
AcDbLine
10
1.545481
20
17.11089
30
0
11
1.545481
21
-15.930174
31
0
39
0
210
0
220
0
230
1
0
LINE
5
8B
100
AcDbEntity
8
1
62
256
6
ByLayer
370
18
48
1
60
0
100
AcDbLine
10
18.436164
20
18.691166
30
0
11
20.357561
21
21.829896
31
0
39
0
210
0
220
0
230
1
0
LINE
5
8C
100
AcDbEntity
8
1
62
256
6
ByLayer
370
18
48
1
60
0
100
AcDbLine
10
2.560011
20
20.897166
30
0
11
20.357561
21
21.829896
31
0
39
0
210
0
220
0
230
1
0
LINE
5
8D
100
AcDbEntity
8
1
62
256
6
ByLayer
370
18
48
1
60
0
100
AcDbLine
10
18.462426
20
7.834297
30
0
11
20.351626
21
10.92043
31
0
39
0
210
0
220
0
230
1
0
LINE
5
8E
100
AcDbEntity
8
1
62
256
6
ByLayer
370
18
48
1
60
0
100
AcDbLine
10
1.545481
20
17.11089
30
0
11
2.321313
21
20.006334
31
0
39
0
210
0
220
0
230
1
0
LINE
5
8F
100
AcDbEntity
8
SK1
62
256
6
ByLayer
370
18
48
1
60
0
100
AcDbLine
10
-135.129294
20
15.925
30
0
11
0
21
15.925
31
0
39
0
210
0
220
0
230
1
0
LINE
5
91
100
AcDbEntity
8
SK1
62
256
6
ByLayer
370
18
48
1
60
0
100
AcDbLine
10
0
20
-15.925
30
0
11
0
21
15.925
31
0
39
0
210
0
220
0
230
1
0
LINE
5
92
100
AcDbEntity
8
SK1
62
256
6
ByLayer
370
18
48
1
60
0
100
AcDbLine
10
-135.129294
20
-15.925
30
0
11
0
21
-15.925
31
0
39
0
210
0
220
0
230
1
0
LINE
5
93
100
AcDbEntity
8
SK1
62
256
6
ByLayer
370
18
48
1
60
0
100
AcDbLine
10
-135.129294
20
15.925
30
0
11
-135.129294
21
-15.925
31
0
39
0
210
0
220
0
230
1
0
LINE
5
94
100
AcDbEntity
8
1
62
256
6
ByLayer
370
18
48
1
60
0
100
AcDbLine
10
26.817104
20
11.282193
30
0
11
26.865027
21
11.328883
31
0
39
0
210
0
220
0
230
1
0
LINE
5
95
100
AcDbEntity
8
1
62
256
6
ByLayer
370
18
48
1
60
0
100
AcDbLine
10
19.807728
20
10.299029
30
0
11
14.316457
21
10.011244
31
0
39
0
210
0
220
0
230
1
0
LINE
5
96
100
AcDbEntity
8
1
62
256
6
ByLayer
370
18
48
1
60
0
100
AcDbLine
10
14.259341
20
11.868053
30
0
11
14.307263
21
11.914743
31
0
39
0
210
0
220
0
230
1
0
LINE
5
97
100
AcDbEntity
8
1
62
256
6
ByLayer
370
18
48
1
60
0
100
AcDbLine
10
20.464787
20
21.973466
30
0
11
20.315136
21
21.827664
31
0
39
0
210
0
220
0
230
1
0
LINE
5
98
100
AcDbEntity
8
1
62
256
6
ByLayer
370
18
48
1
60
0
100
AcDbLine
10
27.405705
20
11.492258
30
0
11
27.219083
21
11.310435
31
0
39
0
210
0
220
0
230
1
0
LINE
5
99
100
AcDbEntity
8
1
62
256
6
ByLayer
370
18
48
1
60
0
100
AcDbLine
10
28.831543
20
12.066078
30
0
11
27.345092
21
11.183731
31
0
39
0
210
0
220
0
230
1
0
LINE
5
9A
100
AcDbEntity
8
1
62
256
6
ByLayer
370
18
48
1
60
0
100
AcDbLine
10
22.719013
20
17.928187
30
0
11
22.659554
21
17.870257
31
0
39
0
210
0
220
0
230
1
0
LINE
5
9B
100
AcDbEntity
8
1
62
256
6
ByLayer
370
18
48
1
60
0
100
AcDbLine
10
10.84521
20
14.431529
30
0
11
10.803402
21
14.330012
31
0
39
0
210
0
220
0
230
1
0
LINE
5
9C
100
AcDbEntity
8
1
62
256
6
ByLayer
370
18
48
1
60
0
100
AcDbLine
10
8.785127
20
16.757184
30
0
11
9.040425
21
16.788577
31
0
39
0
210
0
220
0
230
1
0
LINE
5
9D
100
AcDbEntity
8
80
62
256
6
ByLayer
370
18
48
1
60
0
100
AcDbLine
10
0
20
0
30
0
11
-5
21
0
31
0
39
0
210
0
220
0
230
1
0
LINE
5
9E
100
AcDbEntity
8
81
62
256
6
ByLayer
370
18
48
1
60
0
100
AcDbLine
10
34.870706
20
24.075
30
0
11
44.870706
21
24.075
31
0
39
0
210
0
220
0
230
1
0
LINE
5
9F
100
AcDbEntity
8
1
62
256
6
ByLayer
370
18
48
1
60
0
100
AcDbLine
10
29.547467
20
12.763594
30
0
11
27.405705
21
11.492258
31
0
39
0
210
0
220
0
230
1
0
LINE
5
A0
100
AcDbEntity
8
1
62
256
6
ByLayer
370
18
48
1
60
0
100
AcDbLine
10
28.831543
20
12.066078
30
0
11
29.547467
21
12.763594
31
0
39
0
210
0
220
0
230
1
0
LINE
5
A1
100
AcDbEntity
8
1
62
256
6
ByLayer
370
18
48
1
60
0
100
AcDbLine
10
26.865027
20
11.328883
30
0
11
15.032382
21
10.70876
31
0
39
0
210
0
220
0
230
1
0
LINE
5
A2
100
AcDbEntity
8
1
62
256
6
ByLayer
370
18
48
1
60
0
100
AcDbLine
10
14.307263
20
11.914743
30
0
11
20.464787
21
21.973466
31
0
39
0
210
0
220
0
230
1
0
LINE
5
A3
100
AcDbEntity
8
1
62
256
6
ByLayer
370
18
48
1
60
0
100
AcDbLine
10
36.106028
20
23.217938
30
0
11
29.948505
21
13.159215
31
0
39
0
210
0
220
0
230
1
0
LINE
5
A4
100
AcDbEntity
8
1
62
256
6
ByLayer
370
18
48
1
60
0
100
AcDbLine
10
15.032382
20
10.70876
30
0
11
14.316457
21
10.011244
31
0
39
0
210
0
220
0
230
1
0
LINE
5
A5
100
AcDbEntity
8
1
62
256
6
ByLayer
370
18
48
1
60
0
100
AcDbLine
10
23.548265
20
23.803798
30
0
11
35.38091
21
24.423921
31
0
39
0
210
0
220
0
230
1
0
LINE
5
A6
100
AcDbEntity
8
1
62
256
6
ByLayer
370
18
48
1
60
0
100
AcDbLine
10
20.865824
20
22.369087
30
0
11
23.007587
21
23.640423
31
0
39
0
210
0
220
0
230
1
0
LINE
5
A7
100
AcDbEntity
8
1
62
256
6
ByLayer
370
18
48
1
60
0
100
AcDbLine
10
11.52942
20
15.472483
30
0
11
11.102684
21
15.05672
31
0
39
0
210
0
220
0
230
1
0
LINE
5
A8
100
AcDbEntity
8
1
62
256
6
ByLayer
370
18
48
1
60
0
100
AcDbLine
10
11.303956
20
15.545442
30
0
11
11.102684
21
15.05672
31
0
39
0
210
0
220
0
230
1
0
LINE
5
A9
100
AcDbEntity
8
1
62
256
6
ByLayer
370
18
48
1
60
0
100
AcDbLine
10
10.84521
20
14.431529
30
0
11
11.271946
21
14.847293
31
0
39
0
210
0
220
0
230
1
0
LINE
5
AA
100
AcDbEntity
8
1
62
256
6
ByLayer
370
18
48
1
60
0
100
AcDbLine
10
9.713254
20
16.871313
30
0
11
10.139991
21
17.287077
31
0
39
0
210
0
220
0
230
1
0
LINE
5
AB
100
AcDbEntity
8
1
62
256
6
ByLayer
370
18
48
1
60
0
100
AcDbLine
10
10.678756
20
17.364226
30
0
11
10.239218
21
16.935989
31
0
39
0
210
0
220
0
230
1
0
LINE
5
AC
100
AcDbEntity
8
1
62
256
6
ByLayer
370
18
48
1
60
0
100
AcDbLine
10
10.239218
20
16.935989
30
0
11
10.563909
21
16.511943
31
0
39
0
210
0
220
0
230
1
0
LINE
5
AD
100
AcDbEntity
8
1
62
256
6
ByLayer
370
18
48
1
60
0
100
AcDbLine
10
10.979265
20
15.969489
30
0
11
11.303956
21
15.545442
31
0
39
0
210
0
220
0
230
1
0
LINE
5
AE
100
AcDbEntity
8
1
62
256
6
ByLayer
370
18
48
1
60
0
100
AcDbLine
10
9.467161
20
17.204341
30
0
11
9.040425
21
16.788577
31
0
39
0
210
0
220
0
230
1
0
LINE
5
AF
100
AcDbEntity
8
1
62
256
6
ByLayer
370
18
48
1
60
0
100
AcDbLine
10
10.979265
20
15.969489
30
0
11
11.406001
21
16.385252
31
0
39
0
210
0
220
0
230
1
0
LINE
5
B0
100
AcDbEntity
8
1
62
256
6
ByLayer
370
18
48
1
60
0
100
AcDbLine
10
11.743495
20
15.973679
30
0
11
11.303956
21
15.545442
31
0
39
0
210
0
220
0
230
1
0
LINE
5
B1
100
AcDbEntity
8
1
62
256
6
ByLayer
370
18
48
1
60
0
100
AcDbLine
10
10.990645
20
16.927707
30
0
11
10.563909
21
16.511943
31
0
39
0
210
0
220
0
230
1
0
LINE
5
B2
100
AcDbEntity
8
1
62
256
6
ByLayer
370
18
48
1
60
0
100
AcDbLine
10
9.713254
20
16.871313
30
0
11
10.239218
21
16.935989
31
0
39
0
210
0
220
0
230
1
0
MTEXT
5
F7
100
AcDbEntity
8
SK6
62
256
6
ByLayer
370
13
48
1
60
0
100
AcDbMText
10
-103.749094
20
-40.986925
30
0
210
0
220
0
230
1
1
\W0.7497;PDJNR 3232P 15
40
3.5
41
0
44
1.084337
50
0
71
7
72
5
7
iso_b_vert
0
DIMENSION
5
109
100
AcDbEntity
8
SK2
62
256
6
ByLayer
370
13
48
1
60
0
100
AcDbDimension
2
DimnDraft3D1
10
-144.879294
20
-15.925
30
0
11
-144.879294
21
0.075
31
0
70
32
71
5
72
1
41
1
210
0
220
0
230
1
3
Standard
100
AcDbAlignedDimension
13
-136.716794
23
16.075
33
0
14
-136.716794
24
-15.925
34
0
50
90
100
AcDbRotatedDimension
1001
ACAD
1000
DSTYLE
1002
{
1070
    74
1070
     0
1070
   279
1070
     0
1070
   172
1070
     1
1070
   173
1070
     1
1070
   340
1005
F8
1070
   271
1070
     1
1070
   272
1070
     2
1070
    77
1070
     1
1070
    73
1070
     0
1070
   171
1070
     3
1070
   274
1070
     4
1070
   177
1070
   150
1070
   176
1070
     9
1070
   178
1070
    43
1070
    78
1070
     8
1070
    48
1040
-0.005
1070
    41
1041
3.175
1070
   147
1041
2.25
1070
    42
1041
1.5875
1070
    44
1041
3.175
1070
   140
1041
4.5
1070
   343
1005
10A
1070
   344
1005
10A
1002
}
0
DIMENSION
5
11F
100
AcDbEntity
8
2
62
256
6
ByLayer
370
13
48
1
60
0
100
AcDbDimension
2
DimnDraft3D2
10
52.720706
20
24.425
30
0
11
52.720706
21
4.25
31
0
70
32
71
5
72
1
41
1
210
0
220
0
230
1
3
Standard
100
AcDbAlignedDimension
13
1.5875
23
-15.925
33
0
14
37.808206
24
24.425
34
0
50
90
100
AcDbRotatedDimension
1001
ACAD
1000
DSTYLE
1002
{
1070
    74
1070
     0
1070
   279
1070
     0
1070
   172
1070
     1
1070
   173
1070
     1
1070
   340
1005
F8
1070
   271
1070
     1
1070
   272
1070
     2
1070
    77
1070
     1
1070
    73
1070
     0
1070
   171
1070
     3
1070
   274
1070
     4
1070
   177
1070
   150
1070
   176
1070
     9
1070
   178
1070
    43
1070
    78
1070
     8
1070
    48
1040
-0.005
1070
    41
1041
3.175
1070
   147
1041
2.25
1070
    42
1041
1.5875
1070
    44
1041
3.175
1070
   140
1041
4.5
1070
   343
1005
10A
1070
   344
1005
10A
1002
}
0
DIMENSION
5
12D
100
AcDbEntity
8
SK2
62
256
6
ByLayer
370
13
48
1
60
0
100
AcDbDimension
2
DimnDraft3D3
10
36.220706
20
41.925
30
0
11
-49.454294
21
41.925
31
0
70
32
71
5
72
1
41
1
210
0
220
0
230
1
3
Standard
100
AcDbAlignedDimension
13
-135.129294
23
17.6625
33
0
14
36.220706
24
26.0125
34
0
50
0
100
AcDbRotatedDimension
1001
ACAD
1000
DSTYLE
1002
{
1070
   279
1070
     0
1070
   172
1070
     1
1070
   173
1070
     1
1070
   340
1005
F8
1070
   271
1070
     1
1070
   272
1070
     2
1070
    77
1070
     1
1070
    73
1070
     0
1070
   171
1070
     3
1070
   274
1070
     4
1070
   177
1070
   150
1070
   176
1070
     9
1070
   178
1070
    43
1070
    78
1070
     8
1070
    48
1040
-0.005
1070
    41
1041
3.175
1070
   147
1041
2.25
1070
    42
1041
1.5875
1070
    44
1041
3.175
1070
   140
1041
4.5
1070
   343
1005
10A
1070
   344
1005
10A
1002
}
0
DIMENSION
5
13A
100
AcDbEntity
8
2
62
256
6
ByLayer
370
13
48
1
60
0
100
AcDbDimension
2
DimnDraft3D4
10
20.385414
20
23.637796
30
0
11
23.93257
21
36.128693
31
0
70
34
71
5
72
1
41
1
210
0
220
0
230
1
3
Standard
100
AcDb2LineAngularDimension
13
36.220706
23
24.425
33
0
14
36.220706
24
22.8375
34
0
15
35.385414
25
24.423912
35
0
16
27.196755
26
33.031097
36
0
40
0
0
ENDSEC
0
SECTION
2
OBJECTS
0
DICTIONARY
5
1a4
330
0
100
AcDbDictionary
280
0
281
1
3
ACAD_GROUP
350
1a5
3
ACAD_MLINESTYLE
350
1a6
0
DICTIONARY
5
1a5
330
0
100
AcDbDictionary
280
0
281
1
0
DICTIONARY
5
1a6
330
0
100
AcDbDictionary
280
0
281
1
3
Standard
350
18
0
MLINESTYLE
5
18
330
1a6
100
AcDbMlineStyle
2
Standard
70
0
3

62
256
51
90
52
90
71
2
49
-0.5
62
256
6
ByLayer
49
0.5
62
256
6
ByLayer
0
RASTERVARIABLES
5
193
330

100
AcDbRasterVariables
90
0
70
1
71
1
72
1
0
ENDSEC
0
EOF
