0
SECTION
2
HEADER
9
$ACADVER
1
AC1015
9
$DWGCODEPAGE
3
ANSI_1252
9
$HANDSEED
5
1c3
9
$ANGBASE
50
0
9
$ANGDIR
70
0
9
$ATTMODE
70
1
9
$AUNITS
70
0
9
$AUPREC
70
0
9
$CECOLOR
62
256
9
$CELTSCALE
40
1
9
$CELTYPE
6
ByLayer
9
$CELWEIGHT
370
18
9
$CLAYER
8
0
9
$CMLJUST
70
0
9
$CMLSCALE
40
1
9
$CMLSTYLE
2
Standard
9
$DIMSTYLE
2
Standard
9
$TEXTSIZE
40
0.2
9
$TEXTSTYLE
7
Standard
9
$LUNITS
70
2
9
$LUPREC
70
4
9
$EXTNAMES
290
1
9
$INSUNITS
70
4
9
$LTSCALE
40
1
9
$LWDISPLAY
290
1
9
$PDMODE
70
0
9
$PDSIZE
40
0
9
$PLINEGEN
70
0
0
ENDSEC
0
SECTION
2
CLASSES
0
CLASS
1
RASTERVARIABLES
2
AcDbRasterVariables
3
ISM
90
0
280
0
281
0
0
ENDSEC
0
SECTION
2
TABLES
0
TABLE
2
VPORT
5
1b9
100
AcDbSymbolTable
0
VPORT
5
1
100
AcDbSymbolTableRecord
100
AcDbViewportTableRecord
2
*Active
70
0
10
0
20
0
11
1
21
1
12
-1
22
1
13
0
23
0
14
0.5
24
0.5
15
10
25
10
16
0
26
0
36
1
17
0
27
0
37
0
0
ENDTAB
0
TABLE
2
LTYPE
5
1ba
100
AcDbSymbolTable
0
LTYPE
5
14
100
AcDbSymbolTableRecord
100
AcDbLinetypeTableRecord
70
0
2
ByBlock
3

72
65
73
0
40
0
0
LTYPE
5
15
100
AcDbSymbolTableRecord
100
AcDbLinetypeTableRecord
70
0
2
ByLayer
3

72
65
73
0
40
0
0
LTYPE
5
16
100
AcDbSymbolTableRecord
100
AcDbLinetypeTableRecord
70
0
2
CONTINUOUS
3
Solid line
72
65
73
0
40
0
0
LTYPE
5
6A
100
AcDbSymbolTableRecord
100
AcDbLinetypeTableRecord
70
0
2
CENTER
3
____ _ ____ _ ____ _ ____
72
65
73
4
40
47.5
49
22
74
0
49
-8.5
74
0
49
8.5
74
0
49
-8.5
74
0
0
LTYPE
5
6B
100
AcDbSymbolTableRecord
100
AcDbLinetypeTableRecord
70
0
2
DASHED
3
__ __ __ __ __ __ __ __ __
72
65
73
2
40
25.72
49
12.86
74
0
49
-12.86
74
0
0
ENDTAB
0
TABLE
2
LAYER
5
1bb
100
AcDbSymbolTable
0
LAYER
5
10
100
AcDbSymbolTableRecord
100
AcDbLayerTableRecord
2
0
70
0
62
7
6
CONTINUOUS
290
1
370
-3
390
0
0
LAYER
5
6D
100
AcDbSymbolTableRecord
100
AcDbLayerTableRecord
2
80
70
0
62
-6
6
CONTINUOUS
290
1
370
-3
390
0
0
LAYER
5
6F
100
AcDbSymbolTableRecord
100
AcDbLayerTableRecord
2
81
70
0
62
-3
6
CONTINUOUS
290
1
370
-3
390
0
0
LAYER
5
71
100
AcDbSymbolTableRecord
100
AcDbLayerTableRecord
2
1
70
0
62
4
6
CONTINUOUS
290
1
370
-3
390
0
0
LAYER
5
124
100
AcDbSymbolTableRecord
100
AcDbLayerTableRecord
2
2
70
0
62
7
6
CONTINUOUS
290
1
370
-3
390
0
0
LAYER
5
1a6
100
AcDbSymbolTableRecord
100
AcDbLayerTableRecord
2
SK1
70
0
62
4
6
CONTINUOUS
290
1
370
-3
390
0
0
LAYER
5
1a7
100
AcDbSymbolTableRecord
100
AcDbLayerTableRecord
2
SK6
70
0
62
5
6
CONTINUOUS
290
1
370
-3
390
0
0
LAYER
5
1a8
100
AcDbSymbolTableRecord
100
AcDbLayerTableRecord
2
SK2
70
0
62
7
6
CONTINUOUS
290
1
370
-3
390
0
0
ENDTAB
0
TABLE
2
STYLE
5
1bc
100
AcDbSymbolTable
0
STYLE
5
11
100
AcDbSymbolTableRecord
100
AcDbTextStyleTableRecord
2
Standard
3
txt
70
0
71
0
40
0
41
1
42
0
50
0
0
STYLE
5
109
100
AcDbSymbolTableRecord
100
AcDbTextStyleTableRecord
2
iso_b_vert
3
simplex.shx
70
0
71
0
40
0
41
1
42
0
50
0
0
STYLE
5
10A
100
AcDbSymbolTableRecord
100
AcDbTextStyleTableRecord
2
DWGDirectTextStyle
3
simplex
70
0
71
0
40
0
41
1
42
0
50
0
0
ENDTAB
0
TABLE
2
DIMSTYLE
5
1bd
100
AcDbSymbolTable
100
AcDbDimStyleTable
0
DIMSTYLE
105
27
100
AcDbSymbolTableRecord
100
AcDbDimStyleTableRecord
2
Standard
70
0
3
<>
41
0.18
42
0.0625
44
0.18
140
0.18
147
0.09
73
0
74
0
77
1
271
2
275
0
278
52
280
0
340
11
0
ENDTAB
0
TABLE
2
VIEW
5
1be
100
AcDbSymbolTable
0
ENDTAB
0
TABLE
2
UCS
5
1bf
100
AcDbSymbolTable
0
ENDTAB
0
TABLE
2
APPID
5
1c0
100
AcDbSymbolTable
0
APPID
5
12
100
AcDbSymbolTableRecord
100
AcDbRegAppTableRecord
2
ACAD
70
0
0
ENDTAB
0
TABLE
2
BLOCK_RECORD
5
1c1
100
AcDbSymbolTable
0
BLOCK_RECORD
5
1F
100
AcDbSymbolTableRecord
100
AcDbBlockTableRecord
2
*Model_Space
340
0
70
0
0
BLOCK_RECORD
5
1B
100
AcDbSymbolTableRecord
100
AcDbBlockTableRecord
2
*Paper_Space
340
0
70
0
0
BLOCK_RECORD
5
23
100
AcDbSymbolTableRecord
100
AcDbBlockTableRecord
2
*Paper_Space0
340
0
70
0
0
BLOCK_RECORD
5
10C
100
AcDbSymbolTableRecord
100
AcDbBlockTableRecord
2
DimnDraft3D1
340
0
70
0
0
BLOCK_RECORD
5
11B
100
AcDbSymbolTableRecord
100
AcDbBlockTableRecord
2
_CLOSED
340
0
70
0
0
BLOCK_RECORD
5
122
100
AcDbSymbolTableRecord
100
AcDbBlockTableRecord
2
DimnDraft3D2
340
0
70
0
0
BLOCK_RECORD
5
131
100
AcDbSymbolTableRecord
100
AcDbBlockTableRecord
2
DimnDraft3D3
340
0
70
0
0
BLOCK_RECORD
5
13F
100
AcDbSymbolTableRecord
100
AcDbBlockTableRecord
2
DimnDraft3D4
340
0
70
0
0
ENDTAB
0
ENDSEC
0
SECTION
2
BLOCKS
0
BLOCK
5
20
100
AcDbEntity
8
0
100
AcDbBlockBegin
2
*Model_Space
70
0
10
0
20
0
30
0
3
*Model_Space
0
ENDBLK
5
21
100
AcDbEntity
8
0
100
AcDbBlockEnd
0
BLOCK
5
1C
100
AcDbEntity
8
0
100
AcDbBlockBegin
2
*Paper_Space
70
0
10
0
20
0
30
0
3
*Paper_Space
0
ENDBLK
5
1D
100
AcDbEntity
8
0
100
AcDbBlockEnd
0
BLOCK
5
24
100
AcDbEntity
8
0
100
AcDbBlockBegin
2
*Paper_Space0
70
0
10
0
20
0
30
0
3
*Paper_Space0
0
ENDBLK
5
25
100
AcDbEntity
8
0
100
AcDbBlockEnd
0
BLOCK
5
118
100
AcDbEntity
8
0
100
AcDbBlockBegin
2
DimnDraft3D1
70
0
10
0
20
0
30
0
3
DimnDraft3D1
0
MTEXT
5
10D
100
AcDbEntity
8
SK2
62
256
6
ByLayer
370
13
48
1
60
0
100
AcDbMText
10
-129.417476
20
-1.500658
30
0
210
0
220
0
230
1
1
\W0.6740;25
40
4.5
41
0
44
1.084337
50
90
71
7
72
5
7
iso_b_vert
0
LINE
5
10F
100
AcDbEntity
8
SK2
62
256
6
ByLayer
370
13
48
1
60
0
100
AcDbLine
10
-120.129976
20
12.5625
30
0
11
-131.467476
21
12.5625
31
0
39
0
210
0
220
0
230
1
0
LINE
5
110
100
AcDbEntity
8
SK2
62
256
6
ByLayer
370
13
48
1
60
0
100
AcDbLine
10
-120.129976
20
-12.4375
30
0
11
-131.467476
21
-12.4375
31
0
39
0
210
0
220
0
230
1
0
LINE
5
111
100
AcDbEntity
8
SK2
62
256
6
ByLayer
370
13
48
1
60
0
100
AcDbLine
10
-128.292476
20
12.5625
30
0
11
-128.292476
21
-12.4375
31
0
39
0
210
0
220
0
230
1
0
LINE
5
112
100
AcDbEntity
8
SK2
62
256
6
ByLayer
370
13
48
1
60
0
100
AcDbLine
10
-128.292476
20
12.5625
30
0
11
-127.441737
21
9.387503
31
0
39
0
210
0
220
0
230
1
0
LINE
5
113
100
AcDbEntity
8
SK2
62
256
6
ByLayer
370
13
48
1
60
0
100
AcDbLine
10
-128.292476
20
12.5625
30
0
11
-129.143214
21
9.387497
31
0
39
0
210
0
220
0
230
1
0
LINE
5
114
100
AcDbEntity
8
SK2
62
256
6
ByLayer
370
13
48
1
60
0
100
AcDbLine
10
-127.441737
20
9.387503
30
0
11
-129.143214
21
9.387497
31
0
39
0
210
0
220
0
230
1
0
LINE
5
115
100
AcDbEntity
8
SK2
62
256
6
ByLayer
370
13
48
1
60
0
100
AcDbLine
10
-128.292476
20
-12.4375
30
0
11
-129.143214
21
-9.262503
31
0
39
0
210
0
220
0
230
1
0
LINE
5
116
100
AcDbEntity
8
SK2
62
256
6
ByLayer
370
13
48
1
60
0
100
AcDbLine
10
-128.292476
20
-12.4375
30
0
11
-127.441737
21
-9.262497
31
0
39
0
210
0
220
0
230
1
0
LINE
5
117
100
AcDbEntity
8
SK2
62
256
6
ByLayer
370
13
48
1
60
0
100
AcDbLine
10
-129.143214
20
-9.262503
30
0
11
-127.441737
21
-9.262497
31
0
39
0
210
0
220
0
230
1
0
ENDBLK
5
119
100
AcDbEntity
8
0
100
AcDbBlockEnd
0
BLOCK
5
11C
100
AcDbEntity
8
0
100
AcDbBlockBegin
2
_CLOSED
70
0
10
0
20
0
30
0
3
_CLOSED
0
LINE
5
11E
100
AcDbEntity
8
0
62
256
6
ByLayer
370
-2
48
1
60
0
100
AcDbLine
10
-1
20
0.166667
30
0
11
0
21
0
31
0
39
0
210
0
220
0
230
1
0
LINE
5
11F
100
AcDbEntity
8
0
62
256
6
ByLayer
370
-2
48
1
60
0
100
AcDbLine
10
0
20
0
30
0
11
-1
21
-0.166667
31
0
39
0
210
0
220
0
230
1
0
LINE
5
120
100
AcDbEntity
8
0
62
256
6
ByLayer
370
-2
48
1
60
0
100
AcDbLine
10
-1
20
0.166667
30
0
11
-1
21
-0.166667
31
0
39
0
210
0
220
0
230
1
0
LINE
5
121
100
AcDbEntity
8
0
62
256
6
ByLayer
370
-2
48
1
60
0
100
AcDbLine
10
0
20
0
30
0
11
-1
21
0
31
0
39
0
210
0
220
0
230
1
0
ENDBLK
5
11D
100
AcDbEntity
8
0
100
AcDbBlockEnd
0
BLOCK
5
12E
100
AcDbEntity
8
0
100
AcDbBlockBegin
2
DimnDraft3D2
70
0
10
0
20
0
30
0
3
DimnDraft3D2
0
MTEXT
5
123
100
AcDbEntity
8
2
62
256
6
ByLayer
370
13
48
1
60
0
100
AcDbMText
10
48.182524
20
2.174342
30
0
210
0
220
0
230
1
1
\W0.6740;32
40
4.5
41
0
44
1.084337
50
90
71
7
72
5
7
iso_b_vert
0
LINE
5
125
100
AcDbEntity
8
2
62
256
6
ByLayer
370
13
48
1
60
0
100
AcDbLine
10
1.5875
20
-12.4375
30
0
11
52.482524
21
-12.4375
31
0
39
0
210
0
220
0
230
1
0
LINE
5
126
100
AcDbEntity
8
2
62
256
6
ByLayer
370
13
48
1
60
0
100
AcDbLine
10
34.395024
20
19.9125
30
0
11
52.482524
21
19.9125
31
0
39
0
210
0
220
0
230
1
0
LINE
5
127
100
AcDbEntity
8
2
62
256
6
ByLayer
370
13
48
1
60
0
100
AcDbLine
10
49.307524
20
-12.4375
30
0
11
49.307524
21
19.9125
31
0
39
0
210
0
220
0
230
1
0
LINE
5
128
100
AcDbEntity
8
2
62
256
6
ByLayer
370
13
48
1
60
0
100
AcDbLine
10
49.307524
20
-12.4375
30
0
11
48.456786
21
-9.262503
31
0
39
0
210
0
220
0
230
1
0
LINE
5
129
100
AcDbEntity
8
2
62
256
6
ByLayer
370
13
48
1
60
0
100
AcDbLine
10
49.307524
20
-12.4375
30
0
11
50.158263
21
-9.262497
31
0
39
0
210
0
220
0
230
1
0
LINE
5
12A
100
AcDbEntity
8
2
62
256
6
ByLayer
370
13
48
1
60
0
100
AcDbLine
10
48.456786
20
-9.262503
30
0
11
50.158263
21
-9.262497
31
0
39
0
210
0
220
0
230
1
0
LINE
5
12B
100
AcDbEntity
8
2
62
256
6
ByLayer
370
13
48
1
60
0
100
AcDbLine
10
49.307524
20
19.9125
30
0
11
50.158263
21
16.737503
31
0
39
0
210
0
220
0
230
1
0
LINE
5
12C
100
AcDbEntity
8
2
62
256
6
ByLayer
370
13
48
1
60
0
100
AcDbLine
10
49.307524
20
19.9125
30
0
11
48.456786
21
16.737497
31
0
39
0
210
0
220
0
230
1
0
LINE
5
12D
100
AcDbEntity
8
2
62
256
6
ByLayer
370
13
48
1
60
0
100
AcDbLine
10
50.158263
20
16.737503
30
0
11
48.456786
21
16.737497
31
0
39
0
210
0
220
0
230
1
0
ENDBLK
5
12F
100
AcDbEntity
8
0
100
AcDbBlockEnd
0
BLOCK
5
13C
100
AcDbEntity
8
0
100
AcDbBlockBegin
2
DimnDraft3D3
70
0
10
0
20
0
30
0
3
DimnDraft3D3
0
MTEXT
5
132
100
AcDbEntity
8
SK2
62
256
6
ByLayer
370
13
48
1
60
0
100
AcDbMText
10
-45.549713
20
38.5375
30
0
210
0
220
0
230
1
1
\W0.6217;150
40
4.5
41
0
44
1.084337
50
0
71
7
72
5
7
iso_b_vert
0
LINE
5
133
100
AcDbEntity
8
SK2
62
256
6
ByLayer
370
13
48
1
60
0
100
AcDbLine
10
-118.542476
20
14.15
30
0
11
-118.542476
21
40.5875
31
0
39
0
210
0
220
0
230
1
0
LINE
5
134
100
AcDbEntity
8
SK2
62
256
6
ByLayer
370
13
48
1
60
0
100
AcDbLine
10
32.807524
20
21.5
30
0
11
32.807524
21
40.5875
31
0
39
0
210
0
220
0
230
1
0
LINE
5
135
100
AcDbEntity
8
SK2
62
256
6
ByLayer
370
13
48
1
60
0
100
AcDbLine
10
-118.542476
20
37.4125
30
0
11
32.807524
21
37.4125
31
0
39
0
210
0
220
0
230
1
0
LINE
5
136
100
AcDbEntity
8
SK2
62
256
6
ByLayer
370
13
48
1
60
0
100
AcDbLine
10
-118.542476
20
37.4125
30
0
11
-115.367479
21
38.263239
31
0
39
0
210
0
220
0
230
1
0
LINE
5
137
100
AcDbEntity
8
SK2
62
256
6
ByLayer
370
13
48
1
60
0
100
AcDbLine
10
-118.542476
20
37.4125
30
0
11
-115.367473
21
36.561761
31
0
39
0
210
0
220
0
230
1
0
LINE
5
138
100
AcDbEntity
8
SK2
62
256
6
ByLayer
370
13
48
1
60
0
100
AcDbLine
10
-115.367479
20
38.263239
30
0
11
-115.367473
21
36.561761
31
0
39
0
210
0
220
0
230
1
0
LINE
5
139
100
AcDbEntity
8
SK2
62
256
6
ByLayer
370
13
48
1
60
0
100
AcDbLine
10
32.807524
20
37.4125
30
0
11
29.632527
21
36.561761
31
0
39
0
210
0
220
0
230
1
0
LINE
5
13A
100
AcDbEntity
8
SK2
62
256
6
ByLayer
370
13
48
1
60
0
100
AcDbLine
10
32.807524
20
37.4125
30
0
11
29.632521
21
38.263239
31
0
39
0
210
0
220
0
230
1
0
LINE
5
13B
100
AcDbEntity
8
SK2
62
256
6
ByLayer
370
13
48
1
60
0
100
AcDbLine
10
29.632527
20
36.561761
30
0
11
29.632521
21
38.263239
31
0
39
0
210
0
220
0
230
1
0
ENDBLK
5
13D
100
AcDbEntity
8
0
100
AcDbBlockEnd
0
BLOCK
5
14A
100
AcDbEntity
8
0
100
AcDbBlockBegin
2
DimnDraft3D4
70
0
10
0
20
0
30
0
3
DimnDraft3D4
0
MTEXT
5
140
100
AcDbEntity
8
2
62
256
6
ByLayer
370
13
48
1
60
0
100
AcDbMText
10
19.203541
20
25.326582
30
0
210
0
220
0
230
1
1
\W0.8292;93%%d0'
40
4.5
41
0
44
1.084337
50
46.5
71
7
72
5
7
iso_b_vert
0
LINE
5
141
100
AcDbEntity
8
2
62
256
6
ByLayer
370
13
48
1
60
0
100
AcDbLine
10
32.807524
20
21.5
30
0
11
32.807524
21
35.570593
31
0
39
0
210
0
220
0
230
1
0
LINE
5
142
100
AcDbEntity
8
2
62
256
6
ByLayer
370
13
48
1
60
0
100
AcDbLine
10
19.386908
20
19.251843
30
0
11
17.21352
21
19.137941
31
0
39
0
210
0
220
0
230
1
0
ARC
5
143
100
AcDbEntity
8
2
62
256
6
ByLayer
370
13
48
1
60
0
100
AcDbCircle
39
0
10
32.807524
20
19.955188
30
0
40
12.440404684557
210
0
220
0
230
1
100
AcDbArc
50
90
51
183
0
LINE
5
144
100
AcDbEntity
8
2
62
256
6
ByLayer
370
13
48
1
60
0
100
AcDbLine
10
32.807524
20
32.395593
30
0
11
29.692871
21
31.345213
31
0
39
0
210
0
220
0
230
1
0
LINE
5
145
100
AcDbEntity
8
2
62
256
6
ByLayer
370
13
48
1
60
0
100
AcDbLine
10
32.807524
20
32.395593
30
0
11
29.58496
21
33.043264
31
0
39
0
210
0
220
0
230
1
0
LINE
5
146
100
AcDbEntity
8
2
62
256
6
ByLayer
370
13
48
1
60
0
100
AcDbLine
10
29.692871
20
31.345213
30
0
11
29.58496
21
33.043264
31
0
39
0
210
0
220
0
230
1
0
LINE
5
147
100
AcDbEntity
8
2
62
256
6
ByLayer
370
13
48
1
60
0
100
AcDbLine
10
20.384169
20
19.304107
30
0
11
19.568729
21
22.488353
31
0
39
0
210
0
220
0
230
1
0
LINE
5
148
100
AcDbEntity
8
2
62
256
6
ByLayer
370
13
48
1
60
0
100
AcDbLine
10
20.384169
20
19.304107
30
0
11
21.270101
21
22.469471
31
0
39
0
210
0
220
0
230
1
0
LINE
5
149
100
AcDbEntity
8
2
62
256
6
ByLayer
370
13
48
1
60
0
100
AcDbLine
10
19.568729
20
22.488353
30
0
11
21.270101
21
22.469471
31
0
39
0
210
0
220
0
230
1
0
ENDBLK
5
14B
100
AcDbEntity
8
0
100
AcDbBlockEnd
0
ENDSEC
0
SECTION
2
ENTITIES
0
ARC
5
BE
100
AcDbEntity
8
1
62
256
6
ByLayer
370
18
48
1
60
0
100
AcDbCircle
39
0
10
23.419851
20
13.526199
30
0
40
2.3
210
0
220
0
230
1
100
AcDbArc
50
350.65118
51
358.052823
0
ARC
5
BF
100
AcDbEntity
8
1
62
256
6
ByLayer
370
18
48
1
60
0
100
AcDbCircle
39
0
10
0
20
14.0375
30
0
40
1.60000000000082
210
0
220
0
230
-1
100
AcDbArc
50
195
51
270
0
ELLIPSE
5
C0
100
AcDbEntity
8
1
62
256
6
ByLayer
370
18
48
1
60
0
100
AcDbEllipse
10
19.979425
20
12.683871
30
0
11
1.39567650671218
21
-1.43251076387289
31
0
210
0
220
0
230
1
40
0.987534
41
-2.89546307831327
42
-2.50570234551578
0
ELLIPSE
5
C1
100
AcDbEntity
8
1
62
256
6
ByLayer
370
18
48
1
60
0
100
AcDbEllipse
10
17.738111
20
8.673229
30
0
11
1.41836384932061
21
-1.45579686372049
31
0
210
0
220
0
230
1
40
0.987534
41
-2.89546307831327
42
-2.05748692137942
0
ELLIPSE
5
C2
100
AcDbEntity
8
1
62
256
6
ByLayer
370
18
48
1
60
0
100
AcDbEllipse
10
12.992862
20
6.067408
30
0
11
-2.23308241073951
21
2.2920172221966
31
0
210
0
220
0
230
1
40
0.987534
41
-1.2810335202185
42
-0.0334309668136306
0
ELLIPSE
5
C3
100
AcDbEntity
8
1
62
256
6
ByLayer
370
18
48
1
60
0
100
AcDbEllipse
10
15.776746
20
8.46599
30
0
11
-0.127932668372597
21
0.0783149561901633
31
0
210
0
220
0
230
1
40
0.152664
41
1.30648049219767
42
1.53197899149811
0
ELLIPSE
5
C4
100
AcDbEntity
8
1
62
256
6
ByLayer
370
18
48
1
60
0
100
AcDbEllipse
10
11.017073
20
8.607607
30
0
11
1.07711344756069
21
-1.18314268838713
31
0
210
0
220
0
230
1
40
0.15732
41
-1.56546865025969
42
-0.213847757073621
0
ELLIPSE
5
C5
100
AcDbEntity
8
1
62
256
6
ByLayer
370
18
48
1
60
0
100
AcDbEllipse
10
21.084888
20
14.489719
30
0
11
1.39567650671218
21
-1.43251076387289
31
0
210
0
220
0
230
1
40
0.987534
41
2.99796149606885
42
-2.89546307831327
0
ELLIPSE
5
C6
100
AcDbEntity
8
1
62
256
6
ByLayer
370
18
48
1
60
0
100
AcDbEllipse
10
17.488681
20
7.610764
30
0
11
1.39567650671219
21
-1.43251076387289
31
0
210
0
220
0
230
1
40
0.987534
41
-2.89546307831326
42
-2.82748001630095
0
ELLIPSE
5
C7
100
AcDbEntity
8
1
62
256
6
ByLayer
370
18
48
1
60
0
100
AcDbEllipse
10
0
20
-12.444481
30
0
11
1.5999999999998
21
1.61702248813158E-15
31
0
210
0
220
0
230
-1
40
0.004363
41
-1.5707963267949
42
-0.261799387798687
0
ELLIPSE
5
C8
100
AcDbEntity
8
1
62
256
6
ByLayer
370
18
48
1
60
0
100
AcDbEllipse
10
18.142597
20
8.247865
30
0
11
-1.34858002398501
21
1.38417132552683
31
0
210
0
220
0
230
1
40
0.987534
41
2.71058349997741
42
-2.89546307831326
0
ELLIPSE
5
C9
100
AcDbEntity
8
1
62
256
6
ByLayer
370
18
48
1
60
0
100
AcDbEllipse
10
2.937997
20
1.25255
30
0
11
0.0142102439978857
21
2.14303782693247
31
0
210
0
220
0
230
-1
40
0.19336
41
2.95973152591755
42
-1.75265745446731
0
ELLIPSE
5
CA
100
AcDbEntity
8
1
62
256
6
ByLayer
370
18
48
1
60
0
100
AcDbEllipse
10
17.342114
20
7.467965
30
0
11
-1.30033177823259
21
1.33464972718657
31
0
210
0
220
0
230
1
40
0.987534
41
0.246129575276534
42
0.268611506431019
0
ELLIPSE
5
CB
100
AcDbEntity
8
1
62
256
6
ByLayer
370
18
48
1
60
0
100
AcDbEllipse
10
14.704291
20
9.011358
30
0
11
0.783980126670285
21
1.39476706334285
31
0
210
0
220
0
230
1
40
0.044975
41
1.72237449172736
42
2.00077383909741
0
ELLIPSE
5
CC
100
AcDbEntity
8
1
62
256
6
ByLayer
370
18
48
1
60
0
100
AcDbEllipse
10
13.920908
20
6.971591
30
0
11
1.1491221169134
21
-1.11342209596826
31
0
210
0
220
0
230
-1
40
0.954104
41
-3.08068218423494
42
-1.83307963082947
0
ELLIPSE
5
CD
100
AcDbEntity
8
1
62
256
6
ByLayer
370
18
48
1
60
0
100
AcDbEllipse
10
20.832969
20
9.23827
30
0
11
0.0958602922560322
21
0.15566789765106
31
0
210
0
220
0
230
-1
40
0.022144
41
3.0110645265592
42
-1.6896889255031
0
ELLIPSE
5
CE
100
AcDbEntity
8
1
62
256
6
ByLayer
370
18
48
1
60
0
100
AcDbEllipse
10
24.518548
20
14.931598
30
0
11
1.32589268137657
21
-1.36088522567924
31
0
210
0
220
0
230
1
40
0.987534
41
-1.35785663140779
42
0.423977161123668
0
ELLIPSE
5
CF
100
AcDbEntity
8
1
62
256
6
ByLayer
370
18
48
1
60
0
100
AcDbEllipse
10
23.988651
20
14.415326
30
0
11
-1.32589268137658
21
1.36088522567923
31
0
210
0
220
0
230
1
40
0.987534
41
3.05967268255675
42
3.14159001299821
0
ELLIPSE
5
D0
100
AcDbEntity
8
1
62
256
6
ByLayer
370
18
48
1
60
0
100
AcDbEllipse
10
23.464949
20
13.570137
30
0
11
1.5805689826311
21
-1.62228286409753
31
0
210
0
220
0
230
1
40
0.987534
41
0.615823014004015
42
0.748171794884058
0
ELLIPSE
5
D1
100
AcDbEntity
8
1
62
256
6
ByLayer
370
18
48
1
60
0
100
AcDbEllipse
10
16.874219
20
9.929398
30
0
11
0.553909113601397
21
-0.568527709412052
31
0
210
0
220
0
230
1
40
0.987534
41
-2.25998540663935
42
-0.713801513320355
0
ELLIPSE
5
D2
100
AcDbEntity
8
1
62
256
6
ByLayer
370
18
48
1
60
0
100
AcDbEllipse
10
24.178055
20
14.264907
30
0
11
-1.32938187264336
21
1.36446650258891
31
0
210
0
220
0
230
1
40
0.987534
41
-2.94097144768562
42
-2.61228230410851
0
ELLIPSE
5
D3
100
AcDbEntity
8
1
62
256
6
ByLayer
370
18
48
1
60
0
100
AcDbEllipse
10
24.178055
20
14.264907
30
0
11
-1.32938187264336
21
1.36446650258891
31
0
210
0
220
0
230
1
40
0.987534
41
-0.715644076794158
42
-0.200619193829618
0
ELLIPSE
5
D4
100
AcDbEntity
8
1
62
256
6
ByLayer
370
18
48
1
60
0
100
AcDbEllipse
10
26.753349
20
11.65355
30
0
11
0.837405904027309
21
-0.859506458323732
31
0
210
0
220
0
230
1
40
0.987534
41
-0.233835969021894
42
4.61459186049143E-06
0
ELLIPSE
5
D5
100
AcDbEntity
8
1
62
256
6
ByLayer
370
18
48
1
60
0
100
AcDbEllipse
10
23.586149
20
13.68822
30
0
11
1.5701360700512
21
-1.611574609357
31
0
210
0
220
0
230
1
40
0.987534
41
2.37804372805658
42
2.55407115406889
0
ELLIPSE
5
D6
100
AcDbEntity
8
1
62
256
6
ByLayer
370
18
48
1
60
0
100
AcDbEllipse
10
23.586149
20
13.68822
30
0
11
1.5701360700512
21
-1.611574609357
31
0
210
0
220
0
230
1
40
0.987534
41
0.602411340147385
42
0.741001413981998
0
ELLIPSE
5
D7
100
AcDbEntity
8
1
62
256
6
ByLayer
370
18
48
1
60
0
100
AcDbEllipse
10
12.770724
20
12.958233
30
0
11
0.903700538096137
21
-0.927550719607694
31
0
210
0
220
0
230
1
40
0.987534
41
0.184520620402692
42
0.804690360736428
0
ELLIPSE
5
D8
100
AcDbEntity
8
1
62
256
6
ByLayer
370
18
48
1
60
0
100
AcDbEllipse
10
12.770724
20
12.958233
30
0
11
0.903700538096137
21
-0.927550719607694
31
0
210
0
220
0
230
1
40
0.987534
41
0.804690360736427
42
2.88118484663026
0
ELLIPSE
5
D9
100
AcDbEntity
8
1
62
256
6
ByLayer
370
18
48
1
60
0
100
AcDbEllipse
10
12.872194
20
13.057093
30
0
11
-0.903700538096144
21
0.927550719607687
31
0
210
0
220
0
230
1
40
0.987534
41
-0.423856761591172
42
-0.20356790284851
0
ELLIPSE
5
DA
100
AcDbEntity
8
1
62
256
6
ByLayer
370
18
48
1
60
0
100
AcDbEllipse
10
12.872194
20
13.057093
30
0
11
-0.903700538096144
21
0.927550719607687
31
0
210
0
220
0
230
1
40
0.987534
41
-3.04015723248265
42
-2.95851502728314
0
ELLIPSE
5
DB
100
AcDbEntity
8
1
62
256
6
ByLayer
370
18
48
1
60
0
100
AcDbEllipse
10
22.139706
20
17.399401
30
0
11
-0.837405904027315
21
0.859506458323726
31
0
210
0
220
0
230
1
40
0.987534
41
-0.233835969021906
42
0.246129575276533
0
ELLIPSE
5
DC
100
AcDbEntity
8
1
62
256
6
ByLayer
370
18
48
1
60
0
100
AcDbEllipse
10
24.714999
20
14.788044
30
0
11
-1.32938187264336
21
1.36446650258891
31
0
210
0
220
0
230
1
40
0.987534
41
0
42
6.28318530717959
0
ELLIPSE
5
DD
100
AcDbEntity
8
1
62
256
6
ByLayer
370
18
48
1
60
0
100
AcDbEllipse
10
17.411163
20
10.452535
30
0
11
-0.553909113601401
21
0.568527709412048
31
0
210
0
220
0
230
1
40
0.987534
41
0.246129575276557
42
2.42779114026943
0
ELLIPSE
5
DE
100
AcDbEntity
8
1
62
256
6
ByLayer
370
18
48
1
60
0
100
AcDbEllipse
10
23.621265
20
18.278845
30
0
11
-0.837405904027315
21
0.859506458323726
31
0
210
0
220
0
230
1
40
0.987534
41
-0.713801513320315
42
-0.233835969021891
0
ELLIPSE
5
DF
100
AcDbEntity
8
1
62
256
6
ByLayer
370
18
48
1
60
0
100
AcDbEllipse
10
32.018835
20
19.123553
30
0
11
-0.553909113601401
21
0.568527709412048
31
0
210
0
220
0
230
1
40
0.987534
41
-2.89546307831324
42
-0.713801513320328
0
ELLIPSE
5
E0
100
AcDbEntity
8
1
62
256
6
ByLayer
370
18
48
1
60
0
100
AcDbEllipse
10
25.808733
20
11.297244
30
0
11
-0.837405904027315
21
0.859506458323726
31
0
210
0
220
0
230
1
40
0.987534
41
2.42779114026944
42
2.90775668456788
0
ELLIPSE
5
E1
100
AcDbEntity
8
1
62
256
6
ByLayer
370
18
48
1
60
0
100
AcDbEllipse
10
27.290292
20
12.176687
30
0
11
-0.837405904027315
21
0.859506458323726
31
0
210
0
220
0
230
1
40
0.987534
41
2.9077566845679
42
-2.89546307831326
0
ELLIPSE
5
E2
100
AcDbEntity
8
1
62
256
6
ByLayer
370
18
48
1
60
0
100
AcDbEllipse
10
24.558567
20
14.635634
30
0
11
1.23866289970706
21
-1.27135330293719
31
0
210
0
220
0
230
1
40
0.987534
41
0.572617740167094
42
1.28099822694155
0
ELLIPSE
5
E3
100
AcDbEntity
8
1
62
256
6
ByLayer
370
18
48
1
60
0
100
AcDbEllipse
10
24.59239
20
14.668588
30
0
11
-1.02931142370024
21
1.05647668835625
31
0
210
0
220
0
230
1
40
0.987534
41
-2.55387262478584
42
-1.87569671528511
0
ELLIPSE
5
E4
100
AcDbEntity
8
1
62
256
6
ByLayer
370
18
48
1
60
0
100
AcDbEllipse
10
24.59239
20
14.668588
30
0
11
-1.02931142370024
21
1.05647668835625
31
0
210
0
220
0
230
1
40
0.987534
41
0.587720028803946
42
1.26589593830471
0
ELLIPSE
5
E5
100
AcDbEntity
8
1
62
256
6
ByLayer
370
18
48
1
60
0
100
AcDbEllipse
10
24.552371
20
14.964552
30
0
11
-1.11654120536975
21
1.1460086110983
31
0
210
0
220
0
230
1
40
0.987534
41
1.44365404764604
42
-2.73163073412719
0
ELLIPSE
5
E6
100
AcDbEntity
8
1
62
256
6
ByLayer
370
18
48
1
60
0
100
AcDbEllipse
10
24.632408
20
14.372624
30
0
11
-1.11654120536975
21
1.1460086110983
31
0
210
0
220
0
230
1
40
0.987534
41
-1.69793860594376
42
0.409961919462615
0
ELLIPSE
5
E7
100
AcDbEntity
8
1
62
256
6
ByLayer
370
18
48
1
60
0
100
AcDbEllipse
10
24.598585
20
14.33967
30
0
11
1.32589268137657
21
-1.36088522567924
31
0
210
0
220
0
230
1
40
0.987534
41
1.42963880598499
42
-2.71761549246613
0
ELLIPSE
5
E8
100
AcDbEntity
8
1
62
256
6
ByLayer
370
18
48
1
60
0
100
AcDbEllipse
10
13.242558
20
13.417935
30
0
11
-0.903700538096144
21
0.927550719607687
31
0
210
0
220
0
230
1
40
0.987534
41
-0.864119924891957
42
-0.423856761591171
0
ELLIPSE
5
E9
100
AcDbEntity
8
1
62
256
6
ByLayer
370
18
48
1
60
0
100
AcDbEllipse
10
13.242558
20
13.417935
30
0
11
-0.903700538096144
21
0.927550719607687
31
0
210
0
220
0
230
1
40
0.987534
41
-2.95851502728316
42
-2.51825186398439
0
ELLIPSE
5
EA
100
AcDbEntity
8
1
62
256
6
ByLayer
370
18
48
1
60
0
100
AcDbEllipse
10
13.242558
20
13.417935
30
0
11
-0.903700538096144
21
0.927550719607687
31
0
210
0
220
0
230
1
40
0.987534
41
1.23027517750325
42
1.67053834080201
0
ELLIPSE
5
EB
100
AcDbEntity
8
1
62
256
6
ByLayer
370
18
48
1
60
0
100
AcDbEllipse
10
13.266798
20
13.441551
30
0
11
1.16356916980588
21
-1.19427772284004
31
0
210
0
220
0
230
1
40
0.987534
41
0
42
6.28318530717959
0
ELLIPSE
5
EC
100
AcDbEntity
8
1
62
256
6
ByLayer
370
18
48
1
60
0
100
AcDbEllipse
10
12.872194
20
13.057093
30
0
11
-0.903700538096144
21
0.927550719607687
31
0
210
0
220
0
230
1
40
0.987534
41
-2.51825186398439
42
-1.91131747608655
0
ELLIPSE
5
ED
100
AcDbEntity
8
1
62
256
6
ByLayer
370
18
48
1
60
0
100
AcDbEllipse
10
13.180549
20
13.35752
30
0
11
2.09351476006827
21
-2.14876614580933
31
0
210
0
220
0
230
1
40
0.987534
41
0
42
6.28318530717959
0
ELLIPSE
5
EE
100
AcDbEntity
8
1
62
256
6
ByLayer
370
18
48
1
60
0
100
AcDbEllipse
10
13.242558
20
13.417935
30
0
11
-0.903700538096144
21
0.927550719607687
31
0
210
0
220
0
230
1
40
0.987534
41
2.27747272869985
42
2.7177358919986
0
ELLIPSE
5
EF
100
AcDbEntity
8
1
62
256
6
ByLayer
370
18
48
1
60
0
100
AcDbEllipse
10
13.266798
20
13.441551
30
0
11
1.55966849625086
21
-1.60083077862795
31
0
210
0
220
0
230
1
40
0.987534
41
0
42
6.28318530717959
0
ELLIPSE
5
F0
100
AcDbEntity
8
1
62
256
6
ByLayer
370
18
48
1
60
0
100
AcDbEllipse
10
13.242558
20
13.417935
30
0
11
-0.903700538096144
21
0.927550719607687
31
0
210
0
220
0
230
1
40
0.987534
41
0.183077626306647
42
0.62334078960541
0
ELLIPSE
5
F1
100
AcDbEntity
8
1
62
256
6
ByLayer
370
18
48
1
60
0
100
AcDbEllipse
10
13.242558
20
13.417935
30
0
11
-0.903700538096144
21
0.927550719607687
31
0
210
0
220
0
230
1
40
0.987534
41
-1.91131747608655
42
-1.47105431278779
0
ELLIPSE
5
F2
100
AcDbEntity
8
1
62
256
6
ByLayer
370
18
48
1
60
0
100
AcDbEllipse
10
12.872194
20
13.057093
30
0
11
-0.903700538096144
21
0.927550719607687
31
0
210
0
220
0
230
1
40
0.987534
41
-1.47105431278777
42
-0.864119924889975
0
POINT
5
6C
100
AcDbEntity
8
80
62
256
6
ByLayer
370
18
48
1
60
0
100
AcDbPoint
10
0
20
0
30
0
39
0
210
0
220
0
230
1
50
360
0
POINT
5
6E
100
AcDbEntity
8
81
62
256
6
ByLayer
370
18
48
1
60
0
100
AcDbPoint
10
31.457524
20
19.5625
30
0
39
0
210
0
220
0
230
1
50
360
0
POINT
5
70
100
AcDbEntity
8
1
62
256
6
ByLayer
370
18
48
1
60
0
100
AcDbPoint
10
-118.542476
20
-12.4375
30
0
39
0
210
0
220
0
230
1
50
360
0
SPLINE
5
F3
100
AcDbEntity
8
1
62
256
6
ByLayer
370
18
48
1
60
0
100
AcDbSpline
70
4
71
3
72
12
73
8
40
0
40
0
40
0
40
0
40
0.37346534854758
40
0.37346534854758
40
0.746930697095161
40
0.746930697095161
40
1
40
1
40
1
40
1
41
1
10
18.7967610255765
20
6.43388726172057
30
0
41
1
10
18.71207831955
20
6.40425688442625
30
0
41
1
10
18.626011532372
20
6.38120648529468
30
0
41
1
10
18.4506804528269
20
6.34800529095511
30
0
41
1
10
18.3625817000754
20
6.33811898308846
30
0
41
1
10
18.2152447624844
20
6.33224812955425
30
0
41
1
10
18.1557092174006
20
6.33278192355994
30
0
41
1
10
18.0960537806778
20
6.33620928425901
30
0
0
SPLINE
5
F4
100
AcDbEntity
8
1
62
256
6
ByLayer
370
18
48
1
60
0
100
AcDbSpline
70
4
71
3
72
8
73
4
40
0
40
0
40
0
40
0
40
1
40
1
40
1
40
1
41
1
10
19.7605488717321
20
15.9827943011067
30
0
41
1
10
19.8003586650999
20
16.0161603682057
30
0
41
1
10
19.8401678870459
20
16.0495255020938
30
0
41
1
10
19.8799765324915
20
16.0828896944781
30
0
0
SPLINE
5
F5
100
AcDbEntity
8
1
62
256
6
ByLayer
370
18
48
1
60
0
100
AcDbSpline
70
4
71
3
72
12
73
8
40
0
40
0
40
0
40
0
40
0.0384109297662427
40
0.0384109297662427
40
0.519205464883121
40
0.519205464883121
40
1
40
1
40
1
40
1
41
1
10
16.1658446477658
20
7.44068014380335
30
0
41
1
10
16.1595664302534
20
7.44835091549837
30
0
41
1
10
16.1533516344667
20
7.45605706340811
30
0
41
1
10
16.0702523896234
20
7.56064636032175
30
0
41
1
10
16.0028597204221
20
7.66321124578235
30
0
41
1
10
15.8875954620262
20
7.88097314349002
30
0
41
1
10
15.839570240979
20
7.99730819949315
30
0
41
1
10
15.8040209168285
20
8.1160669110767
30
0
0
SPLINE
5
F6
100
AcDbEntity
8
1
62
256
6
ByLayer
370
18
48
1
60
0
100
AcDbSpline
70
4
71
3
72
8
73
4
40
0
40
0
40
0
40
0
40
1
40
1
40
1
40
1
41
1
10
23.2882067274048
20
14.0161435632224
30
0
41
1
10
23.2208360602106
20
13.971665963408
30
0
41
1
10
23.153488106629
20
13.9271814926743
30
0
41
1
10
23.0861561135528
20
13.8826922033469
30
0
0
SPLINE
5
F7
100
AcDbEntity
8
1
62
256
6
ByLayer
370
18
48
1
60
0
100
AcDbSpline
70
4
71
3
72
10
73
6
40
0
40
0
40
0
40
0
40
0.794705456320319
40
0.794705456320319
40
1
40
1
40
1
40
1
41
1
10
25.4469775034335
20
13.0728881266538
30
0
41
1
10
25.4901019455928
20
13.1355719013084
30
0
41
1
10
25.5296489521766
20
13.2010893678629
30
0
41
1
10
25.5741541020308
20
13.2852891957884
30
0
41
1
10
25.5830222035129
20
13.3026809318707
30
0
41
1
10
25.5916151863821
20
13.320131109045
30
0
0
SPLINE
5
F8
100
AcDbEntity
8
1
62
256
6
ByLayer
370
18
48
1
60
0
100
AcDbSpline
70
4
71
3
72
10
73
6
40
0
40
0
40
0
40
0
40
0.621661637086416
40
0.621661637086416
40
1
40
1
40
1
40
1
41
1
10
23.4344709307261
20
15.8025321340776
30
0
41
1
10
23.3650401261082
20
15.788799090539
30
0
41
1
10
23.296727201656
20
15.7750533251961
30
0
41
1
10
23.1870714463362
20
15.7529393568083
30
0
41
1
10
23.1456351305395
20
15.7445722176494
30
0
41
1
10
23.1041718107483
20
15.7362053858038
30
0
0
SPLINE
5
F9
100
AcDbEntity
8
1
62
256
6
ByLayer
370
18
48
1
60
0
100
AcDbSpline
70
4
71
3
72
8
73
4
40
0
40
0
40
0
40
0
40
1
40
1
40
1
40
1
41
1
10
26.0274669926944
20
14.3529828900541
30
0
41
1
10
26.1116609822088
20
14.3119650098447
30
0
41
1
10
26.1958048823318
20
14.2709215016159
30
0
41
1
10
26.2799198366186
20
14.2298632081786
30
0
0
SPLINE
5
FA
100
AcDbEntity
8
1
62
256
6
ByLayer
370
18
48
1
60
0
100
AcDbSpline
70
4
71
3
72
8
73
4
40
0
40
0
40
0
40
0
40
1
40
1
40
1
40
1
41
1
10
26.11567715397
20
15.4445488270285
30
0
41
1
10
26.0426814784516
20
15.4033725405496
30
0
41
1
10
25.9696544287132
20
15.3621994284012
30
0
41
1
10
25.8965730780963
20
15.3210318350259
30
0
0
SPLINE
5
FB
100
AcDbEntity
8
1
62
256
6
ByLayer
370
18
48
1
60
0
100
AcDbSpline
70
4
71
3
72
8
73
4
40
0
40
0
40
0
40
0
40
1
40
1
40
1
40
1
41
1
10
22.8372135204949
20
15.0414051399042
30
0
41
1
10
22.9438834224239
20
15.0223218370417
30
0
41
1
10
23.0505773443238
20
15.0032485201816
30
0
41
1
10
23.1573128128067
20
14.9841925081942
30
0
0
SPLINE
5
FC
100
AcDbEntity
8
1
62
256
6
ByLayer
370
18
48
1
60
0
100
AcDbSpline
70
4
71
3
72
8
73
4
40
0
40
0
40
0
40
0
40
1
40
1
40
1
40
1
41
1
10
14.1402392668027
20
12.2699439620243
30
0
41
1
10
13.9916824221642
20
12.2476297128512
30
0
41
1
10
13.8397424297324
20
12.225709965381
30
0
41
1
10
13.689563350395
20
12.2054235431005
30
0
0
SPLINE
5
FD
100
AcDbEntity
8
1
62
256
6
ByLayer
370
18
48
1
60
0
100
AcDbSpline
70
4
71
3
72
10
73
6
40
0
40
0
40
0
40
0
40
0.5
40
0.5
40
1
40
1
40
1
40
1
41
1
10
13.1327090021876
20
12.1369486901738
30
0
41
1
10
13.0592762370894
20
12.1288345092077
30
0
41
1
10
12.9860746024691
20
12.1211068250911
30
0
41
1
10
12.8430033176845
20
12.1065971311329
30
0
41
1
10
12.7727308707187
20
12.0997680223142
30
0
41
1
10
12.7034164441143
20
12.093261797681
30
0
0
SPLINE
5
FE
100
AcDbEntity
8
1
62
256
6
ByLayer
370
18
48
1
60
0
100
AcDbSpline
70
4
71
3
72
10
73
6
40
0
40
0
40
0
40
0
40
0.5
40
0.5
40
1
40
1
40
1
40
1
41
1
10
14.6900726556517
20
13.60503343065
30
0
41
1
10
14.643098896086
20
13.6609372532727
30
0
41
1
10
14.5957033470253
20
13.717931493954
30
0
41
1
10
14.501415153907
20
13.8328241175557
30
0
41
1
10
14.4544718654037
20
13.8907812240669
30
0
41
1
10
14.4077668544608
20
13.9493444363288
30
0
0
SPLINE
5
FF
100
AcDbEntity
8
1
62
256
6
ByLayer
370
18
48
1
60
0
100
AcDbSpline
70
4
71
3
72
10
73
6
40
0
40
0
40
0
40
0
40
0.5
40
0.5
40
1
40
1
40
1
40
1
41
1
10
11.816427010275
20
13.2516691019636
30
0
41
1
10
11.8586260528907
20
13.1911133350474
30
0
41
1
10
11.9017201251341
20
13.1299282217462
30
0
41
1
10
11.9887744347466
20
13.00798772003
30
0
41
1
10
12.0327788103559
20
12.9471672691135
30
0
41
1
10
12.0773494531316
20
12.8865245698538
30
0
0
SPLINE
5
100
100
AcDbEntity
8
1
62
256
6
ByLayer
370
18
48
1
60
0
100
AcDbSpline
70
4
71
3
72
10
73
6
40
0
40
0
40
0
40
0
40
0.5
40
0.5
40
1
40
1
40
1
40
1
41
1
10
12.7955529571974
20
14.6304454630821
30
0
41
1
10
12.7221201920991
20
14.622331282116
30
0
41
1
10
12.6489185574789
20
14.6146035979994
30
0
41
1
10
12.5058472726941
20
14.6000939040412
30
0
41
1
10
12.4355748257284
20
14.5932647952225
30
0
41
1
10
12.366260399124
20
14.5867585705893
30
0
0
SPLINE
5
101
100
AcDbEntity
8
1
62
256
6
ByLayer
370
18
48
1
60
0
100
AcDbSpline
70
4
71
3
72
8
73
4
40
0
40
0
40
0
40
0
40
1
40
1
40
1
40
1
41
1
10
14.5110108612678
20
13.185785242832
30
0
41
1
10
14.5706779924801
20
13.3275137924413
30
0
41
1
10
14.6303683130772
20
13.4669627995863
30
0
41
1
10
14.6900726556517
20
13.60503343065
30
0
0
SPLINE
5
102
100
AcDbEntity
8
1
62
256
6
ByLayer
370
18
48
1
60
0
100
AcDbSpline
70
4
71
3
72
8
73
4
40
0
40
0
40
0
40
0
40
1
40
1
40
1
40
1
41
1
10
13.8030832218124
20
14.7634407349325
30
0
41
1
10
13.6545263771748
20
14.7411264857596
30
0
41
1
10
13.5025863847438
20
14.7192067382895
30
0
41
1
10
13.3524073054073
20
14.6989203160091
30
0
0
SPLINE
5
103
100
AcDbEntity
8
1
62
256
6
ByLayer
370
18
48
1
60
0
100
AcDbSpline
70
4
71
3
72
8
73
4
40
0
40
0
40
0
40
0
40
1
40
1
40
1
40
1
41
1
10
12.4211106429234
20
12.4375728033598
30
0
41
1
10
12.5160354532131
20
12.3185469921742
30
0
41
1
10
12.6100124937119
20
12.2044225377162
30
0
41
1
10
12.7034164441143
20
12.093261797681
30
0
0
SPLINE
5
104
100
AcDbEntity
8
1
62
256
6
ByLayer
370
18
48
1
60
0
100
AcDbSpline
70
4
71
3
72
8
73
4
40
0
40
0
40
0
40
0
40
1
40
1
40
1
40
1
41
1
10
14.064005664669
20
14.3982962028228
30
0
41
1
10
13.9734188148951
20
14.5215484322188
30
0
41
1
10
13.8869929901586
20
14.6430299374593
30
0
41
1
10
13.8030832218124
20
14.7634407349325
30
0
0
SPLINE
5
105
100
AcDbEntity
8
1
62
256
6
ByLayer
370
18
48
1
60
0
100
AcDbSpline
70
4
71
3
72
10
73
6
40
0
40
0
40
0
40
0
40
0.5
40
0.5
40
1
40
1
40
1
40
1
41
1
10
12.366260399124
20
14.5867585705893
30
0
41
1
10
12.3362345017071
20
14.5173215007574
30
0
41
1
10
12.3060370847028
20
14.4471239339068
30
0
41
1
10
12.24621419561
20
14.307122345639
30
0
41
1
10
12.2165560931323
20
14.2372438216923
30
0
41
1
10
12.1871986047402
20
14.1675103827712
30
0
0
SPLINE
5
106
100
AcDbEntity
8
1
62
256
6
ByLayer
370
18
48
1
60
0
100
AcDbSpline
70
4
71
3
72
8
73
4
40
0
40
0
40
0
40
0
40
1
40
1
40
1
40
1
41
1
10
11.9741054463246
20
13.6500837633506
30
0
41
1
10
11.9187762756282
20
13.5125816319517
30
0
41
1
10
11.8666371707933
20
13.3804896755892
30
0
41
1
10
11.816427010275
20
13.2516691019636
30
0
0
SPLINE
5
107
100
AcDbEntity
8
1
62
256
6
ByLayer
370
18
48
1
60
0
100
AcDbSpline
70
4
71
3
72
10
73
6
40
0
40
0
40
0
40
0
40
0.5
40
0.5
40
1
40
1
40
1
40
1
41
1
10
14.1402392668027
20
12.2699439620243
30
0
41
1
10
14.1654904472696
20
12.3347290875627
30
0
41
1
10
14.1913863874566
20
12.4007357817934
30
0
41
1
10
14.2439753930436
20
12.5336894919468
30
0
41
1
10
14.2706945826274
20
12.6007046714881
30
0
41
1
10
14.2979177028523
20
12.6683586234113
30
0
0
LINE
5
72
100
AcDbEntity
8
1
62
256
6
ByLayer
370
18
48
1
60
0
100
AcDbLine
10
11.087034
20
15.506286
30
0
11
11.00689
21
15.428202
31
0
39
0
210
0
220
0
230
1
0
LINE
5
73
100
AcDbEntity
8
1
62
256
6
ByLayer
370
18
48
1
60
0
100
AcDbLine
10
15.193919
20
11.13067
30
0
11
15.274064
21
11.208754
31
0
39
0
210
0
220
0
230
1
0
LINE
5
74
100
AcDbEntity
8
1
62
256
6
ByLayer
370
18
48
1
60
0
100
AcDbLine
10
27.590755
20
10.794044
30
0
11
28.127698
21
11.317181
31
0
39
0
210
0
220
0
230
1
0
LINE
5
75
100
AcDbEntity
8
1
62
256
6
ByLayer
370
18
48
1
60
0
100
AcDbLine
10
21.3023
20
18.258908
30
0
11
20.945409
21
17.911193
31
0
39
0
210
0
220
0
230
1
0
LINE
5
76
100
AcDbEntity
8
1
62
256
6
ByLayer
370
18
48
1
60
0
100
AcDbLine
10
23.272693
20
15.700555
30
0
11
22.97562
21
15.411121
31
0
39
0
210
0
220
0
230
1
0
LINE
5
77
100
AcDbEntity
8
1
62
256
6
ByLayer
370
18
48
1
60
0
100
AcDbLine
10
25.314544
20
13.054441
30
0
11
25.844441
21
13.570713
31
0
39
0
210
0
220
0
230
1
0
LINE
5
78
100
AcDbEntity
8
SK1
62
256
6
ByLayer
370
18
48
1
60
0
100
AcDbLine
10
0
20
-12.4375
30
0
11
0
21
12.4375
31
0
39
0
210
0
220
0
230
1
0
LINE
5
7A
100
AcDbEntity
8
SK1
62
256
6
ByLayer
370
18
48
1
60
0
100
AcDbLine
10
-118.542476
20
12.4375
30
0
11
-118.542476
21
-12.4375
31
0
39
0
210
0
220
0
230
1
0
LINE
5
7B
100
AcDbEntity
8
SK1
62
256
6
ByLayer
370
18
48
1
60
0
100
AcDbLine
10
-118.542476
20
-12.4375
30
0
11
0
21
-12.4375
31
0
39
0
210
0
220
0
230
1
0
LINE
5
7C
100
AcDbEntity
8
SK1
62
256
6
ByLayer
370
18
48
1
60
0
100
AcDbLine
10
-118.542476
20
12.4375
30
0
11
0
21
12.4375
31
0
39
0
210
0
220
0
230
1
0
LINE
5
7D
100
AcDbEntity
8
1
62
256
6
ByLayer
370
18
48
1
60
0
100
AcDbLine
10
20.858532
20
9.347615
30
0
11
19.193034
21
6.626914
31
0
39
0
210
0
220
0
230
1
0
LINE
5
7E
100
AcDbEntity
8
1
62
256
6
ByLayer
370
18
48
1
60
0
100
AcDbLine
10
5.08868
20
-12.500373
30
0
11
12.525839
21
-12.500373
31
0
39
0
210
0
220
0
230
1
0
LINE
5
7F
100
AcDbEntity
8
1
62
256
6
ByLayer
370
18
48
1
60
0
100
AcDbLine
10
21.010904
20
17.914625
30
0
11
2.434452
21
16.941074
31
0
39
0
210
0
220
0
230
1
0
LINE
5
80
100
AcDbEntity
8
1
62
256
6
ByLayer
370
18
48
1
60
0
100
AcDbLine
10
18.796761
20
6.433887
30
0
11
22.754715
21
4.209174
31
0
39
0
210
0
220
0
230
1
0
LINE
5
81
100
AcDbEntity
8
1
62
256
6
ByLayer
370
18
48
1
60
0
100
AcDbLine
10
16.167938
20
-6.550763
30
0
11
22.519367
21
3.824718
31
0
39
0
210
0
220
0
230
1
0
LINE
5
82
100
AcDbEntity
8
1
62
256
6
ByLayer
370
18
48
1
60
0
100
AcDbLine
10
20.896371
20
9.349651
30
0
11
20.818176
21
9.221914
31
0
39
0
210
0
220
0
230
1
0
LINE
5
83
100
AcDbEntity
8
1
62
256
6
ByLayer
370
18
48
1
60
0
100
AcDbLine
10
1.545481
20
-12.442674
30
0
11
5.08868
21
-12.500373
31
0
39
0
210
0
220
0
230
1
0
LINE
5
84
100
AcDbEntity
8
1
62
256
6
ByLayer
370
18
48
1
60
0
100
AcDbLine
10
1.545481
20
13.62339
30
0
11
1.545481
21
-12.442674
31
0
39
0
210
0
220
0
230
1
0
LINE
5
85
100
AcDbEntity
8
1
62
256
6
ByLayer
370
18
48
1
60
0
100
AcDbLine
10
16.323997
20
9.37111
30
0
11
15.759834
21
8.449513
31
0
39
0
210
0
220
0
230
1
0
LINE
5
86
100
AcDbEntity
8
1
62
256
6
ByLayer
370
18
48
1
60
0
100
AcDbLine
10
22.754715
20
4.209174
30
0
11
22.519365
21
3.824715
31
0
39
0
210
0
220
0
230
1
0
LINE
5
87
100
AcDbEntity
8
1
62
256
6
ByLayer
370
18
48
1
60
0
100
AcDbLine
10
1.545481
20
13.62339
30
0
11
2.099225
21
15.689989
31
0
39
0
210
0
220
0
230
1
0
LINE
5
88
100
AcDbEntity
8
1
62
256
6
ByLayer
370
18
48
1
60
0
100
AcDbLine
10
2.527883
20
0.867661
30
0
11
10.836683
21
8.431854
31
0
39
0
210
0
220
0
230
1
0
LINE
5
89
100
AcDbEntity
8
1
62
256
6
ByLayer
370
18
48
1
60
0
100
AcDbLine
10
2.099225
20
15.689989
30
0
11
2.434452
21
16.941074
31
0
39
0
210
0
220
0
230
1
0
LINE
5
8A
100
AcDbEntity
8
1
62
256
6
ByLayer
370
18
48
1
60
0
100
AcDbLine
10
6.570663
20
2.456982
30
0
11
12.838584
21
8.149688
31
0
39
0
210
0
220
0
230
1
0
LINE
5
8B
100
AcDbEntity
8
1
62
256
6
ByLayer
370
18
48
1
60
0
100
AcDbLine
10
5.08868
20
1.105536
30
0
11
5.08868
21
-12.500373
31
0
39
0
210
0
220
0
230
1
0
LINE
5
8C
100
AcDbEntity
8
1
62
256
6
ByLayer
370
18
48
1
60
0
100
AcDbLine
10
19.783586
20
7.229897
30
0
11
19.344669
21
6.735035
31
0
39
0
210
0
220
0
230
1
0
LINE
5
8D
100
AcDbEntity
8
1
62
256
6
ByLayer
370
18
48
1
60
0
100
AcDbLine
10
22.519367
20
3.824718
30
0
11
14.648947
21
8.319173
31
0
39
0
210
0
220
0
230
1
0
LINE
5
8E
100
AcDbEntity
8
1
62
256
6
ByLayer
370
18
48
1
60
0
100
AcDbLine
10
2.998965
20
-0.855644
30
0
11
5.08868
21
1.105536
31
0
39
0
210
0
220
0
230
1
0
LINE
5
8F
100
AcDbEntity
8
1
62
256
6
ByLayer
370
18
48
1
60
0
100
AcDbLine
10
6.570663
20
2.456982
30
0
11
16.167938
21
-6.550763
31
0
39
0
210
0
220
0
230
1
0
LINE
5
90
100
AcDbEntity
8
1
62
256
6
ByLayer
370
18
48
1
60
0
100
AcDbLine
10
5.08868
20
1.105536
30
0
11
6.570663
21
2.456982
31
0
39
0
210
0
220
0
230
1
0
LINE
5
91
100
AcDbEntity
8
1
62
256
6
ByLayer
370
18
48
1
60
0
100
AcDbLine
10
18.924393
20
6.486417
30
0
11
20.669846
21
9.33773
31
0
39
0
210
0
220
0
230
1
0
LINE
5
92
100
AcDbEntity
8
1
62
256
6
ByLayer
370
18
48
1
60
0
100
AcDbLine
10
22.754715
20
4.209174
30
0
11
26.330834
21
10.051001
31
0
39
0
210
0
220
0
230
1
0
LINE
5
93
100
AcDbEntity
8
1
62
256
6
ByLayer
370
18
48
1
60
0
100
AcDbLine
10
16.167938
20
-6.550763
30
0
11
12.525839
21
-12.500373
31
0
39
0
210
0
220
0
230
1
0
LINE
5
94
100
AcDbEntity
8
1
62
256
6
ByLayer
370
18
48
1
60
0
100
AcDbLine
10
2.099225
20
15.689989
30
0
11
2.527883
21
0.867661
31
0
39
0
210
0
220
0
230
1
0
LINE
5
95
100
AcDbEntity
8
1
62
256
6
ByLayer
370
18
48
1
60
0
100
AcDbLine
10
26.330834
20
10.051001
30
0
11
25.917745
21
10.027541
31
0
39
0
210
0
220
0
230
1
0
LINE
5
96
100
AcDbEntity
8
1
62
256
6
ByLayer
370
18
48
1
60
0
100
AcDbLine
10
24.3694
20
9.939608
30
0
11
21.336931
21
9.767388
31
0
39
0
210
0
220
0
230
1
0
LINE
5
97
100
AcDbEntity
8
1
62
256
6
ByLayer
370
18
48
1
60
0
100
AcDbLine
10
15.790384
20
8.664282
30
0
11
16.263775
21
9.437598
31
0
39
0
210
0
220
0
230
1
0
LINE
5
98
100
AcDbEntity
8
1
62
256
6
ByLayer
370
18
48
1
60
0
100
AcDbLine
10
21.336931
20
9.767388
30
0
11
20.738373
21
9.08365
31
0
39
0
210
0
220
0
230
1
0
LINE
5
99
100
AcDbEntity
8
1
62
256
6
ByLayer
370
18
48
1
60
0
100
AcDbLine
10
16.012207
20
9.743873
30
0
11
16.612397
21
10.724323
31
0
39
0
210
0
220
0
230
1
0
LINE
5
9A
100
AcDbEntity
8
1
62
256
6
ByLayer
370
18
48
1
60
0
100
AcDbLine
10
19.783586
20
7.229897
30
0
11
21.336931
21
9.767388
31
0
39
0
210
0
220
0
230
1
0
LINE
5
9B
100
AcDbEntity
8
1
62
256
6
ByLayer
370
18
48
1
60
0
100
AcDbLine
10
18.281127
20
13.737389
30
0
11
19.386591
21
15.543237
31
0
39
0
210
0
220
0
230
1
0
LINE
5
9C
100
AcDbEntity
8
1
62
256
6
ByLayer
370
18
48
1
60
0
100
AcDbLine
10
0
20
-12.4375
30
0
11
0
21
12.4375
31
0
39
0
210
0
220
0
230
1
0
LINE
5
9D
100
AcDbEntity
8
1
62
256
6
ByLayer
370
18
48
1
60
0
100
AcDbLine
10
14.5239
20
8.835606
30
0
11
15.804021
21
8.116067
31
0
39
0
210
0
220
0
230
1
0
LINE
5
9E
100
AcDbEntity
8
1
62
256
6
ByLayer
370
18
48
1
60
0
100
AcDbLine
10
20.818176
20
9.221914
30
0
11
20.86162
21
9.224381
31
0
39
0
210
0
220
0
230
1
0
LINE
5
9F
100
AcDbEntity
8
1
62
256
6
ByLayer
370
18
48
1
60
0
100
AcDbLine
10
22.837214
20
15.041405
30
0
11
22.835992
21
15.040215
31
0
39
0
210
0
220
0
230
1
0
LINE
5
A0
100
AcDbEntity
8
1
62
256
6
ByLayer
370
18
48
1
60
0
100
AcDbLine
10
25.79157
20
10.014138
30
0
11
25.885996
21
10.106136
31
0
39
0
210
0
220
0
230
1
0
LINE
5
A1
100
AcDbEntity
8
1
62
256
6
ByLayer
370
18
48
1
60
0
100
AcDbLine
10
20.974901
20
9.353759
30
0
11
16.925326
21
9.14153
31
0
39
0
210
0
220
0
230
1
0
LINE
5
A2
100
AcDbEntity
8
1
62
256
6
ByLayer
370
18
48
1
60
0
100
AcDbLine
10
16.642725
20
10.778652
30
0
11
16.737151
21
10.87065
31
0
39
0
210
0
220
0
230
1
0
LINE
5
A3
100
AcDbEntity
8
1
62
256
6
ByLayer
370
18
48
1
60
0
100
AcDbLine
10
21.120727
20
18.031512
30
0
11
21.000175
21
17.91406
31
0
39
0
210
0
220
0
230
1
0
LINE
5
A4
100
AcDbEntity
8
1
62
256
6
ByLayer
370
18
48
1
60
0
100
AcDbLine
10
26.426675
20
10.269512
30
0
11
26.194447
21
10.043255
31
0
39
0
210
0
220
0
230
1
0
LINE
5
A5
100
AcDbEntity
8
1
62
256
6
ByLayer
370
18
48
1
60
0
100
AcDbLine
10
27.37129
20
10.625818
30
0
11
26.289706
21
9.983797
31
0
39
0
210
0
220
0
230
1
0
LINE
5
A6
100
AcDbEntity
8
1
62
256
6
ByLayer
370
18
48
1
60
0
100
AcDbLine
10
13.927553
20
12.307518
30
0
11
13.897426
21
12.234362
31
0
39
0
210
0
220
0
230
1
0
LINE
5
A7
100
AcDbEntity
8
1
62
256
6
ByLayer
370
18
48
1
60
0
100
AcDbLine
10
12.219895
20
14.24436
30
0
11
12.425189
21
14.269604
31
0
39
0
210
0
220
0
230
1
0
LINE
5
A8
100
AcDbEntity
8
80
62
256
6
ByLayer
370
18
48
1
60
0
100
AcDbLine
10
0
20
0
30
0
11
-5
21
0
31
0
39
0
210
0
220
0
230
1
0
LINE
5
A9
100
AcDbEntity
8
81
62
256
6
ByLayer
370
18
48
1
60
0
100
AcDbLine
10
31.457524
20
19.5625
30
0
11
41.457524
21
19.5625
31
0
39
0
210
0
220
0
230
1
0
LINE
5
AA
100
AcDbEntity
8
1
62
256
6
ByLayer
370
18
48
1
60
0
100
AcDbLine
10
21.521764
20
18.427133
30
0
11
23.003323
21
19.306577
31
0
39
0
210
0
220
0
230
1
0
LINE
5
AB
100
AcDbEntity
8
1
62
256
6
ByLayer
370
18
48
1
60
0
100
AcDbLine
10
23.544002
20
19.469952
30
0
11
31.967729
21
19.911421
31
0
39
0
210
0
220
0
230
1
0
LINE
5
AC
100
AcDbEntity
8
1
62
256
6
ByLayer
370
18
48
1
60
0
100
AcDbLine
10
27.37129
20
10.625818
30
0
11
27.908234
21
11.148955
31
0
39
0
210
0
220
0
230
1
0
LINE
5
AD
100
AcDbEntity
8
1
62
256
6
ByLayer
370
18
48
1
60
0
100
AcDbLine
10
16.737151
20
10.87065
30
0
11
21.120727
21
18.031512
31
0
39
0
210
0
220
0
230
1
0
LINE
5
AE
100
AcDbEntity
8
1
62
256
6
ByLayer
370
18
48
1
60
0
100
AcDbLine
10
27.908234
20
11.148955
30
0
11
26.426675
21
10.269512
31
0
39
0
210
0
220
0
230
1
0
LINE
5
AF
100
AcDbEntity
8
1
62
256
6
ByLayer
370
18
48
1
60
0
100
AcDbLine
10
25.885996
20
10.106136
30
0
11
17.462269
21
9.664667
31
0
39
0
210
0
220
0
230
1
0
LINE
5
B0
100
AcDbEntity
8
1
62
256
6
ByLayer
370
18
48
1
60
0
100
AcDbLine
10
17.462269
20
9.664667
30
0
11
16.925326
21
9.14153
31
0
39
0
210
0
220
0
230
1
0
LINE
5
B1
100
AcDbEntity
8
1
62
256
6
ByLayer
370
18
48
1
60
0
100
AcDbLine
10
32.692847
20
18.705438
30
0
11
28.309271
21
11.544576
31
0
39
0
210
0
220
0
230
1
0
LINE
5
B2
100
AcDbEntity
8
1
62
256
6
ByLayer
370
18
48
1
60
0
100
AcDbLine
10
14.037403
20
13.588503
30
0
11
14.309017
21
13.233776
31
0
39
0
210
0
220
0
230
1
0
LINE
5
B3
100
AcDbEntity
8
1
62
256
6
ByLayer
370
18
48
1
60
0
100
AcDbLine
10
12.795553
20
14.630445
30
0
11
12.425189
21
14.269604
31
0
39
0
210
0
220
0
230
1
0
LINE
5
B4
100
AcDbEntity
8
1
62
256
6
ByLayer
370
18
48
1
60
0
100
AcDbLine
10
14.037403
20
13.588503
30
0
11
14.407767
21
13.949344
31
0
39
0
210
0
220
0
230
1
0
LINE
5
B5
100
AcDbEntity
8
1
62
256
6
ByLayer
370
18
48
1
60
0
100
AcDbLine
10
14.690073
20
13.605033
30
0
11
14.309017
21
13.233776
31
0
39
0
210
0
220
0
230
1
0
LINE
5
B6
100
AcDbEntity
8
1
62
256
6
ByLayer
370
18
48
1
60
0
100
AcDbLine
10
12.982043
20
14.338079
30
0
11
13.422027
21
14.392183
31
0
39
0
210
0
220
0
230
1
0
LINE
5
B7
100
AcDbEntity
8
1
62
256
6
ByLayer
370
18
48
1
60
0
100
AcDbLine
10
14.064006
20
14.398296
30
0
11
13.693641
21
14.037455
31
0
39
0
210
0
220
0
230
1
0
LINE
5
B8
100
AcDbEntity
8
1
62
256
6
ByLayer
370
18
48
1
60
0
100
AcDbLine
10
14.511011
20
13.185785
30
0
11
14.140647
21
12.824944
31
0
39
0
210
0
220
0
230
1
0
LINE
5
B9
100
AcDbEntity
8
1
62
256
6
ByLayer
370
18
48
1
60
0
100
AcDbLine
10
14.309017
20
13.233776
30
0
11
14.140647
21
12.824944
31
0
39
0
210
0
220
0
230
1
0
LINE
5
BA
100
AcDbEntity
8
1
62
256
6
ByLayer
370
18
48
1
60
0
100
AcDbLine
10
13.803083
20
14.763441
30
0
11
13.422027
21
14.392183
31
0
39
0
210
0
220
0
230
1
0
LINE
5
BB
100
AcDbEntity
8
1
62
256
6
ByLayer
370
18
48
1
60
0
100
AcDbLine
10
13.927553
20
12.307518
30
0
11
14.297918
21
12.668359
31
0
39
0
210
0
220
0
230
1
0
LINE
5
BC
100
AcDbEntity
8
1
62
256
6
ByLayer
370
18
48
1
60
0
100
AcDbLine
10
13.422027
20
14.392183
30
0
11
13.693641
21
14.037455
31
0
39
0
210
0
220
0
230
1
0
LINE
5
BD
100
AcDbEntity
8
1
62
256
6
ByLayer
370
18
48
1
60
0
100
AcDbLine
10
12.982043
20
14.338079
30
0
11
13.352407
21
14.69892
31
0
39
0
210
0
220
0
230
1
0
MTEXT
5
108
100
AcDbEntity
8
SK6
62
256
6
ByLayer
370
13
48
1
60
0
100
AcDbMText
10
-90.495609
20
-37.499425
30
0
210
0
220
0
230
1
1
\W0.7446;PDJNR 2525M 11HP
40
3.5
41
0
44
1.084337
50
0
71
7
72
5
7
iso_b_vert
0
DIMENSION
5
11A
100
AcDbEntity
8
SK2
62
256
6
ByLayer
370
13
48
1
60
0
100
AcDbDimension
2
DimnDraft3D1
10
-128.292476
20
-12.4375
30
0
11
-128.292476
21
0.0625
31
0
70
32
71
5
72
1
41
1
210
0
220
0
230
1
3
Standard
100
AcDbAlignedDimension
13
-120.129976
23
12.5625
33
0
14
-120.129976
24
-12.4375
34
0
50
90
100
AcDbRotatedDimension
1001
ACAD
1000
DSTYLE
1002
{
1070
    74
1070
     0
1070
   279
1070
     0
1070
   172
1070
     1
1070
   173
1070
     1
1070
   340
1005
109
1070
   271
1070
     1
1070
   272
1070
     2
1070
    77
1070
     1
1070
    73
1070
     0
1070
   171
1070
     3
1070
   274
1070
     4
1070
   177
1070
   150
1070
   176
1070
     9
1070
   178
1070
    43
1070
    78
1070
     8
1070
    48
1040
-0.005
1070
    41
1041
3.175
1070
   147
1041
2.25
1070
    42
1041
1.5875
1070
    44
1041
3.175
1070
   140
1041
4.5
1070
   343
1005
11B
1070
   344
1005
11B
1002
}
0
DIMENSION
5
130
100
AcDbEntity
8
2
62
256
6
ByLayer
370
13
48
1
60
0
100
AcDbDimension
2
DimnDraft3D2
10
49.307524
20
19.9125
30
0
11
49.307524
21
3.7375
31
0
70
32
71
5
72
1
41
1
210
0
220
0
230
1
3
Standard
100
AcDbAlignedDimension
13
1.5875
23
-12.4375
33
0
14
34.395024
24
19.9125
34
0
50
90
100
AcDbRotatedDimension
1001
ACAD
1000
DSTYLE
1002
{
1070
    74
1070
     0
1070
   279
1070
     0
1070
   172
1070
     1
1070
   173
1070
     1
1070
   340
1005
109
1070
   271
1070
     1
1070
   272
1070
     2
1070
    77
1070
     1
1070
    73
1070
     0
1070
   171
1070
     3
1070
   274
1070
     4
1070
   177
1070
   150
1070
   176
1070
     9
1070
   178
1070
    43
1070
    78
1070
     8
1070
    48
1040
-0.005
1070
    41
1041
3.175
1070
   147
1041
2.25
1070
    42
1041
1.5875
1070
    44
1041
3.175
1070
   140
1041
4.5
1070
   343
1005
11B
1070
   344
1005
11B
1002
}
0
DIMENSION
5
13E
100
AcDbEntity
8
SK2
62
256
6
ByLayer
370
13
48
1
60
0
100
AcDbDimension
2
DimnDraft3D3
10
32.807524
20
37.4125
30
0
11
-42.867476
21
37.4125
31
0
70
32
71
5
72
1
41
1
210
0
220
0
230
1
3
Standard
100
AcDbAlignedDimension
13
-118.542476
23
14.15
33
0
14
32.807524
24
21.5
34
0
50
0
100
AcDbRotatedDimension
1001
ACAD
1000
DSTYLE
1002
{
1070
   279
1070
     0
1070
   172
1070
     1
1070
   173
1070
     1
1070
   340
1005
109
1070
   271
1070
     1
1070
   272
1070
     2
1070
    77
1070
     1
1070
    73
1070
     0
1070
   171
1070
     3
1070
   274
1070
     4
1070
   177
1070
   150
1070
   176
1070
     9
1070
   178
1070
    43
1070
    78
1070
     8
1070
    48
1040
-0.005
1070
    41
1041
3.175
1070
   147
1041
2.25
1070
    42
1041
1.5875
1070
    44
1041
3.175
1070
   140
1041
4.5
1070
   343
1005
11B
1070
   344
1005
11B
1002
}
0
DIMENSION
5
14C
100
AcDbEntity
8
2
62
256
6
ByLayer
370
13
48
1
60
0
100
AcDbDimension
2
DimnDraft3D4
10
20.972233
20
19.334927
30
0
11
20.519389
21
31.616193
31
0
70
34
71
5
72
1
41
1
210
0
220
0
230
1
3
Standard
100
AcDb2LineAngularDimension
13
32.807524
23
19.9125
33
0
14
32.807524
24
18.325
34
0
15
31.972233
25
19.911412
35
0
16
23.783574
26
28.518597
36
0
40
0
0
ENDSEC
0
SECTION
2
OBJECTS
0
DICTIONARY
5
1b6
330
0
100
AcDbDictionary
280
0
281
1
3
ACAD_GROUP
350
1b7
3
ACAD_MLINESTYLE
350
1b8
0
DICTIONARY
5
1b7
330
0
100
AcDbDictionary
280
0
281
1
0
DICTIONARY
5
1b8
330
0
100
AcDbDictionary
280
0
281
1
3
Standard
350
18
0
MLINESTYLE
5
18
330
1b8
100
AcDbMlineStyle
2
Standard
70
0
3

62
256
51
90
52
90
71
2
49
-0.5
62
256
6
ByLayer
49
0.5
62
256
6
ByLayer
0
RASTERVARIABLES
5
1a5
330

100
AcDbRasterVariables
90
0
70
1
71
1
72
1
0
ENDSEC
0
EOF
