0
SECTION
2
HEADER
9
$ACADVER
1
AC1015
9
$DWGCODEPAGE
3
ANSI_1252
9
$HANDSEED
5
1b2
9
$ANGBASE
50
0
9
$ANGDIR
70
0
9
$ATTMODE
70
1
9
$AUNITS
70
0
9
$AUPREC
70
0
9
$CECOLOR
62
256
9
$CELTSCALE
40
1
9
$CELTYPE
6
ByLayer
9
$CELWEIGHT
370
18
9
$CLAYER
8
0
9
$CMLJUST
70
0
9
$CMLSCALE
40
1
9
$CMLSTYLE
2
Standard
9
$DIMSTYLE
2
Standard
9
$TEXTSIZE
40
0.2
9
$TEXTSTYLE
7
Standard
9
$LUNITS
70
2
9
$LUPREC
70
4
9
$EXTNAMES
290
1
9
$INSUNITS
70
4
9
$LTSCALE
40
1
9
$LWDISPLAY
290
1
9
$PDMODE
70
0
9
$PDSIZE
40
0
9
$PLINEGEN
70
0
0
ENDSEC
0
SECTION
2
CLASSES
0
CLASS
1
RASTERVARIABLES
2
AcDbRasterVariables
3
ISM
90
0
280
0
281
0
0
ENDSEC
0
SECTION
2
TABLES
0
TABLE
2
VPORT
5
1a8
100
AcDbSymbolTable
0
VPORT
5
1
100
AcDbSymbolTableRecord
100
AcDbViewportTableRecord
2
*Active
70
0
10
0
20
0
11
1
21
1
12
-1
22
1
13
0
23
0
14
0.5
24
0.5
15
10
25
10
16
0
26
0
36
1
17
0
27
0
37
0
0
ENDTAB
0
TABLE
2
LTYPE
5
1a9
100
AcDbSymbolTable
0
LTYPE
5
14
100
AcDbSymbolTableRecord
100
AcDbLinetypeTableRecord
70
0
2
ByBlock
3

72
65
73
0
40
0
0
LTYPE
5
15
100
AcDbSymbolTableRecord
100
AcDbLinetypeTableRecord
70
0
2
ByLayer
3

72
65
73
0
40
0
0
LTYPE
5
16
100
AcDbSymbolTableRecord
100
AcDbLinetypeTableRecord
70
0
2
CONTINUOUS
3
Solid line
72
65
73
0
40
0
0
LTYPE
5
6A
100
AcDbSymbolTableRecord
100
AcDbLinetypeTableRecord
70
0
2
CENTER
3
____ _ ____ _ ____ _ ____
72
65
73
4
40
47.5
49
22
74
0
49
-8.5
74
0
49
8.5
74
0
49
-8.5
74
0
0
LTYPE
5
6B
100
AcDbSymbolTableRecord
100
AcDbLinetypeTableRecord
70
0
2
DASHED
3
__ __ __ __ __ __ __ __ __
72
65
73
2
40
25.72
49
12.86
74
0
49
-12.86
74
0
0
ENDTAB
0
TABLE
2
LAYER
5
1aa
100
AcDbSymbolTable
0
LAYER
5
10
100
AcDbSymbolTableRecord
100
AcDbLayerTableRecord
2
0
70
0
62
7
6
CONTINUOUS
290
1
370
-3
390
0
0
LAYER
5
6D
100
AcDbSymbolTableRecord
100
AcDbLayerTableRecord
2
80
70
0
62
-6
6
CONTINUOUS
290
1
370
-3
390
0
0
LAYER
5
6F
100
AcDbSymbolTableRecord
100
AcDbLayerTableRecord
2
81
70
0
62
-3
6
CONTINUOUS
290
1
370
-3
390
0
0
LAYER
5
71
100
AcDbSymbolTableRecord
100
AcDbLayerTableRecord
2
1
70
0
62
4
6
CONTINUOUS
290
1
370
-3
390
0
0
LAYER
5
113
100
AcDbSymbolTableRecord
100
AcDbLayerTableRecord
2
2
70
0
62
7
6
CONTINUOUS
290
1
370
-3
390
0
0
LAYER
5
195
100
AcDbSymbolTableRecord
100
AcDbLayerTableRecord
2
SK1
70
0
62
4
6
CONTINUOUS
290
1
370
-3
390
0
0
LAYER
5
196
100
AcDbSymbolTableRecord
100
AcDbLayerTableRecord
2
SK6
70
0
62
5
6
CONTINUOUS
290
1
370
-3
390
0
0
LAYER
5
197
100
AcDbSymbolTableRecord
100
AcDbLayerTableRecord
2
SK2
70
0
62
7
6
CONTINUOUS
290
1
370
-3
390
0
0
ENDTAB
0
TABLE
2
STYLE
5
1ab
100
AcDbSymbolTable
0
STYLE
5
11
100
AcDbSymbolTableRecord
100
AcDbTextStyleTableRecord
2
Standard
3
txt
70
0
71
0
40
0
41
1
42
0
50
0
0
STYLE
5
F8
100
AcDbSymbolTableRecord
100
AcDbTextStyleTableRecord
2
iso_b_vert
3
simplex.shx
70
0
71
0
40
0
41
1
42
0
50
0
0
STYLE
5
F9
100
AcDbSymbolTableRecord
100
AcDbTextStyleTableRecord
2
DWGDirectTextStyle
3
simplex
70
0
71
0
40
0
41
1
42
0
50
0
0
ENDTAB
0
TABLE
2
DIMSTYLE
5
1ac
100
AcDbSymbolTable
100
AcDbDimStyleTable
0
DIMSTYLE
105
27
100
AcDbSymbolTableRecord
100
AcDbDimStyleTableRecord
2
Standard
70
0
3
<>
41
0.18
42
0.0625
44
0.18
140
0.18
147
0.09
73
0
74
0
77
1
271
2
275
0
278
52
280
0
340
11
0
ENDTAB
0
TABLE
2
VIEW
5
1ad
100
AcDbSymbolTable
0
ENDTAB
0
TABLE
2
UCS
5
1ae
100
AcDbSymbolTable
0
ENDTAB
0
TABLE
2
APPID
5
1af
100
AcDbSymbolTable
0
APPID
5
12
100
AcDbSymbolTableRecord
100
AcDbRegAppTableRecord
2
ACAD
70
0
0
ENDTAB
0
TABLE
2
BLOCK_RECORD
5
1b0
100
AcDbSymbolTable
0
BLOCK_RECORD
5
1F
100
AcDbSymbolTableRecord
100
AcDbBlockTableRecord
2
*Model_Space
340
0
70
0
0
BLOCK_RECORD
5
1B
100
AcDbSymbolTableRecord
100
AcDbBlockTableRecord
2
*Paper_Space
340
0
70
0
0
BLOCK_RECORD
5
23
100
AcDbSymbolTableRecord
100
AcDbBlockTableRecord
2
*Paper_Space0
340
0
70
0
0
BLOCK_RECORD
5
FB
100
AcDbSymbolTableRecord
100
AcDbBlockTableRecord
2
DimnDraft3D1
340
0
70
0
0
BLOCK_RECORD
5
10A
100
AcDbSymbolTableRecord
100
AcDbBlockTableRecord
2
_CLOSED
340
0
70
0
0
BLOCK_RECORD
5
111
100
AcDbSymbolTableRecord
100
AcDbBlockTableRecord
2
DimnDraft3D2
340
0
70
0
0
BLOCK_RECORD
5
120
100
AcDbSymbolTableRecord
100
AcDbBlockTableRecord
2
DimnDraft3D3
340
0
70
0
0
BLOCK_RECORD
5
12E
100
AcDbSymbolTableRecord
100
AcDbBlockTableRecord
2
DimnDraft3D4
340
0
70
0
0
ENDTAB
0
ENDSEC
0
SECTION
2
BLOCKS
0
BLOCK
5
20
100
AcDbEntity
8
0
100
AcDbBlockBegin
2
*Model_Space
70
0
10
0
20
0
30
0
3
*Model_Space
0
ENDBLK
5
21
100
AcDbEntity
8
0
100
AcDbBlockEnd
0
BLOCK
5
1C
100
AcDbEntity
8
0
100
AcDbBlockBegin
2
*Paper_Space
70
0
10
0
20
0
30
0
3
*Paper_Space
0
ENDBLK
5
1D
100
AcDbEntity
8
0
100
AcDbBlockEnd
0
BLOCK
5
24
100
AcDbEntity
8
0
100
AcDbBlockBegin
2
*Paper_Space0
70
0
10
0
20
0
30
0
3
*Paper_Space0
0
ENDBLK
5
25
100
AcDbEntity
8
0
100
AcDbBlockEnd
0
BLOCK
5
107
100
AcDbEntity
8
0
100
AcDbBlockBegin
2
DimnDraft3D1
70
0
10
0
20
0
30
0
3
DimnDraft3D1
0
MTEXT
5
FC
100
AcDbEntity
8
SK2
62
256
6
ByLayer
370
13
48
1
60
0
100
AcDbMText
10
-146.004294
20
-1.625658
30
0
210
0
220
0
230
1
1
\W0.6740;25
40
4.5
41
0
44
1.084337
50
90
71
7
72
5
7
iso_b_vert
0
LINE
5
FE
100
AcDbEntity
8
SK2
62
256
6
ByLayer
370
13
48
1
60
0
100
AcDbLine
10
-136.716794
20
-12.5625
30
0
11
-148.054294
21
-12.5625
31
0
39
0
210
0
220
0
230
1
0
LINE
5
FF
100
AcDbEntity
8
SK2
62
256
6
ByLayer
370
13
48
1
60
0
100
AcDbLine
10
-136.716794
20
12.4375
30
0
11
-148.054294
21
12.4375
31
0
39
0
210
0
220
0
230
1
0
LINE
5
100
100
AcDbEntity
8
SK2
62
256
6
ByLayer
370
13
48
1
60
0
100
AcDbLine
10
-144.879294
20
-12.5625
30
0
11
-144.879294
21
12.4375
31
0
39
0
210
0
220
0
230
1
0
LINE
5
101
100
AcDbEntity
8
SK2
62
256
6
ByLayer
370
13
48
1
60
0
100
AcDbLine
10
-144.879294
20
-12.5625
30
0
11
-145.730033
21
-9.387503
31
0
39
0
210
0
220
0
230
1
0
LINE
5
102
100
AcDbEntity
8
SK2
62
256
6
ByLayer
370
13
48
1
60
0
100
AcDbLine
10
-144.879294
20
-12.5625
30
0
11
-144.028556
21
-9.387497
31
0
39
0
210
0
220
0
230
1
0
LINE
5
103
100
AcDbEntity
8
SK2
62
256
6
ByLayer
370
13
48
1
60
0
100
AcDbLine
10
-145.730033
20
-9.387503
30
0
11
-144.028556
21
-9.387497
31
0
39
0
210
0
220
0
230
1
0
LINE
5
104
100
AcDbEntity
8
SK2
62
256
6
ByLayer
370
13
48
1
60
0
100
AcDbLine
10
-144.879294
20
12.4375
30
0
11
-144.028556
21
9.262503
31
0
39
0
210
0
220
0
230
1
0
LINE
5
105
100
AcDbEntity
8
SK2
62
256
6
ByLayer
370
13
48
1
60
0
100
AcDbLine
10
-144.879294
20
12.4375
30
0
11
-145.730033
21
9.262497
31
0
39
0
210
0
220
0
230
1
0
LINE
5
106
100
AcDbEntity
8
SK2
62
256
6
ByLayer
370
13
48
1
60
0
100
AcDbLine
10
-144.028556
20
9.262503
30
0
11
-145.730033
21
9.262497
31
0
39
0
210
0
220
0
230
1
0
ENDBLK
5
108
100
AcDbEntity
8
0
100
AcDbBlockEnd
0
BLOCK
5
10B
100
AcDbEntity
8
0
100
AcDbBlockBegin
2
_CLOSED
70
0
10
0
20
0
30
0
3
_CLOSED
0
LINE
5
10D
100
AcDbEntity
8
0
62
256
6
ByLayer
370
-2
48
1
60
0
100
AcDbLine
10
-1
20
0.166667
30
0
11
0
21
0
31
0
39
0
210
0
220
0
230
1
0
LINE
5
10E
100
AcDbEntity
8
0
62
256
6
ByLayer
370
-2
48
1
60
0
100
AcDbLine
10
0
20
0
30
0
11
-1
21
-0.166667
31
0
39
0
210
0
220
0
230
1
0
LINE
5
10F
100
AcDbEntity
8
0
62
256
6
ByLayer
370
-2
48
1
60
0
100
AcDbLine
10
-1
20
0.166667
30
0
11
-1
21
-0.166667
31
0
39
0
210
0
220
0
230
1
0
LINE
5
110
100
AcDbEntity
8
0
62
256
6
ByLayer
370
-2
48
1
60
0
100
AcDbLine
10
0
20
0
30
0
11
-1
21
0
31
0
39
0
210
0
220
0
230
1
0
ENDBLK
5
10C
100
AcDbEntity
8
0
100
AcDbBlockEnd
0
BLOCK
5
11D
100
AcDbEntity
8
0
100
AcDbBlockBegin
2
DimnDraft3D2
70
0
10
0
20
0
30
0
3
DimnDraft3D2
0
MTEXT
5
112
100
AcDbEntity
8
2
62
256
6
ByLayer
370
13
48
1
60
0
100
AcDbMText
10
51.595706
20
-5.300658
30
0
210
0
220
0
230
1
1
\W0.6740;32
40
4.5
41
0
44
1.084337
50
90
71
7
72
5
7
iso_b_vert
0
LINE
5
114
100
AcDbEntity
8
2
62
256
6
ByLayer
370
13
48
1
60
0
100
AcDbLine
10
37.808206
20
-19.9125
30
0
11
55.895706
21
-19.9125
31
0
39
0
210
0
220
0
230
1
0
LINE
5
115
100
AcDbEntity
8
2
62
256
6
ByLayer
370
13
48
1
60
0
100
AcDbLine
10
1.5875
20
12.4375
30
0
11
55.895706
21
12.4375
31
0
39
0
210
0
220
0
230
1
0
LINE
5
116
100
AcDbEntity
8
2
62
256
6
ByLayer
370
13
48
1
60
0
100
AcDbLine
10
52.720706
20
-19.9125
30
0
11
52.720706
21
12.4375
31
0
39
0
210
0
220
0
230
1
0
LINE
5
117
100
AcDbEntity
8
2
62
256
6
ByLayer
370
13
48
1
60
0
100
AcDbLine
10
52.720706
20
-19.9125
30
0
11
51.869967
21
-16.737503
31
0
39
0
210
0
220
0
230
1
0
LINE
5
118
100
AcDbEntity
8
2
62
256
6
ByLayer
370
13
48
1
60
0
100
AcDbLine
10
52.720706
20
-19.9125
30
0
11
53.571444
21
-16.737497
31
0
39
0
210
0
220
0
230
1
0
LINE
5
119
100
AcDbEntity
8
2
62
256
6
ByLayer
370
13
48
1
60
0
100
AcDbLine
10
51.869967
20
-16.737503
30
0
11
53.571444
21
-16.737497
31
0
39
0
210
0
220
0
230
1
0
LINE
5
11A
100
AcDbEntity
8
2
62
256
6
ByLayer
370
13
48
1
60
0
100
AcDbLine
10
52.720706
20
12.4375
30
0
11
53.571444
21
9.262503
31
0
39
0
210
0
220
0
230
1
0
LINE
5
11B
100
AcDbEntity
8
2
62
256
6
ByLayer
370
13
48
1
60
0
100
AcDbLine
10
52.720706
20
12.4375
30
0
11
51.869967
21
9.262497
31
0
39
0
210
0
220
0
230
1
0
LINE
5
11C
100
AcDbEntity
8
2
62
256
6
ByLayer
370
13
48
1
60
0
100
AcDbLine
10
53.571444
20
9.262503
30
0
11
51.869967
21
9.262497
31
0
39
0
210
0
220
0
230
1
0
ENDBLK
5
11E
100
AcDbEntity
8
0
100
AcDbBlockEnd
0
BLOCK
5
12B
100
AcDbEntity
8
0
100
AcDbBlockBegin
2
DimnDraft3D3
70
0
10
0
20
0
30
0
3
DimnDraft3D3
0
MTEXT
5
121
100
AcDbEntity
8
SK2
62
256
6
ByLayer
370
13
48
1
60
0
100
AcDbMText
10
-52.136531
20
-45.2875
30
0
210
0
220
0
230
1
1
\W0.6217;170
40
4.5
41
0
44
1.084337
50
0
71
7
72
5
7
iso_b_vert
0
LINE
5
122
100
AcDbEntity
8
SK2
62
256
6
ByLayer
370
13
48
1
60
0
100
AcDbLine
10
-135.129294
20
-14.15
30
0
11
-135.129294
21
-49.5875
31
0
39
0
210
0
220
0
230
1
0
LINE
5
123
100
AcDbEntity
8
SK2
62
256
6
ByLayer
370
13
48
1
60
0
100
AcDbLine
10
36.220706
20
-21.5
30
0
11
36.220706
21
-49.5875
31
0
39
0
210
0
220
0
230
1
0
LINE
5
124
100
AcDbEntity
8
SK2
62
256
6
ByLayer
370
13
48
1
60
0
100
AcDbLine
10
-135.129294
20
-46.4125
30
0
11
36.220706
21
-46.4125
31
0
39
0
210
0
220
0
230
1
0
LINE
5
125
100
AcDbEntity
8
SK2
62
256
6
ByLayer
370
13
48
1
60
0
100
AcDbLine
10
-135.129294
20
-46.4125
30
0
11
-131.954298
21
-45.561761
31
0
39
0
210
0
220
0
230
1
0
LINE
5
126
100
AcDbEntity
8
SK2
62
256
6
ByLayer
370
13
48
1
60
0
100
AcDbLine
10
-135.129294
20
-46.4125
30
0
11
-131.954291
21
-47.263239
31
0
39
0
210
0
220
0
230
1
0
LINE
5
127
100
AcDbEntity
8
SK2
62
256
6
ByLayer
370
13
48
1
60
0
100
AcDbLine
10
-131.954298
20
-45.561761
30
0
11
-131.954291
21
-47.263239
31
0
39
0
210
0
220
0
230
1
0
LINE
5
128
100
AcDbEntity
8
SK2
62
256
6
ByLayer
370
13
48
1
60
0
100
AcDbLine
10
36.220706
20
-46.4125
30
0
11
33.045709
21
-47.263239
31
0
39
0
210
0
220
0
230
1
0
LINE
5
129
100
AcDbEntity
8
SK2
62
256
6
ByLayer
370
13
48
1
60
0
100
AcDbLine
10
36.220706
20
-46.4125
30
0
11
33.045702
21
-45.561761
31
0
39
0
210
0
220
0
230
1
0
LINE
5
12A
100
AcDbEntity
8
SK2
62
256
6
ByLayer
370
13
48
1
60
0
100
AcDbLine
10
33.045709
20
-47.263239
30
0
11
33.045702
21
-45.561761
31
0
39
0
210
0
220
0
230
1
0
ENDBLK
5
12C
100
AcDbEntity
8
0
100
AcDbBlockEnd
0
BLOCK
5
139
100
AcDbEntity
8
0
100
AcDbBlockBegin
2
DimnDraft3D4
70
0
10
0
20
0
30
0
3
DimnDraft3D4
0
MTEXT
5
12F
100
AcDbEntity
8
2
62
256
6
ByLayer
370
13
48
1
60
0
100
AcDbMText
10
17.720445
20
-29.972976
30
0
210
0
220
0
230
1
1
\W0.8292;93%%d0'
40
4.5
41
0
44
1.084337
50
313.5
71
7
72
5
7
iso_b_vert
0
LINE
5
130
100
AcDbEntity
8
2
62
256
6
ByLayer
370
13
48
1
60
0
100
AcDbLine
10
18.820646
20
-19.04329
30
0
11
11.639035
21
-18.666917
31
0
39
0
210
0
220
0
230
1
0
LINE
5
131
100
AcDbEntity
8
2
62
256
6
ByLayer
370
13
48
1
60
0
100
AcDbLine
10
36.220706
20
-21.5
30
0
11
36.220706
21
-44.570593
31
0
39
0
210
0
220
0
230
1
0
ARC
5
132
100
AcDbEntity
8
2
62
256
6
ByLayer
370
13
48
1
60
0
100
AcDbCircle
39
0
10
36.220706
20
-19.955188
30
0
40
21.4404046845569
210
0
220
0
230
1
100
AcDbArc
50
177
51
270
0
LINE
5
133
100
AcDbEntity
8
2
62
256
6
ByLayer
370
13
48
1
60
0
100
AcDbLine
10
14.809684
20
-18.833084
30
0
11
15.61141
21
-22.02081
31
0
39
0
210
0
220
0
230
1
0
LINE
5
134
100
AcDbEntity
8
2
62
256
6
ByLayer
370
13
48
1
60
0
100
AcDbLine
10
14.809684
20
-18.833084
30
0
11
13.910134
21
-21.994604
31
0
39
0
210
0
220
0
230
1
0
LINE
5
135
100
AcDbEntity
8
2
62
256
6
ByLayer
370
13
48
1
60
0
100
AcDbLine
10
15.61141
20
-22.02081
30
0
11
13.910134
21
-21.994604
31
0
39
0
210
0
220
0
230
1
0
LINE
5
136
100
AcDbEntity
8
2
62
256
6
ByLayer
370
13
48
1
60
0
100
AcDbLine
10
36.220706
20
-41.395593
30
0
11
33.016445
21
-42.128449
31
0
39
0
210
0
220
0
230
1
0
LINE
5
137
100
AcDbEntity
8
2
62
256
6
ByLayer
370
13
48
1
60
0
100
AcDbLine
10
36.220706
20
-41.395593
30
0
11
33.079301
21
-40.428133
31
0
39
0
210
0
220
0
230
1
0
LINE
5
138
100
AcDbEntity
8
2
62
256
6
ByLayer
370
13
48
1
60
0
100
AcDbLine
10
33.016445
20
-42.128449
30
0
11
33.079301
21
-40.428133
31
0
39
0
210
0
220
0
230
1
0
ENDBLK
5
13A
100
AcDbEntity
8
0
100
AcDbBlockEnd
0
ENDSEC
0
SECTION
2
ENTITIES
0
ARC
5
B4
100
AcDbEntity
8
1
62
256
6
ByLayer
370
18
48
1
60
0
100
AcDbCircle
39
0
10
0
20
-14.0375
30
0
40
1.59999999999888
210
0
220
0
230
-1
100
AcDbArc
50
90
51
165
0
ELLIPSE
5
B5
100
AcDbEntity
8
1
62
256
6
ByLayer
370
18
48
1
60
0
100
AcDbEllipse
10
16.326769
20
-4.646627
30
0
11
-1.75510285115551
21
-1.80142297580602
31
0
210
0
220
0
230
1
40
0.987534
41
2.8954630783133
42
-1.37698988262252
0
ELLIPSE
5
B6
100
AcDbEntity
8
1
62
256
6
ByLayer
370
18
48
1
60
0
100
AcDbEllipse
10
19.688706
20
-5.697232
30
0
11
0.0958602922510695
21
-0.155667897643203
31
0
210
0
220
0
230
-1
40
0.022144
41
1.68968892545883
42
-3.01106452656249
0
ELLIPSE
5
B7
100
AcDbEntity
8
1
62
256
6
ByLayer
370
18
48
1
60
0
100
AcDbEllipse
10
20.067498
20
-12.154504
30
0
11
1.81437945872593
21
1.86226399303465
31
0
210
0
220
0
230
1
40
0.987534
41
2.8954630783133
42
-3.04638445666685
0
ELLIPSE
5
B8
100
AcDbEntity
8
1
62
256
6
ByLayer
370
18
48
1
60
0
100
AcDbEllipse
10
15.739136
20
-5.150715
30
0
11
1.6853190258199
21
1.72979743761237
31
0
210
0
220
0
230
1
40
0.987534
41
1.45178563078525
42
2.89546307831331
0
ELLIPSE
5
B9
100
AcDbEntity
8
1
62
256
6
ByLayer
370
18
48
1
60
0
100
AcDbEllipse
10
18.446079
20
-9.505808
30
0
11
1.81437945872593
21
1.86226399303465
31
0
210
0
220
0
230
1
40
0.987534
41
2.55412530611387
42
2.89546307831329
0
ELLIPSE
5
BA
100
AcDbEntity
8
1
62
256
6
ByLayer
370
18
48
1
60
0
100
AcDbEllipse
10
0
20
12.444481
30
0
11
1.60000000000021
21
1.61702248813199E-15
31
0
210
0
220
0
230
-1
40
0.004363
41
0.261799387799406
42
1.5707963267949
0
ELLIPSE
5
BB
100
AcDbEntity
8
1
62
256
6
ByLayer
370
18
48
1
60
0
100
AcDbEllipse
10
9.466456
20
-10.711009
30
0
11
-1.08513848396878
21
-1.11377711891111
31
0
210
0
220
0
230
1
40
0.987534
41
0.247743085430095
42
2.33690243590824
0
ELLIPSE
5
BC
100
AcDbEntity
8
1
62
256
6
ByLayer
370
18
48
1
60
0
100
AcDbEllipse
10
9.466456
20
-10.711009
30
0
11
-1.08513848396878
21
-1.11377711891111
31
0
210
0
220
0
230
1
40
0.987534
41
2.33690243590824
42
2.9638466553106
0
ELLIPSE
5
BD
100
AcDbEntity
8
1
62
256
6
ByLayer
370
18
48
1
60
0
100
AcDbEllipse
10
9.5792
20
-10.820854
30
0
11
1.08513848396878
21
1.11377711891111
31
0
210
0
220
0
230
1
40
0.987534
41
-0.181680505350879
42
-0.0737472794630033
0
ELLIPSE
5
BE
100
AcDbEntity
8
1
62
256
6
ByLayer
370
18
48
1
60
0
100
AcDbEllipse
10
9.5792
20
-10.820854
30
0
11
1.08513848396878
21
1.11377711891111
31
0
210
0
220
0
230
1
40
0.987534
41
-2.94636527471823
42
-2.71913301295426
0
ELLIPSE
5
BF
100
AcDbEntity
8
1
62
256
6
ByLayer
370
18
48
1
60
0
100
AcDbEllipse
10
23.842442
20
-11.724715
30
0
11
1.93650115306326
21
1.98760868487353
31
0
210
0
220
0
230
1
40
0.987534
41
-2.67925806056246
42
-2.43425195986911
0
ELLIPSE
5
C0
100
AcDbEntity
8
1
62
256
6
ByLayer
370
18
48
1
60
0
100
AcDbEllipse
10
23.842442
20
-11.724715
30
0
11
1.93650115306326
21
1.98760868487353
31
0
210
0
220
0
230
1
40
0.987534
41
-0.679727183137274
42
-0.46236441822448
0
ELLIPSE
5
C1
100
AcDbEntity
8
1
62
256
6
ByLayer
370
18
48
1
60
0
100
AcDbEllipse
10
14.26535
20
-6.286612
30
0
11
-0.553909113601427
21
-0.568527709412023
31
0
210
0
220
0
230
1
40
0.987534
41
-2.4277911402694
42
-1.0853187633644
0
ELLIPSE
5
C2
100
AcDbEntity
8
1
62
256
6
ByLayer
370
18
48
1
60
0
100
AcDbEllipse
10
24.490721
20
-12.356324
30
0
11
1.7990270171521
21
1.84650637463205
31
0
210
0
220
0
230
1
40
0.987534
41
-2.94391853315694
42
-2.20289556048475
0
ELLIPSE
5
C3
100
AcDbEntity
8
1
62
256
6
ByLayer
370
18
48
1
60
0
100
AcDbEllipse
10
24.490721
20
-12.356324
30
0
11
1.7990270171521
21
1.84650637463205
31
0
210
0
220
0
230
1
40
0.987534
41
-0.601566798375094
42
-0.197675839593528
0
ELLIPSE
5
C4
100
AcDbEntity
8
1
62
256
6
ByLayer
370
18
48
1
60
0
100
AcDbEllipse
10
28.213601
20
-8.58131
30
0
11
-0.837405904027354
21
-0.859506458323688
31
0
210
0
220
0
230
1
40
0.987534
41
3.141588038998
42
-2.90775668456783
0
ELLIPSE
5
C5
100
AcDbEntity
8
1
62
256
6
ByLayer
370
18
48
1
60
0
100
AcDbEllipse
10
24.916246
20
-13.38499
30
0
11
-1.81437945872593
21
-1.86226399303466
31
0
210
0
220
0
230
1
40
0.987534
41
2.78339497029969
42
-1.6525422312773
0
ELLIPSE
5
C6
100
AcDbEntity
8
1
62
256
6
ByLayer
370
18
48
1
60
0
100
AcDbEllipse
10
24.989613
20
-12.842389
30
0
11
-1.6399198953869
21
-1.68320014755056
31
0
210
0
220
0
230
1
40
0.987534
41
-0.794962222969456
42
-0.556714993405894
0
ELLIPSE
5
C7
100
AcDbEntity
8
1
62
256
6
ByLayer
370
18
48
1
60
0
100
AcDbEllipse
10
24.329977
20
-12.813795
30
0
11
1.81437945872594
21
1.86226399303465
31
0
210
0
220
0
230
1
40
0.987534
41
7.05116825343151E-06
42
0.298114155585875
0
ELLIPSE
5
C8
100
AcDbEntity
8
1
62
256
6
ByLayer
370
18
48
1
60
0
100
AcDbEllipse
10
23.636684
20
-11.524248
30
0
11
-1.98883902206497
21
-2.04132783851876
31
0
210
0
220
0
230
1
40
0.987534
41
2.48103888311911
42
2.61091906064784
0
ELLIPSE
5
C9
100
AcDbEntity
8
1
62
256
6
ByLayer
370
18
48
1
60
0
100
AcDbEllipse
10
23.636684
20
-11.524248
30
0
11
-1.98883902206497
21
-2.04132783851876
31
0
210
0
220
0
230
1
40
0.987534
41
0.530653930870655
42
0.623699269360911
0
ELLIPSE
5
CA
100
AcDbEntity
8
1
62
256
6
ByLayer
370
18
48
1
60
0
100
AcDbEllipse
10
23.636684
20
-11.524248
30
0
11
-2.07012279951088
21
-2.12475683195636
31
0
210
0
220
0
230
1
40
0.987534
41
0.756042695605617
42
0.778848349807913
0
ELLIPSE
5
CB
100
AcDbEntity
8
1
62
256
6
ByLayer
370
18
48
1
60
0
100
AcDbEllipse
10
26.787763
20
-8.00749
30
0
11
0.837405904027356
21
0.859506458323687
31
0
210
0
220
0
230
1
40
0.987534
41
0.233835969021937
42
0.713801513320355
0
ELLIPSE
5
CC
100
AcDbEntity
8
1
62
256
6
ByLayer
370
18
48
1
60
0
100
AcDbEllipse
10
21.483766
20
-16.828855
30
0
11
0.837405904027356
21
0.859506458323687
31
0
210
0
220
0
230
1
40
0.987534
41
2.89546307831331
42
-2.90775668456785
0
ELLIPSE
5
CD
100
AcDbEntity
8
1
62
256
6
ByLayer
370
18
48
1
60
0
100
AcDbEllipse
10
35.432016
20
-19.123553
30
0
11
0.553909113601428
21
0.568527709412022
31
0
210
0
220
0
230
1
40
0.987534
41
-2.42779114026939
42
-0.246129575276502
0
ELLIPSE
5
CE
100
AcDbEntity
8
1
62
256
6
ByLayer
370
18
48
1
60
0
100
AcDbEllipse
10
23.625528
20
-18.100191
30
0
11
0.837405904027356
21
0.859506458323687
31
0
210
0
220
0
230
1
40
0.987534
41
-2.90775668456783
42
-2.42779114026941
0
ELLIPSE
5
CF
100
AcDbEntity
8
1
62
256
6
ByLayer
370
18
48
1
60
0
100
AcDbEllipse
10
25.206646
20
-13.053841
30
0
11
1.7990270171521
21
1.84650637463205
31
0
210
0
220
0
230
1
40
0.987534
41
0
42
6.28318530717959
0
ELLIPSE
5
D0
100
AcDbEntity
8
1
62
256
6
ByLayer
370
18
48
1
60
0
100
AcDbEllipse
10
14.981275
20
-6.984128
30
0
11
0.553909113601428
21
0.568527709412022
31
0
210
0
220
0
230
1
40
0.987534
41
0.713801513320405
42
2.89546307831332
0
ELLIPSE
5
D1
100
AcDbEntity
8
1
62
256
6
ByLayer
370
18
48
1
60
0
100
AcDbEllipse
10
28.929526
20
-9.278826
30
0
11
0.837405904027356
21
0.859506458323687
31
0
210
0
220
0
230
1
40
0.987534
41
-0.246129575276487
42
0.233835969021942
0
ELLIPSE
5
D2
100
AcDbEntity
8
1
62
256
6
ByLayer
370
18
48
1
60
0
100
AcDbEllipse
10
24.950069
20
-13.417943
30
0
11
1.6050279827191
21
1.64738737845373
31
0
210
0
220
0
230
1
40
0.987534
41
-0.345153482259607
42
1.63313016874083
0
ELLIPSE
5
D3
100
AcDbEntity
8
1
62
256
6
ByLayer
370
18
48
1
60
0
100
AcDbEllipse
10
25.023437
20
-12.875342
30
0
11
1.43056841938007
21
1.46832353296963
31
0
210
0
220
0
230
1
40
0.987534
41
-1.28236788391705
42
-0.571248083191512
0
ELLIPSE
5
D4
100
AcDbEntity
8
1
62
256
6
ByLayer
370
18
48
1
60
0
100
AcDbEllipse
10
25.096804
20
-12.332742
30
0
11
1.6050279827191
21
1.64738737845373
31
0
210
0
220
0
230
1
40
0.987534
41
2.79643917133019
42
-1.50846248484896
0
ELLIPSE
5
D5
100
AcDbEntity
8
1
62
256
6
ByLayer
370
18
48
1
60
0
100
AcDbEllipse
10
24.989613
20
-12.842389
30
0
11
-1.6399198953869
21
-1.68320014755056
31
0
210
0
220
0
230
1
40
0.987534
41
1.84469167988714
42
2.5848776601839
0
ELLIPSE
5
D6
100
AcDbEntity
8
1
62
256
6
ByLayer
370
18
48
1
60
0
100
AcDbEllipse
10
25.023437
20
-12.875342
30
0
11
1.43056841938007
21
1.46832353296963
31
0
210
0
220
0
230
1
40
0.987534
41
1.85922476967275
42
2.57034457039828
0
ELLIPSE
5
D7
100
AcDbEntity
8
1
62
256
6
ByLayer
370
18
48
1
60
0
100
AcDbEllipse
10
25.062981
20
-12.299788
30
0
11
-1.81437945872593
21
-1.86226399303466
31
0
210
0
220
0
230
1
40
0.987534
41
-0.358197683290084
42
1.64617436977134
0
ELLIPSE
5
D8
100
AcDbEntity
8
1
62
256
6
ByLayer
370
18
48
1
60
0
100
AcDbEllipse
10
10.030176
20
-11.260234
30
0
11
-1.34500711567854
21
-1.38050412214344
31
0
210
0
220
0
230
1
40
0.987534
41
0
42
6.28318530717959
0
ELLIPSE
5
D9
100
AcDbEntity
8
1
62
256
6
ByLayer
370
18
48
1
60
0
100
AcDbEllipse
10
9.5792
20
-10.820854
30
0
11
1.08513848396878
21
1.11377711891111
31
0
210
0
220
0
230
1
40
0.987534
41
-1.22887805654748
42
-0.624737910561078
0
ELLIPSE
5
DA
100
AcDbEntity
8
1
62
256
6
ByLayer
370
18
48
1
60
0
100
AcDbEllipse
10
10.005936
20
-11.236617
30
0
11
1.08513848396878
21
1.11377711891111
31
0
210
0
220
0
230
1
40
0.987534
41
1.46965719183212
42
1.91271459704231
0
ELLIPSE
5
DB
100
AcDbEntity
8
1
62
256
6
ByLayer
370
18
48
1
60
0
100
AcDbEllipse
10
10.030176
20
-11.260234
30
0
11
-2.25750674960707
21
-2.31708616056428
31
0
210
0
220
0
230
1
40
0.987534
41
0
42
6.28318530717959
0
ELLIPSE
5
DC
100
AcDbEntity
8
1
62
256
6
ByLayer
370
18
48
1
60
0
100
AcDbEllipse
10
9.943927
20
-11.176203
30
0
11
-2.79135301342451
21
-2.86502152774563
31
0
210
0
220
0
230
1
40
0.987534
41
0
42
6.28318530717959
0
ELLIPSE
5
DD
100
AcDbEntity
8
1
62
256
6
ByLayer
370
18
48
1
60
0
100
AcDbEllipse
10
9.5792
20
-10.820854
30
0
11
1.08513848396878
21
1.11377711891111
31
0
210
0
220
0
230
1
40
0.987534
41
-2.27607560774406
42
-1.67193546175767
0
ELLIPSE
5
DE
100
AcDbEntity
8
1
62
256
6
ByLayer
370
18
48
1
60
0
100
AcDbEllipse
10
10.005936
20
-11.236617
30
0
11
1.08513848396878
21
1.11377711891111
31
0
210
0
220
0
230
1
40
0.987534
41
-0.624737910561072
42
-0.181680505350887
0
ELLIPSE
5
DF
100
AcDbEntity
8
1
62
256
6
ByLayer
370
18
48
1
60
0
100
AcDbEllipse
10
10.005936
20
-11.236617
30
0
11
1.08513848396878
21
1.11377711891111
31
0
210
0
220
0
230
1
40
0.987534
41
0.422459640635494
42
0.865517045845728
0
ELLIPSE
5
E0
100
AcDbEntity
8
1
62
256
6
ByLayer
370
18
48
1
60
0
100
AcDbEllipse
10
10.005936
20
-11.236617
30
0
11
1.08513848396878
21
1.11377711891111
31
0
210
0
220
0
230
1
40
0.987534
41
-1.67193546175767
42
-1.22887805654748
0
ELLIPSE
5
E1
100
AcDbEntity
8
1
62
256
6
ByLayer
370
18
48
1
60
0
100
AcDbEllipse
10
10.005936
20
-11.236617
30
0
11
1.08513848396878
21
1.11377711891111
31
0
210
0
220
0
230
1
40
0.987534
41
2.51685474302872
42
2.95991214823891
0
ELLIPSE
5
E2
100
AcDbEntity
8
1
62
256
6
ByLayer
370
18
48
1
60
0
100
AcDbEllipse
10
10.005936
20
-11.236617
30
0
11
1.08513848396878
21
1.11377711891111
31
0
210
0
220
0
230
1
40
0.987534
41
-2.71913301295426
42
-2.27607560774407
0
POINT
5
6C
100
AcDbEntity
8
80
62
256
6
ByLayer
370
18
48
1
60
0
100
AcDbPoint
10
0
20
0
30
0
39
0
210
0
220
0
230
1
50
360
0
POINT
5
6E
100
AcDbEntity
8
81
62
256
6
ByLayer
370
18
48
1
60
0
100
AcDbPoint
10
34.870706
20
-19.5625
30
0
39
0
210
0
220
0
230
1
50
360
0
POINT
5
70
100
AcDbEntity
8
1
62
256
6
ByLayer
370
18
48
1
60
0
100
AcDbPoint
10
-135.129294
20
12.4375
30
0
39
0
210
0
220
0
230
1
50
360
0
SPLINE
5
E3
100
AcDbEntity
8
1
62
256
6
ByLayer
370
18
48
1
60
0
100
AcDbSpline
70
4
71
3
72
8
73
4
40
0
40
0
40
0
40
0
40
1
40
1
40
1
40
1
41
1
10
18.436164078771
20
-14.1786662887291
30
0
41
1
10
18.3820861137434
20
-14.1332898610893
30
0
41
1
10
18.3280074409518
20
-14.0879122775359
30
0
41
1
10
18.2739280668753
20
-14.0425335486491
30
0
0
SPLINE
5
E4
100
AcDbEntity
8
1
62
256
6
ByLayer
370
18
48
1
60
0
100
AcDbSpline
70
4
71
3
72
8
73
4
40
0
40
0
40
0
40
0
40
1
40
1
40
1
40
1
41
1
10
23.0020958965596
20
-11.7787275514344
30
0
41
1
10
23.0768328258621
20
-11.8320354520363
30
0
41
1
10
23.1515962788812
20
-11.8853351199032
30
0
41
1
10
23.2263955936178
20
-11.9386236227806
30
0
0
SPLINE
5
E5
100
AcDbEntity
8
1
62
256
6
ByLayer
370
18
48
1
60
0
100
AcDbSpline
70
4
71
3
72
16
73
12
40
0
40
0
40
0
40
0
40
0.0567521108674751
40
0.0567521108674751
40
0.286785770089437
40
0.286785770089437
40
0.746853088533364
40
0.746853088533364
40
0.976886747755326
40
0.976886747755326
40
1
40
1
40
1
40
1
41
1
10
26.5380424779805
20
-11.3527959946994
30
0
41
1
10
26.5325011803716
20
-11.3398811260033
30
0
41
1
10
26.5268425301051
20
-11.3269381109567
30
0
41
1
10
26.4976383579453
20
-11.261463322163
30
0
41
1
10
26.4721060271371
20
-11.2084327461043
30
0
41
1
10
26.3901334849723
20
-11.0517607841705
30
0
41
1
10
26.3286073979771
20
-10.9508735998467
30
0
41
1
10
26.2254199643166
20
-10.80601406438
30
0
41
1
10
26.1892077595927
20
-10.7587974024627
30
0
41
1
10
26.1472847466267
20
-10.7080951495232
30
0
41
1
10
26.1434366919905
20
-10.703476223496
30
0
41
1
10
26.1395690353717
20
-10.6988685478786
30
0
0
SPLINE
5
E6
100
AcDbEntity
8
1
62
256
6
ByLayer
370
18
48
1
60
0
100
AcDbSpline
70
4
71
3
72
12
73
8
40
0
40
0
40
0
40
0
40
0.349180272777639
40
0.349180272777639
40
0.892113573054252
40
0.892113573054252
40
1
40
1
40
1
40
1
41
1
10
22.7134960176168
20
-13.6159973873624
30
0
41
1
10
22.7340700268903
20
-13.642039133744
30
0
41
1
10
22.7549630816025
20
-13.6672516858755
30
0
41
1
10
22.8089155783347
20
-13.7294350151875
30
0
41
1
10
22.8422602158794
20
-13.7650992811484
30
0
41
1
10
22.8815432133629
20
-13.8043697686978
30
0
41
1
10
22.8880513817564
20
-13.8107783534883
30
0
41
1
10
22.8945410302854
20
-13.817078269334
30
0
0
SPLINE
5
E7
100
AcDbEntity
8
1
62
256
6
ByLayer
370
18
48
1
60
0
100
AcDbSpline
70
4
71
3
72
10
73
6
40
0
40
0
40
0
40
0
40
0.226396286336736
40
0.226396286336736
40
1
40
1
40
1
40
1
41
1
10
22.9979774725535
20
-14.2462149192405
30
0
41
1
10
23.046102422284
20
-14.2563435554443
30
0
41
1
10
23.0937879493931
20
-14.2664621975761
30
0
41
1
10
23.3025462255081
20
-14.311114042289
30
0
41
1
10
23.4595622204777
20
-14.3455549794982
30
0
41
1
10
23.60909616456
20
-14.3798257476016
30
0
0
SPLINE
5
E8
100
AcDbEntity
8
1
62
256
6
ByLayer
370
18
48
1
60
0
100
AcDbSpline
70
4
71
3
72
8
73
4
40
0
40
0
40
0
40
0
40
1
40
1
40
1
40
1
41
1
10
26.8204777884812
20
-13.8120611297037
30
0
41
1
10
26.8915247752129
20
-13.8567739273398
30
0
41
1
10
26.9625056607384
20
-13.9014944971965
30
0
41
1
10
27.0334420003184
20
-13.9462202776581
30
0
0
SPLINE
5
E9
100
AcDbEntity
8
1
62
256
6
ByLayer
370
18
48
1
60
0
100
AcDbSpline
70
4
71
3
72
8
73
4
40
0
40
0
40
0
40
0
40
1
40
1
40
1
40
1
41
1
10
27.2602136230616
20
-12.2690908952866
30
0
41
1
10
27.1771462719574
20
-12.3140821421103
30
0
41
1
10
27.0940379762771
20
-12.3590519649785
30
0
41
1
10
27.0108689369875
20
-12.4039899370175
30
0
0
SPLINE
5
EA
100
AcDbEntity
8
1
62
256
6
ByLayer
370
18
48
1
60
0
100
AcDbSpline
70
4
71
3
72
8
73
4
40
0
40
0
40
0
40
0
40
1
40
1
40
1
40
1
41
1
10
23.0360044451114
20
-13.3466948154669
30
0
41
1
10
22.9302954631766
20
-13.3696724161034
30
0
41
1
10
22.8246372628477
20
-13.3926721617196
30
0
41
1
10
22.7190133106496
20
-13.4156868070323
30
0
0
SPLINE
5
EB
100
AcDbEntity
8
1
62
256
6
ByLayer
370
18
48
1
60
0
100
AcDbSpline
70
4
71
3
72
10
73
6
40
0
40
0
40
0
40
0
40
0.5
40
0.5
40
1
40
1
40
1
40
1
41
1
10
11.7434946664817
20
-11.461179134707
30
0
41
1
10
11.7076043510787
20
-11.3781801721007
30
0
41
1
10
11.6715077710155
20
-11.2942712082667
30
0
41
1
10
11.5999812124149
20
-11.1268892098221
30
0
41
1
10
11.564521014502
20
-11.0433476095468
30
0
41
1
10
11.5294202383971
20
-10.9599831802953
30
0
0
SPLINE
5
EC
100
AcDbEntity
8
1
62
256
6
ByLayer
370
18
48
1
60
0
100
AcDbSpline
70
4
71
3
72
10
73
6
40
0
40
0
40
0
40
0
40
0.5
40
0.5
40
1
40
1
40
1
40
1
41
1
10
8.29398294024128
20
-11.037002132438
30
0
41
1
10
8.32416597919172
20
-11.114440570221
30
0
41
1
10
8.35511812737468
20
-11.1933373813392
30
0
41
1
10
8.41798276523679
20
-11.3522801836656
30
0
41
1
10
8.44991885458148
20
-11.4323882910417
30
0
41
1
10
8.4824523612549
20
-11.513251463254
30
0
0
SPLINE
5
ED
100
AcDbEntity
8
1
62
256
6
ByLayer
370
18
48
1
60
0
100
AcDbSpline
70
4
71
3
72
10
73
6
40
0
40
0
40
0
40
0
40
0.5
40
0.5
40
1
40
1
40
1
40
1
41
1
10
9.87188183112789
20
-9.69865797963212
30
0
41
1
10
9.78412391085817
20
-9.68896782837248
30
0
41
1
10
9.696632459081
20
-9.67973624290715
30
0
41
1
10
9.52560318082681
20
-9.66239689664371
30
0
41
1
10
9.44159162010084
20
-9.65423370930063
30
0
41
1
10
9.35872119633166
20
-9.64645504591257
30
0
0
SPLINE
5
EE
100
AcDbEntity
8
1
62
256
6
ByLayer
370
18
48
1
60
0
100
AcDbSpline
70
4
71
3
72
8
73
4
40
0
40
0
40
0
40
0
40
1
40
1
40
1
40
1
41
1
10
11.4060009491636
20
-11.8727522200055
30
0
41
1
10
11.519487276107
20
-11.7304882688258
30
0
41
1
10
11.6318354787286
20
-11.5940655692623
30
0
41
1
10
11.7434946664817
20
-11.461179134707
30
0
0
SPLINE
5
EF
100
AcDbEntity
8
1
62
256
6
ByLayer
370
18
48
1
60
0
100
AcDbSpline
70
4
71
3
72
10
73
6
40
0
40
0
40
0
40
0
40
0.5
40
0.5
40
1
40
1
40
1
40
1
41
1
10
11.0834770594519
20
-9.85854354704705
30
0
41
1
10
10.9946872591958
20
-9.84520671472697
30
0
41
1
10
10.9052938329373
20
-9.8320402948128
30
0
41
1
10
10.7249112299961
20
-9.80615795855455
30
0
41
1
10
10.6344917504299
20
-9.79352834867817
30
0
41
1
10
10.5447114175847
20
-9.78139398973175
30
0
0
SPLINE
5
F0
100
AcDbEntity
8
1
62
256
6
ByLayer
370
18
48
1
60
0
100
AcDbSpline
70
4
71
3
72
8
73
4
40
0
40
0
40
0
40
0
40
1
40
1
40
1
40
1
41
1
10
8.73992611918646
20
-12.1384417656863
30
0
41
1
10
8.81126652248793
20
-12.3078753983224
30
0
41
1
10
8.88262735193535
20
-12.4745820190199
30
0
41
1
10
8.95400054727111
20
-12.639637720098
30
0
0
SPLINE
5
F1
100
AcDbEntity
8
1
62
256
6
ByLayer
370
18
48
1
60
0
100
AcDbSpline
70
4
71
3
72
8
73
4
40
0
40
0
40
0
40
0
40
1
40
1
40
1
40
1
41
1
10
8.60587165048838
20
-10.6004824235438
30
0
41
1
10
8.4976031579335
20
-10.7478300425433
30
0
41
1
10
8.39429236546061
20
-10.8930577726477
30
0
41
1
10
8.29398294024128
20
-11.037002132438
30
0
0
SPLINE
5
F2
100
AcDbEntity
8
1
62
256
6
ByLayer
370
18
48
1
60
0
100
AcDbSpline
70
4
71
3
72
10
73
6
40
0
40
0
40
0
40
0
40
0.5
40
0.5
40
1
40
1
40
1
40
1
41
1
10
10.6787564103914
20
-12.8517262212325
30
0
41
1
10
10.7291974322916
20
-12.7793431865503
30
0
41
1
10
10.780706611473
20
-12.7062068628135
30
0
41
1
10
10.8847753715291
20
-12.5604173394179
30
0
41
1
10
10.9373750528997
20
-12.4877042211364
30
0
41
1
10
10.9906451206385
20
-12.4152065123382
30
0
0
SPLINE
5
F3
100
AcDbEntity
8
1
62
256
6
ByLayer
370
18
48
1
60
0
100
AcDbSpline
70
4
71
3
72
10
73
6
40
0
40
0
40
0
40
0
40
0.5
40
0.5
40
1
40
1
40
1
40
1
41
1
10
9.4671611820674
20
-12.6918406538175
30
0
41
1
10
9.37940326179762
20
-12.6821505025579
30
0
41
1
10
9.29191181002051
20
-12.6729189170926
30
0
41
1
10
9.12088253176626
20
-12.6555795708292
30
0
41
1
10
9.03687097104029
20
-12.6474163834861
30
0
41
1
10
8.95400054727111
20
-12.639637720098
30
0
0
SPLINE
5
F4
100
AcDbEntity
8
1
62
256
6
ByLayer
370
18
48
1
60
0
100
AcDbSpline
70
4
71
3
72
8
73
4
40
0
40
0
40
0
40
0
40
1
40
1
40
1
40
1
41
1
10
11.2719464804655
20
-10.334792877863
30
0
41
1
10
11.2058239115526
20
-10.1704429130467
30
0
41
1
10
11.1435004922538
20
-10.0125413228901
30
0
41
1
10
11.0834770594519
20
-9.85854354704705
30
0
0
SPLINE
5
F5
100
AcDbEntity
8
1
62
256
6
ByLayer
370
18
48
1
60
0
100
AcDbSpline
70
4
71
3
72
10
73
6
40
0
40
0
40
0
40
0
40
0.5
40
0.5
40
1
40
1
40
1
40
1
41
1
10
9.35872119633166
20
-9.64645504591257
30
0
41
1
10
9.30257289797879
20
-9.71327755577138
30
0
41
1
10
9.24591928691717
20
-9.78140172679238
30
0
41
1
10
9.13318860612259
20
-9.91875205406974
30
0
41
1
10
9.07706481618379
20
-9.98803167945209
30
0
41
1
10
9.02122747901353
20
-10.0580281312111
30
0
0
SPLINE
5
F6
100
AcDbEntity
8
1
62
256
6
ByLayer
370
18
48
1
60
0
100
AcDbSpline
70
4
71
3
72
10
73
6
40
0
40
0
40
0
40
0
40
0.5
40
0.5
40
1
40
1
40
1
40
1
41
1
10
10.6787564103914
20
-12.8517262212325
30
0
41
1
10
10.5899666101353
20
-12.8383893889124
30
0
41
1
10
10.5005731838768
20
-12.8252229689982
30
0
41
1
10
10.3201905809356
20
-12.79934063274
30
0
41
1
10
10.2297711013693
20
-12.7867110228636
30
0
41
1
10
10.1399907685241
20
-12.7745766639172
30
0
0
LINE
5
72
100
AcDbEntity
8
1
62
256
6
ByLayer
370
18
48
1
60
0
100
AcDbLine
10
26.730626
20
-11.522726
30
0
11
26.144356
21
-10.951531
31
0
39
0
210
0
220
0
230
1
0
LINE
5
73
100
AcDbEntity
8
1
62
256
6
ByLayer
370
18
48
1
60
0
100
AcDbLine
10
29.766932
20
-8.41932
30
0
11
29.051007
21
-7.721804
31
0
39
0
210
0
220
0
230
1
0
LINE
5
74
100
AcDbEntity
8
1
62
256
6
ByLayer
370
18
48
1
60
0
100
AcDbLine
10
22.892051
20
-13.81467
30
0
11
23.248601
21
-14.162052
31
0
39
0
210
0
220
0
230
1
0
LINE
5
75
100
AcDbEntity
8
1
62
256
6
ByLayer
370
18
48
1
60
0
100
AcDbLine
10
20.260387
20
-17.312313
30
0
11
20.64636
21
-17.688361
31
0
39
0
210
0
220
0
230
1
0
LINE
5
76
100
AcDbEntity
8
1
62
256
6
ByLayer
370
18
48
1
60
0
100
AcDbLine
10
12.73528
20
-8.311181
30
0
11
12.688316
21
-8.265424
31
0
39
0
210
0
220
0
230
1
0
LINE
5
77
100
AcDbEntity
8
1
62
256
6
ByLayer
370
18
48
1
60
0
100
AcDbLine
10
7.10561
20
-13.995467
30
0
11
7.152574
21
-14.041224
31
0
39
0
210
0
220
0
230
1
0
LINE
5
78
100
AcDbEntity
8
1
62
256
6
ByLayer
370
18
48
1
60
0
100
AcDbLine
10
27.429976
20
-6.809922
30
0
11
26.935155
21
-6.781821
31
0
39
0
210
0
220
0
230
1
0
LINE
5
79
100
AcDbEntity
8
1
62
256
6
ByLayer
370
18
48
1
60
0
100
AcDbLine
10
25.58131
20
-6.704933
30
0
11
20.351626
21
-6.40793
31
0
39
0
210
0
220
0
230
1
0
LINE
5
7A
100
AcDbEntity
8
1
62
256
6
ByLayer
370
18
48
1
60
0
100
AcDbLine
10
17.891202
20
-2.677764
30
0
11
18.462426
21
-3.321797
31
0
39
0
210
0
220
0
230
1
0
LINE
5
7B
100
AcDbEntity
8
1
62
256
6
ByLayer
370
18
48
1
60
0
100
AcDbLine
10
19.673913
20
-5.680876
30
0
11
19.7363
21
-5.78279
31
0
39
0
210
0
220
0
230
1
0
LINE
5
7C
100
AcDbEntity
8
1
62
256
6
ByLayer
370
18
48
1
60
0
100
AcDbLine
10
17.698833
20
-2.54026
30
0
11
19.682002
21
-5.779898
31
0
39
0
210
0
220
0
230
1
0
LINE
5
7D
100
AcDbEntity
8
1
62
256
6
ByLayer
370
18
48
1
60
0
100
AcDbLine
10
13.341943
20
-5.289464
30
0
11
13.652841
21
-5.797336
31
0
39
0
210
0
220
0
230
1
0
LINE
5
7E
100
AcDbEntity
8
1
62
256
6
ByLayer
370
18
48
1
60
0
100
AcDbLine
10
19.717349
20
-5.683342
30
0
11
19.673913
21
-5.680876
31
0
39
0
210
0
220
0
230
1
0
LINE
5
7F
100
AcDbEntity
8
1
62
256
6
ByLayer
370
18
48
1
60
0
100
AcDbLine
10
13.339526
20
-5.168952
30
0
11
13.694733
21
-5.749205
31
0
39
0
210
0
220
0
230
1
0
LINE
5
80
100
AcDbEntity
8
1
62
256
6
ByLayer
370
18
48
1
60
0
100
AcDbLine
10
19.493318
20
-5.770015
30
0
11
17.421775
21
-2.386011
31
0
39
0
210
0
220
0
230
1
0
LINE
5
81
100
AcDbEntity
8
1
62
256
6
ByLayer
370
18
48
1
60
0
100
AcDbLine
10
0
20
-12.4375
30
0
11
0
21
12.4375
31
0
39
0
210
0
220
0
230
1
0
LINE
5
82
100
AcDbEntity
8
1
62
256
6
ByLayer
370
18
48
1
60
0
100
AcDbLine
10
1.545481
20
-13.62339
30
0
11
2.281451
21
-16.370067
31
0
39
0
210
0
220
0
230
1
0
LINE
5
83
100
AcDbEntity
8
1
62
256
6
ByLayer
370
18
48
1
60
0
100
AcDbLine
10
1.545481
20
12.442674
30
0
11
1.545481
21
-13.62339
31
0
39
0
210
0
220
0
230
1
0
LINE
5
84
100
AcDbEntity
8
1
62
256
6
ByLayer
370
18
48
1
60
0
100
AcDbLine
10
1.545481
20
12.442674
30
0
11
3.129977
21
12.468477
31
0
39
0
210
0
220
0
230
1
0
LINE
5
85
100
AcDbEntity
8
1
62
256
6
ByLayer
370
18
48
1
60
0
100
AcDbLine
10
16.238292
20
-10.875382
30
0
11
17.859711
21
-13.524078
31
0
39
0
210
0
220
0
230
1
0
LINE
5
86
100
AcDbEntity
8
1
62
256
6
ByLayer
370
18
48
1
60
0
100
AcDbLine
10
13.688393
20
-6.422868
30
0
11
15.916584
21
-10.062766
31
0
39
0
210
0
220
0
230
1
0
LINE
5
87
100
AcDbEntity
8
1
62
256
6
ByLayer
370
18
48
1
60
0
100
AcDbLine
10
23.611393
20
-0.572014
30
0
11
27.429976
21
-6.809922
31
0
39
0
210
0
220
0
230
1
0
LINE
5
88
100
AcDbEntity
8
1
62
256
6
ByLayer
370
18
48
1
60
0
100
AcDbLine
10
23.611393
20
-0.572014
30
0
11
5.185398
21
12.467452
31
0
39
0
210
0
220
0
230
1
0
LINE
5
89
100
AcDbEntity
8
1
62
256
6
ByLayer
370
18
48
1
60
0
100
AcDbLine
10
20.357561
20
-17.317396
30
0
11
2.295951
21
-16.370827
31
0
39
0
210
0
220
0
230
1
0
LINE
5
8A
100
AcDbEntity
8
1
62
256
6
ByLayer
370
18
48
1
60
0
100
AcDbLine
10
2.295951
20
-16.370827
30
0
11
2.281451
21
-16.370067
31
0
39
0
210
0
220
0
230
1
0
LINE
5
8B
100
AcDbEntity
8
1
62
256
6
ByLayer
370
18
48
1
60
0
100
AcDbLine
10
18.462426
20
-3.321797
30
0
11
20.351626
21
-6.40793
31
0
39
0
210
0
220
0
230
1
0
LINE
5
8C
100
AcDbEntity
8
1
62
256
6
ByLayer
370
18
48
1
60
0
100
AcDbLine
10
2.295951
20
-16.370827
30
0
11
3.129977
21
12.468477
31
0
39
0
210
0
220
0
230
1
0
LINE
5
8D
100
AcDbEntity
8
1
62
256
6
ByLayer
370
18
48
1
60
0
100
AcDbLine
10
18.436164
20
-14.178666
30
0
11
20.357561
21
-17.317396
31
0
39
0
210
0
220
0
230
1
0
LINE
5
8E
100
AcDbEntity
8
1
62
256
6
ByLayer
370
18
48
1
60
0
100
AcDbLine
10
5.185398
20
12.467452
30
0
11
3.129977
21
12.468477
31
0
39
0
210
0
220
0
230
1
0
LINE
5
8F
100
AcDbEntity
8
1
62
256
6
ByLayer
370
18
48
1
60
0
100
AcDbLine
10
20.351626
20
-6.40793
30
0
11
19.59411
21
-5.542612
31
0
39
0
210
0
220
0
230
1
0
LINE
5
90
100
AcDbEntity
8
SK1
62
256
6
ByLayer
370
18
48
1
60
0
100
AcDbLine
10
-135.129294
20
12.4375
30
0
11
-135.129294
21
-12.4375
31
0
39
0
210
0
220
0
230
1
0
LINE
5
92
100
AcDbEntity
8
SK1
62
256
6
ByLayer
370
18
48
1
60
0
100
AcDbLine
10
0
20
-12.4375
30
0
11
0
21
12.4375
31
0
39
0
210
0
220
0
230
1
0
LINE
5
93
100
AcDbEntity
8
SK1
62
256
6
ByLayer
370
18
48
1
60
0
100
AcDbLine
10
-135.129294
20
-12.4375
30
0
11
0
21
-12.4375
31
0
39
0
210
0
220
0
230
1
0
LINE
5
94
100
AcDbEntity
8
SK1
62
256
6
ByLayer
370
18
48
1
60
0
100
AcDbLine
10
-135.129294
20
12.4375
30
0
11
0
21
12.4375
31
0
39
0
210
0
220
0
230
1
0
LINE
5
95
100
AcDbEntity
8
1
62
256
6
ByLayer
370
18
48
1
60
0
100
AcDbLine
10
10.803402
20
-9.817512
30
0
11
10.84521
21
-9.919029
31
0
39
0
210
0
220
0
230
1
0
LINE
5
96
100
AcDbEntity
8
1
62
256
6
ByLayer
370
18
48
1
60
0
100
AcDbLine
10
8.785308
20
-12.244706
30
0
11
9.040425
21
-12.276077
31
0
39
0
210
0
220
0
230
1
0
LINE
5
97
100
AcDbEntity
8
1
62
256
6
ByLayer
370
18
48
1
60
0
100
AcDbLine
10
14.316457
20
-5.498744
30
0
11
19.807728
21
-5.786529
31
0
39
0
210
0
220
0
230
1
0
LINE
5
98
100
AcDbEntity
8
1
62
256
6
ByLayer
370
18
48
1
60
0
100
AcDbLine
10
26.865027
20
-6.816383
30
0
11
26.817104
21
-6.769693
31
0
39
0
210
0
220
0
230
1
0
LINE
5
99
100
AcDbEntity
8
1
62
256
6
ByLayer
370
18
48
1
60
0
100
AcDbLine
10
14.307263
20
-7.402243
30
0
11
14.259341
21
-7.355553
31
0
39
0
210
0
220
0
230
1
0
LINE
5
9A
100
AcDbEntity
8
1
62
256
6
ByLayer
370
18
48
1
60
0
100
AcDbLine
10
20.315136
20
-17.315164
30
0
11
20.464787
21
-17.460966
31
0
39
0
210
0
220
0
230
1
0
LINE
5
9B
100
AcDbEntity
8
1
62
256
6
ByLayer
370
18
48
1
60
0
100
AcDbLine
10
27.219083
20
-6.797935
30
0
11
27.405705
21
-6.979758
31
0
39
0
210
0
220
0
230
1
0
LINE
5
9C
100
AcDbEntity
8
1
62
256
6
ByLayer
370
18
48
1
60
0
100
AcDbLine
10
27.345092
20
-6.671231
30
0
11
28.831543
21
-7.553578
31
0
39
0
210
0
220
0
230
1
0
LINE
5
9D
100
AcDbEntity
8
1
62
256
6
ByLayer
370
18
48
1
60
0
100
AcDbLine
10
22.659554
20
-13.357757
30
0
11
22.719013
21
-13.415687
31
0
39
0
210
0
220
0
230
1
0
LINE
5
9E
100
AcDbEntity
8
80
62
256
6
ByLayer
370
18
48
1
60
0
100
AcDbLine
10
0
20
0
30
0
11
-5
21
0
31
0
39
0
210
0
220
0
230
1
0
LINE
5
9F
100
AcDbEntity
8
81
62
256
6
ByLayer
370
18
48
1
60
0
100
AcDbLine
10
34.870706
20
-19.5625
30
0
11
44.870706
21
-19.5625
31
0
39
0
210
0
220
0
230
1
0
LINE
5
A0
100
AcDbEntity
8
1
62
256
6
ByLayer
370
18
48
1
60
0
100
AcDbLine
10
35.38091
20
-19.911421
30
0
11
23.548265
21
-19.291298
31
0
39
0
210
0
220
0
230
1
0
LINE
5
A1
100
AcDbEntity
8
1
62
256
6
ByLayer
370
18
48
1
60
0
100
AcDbLine
10
29.948505
20
-8.646715
30
0
11
36.106028
21
-18.705438
31
0
39
0
210
0
220
0
230
1
0
LINE
5
A2
100
AcDbEntity
8
1
62
256
6
ByLayer
370
18
48
1
60
0
100
AcDbLine
10
27.405705
20
-6.979758
30
0
11
29.547467
21
-8.251094
31
0
39
0
210
0
220
0
230
1
0
LINE
5
A3
100
AcDbEntity
8
1
62
256
6
ByLayer
370
18
48
1
60
0
100
AcDbLine
10
29.547467
20
-8.251094
30
0
11
28.831543
21
-7.553578
31
0
39
0
210
0
220
0
230
1
0
LINE
5
A4
100
AcDbEntity
8
1
62
256
6
ByLayer
370
18
48
1
60
0
100
AcDbLine
10
23.007587
20
-19.127923
30
0
11
20.865824
21
-17.856587
31
0
39
0
210
0
220
0
230
1
0
LINE
5
A5
100
AcDbEntity
8
1
62
256
6
ByLayer
370
18
48
1
60
0
100
AcDbLine
10
14.316457
20
-5.498744
30
0
11
15.032382
21
-6.19626
31
0
39
0
210
0
220
0
230
1
0
LINE
5
A6
100
AcDbEntity
8
1
62
256
6
ByLayer
370
18
48
1
60
0
100
AcDbLine
10
20.464787
20
-17.460966
30
0
11
14.307263
21
-7.402243
31
0
39
0
210
0
220
0
230
1
0
LINE
5
A7
100
AcDbEntity
8
1
62
256
6
ByLayer
370
18
48
1
60
0
100
AcDbLine
10
15.032382
20
-6.19626
30
0
11
26.865027
21
-6.816383
31
0
39
0
210
0
220
0
230
1
0
LINE
5
A8
100
AcDbEntity
8
1
62
256
6
ByLayer
370
18
48
1
60
0
100
AcDbLine
10
11.271946
20
-10.334793
30
0
11
10.84521
21
-9.919029
31
0
39
0
210
0
220
0
230
1
0
LINE
5
A9
100
AcDbEntity
8
1
62
256
6
ByLayer
370
18
48
1
60
0
100
AcDbLine
10
11.102684
20
-10.54422
30
0
11
11.52942
21
-10.959983
31
0
39
0
210
0
220
0
230
1
0
LINE
5
AA
100
AcDbEntity
8
1
62
256
6
ByLayer
370
18
48
1
60
0
100
AcDbLine
10
11.743495
20
-11.461179
30
0
11
11.303956
21
-11.032942
31
0
39
0
210
0
220
0
230
1
0
LINE
5
AB
100
AcDbEntity
8
1
62
256
6
ByLayer
370
18
48
1
60
0
100
AcDbLine
10
9.713254
20
-12.358813
30
0
11
10.139991
21
-12.774577
31
0
39
0
210
0
220
0
230
1
0
LINE
5
AC
100
AcDbEntity
8
1
62
256
6
ByLayer
370
18
48
1
60
0
100
AcDbLine
10
9.467161
20
-12.691841
30
0
11
9.040425
21
-12.276077
31
0
39
0
210
0
220
0
230
1
0
LINE
5
AD
100
AcDbEntity
8
1
62
256
6
ByLayer
370
18
48
1
60
0
100
AcDbLine
10
11.406001
20
-11.872752
30
0
11
10.979265
21
-11.456989
31
0
39
0
210
0
220
0
230
1
0
LINE
5
AE
100
AcDbEntity
8
1
62
256
6
ByLayer
370
18
48
1
60
0
100
AcDbLine
10
10.563909
20
-11.999443
30
0
11
10.990645
21
-12.415207
31
0
39
0
210
0
220
0
230
1
0
LINE
5
AF
100
AcDbEntity
8
1
62
256
6
ByLayer
370
18
48
1
60
0
100
AcDbLine
10
9.713254
20
-12.358813
30
0
11
10.239218
21
-12.423489
31
0
39
0
210
0
220
0
230
1
0
LINE
5
B0
100
AcDbEntity
8
1
62
256
6
ByLayer
370
18
48
1
60
0
100
AcDbLine
10
10.678756
20
-12.851726
30
0
11
10.239218
21
-12.423489
31
0
39
0
210
0
220
0
230
1
0
LINE
5
B1
100
AcDbEntity
8
1
62
256
6
ByLayer
370
18
48
1
60
0
100
AcDbLine
10
11.102684
20
-10.54422
30
0
11
11.303956
21
-11.032942
31
0
39
0
210
0
220
0
230
1
0
LINE
5
B2
100
AcDbEntity
8
1
62
256
6
ByLayer
370
18
48
1
60
0
100
AcDbLine
10
11.303956
20
-11.032942
30
0
11
10.979265
21
-11.456989
31
0
39
0
210
0
220
0
230
1
0
LINE
5
B3
100
AcDbEntity
8
1
62
256
6
ByLayer
370
18
48
1
60
0
100
AcDbLine
10
10.563909
20
-11.999443
30
0
11
10.239218
21
-12.423489
31
0
39
0
210
0
220
0
230
1
0
MTEXT
5
F7
100
AcDbEntity
8
SK6
62
256
6
ByLayer
370
13
48
1
60
0
100
AcDbMText
10
-105.213092
20
21.423222
30
0
210
0
220
0
230
1
1
\W0.7522;PDJNL 3225P 15
40
3.5
41
0
44
1.084337
50
0
71
7
72
5
7
iso_b_vert
0
DIMENSION
5
109
100
AcDbEntity
8
SK2
62
256
6
ByLayer
370
13
48
1
60
0
100
AcDbDimension
2
DimnDraft3D1
10
-144.879294
20
12.4375
30
0
11
-144.879294
21
-0.0625
31
0
70
32
71
5
72
1
41
1
210
0
220
0
230
1
3
Standard
100
AcDbAlignedDimension
13
-136.716794
23
-12.5625
33
0
14
-136.716794
24
12.4375
34
0
50
90
100
AcDbRotatedDimension
1001
ACAD
1000
DSTYLE
1002
{
1070
    74
1070
     0
1070
   279
1070
     0
1070
   172
1070
     1
1070
   173
1070
     1
1070
   340
1005
F8
1070
   271
1070
     1
1070
   272
1070
     2
1070
    77
1070
     1
1070
    73
1070
     0
1070
   171
1070
     3
1070
   274
1070
     4
1070
   177
1070
   150
1070
   176
1070
     9
1070
   178
1070
    43
1070
    78
1070
     8
1070
    48
1040
-0.005
1070
    41
1041
3.175
1070
   147
1041
2.25
1070
    42
1041
1.5875
1070
    44
1041
3.175
1070
   140
1041
4.5
1070
   343
1005
10A
1070
   344
1005
10A
1002
}
0
DIMENSION
5
11F
100
AcDbEntity
8
2
62
256
6
ByLayer
370
13
48
1
60
0
100
AcDbDimension
2
DimnDraft3D2
10
52.720706
20
12.4375
30
0
11
52.720706
21
-3.7375
31
0
70
32
71
5
72
1
41
1
210
0
220
0
230
1
3
Standard
100
AcDbAlignedDimension
13
37.808206
23
-19.9125
33
0
14
1.5875
24
12.4375
34
0
50
90
100
AcDbRotatedDimension
1001
ACAD
1000
DSTYLE
1002
{
1070
    74
1070
     0
1070
   279
1070
     0
1070
   172
1070
     1
1070
   173
1070
     1
1070
   340
1005
F8
1070
   271
1070
     1
1070
   272
1070
     2
1070
    77
1070
     1
1070
    73
1070
     0
1070
   171
1070
     3
1070
   274
1070
     4
1070
   177
1070
   150
1070
   176
1070
     9
1070
   178
1070
    43
1070
    78
1070
     8
1070
    48
1040
-0.005
1070
    41
1041
3.175
1070
   147
1041
2.25
1070
    42
1041
1.5875
1070
    44
1041
3.175
1070
   140
1041
4.5
1070
   343
1005
10A
1070
   344
1005
10A
1002
}
0
DIMENSION
5
12D
100
AcDbEntity
8
SK2
62
256
6
ByLayer
370
13
48
1
60
0
100
AcDbDimension
2
DimnDraft3D3
10
36.220706
20
-46.4125
30
0
11
-49.454294
21
-46.4125
31
0
70
32
71
5
72
1
41
1
210
0
220
0
230
1
3
Standard
100
AcDbAlignedDimension
13
-135.129294
23
-14.15
33
0
14
36.220706
24
-21.5
34
0
50
0
100
AcDbRotatedDimension
1001
ACAD
1000
DSTYLE
1002
{
1070
   279
1070
     0
1070
   172
1070
     1
1070
   173
1070
     1
1070
   340
1005
F8
1070
   271
1070
     1
1070
   272
1070
     2
1070
    77
1070
     1
1070
    73
1070
     0
1070
   171
1070
     3
1070
   274
1070
     4
1070
   177
1070
   150
1070
   176
1070
     9
1070
   178
1070
    43
1070
    78
1070
     8
1070
    48
1040
-0.005
1070
    41
1041
3.175
1070
   147
1041
2.25
1070
    42
1041
1.5875
1070
    44
1041
3.175
1070
   140
1041
4.5
1070
   343
1005
10A
1070
   344
1005
10A
1002
}
0
DIMENSION
5
13B
100
AcDbEntity
8
2
62
256
6
ByLayer
370
13
48
1
60
0
100
AcDbDimension
2
DimnDraft3D4
10
36.220706
20
-18.325
30
0
11
23.93257
21
-31.616193
31
0
70
34
71
5
72
1
41
1
210
0
220
0
230
1
3
Standard
100
AcDb2LineAngularDimension
13
35.385414
23
-19.911412
33
0
14
20.405971
24
-19.126373
34
0
15
36.220706
25
-19.9125
35
0
16
20.668385
26
-34.713789
36
0
40
0
0
ENDSEC
0
SECTION
2
OBJECTS
0
DICTIONARY
5
1a5
330
0
100
AcDbDictionary
280
0
281
1
3
ACAD_GROUP
350
1a6
3
ACAD_MLINESTYLE
350
1a7
0
DICTIONARY
5
1a6
330
0
100
AcDbDictionary
280
0
281
1
0
DICTIONARY
5
1a7
330
0
100
AcDbDictionary
280
0
281
1
3
Standard
350
18
0
MLINESTYLE
5
18
330
1a7
100
AcDbMlineStyle
2
Standard
70
0
3

62
256
51
90
52
90
71
2
49
-0.5
62
256
6
ByLayer
49
0.5
62
256
6
ByLayer
0
RASTERVARIABLES
5
194
330

100
AcDbRasterVariables
90
0
70
1
71
1
72
1
0
ENDSEC
0
EOF
