0
SECTION
2
HEADER
9
$ACADVER
1
AC1015
9
$DWGCODEPAGE
3
ANSI_1252
9
$HANDSEED
5
1b0
9
$ANGBASE
50
0
9
$ANGDIR
70
0
9
$ATTMODE
70
1
9
$AUNITS
70
0
9
$AUPREC
70
0
9
$CECOLOR
62
256
9
$CELTSCALE
40
1
9
$CELTYPE
6
ByLayer
9
$CELWEIGHT
370
18
9
$CLAYER
8
0
9
$CMLJUST
70
0
9
$CMLSCALE
40
1
9
$CMLSTYLE
2
Standard
9
$DIMSTYLE
2
Standard
9
$TEXTSIZE
40
0.2
9
$TEXTSTYLE
7
Standard
9
$LUNITS
70
2
9
$LUPREC
70
4
9
$EXTNAMES
290
1
9
$INSUNITS
70
4
9
$LTSCALE
40
1
9
$LWDISPLAY
290
1
9
$PDMODE
70
0
9
$PDSIZE
40
0
9
$PLINEGEN
70
0
0
ENDSEC
0
SECTION
2
CLASSES
0
CLASS
1
RASTERVARIABLES
2
AcDbRasterVariables
3
ISM
90
0
280
0
281
0
0
ENDSEC
0
SECTION
2
TABLES
0
TABLE
2
VPORT
5
1a6
100
AcDbSymbolTable
0
VPORT
5
1
100
AcDbSymbolTableRecord
100
AcDbViewportTableRecord
2
*Active
70
0
10
0
20
0
11
1
21
1
12
-1
22
1
13
0
23
0
14
0.5
24
0.5
15
10
25
10
16
0
26
0
36
1
17
0
27
0
37
0
0
ENDTAB
0
TABLE
2
LTYPE
5
1a7
100
AcDbSymbolTable
0
LTYPE
5
14
100
AcDbSymbolTableRecord
100
AcDbLinetypeTableRecord
70
0
2
ByBlock
3

72
65
73
0
40
0
0
LTYPE
5
15
100
AcDbSymbolTableRecord
100
AcDbLinetypeTableRecord
70
0
2
ByLayer
3

72
65
73
0
40
0
0
LTYPE
5
16
100
AcDbSymbolTableRecord
100
AcDbLinetypeTableRecord
70
0
2
CONTINUOUS
3
Solid line
72
65
73
0
40
0
0
LTYPE
5
6A
100
AcDbSymbolTableRecord
100
AcDbLinetypeTableRecord
70
0
2
CENTER
3
____ _ ____ _ ____ _ ____
72
65
73
4
40
47.5
49
22
74
0
49
-8.5
74
0
49
8.5
74
0
49
-8.5
74
0
0
LTYPE
5
6B
100
AcDbSymbolTableRecord
100
AcDbLinetypeTableRecord
70
0
2
DASHED
3
__ __ __ __ __ __ __ __ __
72
65
73
2
40
25.72
49
12.86
74
0
49
-12.86
74
0
0
ENDTAB
0
TABLE
2
LAYER
5
1a8
100
AcDbSymbolTable
0
LAYER
5
10
100
AcDbSymbolTableRecord
100
AcDbLayerTableRecord
2
0
70
0
62
7
6
CONTINUOUS
290
1
370
-3
390
0
0
LAYER
5
6D
100
AcDbSymbolTableRecord
100
AcDbLayerTableRecord
2
80
70
0
62
-6
6
CONTINUOUS
290
1
370
-3
390
0
0
LAYER
5
6F
100
AcDbSymbolTableRecord
100
AcDbLayerTableRecord
2
81
70
0
62
-3
6
CONTINUOUS
290
1
370
-3
390
0
0
LAYER
5
71
100
AcDbSymbolTableRecord
100
AcDbLayerTableRecord
2
1
70
0
62
4
6
CONTINUOUS
290
1
370
-3
390
0
0
LAYER
5
111
100
AcDbSymbolTableRecord
100
AcDbLayerTableRecord
2
2
70
0
62
7
6
CONTINUOUS
290
1
370
-3
390
0
0
LAYER
5
193
100
AcDbSymbolTableRecord
100
AcDbLayerTableRecord
2
SK1
70
0
62
4
6
CONTINUOUS
290
1
370
-3
390
0
0
LAYER
5
194
100
AcDbSymbolTableRecord
100
AcDbLayerTableRecord
2
SK6
70
0
62
5
6
CONTINUOUS
290
1
370
-3
390
0
0
LAYER
5
195
100
AcDbSymbolTableRecord
100
AcDbLayerTableRecord
2
SK2
70
0
62
7
6
CONTINUOUS
290
1
370
-3
390
0
0
ENDTAB
0
TABLE
2
STYLE
5
1a9
100
AcDbSymbolTable
0
STYLE
5
11
100
AcDbSymbolTableRecord
100
AcDbTextStyleTableRecord
2
Standard
3
txt
70
0
71
0
40
0
41
1
42
0
50
0
0
STYLE
5
F6
100
AcDbSymbolTableRecord
100
AcDbTextStyleTableRecord
2
iso_b_vert
3
simplex.shx
70
0
71
0
40
0
41
1
42
0
50
0
0
STYLE
5
F7
100
AcDbSymbolTableRecord
100
AcDbTextStyleTableRecord
2
DWGDirectTextStyle
3
simplex
70
0
71
0
40
0
41
1
42
0
50
0
0
ENDTAB
0
TABLE
2
DIMSTYLE
5
1aa
100
AcDbSymbolTable
100
AcDbDimStyleTable
0
DIMSTYLE
105
27
100
AcDbSymbolTableRecord
100
AcDbDimStyleTableRecord
2
Standard
70
0
3
<>
41
0.18
42
0.0625
44
0.18
140
0.18
147
0.09
73
0
74
0
77
1
271
2
275
0
278
52
280
0
340
11
0
ENDTAB
0
TABLE
2
VIEW
5
1ab
100
AcDbSymbolTable
0
ENDTAB
0
TABLE
2
UCS
5
1ac
100
AcDbSymbolTable
0
ENDTAB
0
TABLE
2
APPID
5
1ad
100
AcDbSymbolTable
0
APPID
5
12
100
AcDbSymbolTableRecord
100
AcDbRegAppTableRecord
2
ACAD
70
0
0
ENDTAB
0
TABLE
2
BLOCK_RECORD
5
1ae
100
AcDbSymbolTable
0
BLOCK_RECORD
5
1F
100
AcDbSymbolTableRecord
100
AcDbBlockTableRecord
2
*Model_Space
340
0
70
0
0
BLOCK_RECORD
5
1B
100
AcDbSymbolTableRecord
100
AcDbBlockTableRecord
2
*Paper_Space
340
0
70
0
0
BLOCK_RECORD
5
23
100
AcDbSymbolTableRecord
100
AcDbBlockTableRecord
2
*Paper_Space0
340
0
70
0
0
BLOCK_RECORD
5
F9
100
AcDbSymbolTableRecord
100
AcDbBlockTableRecord
2
DimnDraft3D1
340
0
70
0
0
BLOCK_RECORD
5
108
100
AcDbSymbolTableRecord
100
AcDbBlockTableRecord
2
_CLOSED
340
0
70
0
0
BLOCK_RECORD
5
10F
100
AcDbSymbolTableRecord
100
AcDbBlockTableRecord
2
DimnDraft3D2
340
0
70
0
0
BLOCK_RECORD
5
11E
100
AcDbSymbolTableRecord
100
AcDbBlockTableRecord
2
DimnDraft3D3
340
0
70
0
0
BLOCK_RECORD
5
12C
100
AcDbSymbolTableRecord
100
AcDbBlockTableRecord
2
DimnDraft3D4
340
0
70
0
0
ENDTAB
0
ENDSEC
0
SECTION
2
BLOCKS
0
BLOCK
5
20
100
AcDbEntity
8
0
100
AcDbBlockBegin
2
*Model_Space
70
0
10
0
20
0
30
0
3
*Model_Space
0
ENDBLK
5
21
100
AcDbEntity
8
0
100
AcDbBlockEnd
0
BLOCK
5
1C
100
AcDbEntity
8
0
100
AcDbBlockBegin
2
*Paper_Space
70
0
10
0
20
0
30
0
3
*Paper_Space
0
ENDBLK
5
1D
100
AcDbEntity
8
0
100
AcDbBlockEnd
0
BLOCK
5
24
100
AcDbEntity
8
0
100
AcDbBlockBegin
2
*Paper_Space0
70
0
10
0
20
0
30
0
3
*Paper_Space0
0
ENDBLK
5
25
100
AcDbEntity
8
0
100
AcDbBlockEnd
0
BLOCK
5
105
100
AcDbEntity
8
0
100
AcDbBlockBegin
2
DimnDraft3D1
70
0
10
0
20
0
30
0
3
DimnDraft3D1
0
MTEXT
5
FA
100
AcDbEntity
8
SK2
62
256
6
ByLayer
370
13
48
1
60
0
100
AcDbMText
10
-132.488028
20
-1.625658
30
0
210
0
220
0
230
1
1
\W0.6740;25
40
4.5
41
0
44
1.084337
50
90
71
7
72
5
7
iso_b_vert
0
LINE
5
FC
100
AcDbEntity
8
SK2
62
256
6
ByLayer
370
13
48
1
60
0
100
AcDbLine
10
-123.200528
20
-12.5625
30
0
11
-134.538028
21
-12.5625
31
0
39
0
210
0
220
0
230
1
0
LINE
5
FD
100
AcDbEntity
8
SK2
62
256
6
ByLayer
370
13
48
1
60
0
100
AcDbLine
10
-123.200528
20
12.4375
30
0
11
-134.538028
21
12.4375
31
0
39
0
210
0
220
0
230
1
0
LINE
5
FE
100
AcDbEntity
8
SK2
62
256
6
ByLayer
370
13
48
1
60
0
100
AcDbLine
10
-131.363028
20
-12.5625
30
0
11
-131.363028
21
12.4375
31
0
39
0
210
0
220
0
230
1
0
LINE
5
FF
100
AcDbEntity
8
SK2
62
256
6
ByLayer
370
13
48
1
60
0
100
AcDbLine
10
-131.363028
20
-12.5625
30
0
11
-132.213767
21
-9.387503
31
0
39
0
210
0
220
0
230
1
0
LINE
5
100
100
AcDbEntity
8
SK2
62
256
6
ByLayer
370
13
48
1
60
0
100
AcDbLine
10
-131.363028
20
-12.5625
30
0
11
-130.512289
21
-9.387497
31
0
39
0
210
0
220
0
230
1
0
LINE
5
101
100
AcDbEntity
8
SK2
62
256
6
ByLayer
370
13
48
1
60
0
100
AcDbLine
10
-132.213767
20
-9.387503
30
0
11
-130.512289
21
-9.387497
31
0
39
0
210
0
220
0
230
1
0
LINE
5
102
100
AcDbEntity
8
SK2
62
256
6
ByLayer
370
13
48
1
60
0
100
AcDbLine
10
-131.363028
20
12.4375
30
0
11
-130.512289
21
9.262503
31
0
39
0
210
0
220
0
230
1
0
LINE
5
103
100
AcDbEntity
8
SK2
62
256
6
ByLayer
370
13
48
1
60
0
100
AcDbLine
10
-131.363028
20
12.4375
30
0
11
-132.213767
21
9.262497
31
0
39
0
210
0
220
0
230
1
0
LINE
5
104
100
AcDbEntity
8
SK2
62
256
6
ByLayer
370
13
48
1
60
0
100
AcDbLine
10
-130.512289
20
9.262503
30
0
11
-132.213767
21
9.262497
31
0
39
0
210
0
220
0
230
1
0
ENDBLK
5
106
100
AcDbEntity
8
0
100
AcDbBlockEnd
0
BLOCK
5
109
100
AcDbEntity
8
0
100
AcDbBlockBegin
2
_CLOSED
70
0
10
0
20
0
30
0
3
_CLOSED
0
LINE
5
10B
100
AcDbEntity
8
0
62
256
6
ByLayer
370
-2
48
1
60
0
100
AcDbLine
10
-1
20
0.166667
30
0
11
0
21
0
31
0
39
0
210
0
220
0
230
1
0
LINE
5
10C
100
AcDbEntity
8
0
62
256
6
ByLayer
370
-2
48
1
60
0
100
AcDbLine
10
0
20
0
30
0
11
-1
21
-0.166667
31
0
39
0
210
0
220
0
230
1
0
LINE
5
10D
100
AcDbEntity
8
0
62
256
6
ByLayer
370
-2
48
1
60
0
100
AcDbLine
10
-1
20
0.166667
30
0
11
-1
21
-0.166667
31
0
39
0
210
0
220
0
230
1
0
LINE
5
10E
100
AcDbEntity
8
0
62
256
6
ByLayer
370
-2
48
1
60
0
100
AcDbLine
10
0
20
0
30
0
11
-1
21
0
31
0
39
0
210
0
220
0
230
1
0
ENDBLK
5
10A
100
AcDbEntity
8
0
100
AcDbBlockEnd
0
BLOCK
5
11B
100
AcDbEntity
8
0
100
AcDbBlockBegin
2
DimnDraft3D2
70
0
10
0
20
0
30
0
3
DimnDraft3D2
0
MTEXT
5
110
100
AcDbEntity
8
2
62
256
6
ByLayer
370
13
48
1
60
0
100
AcDbMText
10
45.111972
20
-5.300658
30
0
210
0
220
0
230
1
1
\W0.6740;32
40
4.5
41
0
44
1.084337
50
90
71
7
72
5
7
iso_b_vert
0
LINE
5
112
100
AcDbEntity
8
2
62
256
6
ByLayer
370
13
48
1
60
0
100
AcDbLine
10
31.324472
20
-19.9125
30
0
11
49.411972
21
-19.9125
31
0
39
0
210
0
220
0
230
1
0
LINE
5
113
100
AcDbEntity
8
2
62
256
6
ByLayer
370
13
48
1
60
0
100
AcDbLine
10
1.5875
20
12.4375
30
0
11
49.411972
21
12.4375
31
0
39
0
210
0
220
0
230
1
0
LINE
5
114
100
AcDbEntity
8
2
62
256
6
ByLayer
370
13
48
1
60
0
100
AcDbLine
10
46.236972
20
-19.9125
30
0
11
46.236972
21
12.4375
31
0
39
0
210
0
220
0
230
1
0
LINE
5
115
100
AcDbEntity
8
2
62
256
6
ByLayer
370
13
48
1
60
0
100
AcDbLine
10
46.236972
20
-19.9125
30
0
11
45.386233
21
-16.737503
31
0
39
0
210
0
220
0
230
1
0
LINE
5
116
100
AcDbEntity
8
2
62
256
6
ByLayer
370
13
48
1
60
0
100
AcDbLine
10
46.236972
20
-19.9125
30
0
11
47.087711
21
-16.737497
31
0
39
0
210
0
220
0
230
1
0
LINE
5
117
100
AcDbEntity
8
2
62
256
6
ByLayer
370
13
48
1
60
0
100
AcDbLine
10
45.386233
20
-16.737503
30
0
11
47.087711
21
-16.737497
31
0
39
0
210
0
220
0
230
1
0
LINE
5
118
100
AcDbEntity
8
2
62
256
6
ByLayer
370
13
48
1
60
0
100
AcDbLine
10
46.236972
20
12.4375
30
0
11
47.087711
21
9.262503
31
0
39
0
210
0
220
0
230
1
0
LINE
5
119
100
AcDbEntity
8
2
62
256
6
ByLayer
370
13
48
1
60
0
100
AcDbLine
10
46.236972
20
12.4375
30
0
11
45.386233
21
9.262497
31
0
39
0
210
0
220
0
230
1
0
LINE
5
11A
100
AcDbEntity
8
2
62
256
6
ByLayer
370
13
48
1
60
0
100
AcDbLine
10
47.087711
20
9.262503
30
0
11
45.386233
21
9.262497
31
0
39
0
210
0
220
0
230
1
0
ENDBLK
5
11C
100
AcDbEntity
8
0
100
AcDbBlockEnd
0
BLOCK
5
129
100
AcDbEntity
8
0
100
AcDbBlockBegin
2
DimnDraft3D3
70
0
10
0
20
0
30
0
3
DimnDraft3D3
0
MTEXT
5
11F
100
AcDbEntity
8
SK2
62
256
6
ByLayer
370
13
48
1
60
0
100
AcDbMText
10
-48.620265
20
-45.2875
30
0
210
0
220
0
230
1
1
\W0.6217;150
40
4.5
41
0
44
1.084337
50
0
71
7
72
5
7
iso_b_vert
0
LINE
5
120
100
AcDbEntity
8
SK2
62
256
6
ByLayer
370
13
48
1
60
0
100
AcDbLine
10
-121.613028
20
-14.15
30
0
11
-121.613028
21
-49.5875
31
0
39
0
210
0
220
0
230
1
0
LINE
5
121
100
AcDbEntity
8
SK2
62
256
6
ByLayer
370
13
48
1
60
0
100
AcDbLine
10
29.736972
20
-21.5
30
0
11
29.736972
21
-49.5875
31
0
39
0
210
0
220
0
230
1
0
LINE
5
122
100
AcDbEntity
8
SK2
62
256
6
ByLayer
370
13
48
1
60
0
100
AcDbLine
10
-121.613028
20
-46.4125
30
0
11
29.736972
21
-46.4125
31
0
39
0
210
0
220
0
230
1
0
LINE
5
123
100
AcDbEntity
8
SK2
62
256
6
ByLayer
370
13
48
1
60
0
100
AcDbLine
10
-121.613028
20
-46.4125
30
0
11
-118.438031
21
-45.561761
31
0
39
0
210
0
220
0
230
1
0
LINE
5
124
100
AcDbEntity
8
SK2
62
256
6
ByLayer
370
13
48
1
60
0
100
AcDbLine
10
-121.613028
20
-46.4125
30
0
11
-118.438025
21
-47.263239
31
0
39
0
210
0
220
0
230
1
0
LINE
5
125
100
AcDbEntity
8
SK2
62
256
6
ByLayer
370
13
48
1
60
0
100
AcDbLine
10
-118.438031
20
-45.561761
30
0
11
-118.438025
21
-47.263239
31
0
39
0
210
0
220
0
230
1
0
LINE
5
126
100
AcDbEntity
8
SK2
62
256
6
ByLayer
370
13
48
1
60
0
100
AcDbLine
10
29.736972
20
-46.4125
30
0
11
26.561975
21
-47.263239
31
0
39
0
210
0
220
0
230
1
0
LINE
5
127
100
AcDbEntity
8
SK2
62
256
6
ByLayer
370
13
48
1
60
0
100
AcDbLine
10
29.736972
20
-46.4125
30
0
11
26.561969
21
-45.561761
31
0
39
0
210
0
220
0
230
1
0
LINE
5
128
100
AcDbEntity
8
SK2
62
256
6
ByLayer
370
13
48
1
60
0
100
AcDbLine
10
26.561975
20
-47.263239
30
0
11
26.561969
21
-45.561761
31
0
39
0
210
0
220
0
230
1
0
ENDBLK
5
12A
100
AcDbEntity
8
0
100
AcDbBlockEnd
0
BLOCK
5
137
100
AcDbEntity
8
0
100
AcDbBlockBegin
2
DimnDraft3D4
70
0
10
0
20
0
30
0
3
DimnDraft3D4
0
MTEXT
5
12D
100
AcDbEntity
8
2
62
256
6
ByLayer
370
13
48
1
60
0
100
AcDbMText
10
11.236712
20
-29.972976
30
0
210
0
220
0
230
1
1
\W0.8292;93%%d0'
40
4.5
41
0
44
1.084337
50
313.5
71
7
72
5
7
iso_b_vert
0
LINE
5
12E
100
AcDbEntity
8
2
62
256
6
ByLayer
370
13
48
1
60
0
100
AcDbLine
10
16.331431
20
-19.252633
30
0
11
5.155302
21
-18.666917
31
0
39
0
210
0
220
0
230
1
0
LINE
5
12F
100
AcDbEntity
8
2
62
256
6
ByLayer
370
13
48
1
60
0
100
AcDbLine
10
29.736972
20
-21.5
30
0
11
29.736972
21
-44.570593
31
0
39
0
210
0
220
0
230
1
0
ARC
5
130
100
AcDbEntity
8
2
62
256
6
ByLayer
370
13
48
1
60
0
100
AcDbCircle
39
0
10
29.736972
20
-19.955188
30
0
40
21.4404046845569
210
0
220
0
230
1
100
AcDbArc
50
177
51
270
0
LINE
5
131
100
AcDbEntity
8
2
62
256
6
ByLayer
370
13
48
1
60
0
100
AcDbLine
10
8.32595
20
-18.833084
30
0
11
9.127676
21
-22.02081
31
0
39
0
210
0
220
0
230
1
0
LINE
5
132
100
AcDbEntity
8
2
62
256
6
ByLayer
370
13
48
1
60
0
100
AcDbLine
10
8.32595
20
-18.833084
30
0
11
7.4264
21
-21.994604
31
0
39
0
210
0
220
0
230
1
0
LINE
5
133
100
AcDbEntity
8
2
62
256
6
ByLayer
370
13
48
1
60
0
100
AcDbLine
10
9.127676
20
-22.02081
30
0
11
7.4264
21
-21.994604
31
0
39
0
210
0
220
0
230
1
0
LINE
5
134
100
AcDbEntity
8
2
62
256
6
ByLayer
370
13
48
1
60
0
100
AcDbLine
10
29.736972
20
-41.395593
30
0
11
26.532712
21
-42.128449
31
0
39
0
210
0
220
0
230
1
0
LINE
5
135
100
AcDbEntity
8
2
62
256
6
ByLayer
370
13
48
1
60
0
100
AcDbLine
10
29.736972
20
-41.395593
30
0
11
26.595567
21
-40.428133
31
0
39
0
210
0
220
0
230
1
0
LINE
5
136
100
AcDbEntity
8
2
62
256
6
ByLayer
370
13
48
1
60
0
100
AcDbLine
10
26.532712
20
-42.128449
30
0
11
26.595567
21
-40.428133
31
0
39
0
210
0
220
0
230
1
0
ENDBLK
5
138
100
AcDbEntity
8
0
100
AcDbBlockEnd
0
ENDSEC
0
SECTION
2
ENTITIES
0
ARC
5
B2
100
AcDbEntity
8
1
62
256
6
ByLayer
370
18
48
1
60
0
100
AcDbCircle
39
0
10
20.349299
20
-13.526199
30
0
40
2.3
210
0
220
0
230
1
100
AcDbArc
50
1.947178
51
9.348821
0
ARC
5
B3
100
AcDbEntity
8
1
62
256
6
ByLayer
370
18
48
1
60
0
100
AcDbCircle
39
0
10
0
20
-14.0375
30
0
40
1.60000000000006
210
0
220
0
230
-1
100
AcDbArc
50
90
51
165
0
ELLIPSE
5
B4
100
AcDbEntity
8
1
62
256
6
ByLayer
370
18
48
1
60
0
100
AcDbEllipse
10
14.271561
20
-7.467965
30
0
11
1.30033177823262
21
1.33464972718654
31
0
210
0
220
0
230
1
40
0.987534
41
2.87298114715878
42
2.89546307831327
0
ELLIPSE
5
B5
100
AcDbEntity
8
1
62
256
6
ByLayer
370
18
48
1
60
0
100
AcDbEllipse
10
0
20
12.444481
30
0
11
1.60000000000012
21
1.6170224881319E-15
31
0
210
0
220
0
230
-1
40
0.004363
41
0.261799387799421
42
1.5707963267949
0
ELLIPSE
5
B6
100
AcDbEntity
8
1
62
256
6
ByLayer
370
18
48
1
60
0
100
AcDbEllipse
10
12.706193
20
-8.46599
30
0
11
-0.127932668372597
21
-0.0783149561901634
31
0
210
0
220
0
230
1
40
0.152664
41
-1.53197899149785
42
-1.3064804921974
0
ELLIPSE
5
B7
100
AcDbEntity
8
1
62
256
6
ByLayer
370
18
48
1
60
0
100
AcDbEllipse
10
14.667559
20
-8.673229
30
0
11
-1.41836384932066
21
-1.45579686372044
31
0
210
0
220
0
230
1
40
0.987534
41
-1.87430659479435
42
-0.24612957527652
0
ELLIPSE
5
B8
100
AcDbEntity
8
1
62
256
6
ByLayer
370
18
48
1
60
0
100
AcDbEllipse
10
15.072044
20
-8.247865
30
0
11
1.34858002398505
21
1.38417132552679
31
0
210
0
220
0
230
1
40
0.987534
41
-0.246129575276508
42
1.56017471807028
0
ELLIPSE
5
B9
100
AcDbEntity
8
1
62
256
6
ByLayer
370
18
48
1
60
0
100
AcDbEllipse
10
17.762417
20
-9.23827
30
0
11
0.0958602922570449
21
-0.155667897652748
31
0
210
0
220
0
230
-1
40
0.022144
41
1.68968892551278
42
-3.01106452655973
0
ELLIPSE
5
BA
100
AcDbEntity
8
1
62
256
6
ByLayer
370
18
48
1
60
0
100
AcDbEllipse
10
14.418129
20
-7.610764
30
0
11
-1.39567650671223
21
-1.43251076387284
31
0
210
0
220
0
230
1
40
0.987534
41
-0.314112637288829
42
-0.246129575276517
0
ELLIPSE
5
BB
100
AcDbEntity
8
1
62
256
6
ByLayer
370
18
48
1
60
0
100
AcDbEllipse
10
18.014336
20
-14.489719
30
0
11
1.39567650671223
21
1.43251076387284
31
0
210
0
220
0
230
1
40
0.987534
41
2.89546307831329
42
-2.99796149606881
0
ELLIPSE
5
BC
100
AcDbEntity
8
1
62
256
6
ByLayer
370
18
48
1
60
0
100
AcDbEllipse
10
16.908872
20
-12.683871
30
0
11
1.39567650671222
21
1.43251076387282
31
0
210
0
220
0
230
1
40
0.987534
41
2.50570234551587
42
2.89546307831329
0
ELLIPSE
5
BD
100
AcDbEntity
8
1
62
256
6
ByLayer
370
18
48
1
60
0
100
AcDbEllipse
10
13.803667
20
-9.929398
30
0
11
-0.553909113601417
21
-0.568527709412032
31
0
210
0
220
0
230
1
40
0.987534
41
-2.42779114026945
42
-0.881607246950449
0
ELLIPSE
5
BE
100
AcDbEntity
8
1
62
256
6
ByLayer
370
18
48
1
60
0
100
AcDbEllipse
10
21.107503
20
-14.264907
30
0
11
1.3293818726434
21
1.36446650258888
31
0
210
0
220
0
230
1
40
0.987534
41
-2.94097357285771
42
-2.42594868933647
0
ELLIPSE
5
BF
100
AcDbEntity
8
1
62
256
6
ByLayer
370
18
48
1
60
0
100
AcDbEllipse
10
21.107503
20
-14.264907
30
0
11
1.3293818726434
21
1.36446650258888
31
0
210
0
220
0
230
1
40
0.987534
41
-0.529309932423501
42
-0.200620787708692
0
ELLIPSE
5
C0
100
AcDbEntity
8
1
62
256
6
ByLayer
370
18
48
1
60
0
100
AcDbEllipse
10
23.682796
20
-11.65355
30
0
11
-0.83740590402734
21
-0.859506458323702
31
0
210
0
220
0
230
1
40
0.987534
41
3.14158803899797
42
-2.90775668456786
0
ELLIPSE
5
C1
100
AcDbEntity
8
1
62
256
6
ByLayer
370
18
48
1
60
0
100
AcDbEllipse
10
9.700172
20
-12.958233
30
0
11
-0.903700538096171
21
-0.927550719607661
31
0
210
0
220
0
230
1
40
0.987534
41
0.260407553907879
42
2.33690204124305
0
ELLIPSE
5
C2
100
AcDbEntity
8
1
62
256
6
ByLayer
370
18
48
1
60
0
100
AcDbEllipse
10
9.700172
20
-12.958233
30
0
11
-0.903700538096171
21
-0.927550719607661
31
0
210
0
220
0
230
1
40
0.987534
41
2.33690204124305
42
2.943426007049
0
ELLIPSE
5
C3
100
AcDbEntity
8
1
62
256
6
ByLayer
370
18
48
1
60
0
100
AcDbEllipse
10
9.801641
20
-13.057093
30
0
11
0.90370053809617
21
0.927550719607662
31
0
210
0
220
0
230
1
40
0.987534
41
-2.93802475074121
42
-2.71773589199855
0
ELLIPSE
5
C4
100
AcDbEntity
8
1
62
256
6
ByLayer
370
18
48
1
60
0
100
AcDbEllipse
10
21.447996
20
-14.931598
30
0
11
-1.32589268137662
21
-1.3608852256792
31
0
210
0
220
0
230
1
40
0.987534
41
2.71761549246615
42
-1.78373602218198
0
ELLIPSE
5
C5
100
AcDbEntity
8
1
62
256
6
ByLayer
370
18
48
1
60
0
100
AcDbEllipse
10
20.918098
20
-14.415326
30
0
11
1.32589268137662
21
1.3608852256792
31
0
210
0
220
0
230
1
40
0.987534
41
2.53571955452631E-06
42
0.0819198661699365
0
ELLIPSE
5
C6
100
AcDbEntity
8
1
62
256
6
ByLayer
370
18
48
1
60
0
100
AcDbEllipse
10
20.394397
20
-13.570137
30
0
11
-1.58056898263116
21
-1.62228286409747
31
0
210
0
220
0
230
1
40
0.987534
41
2.39342112125842
42
2.52576990256525
0
ELLIPSE
5
C7
100
AcDbEntity
8
1
62
256
6
ByLayer
370
18
48
1
60
0
100
AcDbEllipse
10
20.515596
20
-13.68822
30
0
11
-1.57013607005126
21
-1.61157460935694
31
0
210
0
220
0
230
1
40
0.987534
41
2.40059132368663
42
2.55412043486763
0
ELLIPSE
5
C8
100
AcDbEntity
8
1
62
256
6
ByLayer
370
18
48
1
60
0
100
AcDbEllipse
10
20.515596
20
-13.68822
30
0
11
-1.57013607005126
21
-1.61157460935694
31
0
210
0
220
0
230
1
40
0.987534
41
0.602460612333764
42
0.763549009588312
0
ELLIPSE
5
C9
100
AcDbEntity
8
1
62
256
6
ByLayer
370
18
48
1
60
0
100
AcDbEllipse
10
14.34061
20
-10.452535
30
0
11
0.553909113601417
21
0.568527709412032
31
0
210
0
220
0
230
1
40
0.987534
41
0.713801513320329
42
2.89546307831329
0
ELLIPSE
5
CA
100
AcDbEntity
8
1
62
256
6
ByLayer
370
18
48
1
60
0
100
AcDbEllipse
10
24.21974
20
-12.176687
30
0
11
0.83740590402734
21
0.859506458323703
31
0
210
0
220
0
230
1
40
0.987534
41
-0.246129575276502
42
0.233835969021945
0
ELLIPSE
5
CB
100
AcDbEntity
8
1
62
256
6
ByLayer
370
18
48
1
60
0
100
AcDbEllipse
10
21.644447
20
-14.788044
30
0
11
1.3293818726434
21
1.36446650258888
31
0
210
0
220
0
230
1
40
0.987534
41
0
42
6.28318530717959
0
ELLIPSE
5
CC
100
AcDbEntity
8
1
62
256
6
ByLayer
370
18
48
1
60
0
100
AcDbEllipse
10
19.069153
20
-17.399401
30
0
11
0.83740590402734
21
0.859506458323703
31
0
210
0
220
0
230
1
40
0.987534
41
2.89546307831329
42
-2.90775668456785
0
ELLIPSE
5
CD
100
AcDbEntity
8
1
62
256
6
ByLayer
370
18
48
1
60
0
100
AcDbEllipse
10
20.550712
20
-18.278845
30
0
11
0.83740590402734
21
0.859506458323703
31
0
210
0
220
0
230
1
40
0.987534
41
-2.90775668456788
42
-2.42779114026945
0
ELLIPSE
5
CE
100
AcDbEntity
8
1
62
256
6
ByLayer
370
18
48
1
60
0
100
AcDbEllipse
10
22.738181
20
-11.297244
30
0
11
0.83740590402734
21
0.859506458323703
31
0
210
0
220
0
230
1
40
0.987534
41
0.233835969021954
42
0.713801513320383
0
ELLIPSE
5
CF
100
AcDbEntity
8
1
62
256
6
ByLayer
370
18
48
1
60
0
100
AcDbEllipse
10
28.948283
20
-19.123553
30
0
11
0.553909113601417
21
0.568527709412032
31
0
210
0
220
0
230
1
40
0.987534
41
-2.42779114026936
42
-0.246129575276544
0
ELLIPSE
5
D0
100
AcDbEntity
8
1
62
256
6
ByLayer
370
18
48
1
60
0
100
AcDbEllipse
10
21.488014
20
-14.635634
30
0
11
-1.23866289970711
21
-1.27135330293714
31
0
210
0
220
0
230
1
40
0.987534
41
1.86059442664827
42
2.56897491342271
0
ELLIPSE
5
D1
100
AcDbEntity
8
1
62
256
6
ByLayer
370
18
48
1
60
0
100
AcDbEllipse
10
21.521837
20
-14.668588
30
0
11
1.02931142370027
21
1.05647668835622
31
0
210
0
220
0
230
1
40
0.987534
41
-1.26589593830468
42
-0.587720028803925
0
ELLIPSE
5
D2
100
AcDbEntity
8
1
62
256
6
ByLayer
370
18
48
1
60
0
100
AcDbEllipse
10
21.521837
20
-14.668588
30
0
11
1.02931142370027
21
1.05647668835622
31
0
210
0
220
0
230
1
40
0.987534
41
1.87569671528512
42
2.55387262478587
0
ELLIPSE
5
D3
100
AcDbEntity
8
1
62
256
6
ByLayer
370
18
48
1
60
0
100
AcDbEllipse
10
21.561856
20
-14.372624
30
0
11
1.11654120536979
21
1.14600861109827
31
0
210
0
220
0
230
1
40
0.987534
41
2.73163073412719
42
-1.44365404764603
0
ELLIPSE
5
D4
100
AcDbEntity
8
1
62
256
6
ByLayer
370
18
48
1
60
0
100
AcDbEllipse
10
21.481819
20
-14.964552
30
0
11
1.11654120536979
21
1.14600861109827
31
0
210
0
220
0
230
1
40
0.987534
41
-0.409961919462569
42
1.69793860594378
0
ELLIPSE
5
D5
100
AcDbEntity
8
1
62
256
6
ByLayer
370
18
48
1
60
0
100
AcDbEllipse
10
21.528033
20
-14.33967
30
0
11
-1.32589268137662
21
-1.3608852256792
31
0
210
0
220
0
230
1
40
0.987534
41
-0.423977161123645
42
1.71195384760483
0
ELLIPSE
5
D6
100
AcDbEntity
8
1
62
256
6
ByLayer
370
18
48
1
60
0
100
AcDbEllipse
10
10.172006
20
-13.417935
30
0
11
0.90370053809617
21
0.927550719607662
31
0
210
0
220
0
230
1
40
0.987534
41
-2.71773589199856
42
-2.2774727286998
0
ELLIPSE
5
D7
100
AcDbEntity
8
1
62
256
6
ByLayer
370
18
48
1
60
0
100
AcDbEllipse
10
10.172006
20
-13.417935
30
0
11
0.90370053809617
21
0.927550719607662
31
0
210
0
220
0
230
1
40
0.987534
41
0.423856761589203
42
0.864119924889973
0
ELLIPSE
5
D8
100
AcDbEntity
8
1
62
256
6
ByLayer
370
18
48
1
60
0
100
AcDbEllipse
10
10.172006
20
-13.417935
30
0
11
0.90370053809617
21
0.927550719607662
31
0
210
0
220
0
230
1
40
0.987534
41
-1.67053834080194
42
-1.23027517750322
0
ELLIPSE
5
D9
100
AcDbEntity
8
1
62
256
6
ByLayer
370
18
48
1
60
0
100
AcDbEllipse
10
10.172006
20
-13.417935
30
0
11
0.90370053809617
21
0.927550719607662
31
0
210
0
220
0
230
1
40
0.987534
41
2.5182518639844
42
2.95851502728318
0
ELLIPSE
5
DA
100
AcDbEntity
8
1
62
256
6
ByLayer
370
18
48
1
60
0
100
AcDbEllipse
10
10.196246
20
-13.441551
30
0
11
-1.16356916980592
21
-1.19427772284
31
0
210
0
220
0
230
1
40
0.987534
41
0
42
6.28318530717959
0
ELLIPSE
5
DB
100
AcDbEntity
8
1
62
256
6
ByLayer
370
18
48
1
60
0
100
AcDbEllipse
10
10.109996
20
-13.35752
30
0
11
-2.09351476006835
21
-2.14876614580926
31
0
210
0
220
0
230
1
40
0.987534
41
0
42
6.28318530717959
0
ELLIPSE
5
DC
100
AcDbEntity
8
1
62
256
6
ByLayer
370
18
48
1
60
0
100
AcDbEllipse
10
9.801641
20
-13.057093
30
0
11
0.90370053809617
21
0.927550719607662
31
0
210
0
220
0
230
1
40
0.987534
41
-2.2774727286998
42
-1.67053834080195
0
ELLIPSE
5
DD
100
AcDbEntity
8
1
62
256
6
ByLayer
370
18
48
1
60
0
100
AcDbEllipse
10
10.196246
20
-13.441551
30
0
11
-1.55966849625092
21
-1.60083077862789
31
0
210
0
220
0
230
1
40
0.987534
41
0
42
6.28318530717959
0
ELLIPSE
5
DE
100
AcDbEntity
8
1
62
256
6
ByLayer
370
18
48
1
60
0
100
AcDbEllipse
10
9.801641
20
-13.057093
30
0
11
0.90370053809617
21
0.927550719607662
31
0
210
0
220
0
230
1
40
0.987534
41
-1.23027517750322
42
-0.623340789605386
0
ELLIPSE
5
DF
100
AcDbEntity
8
1
62
256
6
ByLayer
370
18
48
1
60
0
100
AcDbEllipse
10
10.172006
20
-13.417935
30
0
11
0.90370053809617
21
0.927550719607662
31
0
210
0
220
0
230
1
40
0.987534
41
-0.623340789605378
42
-0.183077626306623
0
ELLIPSE
5
E0
100
AcDbEntity
8
1
62
256
6
ByLayer
370
18
48
1
60
0
100
AcDbEllipse
10
10.172006
20
-13.417935
30
0
11
0.90370053809617
21
0.927550719607662
31
0
210
0
220
0
230
1
40
0.987534
41
1.47105431278781
42
1.91131747608657
0
POINT
5
6C
100
AcDbEntity
8
80
62
256
6
ByLayer
370
18
48
1
60
0
100
AcDbPoint
10
0
20
0
30
0
39
0
210
0
220
0
230
1
50
360
0
POINT
5
6E
100
AcDbEntity
8
81
62
256
6
ByLayer
370
18
48
1
60
0
100
AcDbPoint
10
28.386972
20
-19.5625
30
0
39
0
210
0
220
0
230
1
50
360
0
POINT
5
70
100
AcDbEntity
8
1
62
256
6
ByLayer
370
18
48
1
60
0
100
AcDbPoint
10
-121.613028
20
12.4375
30
0
39
0
210
0
220
0
230
1
50
360
0
SPLINE
5
E1
100
AcDbEntity
8
1
62
256
6
ByLayer
370
18
48
1
60
0
100
AcDbSpline
70
4
71
3
72
8
73
4
40
0
40
0
40
0
40
0
40
1
40
1
40
1
40
1
41
1
10
16.8094242634816
20
-16.082889884355
30
0
41
1
10
16.7709946018611
20
-16.0506814379434
30
0
41
1
10
16.7325644029861
20
-16.0184721141219
30
0
41
1
10
16.6941336714319
20
-15.9862619203617
30
0
0
SPLINE
5
E2
100
AcDbEntity
8
1
62
256
6
ByLayer
370
18
48
1
60
0
100
AcDbSpline
70
4
71
3
72
10
73
6
40
0
40
0
40
0
40
0
40
0.446839953022033
40
0.446839953022033
40
1
40
1
40
1
40
1
41
1
10
20.038541024949
20
-15.7371990337577
30
0
41
1
10
20.0803658373377
20
-15.7456394321522
30
0
41
1
10
20.1221682708191
20
-15.7540802573839
30
0
41
1
10
20.2158451026989
20
-15.772967903467
30
0
41
1
10
20.2677532796306
20
-15.783413930904
30
0
41
1
10
20.3201932243573
20
-15.7938544233306
30
0
0
SPLINE
5
E3
100
AcDbEntity
8
1
62
256
6
ByLayer
370
18
48
1
60
0
100
AcDbSpline
70
4
71
3
72
8
73
4
40
0
40
0
40
0
40
0
40
1
40
1
40
1
40
1
41
1
10
20.0008745830406
20
-13.8729598220616
30
0
41
1
10
20.0731138795826
20
-13.9206939553934
30
0
41
1
10
20.1453709822725
20
-13.9684227140527
30
0
41
1
10
20.2176542318411
20
-14.0161435632219
30
0
0
SPLINE
5
E4
100
AcDbEntity
8
1
62
256
6
ByLayer
370
18
48
1
60
0
100
AcDbSpline
70
4
71
3
72
10
73
6
40
0
40
0
40
0
40
0
40
0.185915905110272
40
0.185915905110272
40
1
40
1
40
1
40
1
41
1
10
22.5214487802162
20
-13.3209170799836
30
0
41
1
10
22.5127624910948
20
-13.3032583914868
30
0
41
1
10
22.5037879847569
20
-13.2856450298496
30
0
41
1
10
22.4540261578537
20
-13.1914827638112
30
0
41
1
10
22.4086429876915
20
-13.1175751058862
30
0
41
1
10
22.3581781808891
20
-13.0468294923502
30
0
0
SPLINE
5
E5
100
AcDbEntity
8
1
62
256
6
ByLayer
370
18
48
1
60
0
100
AcDbSpline
70
4
71
3
72
10
73
6
40
0
40
0
40
0
40
0
40
0.0073984594870684
40
0.0073984594870684
40
1
40
1
40
1
40
1
41
1
10
19.8252862880869
20
-15.3268647027293
30
0
41
1
10
19.8254930162205
20
-15.3271005812375
30
0
41
1
10
19.8256997583993
20
-15.3273363275038
30
0
41
1
10
19.8536455603708
20
-15.35918265215
30
0
41
1
10
19.8817613553387
20
-15.3885877429741
30
0
41
1
10
19.9097465502559
20
-15.4156683695639
30
0
0
SPLINE
5
E6
100
AcDbEntity
8
1
62
256
6
ByLayer
370
18
48
1
60
0
100
AcDbSpline
70
4
71
3
72
8
73
4
40
0
40
0
40
0
40
0
40
1
40
1
40
1
40
1
41
1
10
22.8260205825327
20
-15.3210318350255
30
0
41
1
10
22.8991019331496
20
-15.3621994284008
30
0
41
1
10
22.9721289828879
20
-15.4033725405492
30
0
41
1
10
23.0451246584064
20
-15.4445488270281
30
0
0
SPLINE
5
E7
100
AcDbEntity
8
1
62
256
6
ByLayer
370
18
48
1
60
0
100
AcDbSpline
70
4
71
3
72
8
73
4
40
0
40
0
40
0
40
0
40
1
40
1
40
1
40
1
41
1
10
20.0867603172431
20
-14.9841925081937
30
0
41
1
10
19.9800248487602
20
-15.0032485201811
30
0
41
1
10
19.8733309268602
20
-15.0223218370413
30
0
41
1
10
19.7666610249312
20
-15.0414051399037
30
0
0
SPLINE
5
E8
100
AcDbEntity
8
1
62
256
6
ByLayer
370
18
48
1
60
0
100
AcDbSpline
70
4
71
3
72
8
73
4
40
0
40
0
40
0
40
0
40
1
40
1
40
1
40
1
41
1
10
23.209367341055
20
-14.2298632081781
30
0
41
1
10
23.1252523867682
20
-14.2709215016154
30
0
41
1
10
23.0411084866452
20
-14.3119650098443
30
0
41
1
10
22.9569144971308
20
-14.3529828900536
30
0
0
SPLINE
5
E9
100
AcDbEntity
8
1
62
256
6
ByLayer
370
18
48
1
60
0
100
AcDbSpline
70
4
71
3
72
8
73
4
40
0
40
0
40
0
40
0
40
1
40
1
40
1
40
1
41
1
10
10.7325307262488
20
-14.763440734932
30
0
41
1
10
10.5839738816104
20
-14.741126485759
30
0
41
1
10
10.4320338891785
20
-14.7192067382888
30
0
41
1
10
10.2818548098411
20
-14.6989203160082
30
0
0
SPLINE
5
EA
100
AcDbEntity
8
1
62
256
6
ByLayer
370
18
48
1
60
0
100
AcDbSpline
70
4
71
3
72
10
73
6
40
0
40
0
40
0
40
0
40
0.5
40
0.5
40
1
40
1
40
1
40
1
41
1
10
9.72500046163381
20
-14.6304454630816
30
0
41
1
10
9.65156769653547
20
-14.6223312821154
30
0
41
1
10
9.57836606191526
20
-14.6146035979989
30
0
41
1
10
9.43529477713057
20
-14.6000939040406
30
0
41
1
10
9.36502233016481
20
-14.593264795222
30
0
41
1
10
9.29570790356044
20
-14.5867585705888
30
0
0
SPLINE
5
EB
100
AcDbEntity
8
1
62
256
6
ByLayer
370
18
48
1
60
0
100
AcDbSpline
70
4
71
3
72
10
73
6
40
0
40
0
40
0
40
0
40
0.5
40
0.5
40
1
40
1
40
1
40
1
41
1
10
11.6195201600881
20
-13.6050334306495
30
0
41
1
10
11.5894942626711
20
-13.5355963608176
30
0
41
1
10
11.5592968456668
20
-13.465398793967
30
0
41
1
10
11.499473956574
20
-13.3253972056992
30
0
41
1
10
11.4698158540963
20
-13.2555186817525
30
0
41
1
10
11.4404583657042
20
-13.1857852428315
30
0
0
SPLINE
5
EC
100
AcDbEntity
8
1
62
256
6
ByLayer
370
18
48
1
60
0
100
AcDbSpline
70
4
71
3
72
10
73
6
40
0
40
0
40
0
40
0
40
0.5
40
0.5
40
1
40
1
40
1
40
1
41
1
10
8.7458745147114
20
-13.251669101963
30
0
41
1
10
8.77112569517837
20
-13.3164542275015
30
0
41
1
10
8.79702163536544
20
-13.3824609217322
30
0
41
1
10
8.84961064095236
20
-13.5154146318855
30
0
41
1
10
8.87632983053609
20
-13.5824298114268
30
0
41
1
10
8.903552950761
20
-13.6500837633501
30
0
0
SPLINE
5
ED
100
AcDbEntity
8
1
62
256
6
ByLayer
370
18
48
1
60
0
100
AcDbSpline
70
4
71
3
72
10
73
6
40
0
40
0
40
0
40
0
40
0.5
40
0.5
40
1
40
1
40
1
40
1
41
1
10
10.0621565066241
20
-12.1369486901733
30
0
41
1
10
9.98872374152572
20
-12.1288345092072
30
0
41
1
10
9.91552210690551
20
-12.1211068250906
30
0
41
1
10
9.77245082212082
20
-12.1065971311324
30
0
41
1
10
9.70217837515506
20
-12.0997680223137
30
0
41
1
10
9.63286394855069
20
-12.0932617976805
30
0
0
SPLINE
5
EE
100
AcDbEntity
8
1
62
256
6
ByLayer
370
18
48
1
60
0
100
AcDbSpline
70
4
71
3
72
8
73
4
40
0
40
0
40
0
40
0
40
1
40
1
40
1
40
1
41
1
10
11.3372143588972
20
-13.9493444363283
30
0
41
1
10
11.4321391691869
20
-13.8303186251427
30
0
41
1
10
11.5261162096856
20
-13.7161941706847
30
0
41
1
10
11.6195201600881
20
-13.6050334306495
30
0
0
SPLINE
5
EF
100
AcDbEntity
8
1
62
256
6
ByLayer
370
18
48
1
60
0
100
AcDbSpline
70
4
71
3
72
8
73
4
40
0
40
0
40
0
40
0
40
1
40
1
40
1
40
1
41
1
10
11.0696867712391
20
-12.2699439620238
30
0
41
1
10
10.9211299266015
20
-12.2476297128508
30
0
41
1
10
10.7691899341705
20
-12.2257099653808
30
0
41
1
10
10.6190108548339
20
-12.2054235431003
30
0
0
SPLINE
5
F0
100
AcDbEntity
8
1
62
256
6
ByLayer
370
18
48
1
60
0
100
AcDbSpline
70
4
71
3
72
8
73
4
40
0
40
0
40
0
40
0
40
1
40
1
40
1
40
1
41
1
10
9.11664610917651
20
-14.1675103827707
30
0
41
1
10
9.17631324038891
20
-14.3092389323801
30
0
41
1
10
9.23600356098595
20
-14.4486879395251
30
0
41
1
10
9.29570790356044
20
-14.5867585705888
30
0
0
SPLINE
5
F1
100
AcDbEntity
8
1
62
256
6
ByLayer
370
18
48
1
60
0
100
AcDbSpline
70
4
71
3
72
8
73
4
40
0
40
0
40
0
40
0
40
1
40
1
40
1
40
1
41
1
10
11.2273652072887
20
-12.6683586234108
30
0
41
1
10
11.1720360365922
20
-12.5308564920119
30
0
41
1
10
11.1198969317573
20
-12.3987645356495
30
0
41
1
10
11.0696867712391
20
-12.2699439620238
30
0
0
SPLINE
5
F2
100
AcDbEntity
8
1
62
256
6
ByLayer
370
18
48
1
60
0
100
AcDbSpline
70
4
71
3
72
8
73
4
40
0
40
0
40
0
40
0
40
1
40
1
40
1
40
1
41
1
10
9.00679695756796
20
-12.8865245698533
30
0
41
1
10
8.91621010779417
20
-13.0097767992493
30
0
41
1
10
8.82978428305759
20
-13.1312583044898
30
0
41
1
10
8.7458745147114
20
-13.251669101963
30
0
0
SPLINE
5
F3
100
AcDbEntity
8
1
62
256
6
ByLayer
370
18
48
1
60
0
100
AcDbSpline
70
4
71
3
72
10
73
6
40
0
40
0
40
0
40
0
40
0.5
40
0.5
40
1
40
1
40
1
40
1
41
1
10
10.7325307262488
20
-14.763440734932
30
0
41
1
10
10.7747297688645
20
-14.7028849680159
30
0
41
1
10
10.8178238411079
20
-14.6416998547147
30
0
41
1
10
10.9048781507203
20
-14.5197593529985
30
0
41
1
10
10.9488825263297
20
-14.458938902082
30
0
41
1
10
10.9934531691054
20
-14.3982962028223
30
0
0
SPLINE
5
F4
100
AcDbEntity
8
1
62
256
6
ByLayer
370
18
48
1
60
0
100
AcDbSpline
70
4
71
3
72
10
73
6
40
0
40
0
40
0
40
0
40
0.5
40
0.5
40
1
40
1
40
1
40
1
41
1
10
9.63286394855069
20
-12.0932617976805
30
0
41
1
10
9.58589018898508
20
-12.1491656203032
30
0
41
1
10
9.53849463992432
20
-12.2061598609845
30
0
41
1
10
9.44420644680608
20
-12.3210524845862
30
0
41
1
10
9.39726315830276
20
-12.3790095910974
30
0
41
1
10
9.35055814735981
20
-12.4375728033593
30
0
0
LINE
5
72
100
AcDbEntity
8
1
62
256
6
ByLayer
370
18
48
1
60
0
100
AcDbLine
10
17.874856
20
-17.911193
30
0
11
18.231747
21
-18.258908
31
0
39
0
210
0
220
0
230
1
0
LINE
5
73
100
AcDbEntity
8
1
62
256
6
ByLayer
370
18
48
1
60
0
100
AcDbLine
10
7.936337
20
-15.428202
30
0
11
8.016482
21
-15.506286
31
0
39
0
210
0
220
0
230
1
0
LINE
5
74
100
AcDbEntity
8
1
62
256
6
ByLayer
370
18
48
1
60
0
100
AcDbLine
10
19.904331
20
-15.410404
30
0
11
20.20214
21
-15.700555
31
0
39
0
210
0
220
0
230
1
0
LINE
5
75
100
AcDbEntity
8
1
62
256
6
ByLayer
370
18
48
1
60
0
100
AcDbLine
10
22.773888
20
-13.570713
30
0
11
22.243991
21
-13.054441
31
0
39
0
210
0
220
0
230
1
0
LINE
5
76
100
AcDbEntity
8
1
62
256
6
ByLayer
370
18
48
1
60
0
100
AcDbLine
10
12.203511
20
-11.208754
30
0
11
12.123367
21
-11.13067
31
0
39
0
210
0
220
0
230
1
0
LINE
5
77
100
AcDbEntity
8
1
62
256
6
ByLayer
370
18
48
1
60
0
100
AcDbLine
10
25.057146
20
-11.317181
30
0
11
24.520202
21
-10.794044
31
0
39
0
210
0
220
0
230
1
0
LINE
5
78
100
AcDbEntity
8
SK1
62
256
6
ByLayer
370
18
48
1
60
0
100
AcDbLine
10
0
20
-12.4375
30
0
11
0
21
12.4375
31
0
39
0
210
0
220
0
230
1
0
LINE
5
7A
100
AcDbEntity
8
SK1
62
256
6
ByLayer
370
18
48
1
60
0
100
AcDbLine
10
-121.613028
20
-12.4375
30
0
11
0
21
-12.4375
31
0
39
0
210
0
220
0
230
1
0
LINE
5
7B
100
AcDbEntity
8
SK1
62
256
6
ByLayer
370
18
48
1
60
0
100
AcDbLine
10
-121.613028
20
12.4375
30
0
11
0
21
12.4375
31
0
39
0
210
0
220
0
230
1
0
LINE
5
7C
100
AcDbEntity
8
SK1
62
256
6
ByLayer
370
18
48
1
60
0
100
AcDbLine
10
-121.613028
20
12.4375
30
0
11
-121.613028
21
-12.4375
31
0
39
0
210
0
220
0
230
1
0
LINE
5
7D
100
AcDbEntity
8
1
62
256
6
ByLayer
370
18
48
1
60
0
100
AcDbLine
10
2.016961
20
-15.382974
30
0
11
2.822273
21
12.463466
31
0
39
0
210
0
220
0
230
1
0
LINE
5
7E
100
AcDbEntity
8
1
62
256
6
ByLayer
370
18
48
1
60
0
100
AcDbLine
10
17.940403
20
-17.914627
30
0
11
2.478185
21
-17.104287
31
0
39
0
210
0
220
0
230
1
0
LINE
5
7F
100
AcDbEntity
8
1
62
256
6
ByLayer
370
18
48
1
60
0
100
AcDbLine
10
16.274117
20
-6.735035
30
0
11
16.713034
21
-7.229897
31
0
39
0
210
0
220
0
230
1
0
LINE
5
80
100
AcDbEntity
8
1
62
256
6
ByLayer
370
18
48
1
60
0
100
AcDbLine
10
18.266378
20
-9.767388
30
0
11
16.713034
21
-7.229897
31
0
39
0
210
0
220
0
230
1
0
LINE
5
81
100
AcDbEntity
8
1
62
256
6
ByLayer
370
18
48
1
60
0
100
AcDbLine
10
18.266378
20
-9.767388
30
0
11
17.66782
21
-9.08365
31
0
39
0
210
0
220
0
230
1
0
LINE
5
82
100
AcDbEntity
8
1
62
256
6
ByLayer
370
18
48
1
60
0
100
AcDbLine
10
9.47991
20
12.460148
30
0
11
2.822273
21
12.463466
31
0
39
0
210
0
220
0
230
1
0
LINE
5
83
100
AcDbEntity
8
1
62
256
6
ByLayer
370
18
48
1
60
0
100
AcDbLine
10
12.689282
20
-8.449513
30
0
11
13.253444
21
-9.37111
31
0
39
0
210
0
220
0
230
1
0
LINE
5
84
100
AcDbEntity
8
1
62
256
6
ByLayer
370
18
48
1
60
0
100
AcDbLine
10
0
20
-12.4375
30
0
11
0
21
12.4375
31
0
39
0
210
0
220
0
230
1
0
LINE
5
85
100
AcDbEntity
8
1
62
256
6
ByLayer
370
18
48
1
60
0
100
AcDbLine
10
12.941654
20
-9.743873
30
0
11
13.541844
21
-10.724323
31
0
39
0
210
0
220
0
230
1
0
LINE
5
86
100
AcDbEntity
8
1
62
256
6
ByLayer
370
18
48
1
60
0
100
AcDbLine
10
23.260282
20
-10.051001
30
0
11
22.847192
21
-10.027541
31
0
39
0
210
0
220
0
230
1
0
LINE
5
87
100
AcDbEntity
8
1
62
256
6
ByLayer
370
18
48
1
60
0
100
AcDbLine
10
21.298848
20
-9.939608
30
0
11
18.266378
21
-9.767388
31
0
39
0
210
0
220
0
230
1
0
LINE
5
88
100
AcDbEntity
8
1
62
256
6
ByLayer
370
18
48
1
60
0
100
AcDbLine
10
16.122481
20
-6.626914
30
0
11
17.787979
21
-9.347615
31
0
39
0
210
0
220
0
230
1
0
LINE
5
89
100
AcDbEntity
8
1
62
256
6
ByLayer
370
18
48
1
60
0
100
AcDbLine
10
12.719831
20
-8.664282
30
0
11
13.193222
21
-9.437598
31
0
39
0
210
0
220
0
230
1
0
LINE
5
8A
100
AcDbEntity
8
1
62
256
6
ByLayer
370
18
48
1
60
0
100
AcDbLine
10
17.599294
20
-9.33773
30
0
11
15.853841
21
-6.486417
31
0
39
0
210
0
220
0
230
1
0
LINE
5
8B
100
AcDbEntity
8
1
62
256
6
ByLayer
370
18
48
1
60
0
100
AcDbLine
10
1.545481
20
12.442674
30
0
11
2.822273
21
12.463466
31
0
39
0
210
0
220
0
230
1
0
LINE
5
8C
100
AcDbEntity
8
1
62
256
6
ByLayer
370
18
48
1
60
0
100
AcDbLine
10
15.210575
20
-13.737389
30
0
11
16.316038
21
-15.543237
31
0
39
0
210
0
220
0
230
1
0
LINE
5
8D
100
AcDbEntity
8
1
62
256
6
ByLayer
370
18
48
1
60
0
100
AcDbLine
10
9.47991
20
12.460148
30
0
11
23.260282
21
-10.051001
31
0
39
0
210
0
220
0
230
1
0
LINE
5
8E
100
AcDbEntity
8
1
62
256
6
ByLayer
370
18
48
1
60
0
100
AcDbLine
10
17.791067
20
-9.224381
30
0
11
17.747623
21
-9.221914
31
0
39
0
210
0
220
0
230
1
0
LINE
5
8F
100
AcDbEntity
8
1
62
256
6
ByLayer
370
18
48
1
60
0
100
AcDbLine
10
2.478185
20
-17.104287
30
0
11
2.016961
21
-15.382974
31
0
39
0
210
0
220
0
230
1
0
LINE
5
90
100
AcDbEntity
8
1
62
256
6
ByLayer
370
18
48
1
60
0
100
AcDbLine
10
17.747623
20
-9.221914
30
0
11
17.825819
21
-9.349651
31
0
39
0
210
0
220
0
230
1
0
LINE
5
91
100
AcDbEntity
8
1
62
256
6
ByLayer
370
18
48
1
60
0
100
AcDbLine
10
1.545481
20
-13.62339
30
0
11
2.016961
21
-15.382974
31
0
39
0
210
0
220
0
230
1
0
LINE
5
92
100
AcDbEntity
8
1
62
256
6
ByLayer
370
18
48
1
60
0
100
AcDbLine
10
1.545481
20
12.442674
30
0
11
1.545481
21
-13.62339
31
0
39
0
210
0
220
0
230
1
0
LINE
5
93
100
AcDbEntity
8
1
62
256
6
ByLayer
370
18
48
1
60
0
100
AcDbLine
10
13.854773
20
-9.14153
30
0
11
17.904348
21
-9.353759
31
0
39
0
210
0
220
0
230
1
0
LINE
5
94
100
AcDbEntity
8
1
62
256
6
ByLayer
370
18
48
1
60
0
100
AcDbLine
10
22.815444
20
-10.106136
30
0
11
22.721017
21
-10.014138
31
0
39
0
210
0
220
0
230
1
0
LINE
5
95
100
AcDbEntity
8
1
62
256
6
ByLayer
370
18
48
1
60
0
100
AcDbLine
10
13.666599
20
-10.87065
30
0
11
13.572172
21
-10.778652
31
0
39
0
210
0
220
0
230
1
0
LINE
5
96
100
AcDbEntity
8
1
62
256
6
ByLayer
370
18
48
1
60
0
100
AcDbLine
10
17.929622
20
-17.91406
30
0
11
18.050175
21
-18.031512
31
0
39
0
210
0
220
0
230
1
0
LINE
5
97
100
AcDbEntity
8
1
62
256
6
ByLayer
370
18
48
1
60
0
100
AcDbLine
10
23.123894
20
-10.043255
30
0
11
23.356122
21
-10.269512
31
0
39
0
210
0
220
0
230
1
0
LINE
5
98
100
AcDbEntity
8
1
62
256
6
ByLayer
370
18
48
1
60
0
100
AcDbLine
10
23.219153
20
-9.983797
30
0
11
24.300738
21
-10.625818
31
0
39
0
210
0
220
0
230
1
0
LINE
5
99
100
AcDbEntity
8
1
62
256
6
ByLayer
370
18
48
1
60
0
100
AcDbLine
10
10.826873
20
-12.234362
30
0
11
10.857001
21
-12.307518
31
0
39
0
210
0
220
0
230
1
0
LINE
5
9A
100
AcDbEntity
8
1
62
256
6
ByLayer
370
18
48
1
60
0
100
AcDbLine
10
9.149473
20
-14.244376
30
0
11
9.354636
21
-14.269604
31
0
39
0
210
0
220
0
230
1
0
LINE
5
9B
100
AcDbEntity
8
1
62
256
6
ByLayer
370
18
48
1
60
0
100
AcDbLine
10
19.765439
20
-15.040215
30
0
11
19.766661
21
-15.041405
31
0
39
0
210
0
220
0
230
1
0
LINE
5
9C
100
AcDbEntity
8
80
62
256
6
ByLayer
370
18
48
1
60
0
100
AcDbLine
10
0
20
0
30
0
11
-5
21
0
31
0
39
0
210
0
220
0
230
1
0
LINE
5
9D
100
AcDbEntity
8
81
62
256
6
ByLayer
370
18
48
1
60
0
100
AcDbLine
10
28.386972
20
-19.5625
30
0
11
38.386972
21
-19.5625
31
0
39
0
210
0
220
0
230
1
0
LINE
5
9E
100
AcDbEntity
8
1
62
256
6
ByLayer
370
18
48
1
60
0
100
AcDbLine
10
24.837681
20
-11.148955
30
0
11
24.300738
21
-10.625818
31
0
39
0
210
0
220
0
230
1
0
LINE
5
9F
100
AcDbEntity
8
1
62
256
6
ByLayer
370
18
48
1
60
0
100
AcDbLine
10
18.050175
20
-18.031512
30
0
11
13.666599
21
-10.87065
31
0
39
0
210
0
220
0
230
1
0
LINE
5
A0
100
AcDbEntity
8
1
62
256
6
ByLayer
370
18
48
1
60
0
100
AcDbLine
10
14.391717
20
-9.664667
30
0
11
22.815444
21
-10.106136
31
0
39
0
210
0
220
0
230
1
0
LINE
5
A1
100
AcDbEntity
8
1
62
256
6
ByLayer
370
18
48
1
60
0
100
AcDbLine
10
28.897176
20
-19.911421
30
0
11
20.473449
21
-19.469952
31
0
39
0
210
0
220
0
230
1
0
LINE
5
A2
100
AcDbEntity
8
1
62
256
6
ByLayer
370
18
48
1
60
0
100
AcDbLine
10
23.356122
20
-10.269512
30
0
11
24.837681
21
-11.148955
31
0
39
0
210
0
220
0
230
1
0
LINE
5
A3
100
AcDbEntity
8
1
62
256
6
ByLayer
370
18
48
1
60
0
100
AcDbLine
10
13.854773
20
-9.14153
30
0
11
14.391717
21
-9.664667
31
0
39
0
210
0
220
0
230
1
0
LINE
5
A4
100
AcDbEntity
8
1
62
256
6
ByLayer
370
18
48
1
60
0
100
AcDbLine
10
19.932771
20
-19.306577
30
0
11
18.451212
21
-18.427133
31
0
39
0
210
0
220
0
230
1
0
LINE
5
A5
100
AcDbEntity
8
1
62
256
6
ByLayer
370
18
48
1
60
0
100
AcDbLine
10
25.238718
20
-11.544576
30
0
11
29.622295
21
-18.705438
31
0
39
0
210
0
220
0
230
1
0
LINE
5
A6
100
AcDbEntity
8
1
62
256
6
ByLayer
370
18
48
1
60
0
100
AcDbLine
10
11.070094
20
-12.824944
30
0
11
11.238464
21
-13.233776
31
0
39
0
210
0
220
0
230
1
0
LINE
5
A7
100
AcDbEntity
8
1
62
256
6
ByLayer
370
18
48
1
60
0
100
AcDbLine
10
10.623089
20
-14.037455
30
0
11
10.351475
21
-14.392183
31
0
39
0
210
0
220
0
230
1
0
LINE
5
A8
100
AcDbEntity
8
1
62
256
6
ByLayer
370
18
48
1
60
0
100
AcDbLine
10
11.070094
20
-12.824944
30
0
11
11.440458
21
-13.185785
31
0
39
0
210
0
220
0
230
1
0
LINE
5
A9
100
AcDbEntity
8
1
62
256
6
ByLayer
370
18
48
1
60
0
100
AcDbLine
10
11.61952
20
-13.605033
30
0
11
11.238464
21
-13.233776
31
0
39
0
210
0
220
0
230
1
0
LINE
5
AA
100
AcDbEntity
8
1
62
256
6
ByLayer
370
18
48
1
60
0
100
AcDbLine
10
9.911491
20
-14.338079
30
0
11
10.281855
21
-14.69892
31
0
39
0
210
0
220
0
230
1
0
LINE
5
AB
100
AcDbEntity
8
1
62
256
6
ByLayer
370
18
48
1
60
0
100
AcDbLine
10
11.238464
20
-13.233776
30
0
11
10.96685
21
-13.588503
31
0
39
0
210
0
220
0
230
1
0
LINE
5
AC
100
AcDbEntity
8
1
62
256
6
ByLayer
370
18
48
1
60
0
100
AcDbLine
10
9.725
20
-14.630445
30
0
11
9.354636
21
-14.269604
31
0
39
0
210
0
220
0
230
1
0
LINE
5
AD
100
AcDbEntity
8
1
62
256
6
ByLayer
370
18
48
1
60
0
100
AcDbLine
10
11.227365
20
-12.668359
30
0
11
10.857001
21
-12.307518
31
0
39
0
210
0
220
0
230
1
0
LINE
5
AE
100
AcDbEntity
8
1
62
256
6
ByLayer
370
18
48
1
60
0
100
AcDbLine
10
11.337214
20
-13.949344
30
0
11
10.96685
21
-13.588503
31
0
39
0
210
0
220
0
230
1
0
LINE
5
AF
100
AcDbEntity
8
1
62
256
6
ByLayer
370
18
48
1
60
0
100
AcDbLine
10
9.911491
20
-14.338079
30
0
11
10.351475
21
-14.392183
31
0
39
0
210
0
220
0
230
1
0
LINE
5
B0
100
AcDbEntity
8
1
62
256
6
ByLayer
370
18
48
1
60
0
100
AcDbLine
10
10.623089
20
-14.037455
30
0
11
10.993453
21
-14.398296
31
0
39
0
210
0
220
0
230
1
0
LINE
5
B1
100
AcDbEntity
8
1
62
256
6
ByLayer
370
18
48
1
60
0
100
AcDbLine
10
10.732531
20
-14.763441
30
0
11
10.351475
21
-14.392183
31
0
39
0
210
0
220
0
230
1
0
MTEXT
5
F5
100
AcDbEntity
8
SK6
62
256
6
ByLayer
370
13
48
1
60
0
100
AcDbMText
10
-95.030159
20
21.423222
30
0
210
0
220
0
230
1
1
\W0.7497;PDJNL 2525M 11
40
3.5
41
0
44
1.084337
50
0
71
7
72
5
7
iso_b_vert
0
DIMENSION
5
107
100
AcDbEntity
8
SK2
62
256
6
ByLayer
370
13
48
1
60
0
100
AcDbDimension
2
DimnDraft3D1
10
-131.363028
20
12.4375
30
0
11
-131.363028
21
-0.0625
31
0
70
32
71
5
72
1
41
1
210
0
220
0
230
1
3
Standard
100
AcDbAlignedDimension
13
-123.200528
23
-12.5625
33
0
14
-123.200528
24
12.4375
34
0
50
90
100
AcDbRotatedDimension
1001
ACAD
1000
DSTYLE
1002
{
1070
    74
1070
     0
1070
   279
1070
     0
1070
   172
1070
     1
1070
   173
1070
     1
1070
   340
1005
F6
1070
   271
1070
     1
1070
   272
1070
     2
1070
    77
1070
     1
1070
    73
1070
     0
1070
   171
1070
     3
1070
   274
1070
     4
1070
   177
1070
   150
1070
   176
1070
     9
1070
   178
1070
    43
1070
    78
1070
     8
1070
    48
1040
-0.005
1070
    41
1041
3.175
1070
   147
1041
2.25
1070
    42
1041
1.5875
1070
    44
1041
3.175
1070
   140
1041
4.5
1070
   343
1005
108
1070
   344
1005
108
1002
}
0
DIMENSION
5
11D
100
AcDbEntity
8
2
62
256
6
ByLayer
370
13
48
1
60
0
100
AcDbDimension
2
DimnDraft3D2
10
46.236972
20
12.4375
30
0
11
46.236972
21
-3.7375
31
0
70
32
71
5
72
1
41
1
210
0
220
0
230
1
3
Standard
100
AcDbAlignedDimension
13
31.324472
23
-19.9125
33
0
14
1.5875
24
12.4375
34
0
50
90
100
AcDbRotatedDimension
1001
ACAD
1000
DSTYLE
1002
{
1070
    74
1070
     0
1070
   279
1070
     0
1070
   172
1070
     1
1070
   173
1070
     1
1070
   340
1005
F6
1070
   271
1070
     1
1070
   272
1070
     2
1070
    77
1070
     1
1070
    73
1070
     0
1070
   171
1070
     3
1070
   274
1070
     4
1070
   177
1070
   150
1070
   176
1070
     9
1070
   178
1070
    43
1070
    78
1070
     8
1070
    48
1040
-0.005
1070
    41
1041
3.175
1070
   147
1041
2.25
1070
    42
1041
1.5875
1070
    44
1041
3.175
1070
   140
1041
4.5
1070
   343
1005
108
1070
   344
1005
108
1002
}
0
DIMENSION
5
12B
100
AcDbEntity
8
SK2
62
256
6
ByLayer
370
13
48
1
60
0
100
AcDbDimension
2
DimnDraft3D3
10
29.736972
20
-46.4125
30
0
11
-45.938028
21
-46.4125
31
0
70
32
71
5
72
1
41
1
210
0
220
0
230
1
3
Standard
100
AcDbAlignedDimension
13
-121.613028
23
-14.15
33
0
14
29.736972
24
-21.5
34
0
50
0
100
AcDbRotatedDimension
1001
ACAD
1000
DSTYLE
1002
{
1070
   279
1070
     0
1070
   172
1070
     1
1070
   173
1070
     1
1070
   340
1005
F6
1070
   271
1070
     1
1070
   272
1070
     2
1070
    77
1070
     1
1070
    73
1070
     0
1070
   171
1070
     3
1070
   274
1070
     4
1070
   177
1070
   150
1070
   176
1070
     9
1070
   178
1070
    43
1070
    78
1070
     8
1070
    48
1040
-0.005
1070
    41
1041
3.175
1070
   147
1041
2.25
1070
    42
1041
1.5875
1070
    44
1041
3.175
1070
   140
1041
4.5
1070
   343
1005
108
1070
   344
1005
108
1002
}
0
DIMENSION
5
139
100
AcDbEntity
8
2
62
256
6
ByLayer
370
13
48
1
60
0
100
AcDbDimension
2
DimnDraft3D4
10
29.736972
20
-18.325
30
0
11
17.448836
21
-31.616193
31
0
70
34
71
5
72
1
41
1
210
0
220
0
230
1
3
Standard
100
AcDb2LineAngularDimension
13
28.90168
23
-19.911412
33
0
14
17.916755
24
-19.335717
34
0
15
29.736972
25
-19.9125
35
0
16
14.184652
26
-34.713789
36
0
40
0
0
ENDSEC
0
SECTION
2
OBJECTS
0
DICTIONARY
5
1a3
330
0
100
AcDbDictionary
280
0
281
1
3
ACAD_GROUP
350
1a4
3
ACAD_MLINESTYLE
350
1a5
0
DICTIONARY
5
1a4
330
0
100
AcDbDictionary
280
0
281
1
0
DICTIONARY
5
1a5
330
0
100
AcDbDictionary
280
0
281
1
3
Standard
350
18
0
MLINESTYLE
5
18
330
1a5
100
AcDbMlineStyle
2
Standard
70
0
3

62
256
51
90
52
90
71
2
49
-0.5
62
256
6
ByLayer
49
0.5
62
256
6
ByLayer
0
RASTERVARIABLES
5
192
330

100
AcDbRasterVariables
90
0
70
1
71
1
72
1
0
ENDSEC
0
EOF
