0
SECTION
2
HEADER
9
$ACADVER
1
AC1015
9
$DWGCODEPAGE
3
ANSI_1252
9
$HANDSEED
5
1b1
9
$ANGBASE
50
0
9
$ANGDIR
70
0
9
$ATTMODE
70
1
9
$AUNITS
70
0
9
$AUPREC
70
0
9
$CECOLOR
62
256
9
$CELTSCALE
40
1
9
$CELTYPE
6
ByLayer
9
$CELWEIGHT
370
18
9
$CLAYER
8
0
9
$CMLJUST
70
0
9
$CMLSCALE
40
1
9
$CMLSTYLE
2
Standard
9
$DIMSTYLE
2
Standard
9
$TEXTSIZE
40
0.2
9
$TEXTSTYLE
7
Standard
9
$LUNITS
70
2
9
$LUPREC
70
4
9
$EXTNAMES
290
1
9
$INSUNITS
70
4
9
$LTSCALE
40
1
9
$LWDISPLAY
290
1
9
$PDMODE
70
0
9
$PDSIZE
40
0
9
$PLINEGEN
70
0
0
ENDSEC
0
SECTION
2
CLASSES
0
CLASS
1
RASTERVARIABLES
2
AcDbRasterVariables
3
ISM
90
0
280
0
281
0
0
ENDSEC
0
SECTION
2
TABLES
0
TABLE
2
VPORT
5
1a7
100
AcDbSymbolTable
0
VPORT
5
1
100
AcDbSymbolTableRecord
100
AcDbViewportTableRecord
2
*Active
70
0
10
0
20
0
11
1
21
1
12
-1
22
1
13
0
23
0
14
0.5
24
0.5
15
10
25
10
16
0
26
0
36
1
17
0
27
0
37
0
0
ENDTAB
0
TABLE
2
LTYPE
5
1a8
100
AcDbSymbolTable
0
LTYPE
5
14
100
AcDbSymbolTableRecord
100
AcDbLinetypeTableRecord
70
0
2
ByBlock
3

72
65
73
0
40
0
0
LTYPE
5
15
100
AcDbSymbolTableRecord
100
AcDbLinetypeTableRecord
70
0
2
ByLayer
3

72
65
73
0
40
0
0
LTYPE
5
16
100
AcDbSymbolTableRecord
100
AcDbLinetypeTableRecord
70
0
2
CONTINUOUS
3
Solid line
72
65
73
0
40
0
0
LTYPE
5
6A
100
AcDbSymbolTableRecord
100
AcDbLinetypeTableRecord
70
0
2
CENTER
3
____ _ ____ _ ____ _ ____
72
65
73
4
40
47.5
49
22
74
0
49
-8.5
74
0
49
8.5
74
0
49
-8.5
74
0
0
LTYPE
5
6B
100
AcDbSymbolTableRecord
100
AcDbLinetypeTableRecord
70
0
2
DASHED
3
__ __ __ __ __ __ __ __ __
72
65
73
2
40
25.72
49
12.86
74
0
49
-12.86
74
0
0
ENDTAB
0
TABLE
2
LAYER
5
1a9
100
AcDbSymbolTable
0
LAYER
5
10
100
AcDbSymbolTableRecord
100
AcDbLayerTableRecord
2
0
70
0
62
7
6
CONTINUOUS
290
1
370
-3
390
0
0
LAYER
5
6D
100
AcDbSymbolTableRecord
100
AcDbLayerTableRecord
2
80
70
0
62
-6
6
CONTINUOUS
290
1
370
-3
390
0
0
LAYER
5
6F
100
AcDbSymbolTableRecord
100
AcDbLayerTableRecord
2
81
70
0
62
-3
6
CONTINUOUS
290
1
370
-3
390
0
0
LAYER
5
71
100
AcDbSymbolTableRecord
100
AcDbLayerTableRecord
2
1
70
0
62
4
6
CONTINUOUS
290
1
370
-3
390
0
0
LAYER
5
113
100
AcDbSymbolTableRecord
100
AcDbLayerTableRecord
2
2
70
0
62
7
6
CONTINUOUS
290
1
370
-3
390
0
0
LAYER
5
194
100
AcDbSymbolTableRecord
100
AcDbLayerTableRecord
2
SK1
70
0
62
4
6
CONTINUOUS
290
1
370
-3
390
0
0
LAYER
5
195
100
AcDbSymbolTableRecord
100
AcDbLayerTableRecord
2
SK6
70
0
62
5
6
CONTINUOUS
290
1
370
-3
390
0
0
LAYER
5
196
100
AcDbSymbolTableRecord
100
AcDbLayerTableRecord
2
SK2
70
0
62
7
6
CONTINUOUS
290
1
370
-3
390
0
0
ENDTAB
0
TABLE
2
STYLE
5
1aa
100
AcDbSymbolTable
0
STYLE
5
11
100
AcDbSymbolTableRecord
100
AcDbTextStyleTableRecord
2
Standard
3
txt
70
0
71
0
40
0
41
1
42
0
50
0
0
STYLE
5
F8
100
AcDbSymbolTableRecord
100
AcDbTextStyleTableRecord
2
iso_b_vert
3
simplex.shx
70
0
71
0
40
0
41
1
42
0
50
0
0
STYLE
5
F9
100
AcDbSymbolTableRecord
100
AcDbTextStyleTableRecord
2
DWGDirectTextStyle
3
simplex
70
0
71
0
40
0
41
1
42
0
50
0
0
ENDTAB
0
TABLE
2
DIMSTYLE
5
1ab
100
AcDbSymbolTable
100
AcDbDimStyleTable
0
DIMSTYLE
105
27
100
AcDbSymbolTableRecord
100
AcDbDimStyleTableRecord
2
Standard
70
0
3
<>
41
0.18
42
0.0625
44
0.18
140
0.18
147
0.09
73
0
74
0
77
1
271
2
275
0
278
52
280
0
340
11
0
ENDTAB
0
TABLE
2
VIEW
5
1ac
100
AcDbSymbolTable
0
ENDTAB
0
TABLE
2
UCS
5
1ad
100
AcDbSymbolTable
0
ENDTAB
0
TABLE
2
APPID
5
1ae
100
AcDbSymbolTable
0
APPID
5
12
100
AcDbSymbolTableRecord
100
AcDbRegAppTableRecord
2
ACAD
70
0
0
ENDTAB
0
TABLE
2
BLOCK_RECORD
5
1af
100
AcDbSymbolTable
0
BLOCK_RECORD
5
1F
100
AcDbSymbolTableRecord
100
AcDbBlockTableRecord
2
*Model_Space
340
0
70
0
0
BLOCK_RECORD
5
1B
100
AcDbSymbolTableRecord
100
AcDbBlockTableRecord
2
*Paper_Space
340
0
70
0
0
BLOCK_RECORD
5
23
100
AcDbSymbolTableRecord
100
AcDbBlockTableRecord
2
*Paper_Space0
340
0
70
0
0
BLOCK_RECORD
5
FB
100
AcDbSymbolTableRecord
100
AcDbBlockTableRecord
2
DimnDraft3D1
340
0
70
0
0
BLOCK_RECORD
5
10A
100
AcDbSymbolTableRecord
100
AcDbBlockTableRecord
2
_CLOSED
340
0
70
0
0
BLOCK_RECORD
5
111
100
AcDbSymbolTableRecord
100
AcDbBlockTableRecord
2
DimnDraft3D2
340
0
70
0
0
BLOCK_RECORD
5
120
100
AcDbSymbolTableRecord
100
AcDbBlockTableRecord
2
DimnDraft3D3
340
0
70
0
0
BLOCK_RECORD
5
12E
100
AcDbSymbolTableRecord
100
AcDbBlockTableRecord
2
DimnDraft3D4
340
0
70
0
0
ENDTAB
0
ENDSEC
0
SECTION
2
BLOCKS
0
BLOCK
5
20
100
AcDbEntity
8
0
100
AcDbBlockBegin
2
*Model_Space
70
0
10
0
20
0
30
0
3
*Model_Space
0
ENDBLK
5
21
100
AcDbEntity
8
0
100
AcDbBlockEnd
0
BLOCK
5
1C
100
AcDbEntity
8
0
100
AcDbBlockBegin
2
*Paper_Space
70
0
10
0
20
0
30
0
3
*Paper_Space
0
ENDBLK
5
1D
100
AcDbEntity
8
0
100
AcDbBlockEnd
0
BLOCK
5
24
100
AcDbEntity
8
0
100
AcDbBlockBegin
2
*Paper_Space0
70
0
10
0
20
0
30
0
3
*Paper_Space0
0
ENDBLK
5
25
100
AcDbEntity
8
0
100
AcDbBlockEnd
0
BLOCK
5
107
100
AcDbEntity
8
0
100
AcDbBlockBegin
2
DimnDraft3D1
70
0
10
0
20
0
30
0
3
DimnDraft3D1
0
MTEXT
5
FC
100
AcDbEntity
8
SK2
62
256
6
ByLayer
370
13
48
1
60
0
100
AcDbMText
10
-224.33737
20
-1.725
30
0
210
0
220
0
230
1
1
\W0.7361;40
40
4.5
41
0
44
1.084337
50
90
71
7
72
5
7
iso_b_vert
0
LINE
5
FE
100
AcDbEntity
8
SK2
62
256
6
ByLayer
370
13
48
1
60
0
100
AcDbLine
10
-215.04987
20
20.075
30
0
11
-226.38737
21
20.075
31
0
39
0
210
0
220
0
230
1
0
LINE
5
FF
100
AcDbEntity
8
SK2
62
256
6
ByLayer
370
13
48
1
60
0
100
AcDbLine
10
-215.04987
20
-19.925
30
0
11
-226.38737
21
-19.925
31
0
39
0
210
0
220
0
230
1
0
LINE
5
100
100
AcDbEntity
8
SK2
62
256
6
ByLayer
370
13
48
1
60
0
100
AcDbLine
10
-223.21237
20
20.075
30
0
11
-223.21237
21
-19.925
31
0
39
0
210
0
220
0
230
1
0
LINE
5
101
100
AcDbEntity
8
SK2
62
256
6
ByLayer
370
13
48
1
60
0
100
AcDbLine
10
-223.21237
20
20.075
30
0
11
-222.361631
21
16.900003
31
0
39
0
210
0
220
0
230
1
0
LINE
5
102
100
AcDbEntity
8
SK2
62
256
6
ByLayer
370
13
48
1
60
0
100
AcDbLine
10
-223.21237
20
20.075
30
0
11
-224.063109
21
16.899997
31
0
39
0
210
0
220
0
230
1
0
LINE
5
103
100
AcDbEntity
8
SK2
62
256
6
ByLayer
370
13
48
1
60
0
100
AcDbLine
10
-222.361631
20
16.900003
30
0
11
-224.063109
21
16.899997
31
0
39
0
210
0
220
0
230
1
0
LINE
5
104
100
AcDbEntity
8
SK2
62
256
6
ByLayer
370
13
48
1
60
0
100
AcDbLine
10
-223.21237
20
-19.925
30
0
11
-224.063109
21
-16.750003
31
0
39
0
210
0
220
0
230
1
0
LINE
5
105
100
AcDbEntity
8
SK2
62
256
6
ByLayer
370
13
48
1
60
0
100
AcDbLine
10
-223.21237
20
-19.925
30
0
11
-222.361631
21
-16.749997
31
0
39
0
210
0
220
0
230
1
0
LINE
5
106
100
AcDbEntity
8
SK2
62
256
6
ByLayer
370
13
48
1
60
0
100
AcDbLine
10
-224.063109
20
-16.750003
30
0
11
-222.361631
21
-16.749997
31
0
39
0
210
0
220
0
230
1
0
ENDBLK
5
108
100
AcDbEntity
8
0
100
AcDbBlockEnd
0
BLOCK
5
10B
100
AcDbEntity
8
0
100
AcDbBlockBegin
2
_CLOSED
70
0
10
0
20
0
30
0
3
_CLOSED
0
LINE
5
10D
100
AcDbEntity
8
0
62
256
6
ByLayer
370
-2
48
1
60
0
100
AcDbLine
10
-1
20
0.166667
30
0
11
0
21
0
31
0
39
0
210
0
220
0
230
1
0
LINE
5
10E
100
AcDbEntity
8
0
62
256
6
ByLayer
370
-2
48
1
60
0
100
AcDbLine
10
0
20
0
30
0
11
-1
21
-0.166667
31
0
39
0
210
0
220
0
230
1
0
LINE
5
10F
100
AcDbEntity
8
0
62
256
6
ByLayer
370
-2
48
1
60
0
100
AcDbLine
10
-1
20
0.166667
30
0
11
-1
21
-0.166667
31
0
39
0
210
0
220
0
230
1
0
LINE
5
110
100
AcDbEntity
8
0
62
256
6
ByLayer
370
-2
48
1
60
0
100
AcDbLine
10
0
20
0
30
0
11
-1
21
0
31
0
39
0
210
0
220
0
230
1
0
ENDBLK
5
10C
100
AcDbEntity
8
0
100
AcDbBlockEnd
0
BLOCK
5
11D
100
AcDbEntity
8
0
100
AcDbBlockBegin
2
DimnDraft3D2
70
0
10
0
20
0
30
0
3
DimnDraft3D2
0
MTEXT
5
112
100
AcDbEntity
8
2
62
256
6
ByLayer
370
13
48
1
60
0
100
AcDbMText
10
53.26263
20
3.686842
30
0
210
0
220
0
230
1
1
\W0.6740;50
40
4.5
41
0
44
1.084337
50
90
71
7
72
5
7
iso_b_vert
0
LINE
5
114
100
AcDbEntity
8
2
62
256
6
ByLayer
370
13
48
1
60
0
100
AcDbLine
10
1.5875
20
-19.925
30
0
11
57.56263
21
-19.925
31
0
39
0
210
0
220
0
230
1
0
LINE
5
115
100
AcDbEntity
8
2
62
256
6
ByLayer
370
13
48
1
60
0
100
AcDbLine
10
39.47513
20
30.425
30
0
11
57.56263
21
30.425
31
0
39
0
210
0
220
0
230
1
0
LINE
5
116
100
AcDbEntity
8
2
62
256
6
ByLayer
370
13
48
1
60
0
100
AcDbLine
10
54.38763
20
-19.925
30
0
11
54.38763
21
30.425
31
0
39
0
210
0
220
0
230
1
0
LINE
5
117
100
AcDbEntity
8
2
62
256
6
ByLayer
370
13
48
1
60
0
100
AcDbLine
10
54.38763
20
-19.925
30
0
11
53.536891
21
-16.750003
31
0
39
0
210
0
220
0
230
1
0
LINE
5
118
100
AcDbEntity
8
2
62
256
6
ByLayer
370
13
48
1
60
0
100
AcDbLine
10
54.38763
20
-19.925
30
0
11
55.238369
21
-16.749997
31
0
39
0
210
0
220
0
230
1
0
LINE
5
119
100
AcDbEntity
8
2
62
256
6
ByLayer
370
13
48
1
60
0
100
AcDbLine
10
53.536891
20
-16.750003
30
0
11
55.238369
21
-16.749997
31
0
39
0
210
0
220
0
230
1
0
LINE
5
11A
100
AcDbEntity
8
2
62
256
6
ByLayer
370
13
48
1
60
0
100
AcDbLine
10
54.38763
20
30.425
30
0
11
55.238369
21
27.250003
31
0
39
0
210
0
220
0
230
1
0
LINE
5
11B
100
AcDbEntity
8
2
62
256
6
ByLayer
370
13
48
1
60
0
100
AcDbLine
10
54.38763
20
30.425
30
0
11
53.536891
21
27.249997
31
0
39
0
210
0
220
0
230
1
0
LINE
5
11C
100
AcDbEntity
8
2
62
256
6
ByLayer
370
13
48
1
60
0
100
AcDbLine
10
55.238369
20
27.250003
30
0
11
53.536891
21
27.249997
31
0
39
0
210
0
220
0
230
1
0
ENDBLK
5
11E
100
AcDbEntity
8
0
100
AcDbBlockEnd
0
BLOCK
5
12B
100
AcDbEntity
8
0
100
AcDbBlockBegin
2
DimnDraft3D3
70
0
10
0
20
0
30
0
3
DimnDraft3D3
0
MTEXT
5
121
100
AcDbEntity
8
SK2
62
256
6
ByLayer
370
13
48
1
60
0
100
AcDbMText
10
-91.032107
20
49.05
30
0
210
0
220
0
230
1
1
\W0.7138;250
40
4.5
41
0
44
1.084337
50
0
71
7
72
5
7
iso_b_vert
0
LINE
5
122
100
AcDbEntity
8
SK2
62
256
6
ByLayer
370
13
48
1
60
0
100
AcDbLine
10
-213.46237
20
21.6625
30
0
11
-213.46237
21
51.1
31
0
39
0
210
0
220
0
230
1
0
LINE
5
123
100
AcDbEntity
8
SK2
62
256
6
ByLayer
370
13
48
1
60
0
100
AcDbLine
10
37.88763
20
32.0125
30
0
11
37.88763
21
51.1
31
0
39
0
210
0
220
0
230
1
0
LINE
5
124
100
AcDbEntity
8
SK2
62
256
6
ByLayer
370
13
48
1
60
0
100
AcDbLine
10
-213.46237
20
47.925
30
0
11
37.88763
21
47.925
31
0
39
0
210
0
220
0
230
1
0
LINE
5
125
100
AcDbEntity
8
SK2
62
256
6
ByLayer
370
13
48
1
60
0
100
AcDbLine
10
-213.46237
20
47.925
30
0
11
-210.287373
21
48.775739
31
0
39
0
210
0
220
0
230
1
0
LINE
5
126
100
AcDbEntity
8
SK2
62
256
6
ByLayer
370
13
48
1
60
0
100
AcDbLine
10
-213.46237
20
47.925
30
0
11
-210.287367
21
47.074261
31
0
39
0
210
0
220
0
230
1
0
LINE
5
127
100
AcDbEntity
8
SK2
62
256
6
ByLayer
370
13
48
1
60
0
100
AcDbLine
10
-210.287373
20
48.775739
30
0
11
-210.287367
21
47.074261
31
0
39
0
210
0
220
0
230
1
0
LINE
5
128
100
AcDbEntity
8
SK2
62
256
6
ByLayer
370
13
48
1
60
0
100
AcDbLine
10
37.88763
20
47.925
30
0
11
34.712633
21
47.074261
31
0
39
0
210
0
220
0
230
1
0
LINE
5
129
100
AcDbEntity
8
SK2
62
256
6
ByLayer
370
13
48
1
60
0
100
AcDbLine
10
37.88763
20
47.925
30
0
11
34.712627
21
48.775739
31
0
39
0
210
0
220
0
230
1
0
LINE
5
12A
100
AcDbEntity
8
SK2
62
256
6
ByLayer
370
13
48
1
60
0
100
AcDbLine
10
34.712633
20
47.074261
30
0
11
34.712627
21
48.775739
31
0
39
0
210
0
220
0
230
1
0
ENDBLK
5
12C
100
AcDbEntity
8
0
100
AcDbBlockEnd
0
BLOCK
5
138
100
AcDbEntity
8
0
100
AcDbBlockBegin
2
DimnDraft3D4
70
0
10
0
20
0
30
0
3
DimnDraft3D4
0
MTEXT
5
12F
100
AcDbEntity
8
2
62
256
6
ByLayer
370
13
48
1
60
0
100
AcDbMText
10
24.226287
20
35.635427
30
0
210
0
220
0
230
1
1
\W0.8292;95%%d0'
40
4.5
41
0
44
1.084337
50
47.5
71
7
72
5
7
iso_b_vert
0
LINE
5
130
100
AcDbEntity
8
2
62
256
6
ByLayer
370
13
48
1
60
0
100
AcDbLine
10
37.88763
20
32.0125
30
0
11
37.88763
21
46.102579
31
0
39
0
210
0
220
0
230
1
0
ARC
5
131
100
AcDbEntity
8
2
62
256
6
ByLayer
370
13
48
1
60
0
100
AcDbCircle
39
0
10
37.88763
20
30.533714
30
0
40
12.3938651100264
210
0
220
0
230
1
100
AcDbArc
50
90
51
185
0
LINE
5
132
100
AcDbEntity
8
2
62
256
6
ByLayer
370
13
48
1
60
0
100
AcDbLine
10
37.88763
20
42.927579
30
0
11
34.773225
21
41.876465
31
0
39
0
210
0
220
0
230
1
0
LINE
5
133
100
AcDbEntity
8
2
62
256
6
ByLayer
370
13
48
1
60
0
100
AcDbLine
10
37.88763
20
42.927579
30
0
11
34.664913
21
43.574491
31
0
39
0
210
0
220
0
230
1
0
LINE
5
134
100
AcDbEntity
8
2
62
256
6
ByLayer
370
13
48
1
60
0
100
AcDbLine
10
34.773225
20
41.876465
30
0
11
34.664913
21
43.574491
31
0
39
0
210
0
220
0
230
1
0
LINE
5
135
100
AcDbEntity
8
2
62
256
6
ByLayer
370
13
48
1
60
0
100
AcDbLine
10
25.540927
20
29.453518
30
0
11
24.615599
21
32.607583
31
0
39
0
210
0
220
0
230
1
0
LINE
5
136
100
AcDbEntity
8
2
62
256
6
ByLayer
370
13
48
1
60
0
100
AcDbLine
10
25.540927
20
29.453518
30
0
11
26.316603
21
32.647689
31
0
39
0
210
0
220
0
230
1
0
LINE
5
137
100
AcDbEntity
8
2
62
256
6
ByLayer
370
13
48
1
60
0
100
AcDbLine
10
24.615599
20
32.607583
30
0
11
26.316603
21
32.647689
31
0
39
0
210
0
220
0
230
1
0
ENDBLK
5
139
100
AcDbEntity
8
0
100
AcDbBlockEnd
0
ENDSEC
0
SECTION
2
ENTITIES
0
ARC
5
B3
100
AcDbEntity
8
1
62
256
6
ByLayer
370
18
48
1
60
0
100
AcDbCircle
39
0
10
0
20
21.525
30
0
40
1.6000000000002
210
0
220
0
230
-1
100
AcDbArc
50
195
51
270
0
ELLIPSE
5
B4
100
AcDbEntity
8
1
62
256
6
ByLayer
370
18
48
1
60
0
100
AcDbEllipse
10
23.717694
20
6.319171
30
0
11
0.149497441244717
21
-0.0122684579830755
31
0
210
0
220
0
230
1
40
0.112627
41
-1.66605064319157
42
-0.0836182062736691
0
ELLIPSE
5
B5
100
AcDbEntity
8
1
62
256
6
ByLayer
370
18
48
1
60
0
100
AcDbEllipse
10
21.24057
20
16.721253
30
0
11
-2.54558441227166
21
2.54558441227148
31
0
210
0
220
0
230
1
40
0.989133
41
0.698131700797706
42
0.987818694794823
0
ELLIPSE
5
B6
100
AcDbEntity
8
1
62
256
6
ByLayer
370
18
48
1
60
0
100
AcDbEllipse
10
0
20
-19.931981
30
0
11
1.59999999999886
21
1.61702248813063E-15
31
0
210
0
220
0
230
-1
40
0.004363
41
-1.5707963267949
42
-0.261799387798575
0
ELLIPSE
5
B7
100
AcDbEntity
8
1
62
256
6
ByLayer
370
18
48
1
60
0
100
AcDbEllipse
10
20.486987
20
8.006233
30
0
11
2.41234144856478
21
-2.41234144856461
31
0
210
0
220
0
230
1
40
0.989133
41
-2.4434609527921
42
-1.07203324418766
0
ELLIPSE
5
B8
100
AcDbEntity
8
1
62
256
6
ByLayer
370
18
48
1
60
0
100
AcDbEllipse
10
21.535553
20
20.315768
30
0
11
-2.54558441227166
21
2.54558441227148
31
0
210
0
220
0
230
1
40
0.989133
41
0.40844470680057
42
0.698131700797689
0
ELLIPSE
5
B9
100
AcDbEntity
8
1
62
256
6
ByLayer
370
18
48
1
60
0
100
AcDbEllipse
10
20.249405
20
6.624358
30
0
11
-2.46296199375087
21
2.4629619937507
31
0
210
0
220
0
230
1
40
0.989133
41
-2.93202769941752
42
-2.44346095279211
0
ELLIPSE
5
BA
100
AcDbEntity
8
1
62
256
6
ByLayer
370
18
48
1
60
0
100
AcDbEllipse
10
20.26518
20
6.640133
30
0
11
2.56902083039043
21
-2.56902083039025
31
0
210
0
220
0
230
1
40
0.989133
41
0.294927802169916
42
0.698131700797699
0
ELLIPSE
5
BB
100
AcDbEntity
8
1
62
256
6
ByLayer
370
18
48
1
60
0
100
AcDbEllipse
10
21.351398
20
7.726351
30
0
11
2.48304899978692
21
-2.48304899978675
31
0
210
0
220
0
230
1
40
0.989133
41
-1.33430048967814
42
0.6981317007977
0
ELLIPSE
5
BC
100
AcDbEntity
8
1
62
256
6
ByLayer
370
18
48
1
60
0
100
AcDbEllipse
10
24.395339
20
9.687136
30
0
11
0.0138248253323294
21
0.151738984040644
31
0
210
0
220
0
230
-1
40
0.08174
41
3.02056666818063
42
-1.68018678385956
0
ELLIPSE
5
BD
100
AcDbEntity
8
1
62
256
6
ByLayer
370
18
48
1
60
0
100
AcDbEllipse
10
10.589508
20
12.26861
30
0
11
3.18198051533958
21
-3.18198051533935
31
0
210
0
220
0
230
1
40
0.989133
41
0
42
6.28318530717959
0
ELLIPSE
5
BE
100
AcDbEntity
8
1
62
256
6
ByLayer
370
18
48
1
60
0
100
AcDbEllipse
10
17.905893
20
10.443263
30
0
11
0.841899011350263
21
-0.841899011350203
31
0
210
0
220
0
230
1
40
0.989133
41
-1.42746124643986
42
-0.698131700797789
0
ELLIPSE
5
BF
100
AcDbEntity
8
1
62
256
6
ByLayer
370
18
48
1
60
0
100
AcDbEllipse
10
26.974597
20
19.511967
30
0
11
-2.80191062045179
21
2.80191062045159
31
0
210
0
220
0
230
1
40
0.989133
41
-3.01066211150631
42
-2.43123472941713
0
ELLIPSE
5
C0
100
AcDbEntity
8
1
62
256
6
ByLayer
370
18
48
1
60
0
100
AcDbEllipse
10
26.974597
20
19.511967
30
0
11
-2.80191062045179
21
2.80191062045159
31
0
210
0
220
0
230
1
40
0.989133
41
-0.983353246500567
42
-0.130999777423027
0
ELLIPSE
5
C1
100
AcDbEntity
8
1
62
256
6
ByLayer
370
18
48
1
60
0
100
AcDbEllipse
10
9.9667
20
11.645802
30
0
11
1.4637110370562
21
-1.4637110370561
31
0
210
0
220
0
230
1
40
0.989133
41
0.205543115919367
42
0.790861237020399
0
ELLIPSE
5
C2
100
AcDbEntity
8
1
62
256
6
ByLayer
370
18
48
1
60
0
100
AcDbEllipse
10
9.9667
20
11.645802
30
0
11
1.4637110370562
21
-1.4637110370561
31
0
210
0
220
0
230
1
40
0.989133
41
0.790861237020399
42
3.07224668117097
0
ELLIPSE
5
C3
100
AcDbEntity
8
1
62
256
6
ByLayer
370
18
48
1
60
0
100
AcDbEllipse
10
10.091454
20
11.770556
30
0
11
-1.4637110370562
21
1.4637110370561
31
0
210
0
220
0
230
1
40
0.989133
41
-0.127724571218992
42
7.63026845251834E-06
0
ELLIPSE
5
C4
100
AcDbEntity
8
1
62
256
6
ByLayer
370
18
48
1
60
0
100
AcDbEllipse
10
10.091454
20
11.770556
30
0
11
-1.4637110370562
21
1.4637110370561
31
0
210
0
220
0
230
1
40
0.989133
41
-2.97985855471563
42
-2.66480223197206
0
ELLIPSE
5
C5
100
AcDbEntity
8
1
62
256
6
ByLayer
370
18
48
1
60
0
100
AcDbEllipse
10
25.82582
20
18.363191
30
0
11
-2.94156420973614
21
2.94156420973593
31
0
210
0
220
0
230
1
40
0.989133
41
-2.7459281363449
42
-2.69842199145135
0
ELLIPSE
5
C6
100
AcDbEntity
8
1
62
256
6
ByLayer
370
18
48
1
60
0
100
AcDbEllipse
10
26.567245
20
20.034863
30
0
11
-2.82842712474629
21
2.82842712474609
31
0
210
0
220
0
230
1
40
0.989133
41
2.66010864285825
42
3.1415706401891
0
ELLIPSE
5
C7
100
AcDbEntity
8
1
62
256
6
ByLayer
370
18
48
1
60
0
100
AcDbEllipse
10
27.162589
20
18.769711
30
0
11
2.82842712474629
21
-2.82842712474609
31
0
210
0
220
0
230
1
40
0.989133
41
3.14156466750436
42
-2.8985281158666
0
ELLIPSE
5
C8
100
AcDbEntity
8
1
62
256
6
ByLayer
370
18
48
1
60
0
100
AcDbEllipse
10
26.991956
20
19.360035
30
0
11
-2.65165042944964
21
2.65165042944945
31
0
210
0
220
0
230
1
40
0.989133
41
1.11583146848117E-05
42
0.183809510220611
0
ELLIPSE
5
C9
100
AcDbEntity
8
1
62
256
6
ByLayer
370
18
48
1
60
0
100
AcDbEllipse
10
25.586189
20
18.123559
30
0
11
3.00520382004292
21
-3.00520382004271
31
0
210
0
220
0
230
1
40
0.989133
41
0.454985572890374
42
0.478252900459997
0
ELLIPSE
5
CA
100
AcDbEntity
8
1
62
256
6
ByLayer
370
18
48
1
60
0
100
AcDbEllipse
10
19.941605
20
27.865271
30
0
11
-0.841899011350263
21
0.841899011350203
31
0
210
0
220
0
230
1
40
0.989133
41
-0.698131700797761
42
0.69813170079769
0
ELLIPSE
5
CB
100
AcDbEntity
8
1
62
256
6
ByLayer
370
18
48
1
60
0
100
AcDbEllipse
10
18.566049
20
11.10342
30
0
11
-0.841899011350263
21
0.841899011350203
31
0
210
0
220
0
230
1
40
0.989133
41
0.698131700797723
42
2.44346095279201
0
ELLIPSE
5
CC
100
AcDbEntity
8
1
62
256
6
ByLayer
370
18
48
1
60
0
100
AcDbEllipse
10
27.634753
20
20.172123
30
0
11
-2.80191062045179
21
2.80191062045159
31
0
210
0
220
0
230
1
40
0.989133
41
0
42
6.28318530717959
0
ELLIPSE
5
CD
100
AcDbEntity
8
1
62
256
6
ByLayer
370
18
48
1
60
0
100
AcDbEllipse
10
35.327901
20
12.478975
30
0
11
-0.841899011350263
21
0.841899011350203
31
0
210
0
220
0
230
1
40
0.989133
41
2.44346095279204
42
-2.4434609527921
0
ELLIPSE
5
CE
100
AcDbEntity
8
1
62
256
6
ByLayer
370
18
48
1
60
0
100
AcDbEllipse
10
36.703456
20
29.240827
30
0
11
-0.841899011350263
21
0.841899011350203
31
0
210
0
220
0
230
1
40
0.989133
41
-2.44346095279209
42
-0.698131700797758
0
ELLIPSE
5
CF
100
AcDbEntity
8
1
62
256
6
ByLayer
370
18
48
1
60
0
100
AcDbEllipse
10
27.83834
20
19.445462
30
0
11
-2.47487373415301
21
2.47487373415283
31
0
210
0
220
0
230
1
40
0.989133
41
-1.45937146754695
42
0.761239766749135
0
ELLIPSE
5
D0
100
AcDbEntity
8
1
62
256
6
ByLayer
370
18
48
1
60
0
100
AcDbEllipse
10
27.488687
20
20.026057
30
0
11
2.65165042944965
21
-2.65165042944946
31
0
210
0
220
0
230
1
40
0.989133
41
-2.19919488856003
42
-1.64052946582762
0
ELLIPSE
5
D1
100
AcDbEntity
8
1
62
256
6
ByLayer
370
18
48
1
60
0
100
AcDbEllipse
10
27.191014
20
20.658633
30
0
11
2.82842712474629
21
-2.82842712474609
31
0
210
0
220
0
230
1
40
0.989133
41
-1.47150891708687
42
0.773377216288961
0
ELLIPSE
5
D2
100
AcDbEntity
8
1
62
256
6
ByLayer
370
18
48
1
60
0
100
AcDbEllipse
10
27.786359
20
19.393481
30
0
11
2.82842712474629
21
-2.82842712474609
31
0
210
0
220
0
230
1
40
0.989133
41
1.67008373650296
42
-2.36821543730078
0
ELLIPSE
5
D3
100
AcDbEntity
8
1
62
256
6
ByLayer
370
18
48
1
60
0
100
AcDbEllipse
10
27.242995
20
20.710614
30
0
11
-2.474873734153
21
2.47487373415283
31
0
210
0
220
0
230
1
40
0.989133
41
1.68222118604279
42
-2.38035288684071
0
ELLIPSE
5
D4
100
AcDbEntity
8
1
62
256
6
ByLayer
370
18
48
1
60
0
100
AcDbEllipse
10
27.488687
20
20.026057
30
0
11
2.65165042944964
21
-2.65165042944945
31
0
210
0
220
0
230
1
40
0.989133
41
0.94239776502971
42
1.50106318776222
0
ELLIPSE
5
D5
100
AcDbEntity
8
1
62
256
6
ByLayer
370
18
48
1
60
0
100
AcDbEllipse
10
27.540668
20
20.078038
30
0
11
-2.29809703885636
21
2.29809703885619
31
0
210
0
220
0
230
1
40
0.989133
41
-2.18618616941951
42
-1.65353818496814
0
ELLIPSE
5
D6
100
AcDbEntity
8
1
62
256
6
ByLayer
370
18
48
1
60
0
100
AcDbEllipse
10
27.540668
20
20.078038
30
0
11
-2.29809703885636
21
2.2980970388562
31
0
210
0
220
0
230
1
40
0.989133
41
0.955406484170331
42
1.48805446862158
0
ELLIPSE
5
D7
100
AcDbEntity
8
1
62
256
6
ByLayer
370
18
48
1
60
0
100
AcDbEllipse
10
10.580073
20
12.259176
30
0
11
1.72703118440541
21
-1.72703118440528
31
0
210
0
220
0
230
1
40
0.989133
41
0
42
6.28318530717959
0
ELLIPSE
5
D8
100
AcDbEntity
8
1
62
256
6
ByLayer
370
18
48
1
60
0
100
AcDbEllipse
10
10.557722
20
12.236824
30
0
11
-1.4637110370562
21
1.4637110370561
31
0
210
0
220
0
230
1
40
0.989133
41
0.476790421617717
42
0.919472979977621
0
ELLIPSE
5
D9
100
AcDbEntity
8
1
62
256
6
ByLayer
370
18
48
1
60
0
100
AcDbEllipse
10
10.557722
20
12.236824
30
0
11
-1.4637110370562
21
1.4637110370561
31
0
210
0
220
0
230
1
40
0.989133
41
-1.61760468077546
42
-1.17492212241557
0
ELLIPSE
5
DA
100
AcDbEntity
8
1
62
256
6
ByLayer
370
18
48
1
60
0
100
AcDbEllipse
10
10.091454
20
11.770556
30
0
11
-1.4637110370562
21
1.4637110370561
31
0
210
0
220
0
230
1
40
0.989133
41
-1.17492212241557
42
-0.570407129578898
0
ELLIPSE
5
DB
100
AcDbEntity
8
1
62
256
6
ByLayer
370
18
48
1
60
0
100
AcDbEllipse
10
10.557722
20
12.236824
30
0
11
-1.4637110370562
21
1.4637110370561
31
0
210
0
220
0
230
1
40
0.989133
41
-0.570407129578904
42
-0.127724571218979
0
ELLIPSE
5
DC
100
AcDbEntity
8
1
62
256
6
ByLayer
370
18
48
1
60
0
100
AcDbEllipse
10
10.580073
20
12.259176
30
0
11
2.99459721832513
21
-2.99459721832492
31
0
210
0
220
0
230
1
40
0.989133
41
0
42
6.28318530717959
0
ELLIPSE
5
DD
100
AcDbEntity
8
1
62
256
6
ByLayer
370
18
48
1
60
0
100
AcDbEllipse
10
10.557722
20
12.236824
30
0
11
-1.4637110370562
21
1.4637110370561
31
0
210
0
220
0
230
1
40
0.989133
41
2.5711855240109
42
3.0138680823708
0
ELLIPSE
5
DE
100
AcDbEntity
8
1
62
256
6
ByLayer
370
18
48
1
60
0
100
AcDbEllipse
10
10.557722
20
12.236824
30
0
11
-1.4637110370562
21
1.4637110370561
31
0
210
0
220
0
230
1
40
0.989133
41
1.5239879728143
42
1.96667053117421
0
ELLIPSE
5
DF
100
AcDbEntity
8
1
62
256
6
ByLayer
370
18
48
1
60
0
100
AcDbEllipse
10
10.557722
20
12.236824
30
0
11
-1.4637110370562
21
1.4637110370561
31
0
210
0
220
0
230
1
40
0.989133
41
-2.66480223197207
42
-2.22211967361218
0
ELLIPSE
5
E0
100
AcDbEntity
8
1
62
256
6
ByLayer
370
18
48
1
60
0
100
AcDbEllipse
10
10.091454
20
11.770556
30
0
11
-1.4637110370562
21
1.4637110370561
31
0
210
0
220
0
230
1
40
0.989133
41
-2.22211967361219
42
-1.61760468077547
0
POINT
5
6C
100
AcDbEntity
8
80
62
256
6
ByLayer
370
18
48
1
60
0
100
AcDbPoint
10
0
20
0
30
0
39
0
210
0
220
0
230
1
50
360
0
POINT
5
6E
100
AcDbEntity
8
81
62
256
6
ByLayer
370
18
48
1
60
0
100
AcDbPoint
10
36.53763
20
30.075
30
0
39
0
210
0
220
0
230
1
50
360
0
POINT
5
70
100
AcDbEntity
8
1
62
256
6
ByLayer
370
18
48
1
60
0
100
AcDbPoint
10
-213.46237
20
-19.925
30
0
39
0
210
0
220
0
230
1
50
360
0
SPLINE
5
E1
100
AcDbEntity
8
1
62
256
6
ByLayer
370
18
48
1
60
0
100
AcDbSpline
70
4
71
3
72
8
73
4
40
0
40
0
40
0
40
0
40
1
40
1
40
1
40
1
41
1
10
24.2630929385576
20
21.5112699205405
30
0
41
1
10
24.2888123265722
20
21.5423667299291
30
0
41
1
10
24.3151173347751
20
21.5728281887175
30
0
41
1
10
24.3421755300533
20
21.6025415407969
30
0
0
SPLINE
5
E2
100
AcDbEntity
8
1
62
256
6
ByLayer
370
18
48
1
60
0
100
AcDbSpline
70
4
71
3
72
16
73
12
40
0
40
0
40
0
40
0
40
0.0762773400556599
40
0.0762773400556599
40
0.307208005041745
40
0.307208005041745
40
0.53813867002783
40
0.53813867002783
40
0.769069335013915
40
0.769069335013915
40
1
40
1
40
1
40
1
41
1
10
23.7376070119286
20
20.5575098112391
30
0
41
1
10
23.7402901608279
20
20.565495814105
30
0
41
1
10
23.7429435551128
20
20.5733368265414
30
0
41
1
10
23.7534773480377
20
20.6042765217388
30
0
41
1
10
23.7610052007584
20
20.6259829650903
30
0
41
1
10
23.7745514888863
20
20.6652442638275
30
0
41
1
10
23.7805449847445
20
20.6827316868559
30
0
41
1
10
23.7895816940691
20
20.7109066690297
30
0
41
1
10
23.7926868203289
20
20.7217641590092
30
0
41
1
10
23.7944643384036
20
20.734405412376
30
0
41
1
10
23.7930432921444
20
20.7358177649082
30
0
41
1
10
23.7889678492393
20
20.7317423220031
30
0
0
SPLINE
5
E3
100
AcDbEntity
8
1
62
256
6
ByLayer
370
18
48
1
60
0
100
AcDbSpline
70
4
71
3
72
10
73
6
40
0
40
0
40
0
40
0
40
0.863930246621292
40
0.863930246621292
40
1
40
1
40
1
40
1
41
1
10
25.2980031052146
20
22.7287708839696
30
0
41
1
10
25.490823169269
20
22.8071903699448
30
0
41
1
10
25.6890168146412
20
22.8691514272141
30
0
41
1
10
25.9246048196042
20
22.9220402187442
30
0
41
1
10
25.9567943529155
20
22.9288311740186
30
0
41
1
10
25.9891182984322
20
22.9352132804291
30
0
0
SPLINE
5
E4
100
AcDbEntity
8
1
62
256
6
ByLayer
370
18
48
1
60
0
100
AcDbSpline
70
4
71
3
72
16
73
12
40
0
40
0
40
0
40
0
40
0.0686342113202878
40
0.0686342113202878
40
0.408456133460925
40
0.408456133460925
40
0.578367094531242
40
0.578367094531242
40
0.74827805560156
40
0.74827805560156
40
1
40
1
40
1
40
1
41
1
10
29.3872798697051
20
16.6213577270765
30
0
41
1
10
29.4173214048509
20
16.6513396402657
30
0
41
1
10
29.4468085925672
20
16.6817849060345
30
0
41
1
10
29.6187048093794
20
16.8653798097585
30
0
41
1
10
29.7480701257807
20
17.0289457456351
30
0
41
1
10
29.9220675760773
20
17.2902843892193
30
0
41
1
10
29.9767086631285
20
17.3800755917214
30
0
41
1
10
30.0791514682798
20
17.5651361833499
30
0
41
1
10
30.1264436114299
20
17.6595307170242
30
0
41
1
10
30.23355494732
20
17.8964110309261
30
0
41
1
10
30.2887441988683
20
18.0406611816329
30
0
41
1
10
30.3355067550777
20
18.1875279978643
30
0
0
SPLINE
5
E5
100
AcDbEntity
8
1
62
256
6
ByLayer
370
18
48
1
60
0
100
AcDbSpline
70
4
71
3
72
14
73
10
40
0
40
0
40
0
40
0
40
0.0878971750606971
40
0.0878971750606971
40
0.315922881295523
40
0.315922881295523
40
0.543948587530348
40
0.543948587530348
40
1
40
1
40
1
40
1
41
1
10
23.9594301675726
20
21.5217215390434
30
0
41
1
10
23.9869312903253
20
21.564613282805
30
0
41
1
10
24.0155813004405
20
21.6070917826563
30
0
41
1
10
24.1226121256166
20
21.7580532803671
30
0
41
1
10
24.2074674934613
20
21.8638377145508
30
0
41
1
10
24.3924824484901
20
22.0676025018851
30
0
41
1
10
24.4928241252695
20
22.165572546953
30
0
41
1
10
24.8090568874605
20
22.4390733797329
30
0
41
1
10
25.0424168181287
20
22.5972933129814
30
0
41
1
10
25.2980031052147
20
22.7287708839696
30
0
0
SPLINE
5
E6
100
AcDbEntity
8
1
62
256
6
ByLayer
370
18
48
1
60
0
100
AcDbSpline
70
4
71
3
72
8
73
4
40
0
40
0
40
0
40
0
40
1
40
1
40
1
40
1
41
1
10
25.0415140945991
20
22.5623569459346
30
0
41
1
10
24.7772667731443
20
22.4239072990196
30
0
41
1
10
24.5115950712619
20
22.2849010800698
30
0
41
1
10
24.241449924428
20
22.1441468770064
30
0
0
SPLINE
5
E7
100
AcDbEntity
8
1
62
256
6
ByLayer
370
18
48
1
60
0
100
AcDbSpline
70
4
71
3
72
8
73
4
40
0
40
0
40
0
40
0
40
1
40
1
40
1
40
1
41
1
10
30.2899052291595
20
22.457759226477
30
0
41
1
10
30.1919784915444
20
22.356336202331
30
0
41
1
10
30.0940010583267
20
22.2549025296919
30
0
41
1
10
29.9959463413807
20
22.1534526560094
30
0
0
SPLINE
5
E8
100
AcDbEntity
8
1
62
256
6
ByLayer
370
18
48
1
60
0
100
AcDbSpline
70
4
71
3
72
8
73
4
40
0
40
0
40
0
40
0
40
1
40
1
40
1
40
1
41
1
10
23.8081196394993
20
19.4630352013153
30
0
41
1
10
23.9913476324981
20
19.4915116955829
30
0
41
1
10
24.1746069252478
20
19.5200154249701
30
0
41
1
10
24.3579138844792
20
19.5485606829922
30
0
0
SPLINE
5
E9
100
AcDbEntity
8
1
62
256
6
ByLayer
370
18
48
1
60
0
100
AcDbSpline
70
4
71
3
72
8
73
4
40
0
40
0
40
0
40
0
40
1
40
1
40
1
40
1
41
1
10
30.7234214423148
20
20.6075149806421
30
0
41
1
10
30.8720851720178
20
20.6014170091356
30
0
41
1
10
31.02068919993
20
20.5952654736853
30
0
41
1
10
31.1692540463638
20
20.5890788213879
30
0
0
SPLINE
5
EA
100
AcDbEntity
8
1
62
256
6
ByLayer
370
18
48
1
60
0
100
AcDbSpline
70
4
71
3
72
8
73
4
40
0
40
0
40
0
40
0
40
1
40
1
40
1
40
1
41
1
10
25.0853889854133
20
18.0026230076251
30
0
41
1
10
24.9526910389387
20
17.8665299044141
30
0
41
1
10
24.8200583408836
20
17.7304409669375
30
0
41
1
10
24.6874684567035
20
17.5943547962265
30
0
0
SPLINE
5
EB
100
AcDbEntity
8
1
62
256
6
ByLayer
370
18
48
1
60
0
100
AcDbSpline
70
4
71
3
72
8
73
4
40
0
40
0
40
0
40
0
40
1
40
1
40
1
40
1
41
1
10
12.5964942606861
20
12.5008779418773
30
0
41
1
10
12.6194444975427
20
12.7447220823483
30
0
41
1
10
12.6441968752552
20
12.9842694406041
30
0
41
1
10
12.670039454896
20
13.2212174680466
30
0
0
SPLINE
5
EC
100
AcDbEntity
8
1
62
256
6
ByLayer
370
18
48
1
60
0
100
AcDbSpline
70
4
71
3
72
10
73
6
40
0
40
0
40
0
40
0
40
0.5
40
0.5
40
1
40
1
40
1
40
1
41
1
10
10.7629558527821
20
14.5618621131201
30
0
41
1
10
10.6549384996732
20
14.5100787128802
30
0
41
1
10
10.5461918228405
20
14.458148333713
30
0
41
1
10
10.3267704009047
20
14.3538990162286
30
0
41
1
10
10.2167417455201
20
14.3018906994234
30
0
41
1
10
10.1075215653913
20
14.2505799014466
30
0
0
SPLINE
5
ED
100
AcDbEntity
8
1
62
256
6
ByLayer
370
18
48
1
60
0
100
AcDbSpline
70
4
71
3
72
10
73
6
40
0
40
0
40
0
40
0
40
0.5
40
0.5
40
1
40
1
40
1
40
1
41
1
10
12.4805260848246
20
10.9119000341509
30
0
41
1
10
12.3725087317156
20
10.8601166339109
30
0
41
1
10
12.2637620548829
20
10.8081862547437
30
0
41
1
10
12.0443406329472
20
10.7039369372594
30
0
41
1
10
11.9343119775626
20
10.6519286204542
30
0
41
1
10
11.8250917974337
20
10.6006178224774
30
0
0
SPLINE
5
EE
100
AcDbEntity
8
1
62
256
6
ByLayer
370
18
48
1
60
0
100
AcDbSpline
70
4
71
3
72
8
73
4
40
0
40
0
40
0
40
0
40
1
40
1
40
1
40
1
41
1
10
9.78631911933519
20
10.3365636597012
30
0
41
1
10
9.98824853627849
20
10.2000639818792
30
0
41
1
10
10.1870384445672
20
10.0697688876577
30
0
41
1
10
10.3839291126393
20
9.94322724532861
30
0
0
SPLINE
5
EF
100
AcDbEntity
8
1
62
256
6
ByLayer
370
18
48
1
60
0
100
AcDbSpline
70
4
71
3
72
8
73
4
40
0
40
0
40
0
40
0
40
1
40
1
40
1
40
1
41
1
10
11.3291240458398
20
14.1370838985011
30
0
41
1
10
11.1335986710134
20
14.2799876184401
30
0
41
1
10
10.9459075906097
20
14.4213815405464
30
0
41
1
10
10.7629558527821
20
14.5618621131201
30
0
0
SPLINE
5
F0
100
AcDbEntity
8
1
62
256
6
ByLayer
370
18
48
1
60
0
100
AcDbSpline
70
4
71
3
72
8
73
4
40
0
40
0
40
0
40
0
40
1
40
1
40
1
40
1
41
1
10
8.51894890448887
20
11.972769616325
30
0
41
1
10
8.50240270974922
20
11.7353295179709
30
0
41
1
10
8.48874915992167
20
11.5068809876
30
0
41
1
10
8.47684551052544
20
11.2838718904021
30
0
0
SPLINE
5
F1
100
AcDbEntity
8
1
62
256
6
ByLayer
370
18
48
1
60
0
100
AcDbSpline
70
4
71
3
72
10
73
6
40
0
40
0
40
0
40
0
40
0.5
40
0.5
40
1
40
1
40
1
40
1
41
1
10
12.4805260848246
20
10.9119000341509
30
0
41
1
10
12.4865116743044
20
11.0240371495572
30
0
41
1
10
12.492983364767
20
11.1382321519731
30
0
41
1
10
12.5069710901957
20
11.3681736680886
30
0
41
1
10
12.5144893986719
20
11.4839865262034
30
0
41
1
10
12.522629478788
20
11.6007977600738
30
0
0
SPLINE
5
F2
100
AcDbEntity
8
1
62
256
6
ByLayer
370
18
48
1
60
0
100
AcDbSpline
70
4
71
3
72
10
73
6
40
0
40
0
40
0
40
0
40
0.5
40
0.5
40
1
40
1
40
1
40
1
41
1
10
8.66635888059682
20
13.5931893242979
30
0
41
1
10
8.65336428812509
20
13.4740432058996
30
0
41
1
10
8.64057475701355
20
13.3535303628348
30
0
41
1
10
8.61594935649237
20
13.1129511716269
30
0
41
1
10
8.60410430454039
20
12.9928115700362
30
0
41
1
10
8.59281368638693
20
12.8728497981286
30
0
0
SPLINE
5
F3
100
AcDbEntity
8
1
62
256
6
ByLayer
370
18
48
1
60
0
100
AcDbSpline
70
4
71
3
72
10
73
6
40
0
40
0
40
0
40
0
40
0.5
40
0.5
40
1
40
1
40
1
40
1
41
1
10
11.0079215997837
20
10.2230676567557
30
0
41
1
10
10.9012280213352
20
10.1746266958305
30
0
41
1
10
10.794836681936
20
10.1266561770554
30
0
41
1
10
10.5868518056093
20
10.0334275985634
30
0
41
1
10
10.4846941205946
20
9.98791086849968
30
0
41
1
10
10.3839291126393
20
9.94322724532861
30
0
0
SPLINE
5
F4
100
AcDbEntity
8
1
62
256
6
ByLayer
370
18
48
1
60
0
100
AcDbSpline
70
4
71
3
72
10
73
6
40
0
40
0
40
0
40
0
40
0.5
40
0.5
40
1
40
1
40
1
40
1
41
1
10
12.670039454896
20
13.2212174680466
30
0
41
1
10
12.5710356391528
20
13.2848472254326
30
0
41
1
10
12.470963345891
20
13.3498166212032
30
0
41
1
10
12.2713614894274
20
13.4810751673917
30
0
41
1
10
12.1717708302628
20
13.5474013841688
30
0
41
1
10
12.0724294615918
20
13.6145538824192
30
0
0
SPLINE
5
F5
100
AcDbEntity
8
1
62
256
6
ByLayer
370
18
48
1
60
0
100
AcDbSpline
70
4
71
3
72
10
73
6
40
0
40
0
40
0
40
0
40
0.5
40
0.5
40
1
40
1
40
1
40
1
41
1
10
8.47684551052544
20
11.2838718904021
30
0
41
1
10
8.56884032327673
20
11.2132331300243
30
0
41
1
10
8.6625947758896
20
11.1419458936048
30
0
41
1
10
8.85155895726075
20
11.0000496723237
30
0
41
1
10
8.94682287294944
20
10.9293967120707
30
0
41
1
10
9.04301370358314
20
10.8590936757831
30
0
0
SPLINE
5
F6
100
AcDbEntity
8
1
62
256
6
ByLayer
370
18
48
1
60
0
100
AcDbSpline
70
4
71
3
72
10
73
6
40
0
40
0
40
0
40
0
40
0.5
40
0.5
40
1
40
1
40
1
40
1
41
1
10
9.29035136774121
20
13.8730297357249
30
0
41
1
10
9.18365778929268
20
13.8245887747997
30
0
41
1
10
9.0772664498935
20
13.7766182560246
30
0
41
1
10
8.86928157356681
20
13.6833896775327
30
0
41
1
10
8.76712388855208
20
13.6378729474689
30
0
41
1
10
8.66635888059682
20
13.5931893242979
30
0
0
LINE
5
72
100
AcDbEntity
8
1
62
256
6
ByLayer
370
18
48
1
60
0
100
AcDbLine
10
19.099706
20
28.70717
30
0
11
18.458055
21
28.065518
31
0
39
0
210
0
220
0
230
1
0
LINE
5
73
100
AcDbEntity
8
1
62
256
6
ByLayer
370
18
48
1
60
0
100
AcDbLine
10
29.395672
20
17.206436
30
0
11
30.019441
21
17.830206
31
0
39
0
210
0
220
0
230
1
0
LINE
5
74
100
AcDbEntity
8
1
62
256
6
ByLayer
370
18
48
1
60
0
100
AcDbLine
10
24.414351
20
22.085731
30
0
11
24.340305
21
22.011685
31
0
39
0
210
0
220
0
230
1
0
LINE
5
75
100
AcDbEntity
8
1
62
256
6
ByLayer
370
18
48
1
60
0
100
AcDbLine
10
24.957932
20
22.221908
30
0
11
24.334162
21
21.598139
31
0
39
0
210
0
220
0
230
1
0
LINE
5
76
100
AcDbEntity
8
1
62
256
6
ByLayer
370
18
48
1
60
0
100
AcDbLine
10
35.528148
20
10.995425
30
0
11
36.1698
21
11.637076
31
0
39
0
210
0
220
0
230
1
0
LINE
5
77
100
AcDbEntity
8
SK1
62
256
6
ByLayer
370
18
48
1
60
0
100
AcDbLine
10
0
20
-19.925
30
0
11
0
21
19.925
31
0
39
0
210
0
220
0
230
1
0
LINE
5
79
100
AcDbEntity
8
SK1
62
256
6
ByLayer
370
18
48
1
60
0
100
AcDbLine
10
-213.46237
20
-19.925
30
0
11
0
21
-19.925
31
0
39
0
210
0
220
0
230
1
0
LINE
5
7A
100
AcDbEntity
8
SK1
62
256
6
ByLayer
370
18
48
1
60
0
100
AcDbLine
10
-213.46237
20
19.925
30
0
11
-213.46237
21
-19.925
31
0
39
0
210
0
220
0
230
1
0
LINE
5
7B
100
AcDbEntity
8
SK1
62
256
6
ByLayer
370
18
48
1
60
0
100
AcDbLine
10
-213.46237
20
19.925
30
0
11
0
21
19.925
31
0
39
0
210
0
220
0
230
1
0
LINE
5
7C
100
AcDbEntity
8
1
62
256
6
ByLayer
370
18
48
1
60
0
100
AcDbLine
10
1.545481
20
21.11089
30
0
11
2.314433
21
23.980656
31
0
39
0
210
0
220
0
230
1
0
LINE
5
7D
100
AcDbEntity
8
1
62
256
6
ByLayer
370
18
48
1
60
0
100
AcDbLine
10
24.060393
20
8.667568
30
0
11
23.866554
21
6.305539
31
0
39
0
210
0
220
0
230
1
0
LINE
5
7E
100
AcDbEntity
8
1
62
256
6
ByLayer
370
18
48
1
60
0
100
AcDbLine
10
5.185729
20
-19.961532
30
0
11
3.518078
21
-19.962297
31
0
39
0
210
0
220
0
230
1
0
LINE
5
7F
100
AcDbEntity
8
1
62
256
6
ByLayer
370
18
48
1
60
0
100
AcDbLine
10
24.390901
20
9.786244
30
0
11
24.381501
21
9.671693
31
0
39
0
210
0
220
0
230
1
0
LINE
5
80
100
AcDbEntity
8
1
62
256
6
ByLayer
370
18
48
1
60
0
100
AcDbLine
10
24.381501
20
9.671693
30
0
11
24.326342
21
8.999551
31
0
39
0
210
0
220
0
230
1
0
LINE
5
81
100
AcDbEntity
8
1
62
256
6
ByLayer
370
18
48
1
60
0
100
AcDbLine
10
17.967034
20
20.64731
30
0
11
17.672051
21
17.052795
31
0
39
0
210
0
220
0
230
1
0
LINE
5
82
100
AcDbEntity
8
1
62
256
6
ByLayer
370
18
48
1
60
0
100
AcDbLine
10
1.545481
20
-19.930174
30
0
11
3.518078
21
-19.962297
31
0
39
0
210
0
220
0
230
1
0
LINE
5
83
100
AcDbEntity
8
1
62
256
6
ByLayer
370
18
48
1
60
0
100
AcDbLine
10
24.150576
20
9.766518
30
0
11
24.060391
21
8.667568
31
0
39
0
210
0
220
0
230
1
0
LINE
5
84
100
AcDbEntity
8
1
62
256
6
ByLayer
370
18
48
1
60
0
100
AcDbLine
10
30.675105
20
1.633162
30
0
11
35.125016
21
6.083072
31
0
39
0
210
0
220
0
230
1
0
LINE
5
85
100
AcDbEntity
8
1
62
256
6
ByLayer
370
18
48
1
60
0
100
AcDbLine
10
24.326342
20
8.999551
30
0
11
24.060393
21
8.667568
31
0
39
0
210
0
220
0
230
1
0
LINE
5
86
100
AcDbEntity
8
1
62
256
6
ByLayer
370
18
48
1
60
0
100
AcDbLine
10
3.070611
20
26.802751
30
0
11
2.314433
21
23.980656
31
0
39
0
210
0
220
0
230
1
0
LINE
5
87
100
AcDbEntity
8
1
62
256
6
ByLayer
370
18
48
1
60
0
100
AcDbLine
10
25.077415
20
10.390384
30
0
11
24.832252
21
7.402954
31
0
39
0
210
0
220
0
230
1
0
LINE
5
88
100
AcDbEntity
8
1
62
256
6
ByLayer
370
18
48
1
60
0
100
AcDbLine
10
24.383113
20
9.53637
30
0
11
25.077415
21
10.390384
31
0
39
0
210
0
220
0
230
1
0
LINE
5
89
100
AcDbEntity
8
1
62
256
6
ByLayer
370
18
48
1
60
0
100
AcDbLine
10
35.125016
20
6.083072
30
0
11
35.550828
21
11.27181
31
0
39
0
210
0
220
0
230
1
0
LINE
5
8A
100
AcDbEntity
8
1
62
256
6
ByLayer
370
18
48
1
60
0
100
AcDbLine
10
5.185729
20
-19.961532
30
0
11
6.167211
21
-19.75112
31
0
39
0
210
0
220
0
230
1
0
LINE
5
8B
100
AcDbEntity
8
1
62
256
6
ByLayer
370
18
48
1
60
0
100
AcDbLine
10
25.077415
20
10.390384
30
0
11
27.345341
21
10.586486
31
0
39
0
210
0
220
0
230
1
0
LINE
5
8C
100
AcDbEntity
8
1
62
256
6
ByLayer
370
18
48
1
60
0
100
AcDbLine
10
1.545481
20
21.11089
30
0
11
1.545481
21
-19.930174
31
0
39
0
210
0
220
0
230
1
0
LINE
5
8D
100
AcDbEntity
8
1
62
256
6
ByLayer
370
18
48
1
60
0
100
AcDbLine
10
0
20
-19.925
30
0
11
0
21
19.925
31
0
39
0
210
0
220
0
230
1
0
LINE
5
8E
100
AcDbEntity
8
1
62
256
6
ByLayer
370
18
48
1
60
0
100
AcDbLine
10
23.7021
20
6.303576
30
0
11
23.985169
21
9.752913
31
0
39
0
210
0
220
0
230
1
0
LINE
5
8F
100
AcDbEntity
8
1
62
256
6
ByLayer
370
18
48
1
60
0
100
AcDbLine
10
23.866554
20
6.305539
30
0
11
24.832252
21
7.402954
31
0
39
0
210
0
220
0
230
1
0
LINE
5
90
100
AcDbEntity
8
1
62
256
6
ByLayer
370
18
48
1
60
0
100
AcDbLine
10
24.381501
20
9.671693
30
0
11
24.501594
21
9.682077
31
0
39
0
210
0
220
0
230
1
0
LINE
5
91
100
AcDbEntity
8
1
62
256
6
ByLayer
370
18
48
1
60
0
100
AcDbLine
10
17.329434
20
11.05218
30
0
11
17.105254
21
8.320421
31
0
39
0
210
0
220
0
230
1
0
LINE
5
92
100
AcDbEntity
8
1
62
256
6
ByLayer
370
18
48
1
60
0
100
AcDbLine
10
6.167211
20
-19.75112
30
0
11
30.675105
21
1.633162
31
0
39
0
210
0
220
0
230
1
0
LINE
5
93
100
AcDbEntity
8
1
62
256
6
ByLayer
370
18
48
1
60
0
100
AcDbLine
10
18.727443
20
28.087624
30
0
11
3.070611
21
26.802751
31
0
39
0
210
0
220
0
230
1
0
LINE
5
94
100
AcDbEntity
8
1
62
256
6
ByLayer
370
18
48
1
60
0
100
AcDbLine
10
3.518078
20
-19.962297
30
0
11
2.314433
21
23.980656
31
0
39
0
210
0
220
0
230
1
0
LINE
5
95
100
AcDbEntity
8
1
62
256
6
ByLayer
370
18
48
1
60
0
100
AcDbLine
10
35.125016
20
6.083072
30
0
11
5.185729
21
-19.961532
31
0
39
0
210
0
220
0
230
1
0
LINE
5
96
100
AcDbEntity
8
1
62
256
6
ByLayer
370
18
48
1
60
0
100
AcDbLine
10
18.727443
20
28.087624
30
0
11
18.722706
21
28.029903
31
0
39
0
210
0
220
0
230
1
0
LINE
5
97
100
AcDbEntity
8
1
62
256
6
ByLayer
370
18
48
1
60
0
100
AcDbLine
10
17.333333
20
11.160567
30
0
11
17.385836
21
11.21307
31
0
39
0
210
0
220
0
230
1
0
LINE
5
98
100
AcDbEntity
8
1
62
256
6
ByLayer
370
18
48
1
60
0
100
AcDbLine
10
35.385048
20
11.246259
30
0
11
35.437551
21
11.298762
31
0
39
0
210
0
220
0
230
1
0
LINE
5
99
100
AcDbEntity
8
1
62
256
6
ByLayer
370
18
48
1
60
0
100
AcDbLine
10
24.600332
20
9.803428
30
0
11
18.015544
21
9.26305
31
0
39
0
210
0
220
0
230
1
0
LINE
5
9A
100
AcDbEntity
8
1
62
256
6
ByLayer
370
18
48
1
60
0
100
AcDbLine
10
18.761392
20
27.974922
30
0
11
18.708889
21
27.922418
31
0
39
0
210
0
220
0
230
1
0
LINE
5
9B
100
AcDbEntity
8
1
62
256
6
ByLayer
370
18
48
1
60
0
100
AcDbLine
10
8.637517
20
13.320564
30
0
11
8.824083
21
13.406762
31
0
39
0
210
0
220
0
230
1
0
LINE
5
9C
100
AcDbEntity
8
1
62
256
6
ByLayer
370
18
48
1
60
0
100
AcDbLine
10
12.056362
20
11.13453
30
0
11
12.020103
21
10.692701
31
0
39
0
210
0
220
0
230
1
0
LINE
5
9D
100
AcDbEntity
8
1
62
256
6
ByLayer
370
18
48
1
60
0
100
AcDbLine
10
24.684564
20
17.59145
30
0
11
24.687468
21
17.594355
31
0
39
0
210
0
220
0
230
1
0
LINE
5
9E
100
AcDbEntity
8
1
62
256
6
ByLayer
370
18
48
1
60
0
100
AcDbLine
10
23.719161
20
20.661935
30
0
11
23.788968
21
20.731742
31
0
39
0
210
0
220
0
230
1
0
LINE
5
9F
100
AcDbEntity
8
1
62
256
6
ByLayer
370
18
48
1
60
0
100
AcDbLine
10
23.80812
20
19.463035
30
0
11
23.772992
21
19.427908
31
0
39
0
210
0
220
0
230
1
0
LINE
5
A0
100
AcDbEntity
8
80
62
256
6
ByLayer
370
18
48
1
60
0
100
AcDbLine
10
0
20
0
30
0
11
-5
21
0
31
0
39
0
210
0
220
0
230
1
0
LINE
5
A1
100
AcDbEntity
8
81
62
256
6
ByLayer
370
18
48
1
60
0
100
AcDbLine
10
36.53763
20
30.075
30
0
11
46.53763
21
30.075
31
0
39
0
210
0
220
0
230
1
0
LINE
5
A2
100
AcDbEntity
8
1
62
256
6
ByLayer
370
18
48
1
60
0
100
AcDbLine
10
19.831955
20
29.045484
30
0
11
36.593806
21
30.42104
31
0
39
0
210
0
220
0
230
1
0
LINE
5
A3
100
AcDbEntity
8
1
62
256
6
ByLayer
370
18
48
1
60
0
100
AcDbLine
10
18.6757
20
9.923206
30
0
11
18.015544
21
9.26305
31
0
39
0
210
0
220
0
230
1
0
LINE
5
A4
100
AcDbEntity
8
1
62
256
6
ByLayer
370
18
48
1
60
0
100
AcDbLine
10
35.437551
20
11.298762
30
0
11
18.6757
21
9.923206
31
0
39
0
210
0
220
0
230
1
0
LINE
5
A5
100
AcDbEntity
8
1
62
256
6
ByLayer
370
18
48
1
60
0
100
AcDbLine
10
17.385836
20
11.21307
30
0
11
18.761392
21
27.974922
31
0
39
0
210
0
220
0
230
1
0
LINE
5
A6
100
AcDbEntity
8
1
62
256
6
ByLayer
370
18
48
1
60
0
100
AcDbLine
10
37.88367
20
29.131176
30
0
11
36.508114
21
12.369325
31
0
39
0
210
0
220
0
230
1
0
LINE
5
A7
100
AcDbEntity
8
1
62
256
6
ByLayer
370
18
48
1
60
0
100
AcDbLine
10
9.641254
20
13.784312
30
0
11
10.280967
21
14.079873
31
0
39
0
210
0
220
0
230
1
0
LINE
5
A8
100
AcDbEntity
8
1
62
256
6
ByLayer
370
18
48
1
60
0
100
AcDbLine
10
12.596494
20
12.500878
30
0
11
12.130226
21
12.03461
31
0
39
0
210
0
220
0
230
1
0
LINE
5
A9
100
AcDbEntity
8
1
62
256
6
ByLayer
370
18
48
1
60
0
100
AcDbLine
10
12.670039
20
13.221217
30
0
11
12.188051
21
12.739229
31
0
39
0
210
0
220
0
230
1
0
LINE
5
AA
100
AcDbEntity
8
1
62
256
6
ByLayer
370
18
48
1
60
0
100
AcDbLine
10
12.188051
20
12.739229
30
0
11
12.130226
21
12.03461
31
0
39
0
210
0
220
0
230
1
0
LINE
5
AB
100
AcDbEntity
8
1
62
256
6
ByLayer
370
18
48
1
60
0
100
AcDbLine
10
11.606162
20
13.148286
30
0
11
12.188051
21
12.739229
31
0
39
0
210
0
220
0
230
1
0
LINE
5
AC
100
AcDbEntity
8
1
62
256
6
ByLayer
370
18
48
1
60
0
100
AcDbLine
10
12.056362
20
11.13453
30
0
11
12.522629
21
11.600798
31
0
39
0
210
0
220
0
230
1
0
LINE
5
AD
100
AcDbEntity
8
1
62
256
6
ByLayer
370
18
48
1
60
0
100
AcDbLine
10
11.329124
20
14.137084
30
0
11
10.862856
21
13.670816
31
0
39
0
210
0
220
0
230
1
0
LINE
5
AE
100
AcDbEntity
8
1
62
256
6
ByLayer
370
18
48
1
60
0
100
AcDbLine
10
9.641254
20
13.784312
30
0
11
10.107522
21
14.25058
31
0
39
0
210
0
220
0
230
1
0
LINE
5
AF
100
AcDbEntity
8
1
62
256
6
ByLayer
370
18
48
1
60
0
100
AcDbLine
10
9.290351
20
13.87303
30
0
11
8.824083
21
13.406762
31
0
39
0
210
0
220
0
230
1
0
LINE
5
B0
100
AcDbEntity
8
1
62
256
6
ByLayer
370
18
48
1
60
0
100
AcDbLine
10
10.762956
20
14.561862
30
0
11
10.280967
21
14.079873
31
0
39
0
210
0
220
0
230
1
0
LINE
5
B1
100
AcDbEntity
8
1
62
256
6
ByLayer
370
18
48
1
60
0
100
AcDbLine
10
10.280967
20
14.079873
30
0
11
10.862856
21
13.670816
31
0
39
0
210
0
220
0
230
1
0
LINE
5
B2
100
AcDbEntity
8
1
62
256
6
ByLayer
370
18
48
1
60
0
100
AcDbLine
10
11.606162
20
13.148286
30
0
11
12.072429
21
13.614554
31
0
39
0
210
0
220
0
230
1
0
MTEXT
5
F7
100
AcDbEntity
8
SK6
62
256
6
ByLayer
370
13
48
1
60
0
100
AcDbMText
10
-168.748837
20
-44.986925
30
0
210
0
220
0
230
1
1
\W0.7688;PCLNR 4040S 19
40
3.5
41
0
44
1.084337
50
0
71
7
72
5
7
iso_b_vert
0
DIMENSION
5
109
100
AcDbEntity
8
SK2
62
256
6
ByLayer
370
13
48
1
60
0
100
AcDbDimension
2
DimnDraft3D1
10
-223.21237
20
-19.925
30
0
11
-223.21237
21
0.075
31
0
70
32
71
5
72
1
41
1
210
0
220
0
230
1
3
Standard
100
AcDbAlignedDimension
13
-215.04987
23
20.075
33
0
14
-215.04987
24
-19.925
34
0
50
90
100
AcDbRotatedDimension
1001
ACAD
1000
DSTYLE
1002
{
1070
    74
1070
     0
1070
   279
1070
     0
1070
   172
1070
     1
1070
   173
1070
     1
1070
   340
1005
F8
1070
   271
1070
     1
1070
   272
1070
     2
1070
    77
1070
     1
1070
    73
1070
     0
1070
   171
1070
     3
1070
   274
1070
     4
1070
   177
1070
   150
1070
   176
1070
     9
1070
   178
1070
    43
1070
    78
1070
     8
1070
    48
1040
-0.005
1070
    41
1041
3.175
1070
   147
1041
2.25
1070
    42
1041
1.5875
1070
    44
1041
3.175
1070
   140
1041
4.5
1070
   343
1005
10A
1070
   344
1005
10A
1002
}
0
DIMENSION
5
11F
100
AcDbEntity
8
2
62
256
6
ByLayer
370
13
48
1
60
0
100
AcDbDimension
2
DimnDraft3D2
10
54.38763
20
30.425
30
0
11
54.38763
21
5.25
31
0
70
32
71
5
72
1
41
1
210
0
220
0
230
1
3
Standard
100
AcDbAlignedDimension
13
1.5875
23
-19.925
33
0
14
39.47513
24
30.425
34
0
50
90
100
AcDbRotatedDimension
1001
ACAD
1000
DSTYLE
1002
{
1070
    74
1070
     0
1070
   279
1070
     0
1070
   172
1070
     1
1070
   173
1070
     1
1070
   340
1005
F8
1070
   271
1070
     1
1070
   272
1070
     2
1070
    77
1070
     1
1070
    73
1070
     0
1070
   171
1070
     3
1070
   274
1070
     4
1070
   177
1070
   150
1070
   176
1070
     9
1070
   178
1070
    43
1070
    78
1070
     8
1070
    48
1040
-0.005
1070
    41
1041
3.175
1070
   147
1041
2.25
1070
    42
1041
1.5875
1070
    44
1041
3.175
1070
   140
1041
4.5
1070
   343
1005
10A
1070
   344
1005
10A
1002
}
0
DIMENSION
5
12D
100
AcDbEntity
8
SK2
62
256
6
ByLayer
370
13
48
1
60
0
100
AcDbDimension
2
DimnDraft3D3
10
37.88763
20
47.925
30
0
11
-87.78737
21
47.925
31
0
70
32
71
5
72
1
41
1
210
0
220
0
230
1
3
Standard
100
AcDbAlignedDimension
13
-213.46237
23
21.6625
33
0
14
37.88763
24
32.0125
34
0
50
0
100
AcDbRotatedDimension
1001
ACAD
1000
DSTYLE
1002
{
1070
   279
1070
     0
1070
   172
1070
     1
1070
   173
1070
     1
1070
   340
1005
F8
1070
   271
1070
     1
1070
   272
1070
     2
1070
    77
1070
     1
1070
    73
1070
     0
1070
   171
1070
     3
1070
   274
1070
     4
1070
   177
1070
   150
1070
   176
1070
     9
1070
   178
1070
    43
1070
    78
1070
     8
1070
    48
1040
-0.005
1070
    41
1041
3.175
1070
   147
1041
2.25
1070
    42
1041
1.5875
1070
    44
1041
3.175
1070
   140
1041
4.5
1070
   343
1005
10A
1070
   344
1005
10A
1002
}
0
DIMENSION
5
13A
100
AcDbEntity
8
2
62
256
6
ByLayer
370
13
48
1
60
0
100
AcDbDimension
2
DimnDraft3D4
10
17.593235
20
28.758185
30
0
11
25.432166
21
41.947044
31
0
70
34
71
5
72
1
41
1
210
0
220
0
230
1
3
Standard
100
AcDb2LineAngularDimension
13
37.88763
23
30.425
33
0
14
37.88763
24
28.04375
34
0
15
36.593235
25
30.420469
35
0
16
28.749914
26
38.906888
36
0
40
0
0
ENDSEC
0
SECTION
2
OBJECTS
0
DICTIONARY
5
1a4
330
0
100
AcDbDictionary
280
0
281
1
3
ACAD_GROUP
350
1a5
3
ACAD_MLINESTYLE
350
1a6
0
DICTIONARY
5
1a5
330
0
100
AcDbDictionary
280
0
281
1
0
DICTIONARY
5
1a6
330
0
100
AcDbDictionary
280
0
281
1
3
Standard
350
18
0
MLINESTYLE
5
18
330
1a6
100
AcDbMlineStyle
2
Standard
70
0
3

62
256
51
90
52
90
71
2
49
-0.5
62
256
6
ByLayer
49
0.5
62
256
6
ByLayer
0
RASTERVARIABLES
5
193
330

100
AcDbRasterVariables
90
0
70
1
71
1
72
1
0
ENDSEC
0
EOF
