0
SECTION
2
HEADER
9
$ACADVER
1
AC1015
9
$DWGCODEPAGE
3
ANSI_1252
9
$HANDSEED
5
1b9
9
$ANGBASE
50
0
9
$ANGDIR
70
0
9
$ATTMODE
70
1
9
$AUNITS
70
0
9
$AUPREC
70
0
9
$CECOLOR
62
256
9
$CELTSCALE
40
1
9
$CELTYPE
6
ByLayer
9
$CELWEIGHT
370
18
9
$CLAYER
8
0
9
$CMLJUST
70
0
9
$CMLSCALE
40
1
9
$CMLSTYLE
2
Standard
9
$DIMSTYLE
2
Standard
9
$TEXTSIZE
40
0.2
9
$TEXTSTYLE
7
Standard
9
$LUNITS
70
2
9
$LUPREC
70
4
9
$EXTNAMES
290
1
9
$INSUNITS
70
4
9
$LTSCALE
40
1
9
$LWDISPLAY
290
1
9
$PDMODE
70
0
9
$PDSIZE
40
0
9
$PLINEGEN
70
0
0
ENDSEC
0
SECTION
2
CLASSES
0
CLASS
1
RASTERVARIABLES
2
AcDbRasterVariables
3
ISM
90
0
280
0
281
0
0
ENDSEC
0
SECTION
2
TABLES
0
TABLE
2
VPORT
5
1af
100
AcDbSymbolTable
0
VPORT
5
1
100
AcDbSymbolTableRecord
100
AcDbViewportTableRecord
2
*Active
70
0
10
0
20
0
11
1
21
1
12
-1
22
1
13
0
23
0
14
0.5
24
0.5
15
10
25
10
16
0
26
0
36
1
17
0
27
0
37
0
0
ENDTAB
0
TABLE
2
LTYPE
5
1b0
100
AcDbSymbolTable
0
LTYPE
5
14
100
AcDbSymbolTableRecord
100
AcDbLinetypeTableRecord
70
0
2
ByBlock
3

72
65
73
0
40
0
0
LTYPE
5
15
100
AcDbSymbolTableRecord
100
AcDbLinetypeTableRecord
70
0
2
ByLayer
3

72
65
73
0
40
0
0
LTYPE
5
16
100
AcDbSymbolTableRecord
100
AcDbLinetypeTableRecord
70
0
2
CONTINUOUS
3
Solid line
72
65
73
0
40
0
0
LTYPE
5
6A
100
AcDbSymbolTableRecord
100
AcDbLinetypeTableRecord
70
0
2
CENTER
3
____ _ ____ _ ____ _ ____
72
65
73
4
40
47.5
49
22
74
0
49
-8.5
74
0
49
8.5
74
0
49
-8.5
74
0
0
LTYPE
5
6B
100
AcDbSymbolTableRecord
100
AcDbLinetypeTableRecord
70
0
2
DASHED
3
__ __ __ __ __ __ __ __ __
72
65
73
2
40
25.72
49
12.86
74
0
49
-12.86
74
0
0
ENDTAB
0
TABLE
2
LAYER
5
1b1
100
AcDbSymbolTable
0
LAYER
5
10
100
AcDbSymbolTableRecord
100
AcDbLayerTableRecord
2
0
70
0
62
7
6
CONTINUOUS
290
1
370
-3
390
0
0
LAYER
5
6D
100
AcDbSymbolTableRecord
100
AcDbLayerTableRecord
2
80
70
0
62
-6
6
CONTINUOUS
290
1
370
-3
390
0
0
LAYER
5
6F
100
AcDbSymbolTableRecord
100
AcDbLayerTableRecord
2
81
70
0
62
-3
6
CONTINUOUS
290
1
370
-3
390
0
0
LAYER
5
71
100
AcDbSymbolTableRecord
100
AcDbLayerTableRecord
2
1
70
0
62
4
6
CONTINUOUS
290
1
370
-3
390
0
0
LAYER
5
11A
100
AcDbSymbolTableRecord
100
AcDbLayerTableRecord
2
2
70
0
62
7
6
CONTINUOUS
290
1
370
-3
390
0
0
LAYER
5
19c
100
AcDbSymbolTableRecord
100
AcDbLayerTableRecord
2
SK1
70
0
62
4
6
CONTINUOUS
290
1
370
-3
390
0
0
LAYER
5
19d
100
AcDbSymbolTableRecord
100
AcDbLayerTableRecord
2
SK6
70
0
62
5
6
CONTINUOUS
290
1
370
-3
390
0
0
LAYER
5
19e
100
AcDbSymbolTableRecord
100
AcDbLayerTableRecord
2
SK2
70
0
62
7
6
CONTINUOUS
290
1
370
-3
390
0
0
ENDTAB
0
TABLE
2
STYLE
5
1b2
100
AcDbSymbolTable
0
STYLE
5
11
100
AcDbSymbolTableRecord
100
AcDbTextStyleTableRecord
2
Standard
3
txt
70
0
71
0
40
0
41
1
42
0
50
0
0
STYLE
5
FF
100
AcDbSymbolTableRecord
100
AcDbTextStyleTableRecord
2
iso_b_vert
3
simplex.shx
70
0
71
0
40
0
41
1
42
0
50
0
0
STYLE
5
100
100
AcDbSymbolTableRecord
100
AcDbTextStyleTableRecord
2
DWGDirectTextStyle
3
simplex
70
0
71
0
40
0
41
1
42
0
50
0
0
ENDTAB
0
TABLE
2
DIMSTYLE
5
1b3
100
AcDbSymbolTable
100
AcDbDimStyleTable
0
DIMSTYLE
105
27
100
AcDbSymbolTableRecord
100
AcDbDimStyleTableRecord
2
Standard
70
0
3
<>
41
0.18
42
0.0625
44
0.18
140
0.18
147
0.09
73
0
74
0
77
1
271
2
275
0
278
52
280
0
340
11
0
ENDTAB
0
TABLE
2
VIEW
5
1b4
100
AcDbSymbolTable
0
ENDTAB
0
TABLE
2
UCS
5
1b5
100
AcDbSymbolTable
0
ENDTAB
0
TABLE
2
APPID
5
1b6
100
AcDbSymbolTable
0
APPID
5
12
100
AcDbSymbolTableRecord
100
AcDbRegAppTableRecord
2
ACAD
70
0
0
ENDTAB
0
TABLE
2
BLOCK_RECORD
5
1b7
100
AcDbSymbolTable
0
BLOCK_RECORD
5
1F
100
AcDbSymbolTableRecord
100
AcDbBlockTableRecord
2
*Model_Space
340
0
70
0
0
BLOCK_RECORD
5
1B
100
AcDbSymbolTableRecord
100
AcDbBlockTableRecord
2
*Paper_Space
340
0
70
0
0
BLOCK_RECORD
5
23
100
AcDbSymbolTableRecord
100
AcDbBlockTableRecord
2
*Paper_Space0
340
0
70
0
0
BLOCK_RECORD
5
102
100
AcDbSymbolTableRecord
100
AcDbBlockTableRecord
2
DimnDraft3D1
340
0
70
0
0
BLOCK_RECORD
5
111
100
AcDbSymbolTableRecord
100
AcDbBlockTableRecord
2
_CLOSED
340
0
70
0
0
BLOCK_RECORD
5
118
100
AcDbSymbolTableRecord
100
AcDbBlockTableRecord
2
DimnDraft3D2
340
0
70
0
0
BLOCK_RECORD
5
127
100
AcDbSymbolTableRecord
100
AcDbBlockTableRecord
2
DimnDraft3D3
340
0
70
0
0
BLOCK_RECORD
5
135
100
AcDbSymbolTableRecord
100
AcDbBlockTableRecord
2
DimnDraft3D4
340
0
70
0
0
ENDTAB
0
ENDSEC
0
SECTION
2
BLOCKS
0
BLOCK
5
20
100
AcDbEntity
8
0
100
AcDbBlockBegin
2
*Model_Space
70
0
10
0
20
0
30
0
3
*Model_Space
0
ENDBLK
5
21
100
AcDbEntity
8
0
100
AcDbBlockEnd
0
BLOCK
5
1C
100
AcDbEntity
8
0
100
AcDbBlockBegin
2
*Paper_Space
70
0
10
0
20
0
30
0
3
*Paper_Space
0
ENDBLK
5
1D
100
AcDbEntity
8
0
100
AcDbBlockEnd
0
BLOCK
5
24
100
AcDbEntity
8
0
100
AcDbBlockBegin
2
*Paper_Space0
70
0
10
0
20
0
30
0
3
*Paper_Space0
0
ENDBLK
5
25
100
AcDbEntity
8
0
100
AcDbBlockEnd
0
BLOCK
5
10E
100
AcDbEntity
8
0
100
AcDbBlockBegin
2
DimnDraft3D1
70
0
10
0
20
0
30
0
3
DimnDraft3D1
0
MTEXT
5
103
100
AcDbEntity
8
SK2
62
256
6
ByLayer
370
13
48
1
60
0
100
AcDbMText
10
-110.05946
20
-1.500658
30
0
210
0
220
0
230
1
1
\W0.6740;20
40
4.5
41
0
44
1.084337
50
90
71
7
72
5
7
iso_b_vert
0
LINE
5
105
100
AcDbEntity
8
SK2
62
256
6
ByLayer
370
13
48
1
60
0
100
AcDbLine
10
-100.77196
20
10.0625
30
0
11
-112.10946
21
10.0625
31
0
39
0
210
0
220
0
230
1
0
LINE
5
106
100
AcDbEntity
8
SK2
62
256
6
ByLayer
370
13
48
1
60
0
100
AcDbLine
10
-100.77196
20
-9.9375
30
0
11
-112.10946
21
-9.9375
31
0
39
0
210
0
220
0
230
1
0
LINE
5
107
100
AcDbEntity
8
SK2
62
256
6
ByLayer
370
13
48
1
60
0
100
AcDbLine
10
-108.93446
20
10.0625
30
0
11
-108.93446
21
-9.9375
31
0
39
0
210
0
220
0
230
1
0
LINE
5
108
100
AcDbEntity
8
SK2
62
256
6
ByLayer
370
13
48
1
60
0
100
AcDbLine
10
-108.93446
20
10.0625
30
0
11
-108.083721
21
6.887503
31
0
39
0
210
0
220
0
230
1
0
LINE
5
109
100
AcDbEntity
8
SK2
62
256
6
ByLayer
370
13
48
1
60
0
100
AcDbLine
10
-108.93446
20
10.0625
30
0
11
-109.785198
21
6.887497
31
0
39
0
210
0
220
0
230
1
0
LINE
5
10A
100
AcDbEntity
8
SK2
62
256
6
ByLayer
370
13
48
1
60
0
100
AcDbLine
10
-108.083721
20
6.887503
30
0
11
-109.785198
21
6.887497
31
0
39
0
210
0
220
0
230
1
0
LINE
5
10B
100
AcDbEntity
8
SK2
62
256
6
ByLayer
370
13
48
1
60
0
100
AcDbLine
10
-108.93446
20
-9.9375
30
0
11
-109.785198
21
-6.762503
31
0
39
0
210
0
220
0
230
1
0
LINE
5
10C
100
AcDbEntity
8
SK2
62
256
6
ByLayer
370
13
48
1
60
0
100
AcDbLine
10
-108.93446
20
-9.9375
30
0
11
-108.083721
21
-6.762497
31
0
39
0
210
0
220
0
230
1
0
LINE
5
10D
100
AcDbEntity
8
SK2
62
256
6
ByLayer
370
13
48
1
60
0
100
AcDbLine
10
-109.785198
20
-6.762503
30
0
11
-108.083721
21
-6.762497
31
0
39
0
210
0
220
0
230
1
0
ENDBLK
5
10F
100
AcDbEntity
8
0
100
AcDbBlockEnd
0
BLOCK
5
112
100
AcDbEntity
8
0
100
AcDbBlockBegin
2
_CLOSED
70
0
10
0
20
0
30
0
3
_CLOSED
0
LINE
5
114
100
AcDbEntity
8
0
62
256
6
ByLayer
370
-2
48
1
60
0
100
AcDbLine
10
-1
20
0.166667
30
0
11
0
21
0
31
0
39
0
210
0
220
0
230
1
0
LINE
5
115
100
AcDbEntity
8
0
62
256
6
ByLayer
370
-2
48
1
60
0
100
AcDbLine
10
0
20
0
30
0
11
-1
21
-0.166667
31
0
39
0
210
0
220
0
230
1
0
LINE
5
116
100
AcDbEntity
8
0
62
256
6
ByLayer
370
-2
48
1
60
0
100
AcDbLine
10
-1
20
0.166667
30
0
11
-1
21
-0.166667
31
0
39
0
210
0
220
0
230
1
0
LINE
5
117
100
AcDbEntity
8
0
62
256
6
ByLayer
370
-2
48
1
60
0
100
AcDbLine
10
0
20
0
30
0
11
-1
21
0
31
0
39
0
210
0
220
0
230
1
0
ENDBLK
5
113
100
AcDbEntity
8
0
100
AcDbBlockEnd
0
BLOCK
5
124
100
AcDbEntity
8
0
100
AcDbBlockBegin
2
DimnDraft3D2
70
0
10
0
20
0
30
0
3
DimnDraft3D2
0
MTEXT
5
119
100
AcDbEntity
8
2
62
256
6
ByLayer
370
13
48
1
60
0
100
AcDbMText
10
42.54054
20
1.174342
30
0
210
0
220
0
230
1
1
\W0.6740;25
40
4.5
41
0
44
1.084337
50
90
71
7
72
5
7
iso_b_vert
0
LINE
5
11B
100
AcDbEntity
8
2
62
256
6
ByLayer
370
13
48
1
60
0
100
AcDbLine
10
1.5875
20
-9.9375
30
0
11
46.84054
21
-9.9375
31
0
39
0
210
0
220
0
230
1
0
LINE
5
11C
100
AcDbEntity
8
2
62
256
6
ByLayer
370
13
48
1
60
0
100
AcDbLine
10
28.75304
20
15.4125
30
0
11
46.84054
21
15.4125
31
0
39
0
210
0
220
0
230
1
0
LINE
5
11D
100
AcDbEntity
8
2
62
256
6
ByLayer
370
13
48
1
60
0
100
AcDbLine
10
43.66554
20
-9.9375
30
0
11
43.66554
21
15.4125
31
0
39
0
210
0
220
0
230
1
0
LINE
5
11E
100
AcDbEntity
8
2
62
256
6
ByLayer
370
13
48
1
60
0
100
AcDbLine
10
43.66554
20
-9.9375
30
0
11
42.814802
21
-6.762503
31
0
39
0
210
0
220
0
230
1
0
LINE
5
11F
100
AcDbEntity
8
2
62
256
6
ByLayer
370
13
48
1
60
0
100
AcDbLine
10
43.66554
20
-9.9375
30
0
11
44.516279
21
-6.762497
31
0
39
0
210
0
220
0
230
1
0
LINE
5
120
100
AcDbEntity
8
2
62
256
6
ByLayer
370
13
48
1
60
0
100
AcDbLine
10
42.814802
20
-6.762503
30
0
11
44.516279
21
-6.762497
31
0
39
0
210
0
220
0
230
1
0
LINE
5
121
100
AcDbEntity
8
2
62
256
6
ByLayer
370
13
48
1
60
0
100
AcDbLine
10
43.66554
20
15.4125
30
0
11
44.516279
21
12.237503
31
0
39
0
210
0
220
0
230
1
0
LINE
5
122
100
AcDbEntity
8
2
62
256
6
ByLayer
370
13
48
1
60
0
100
AcDbLine
10
43.66554
20
15.4125
30
0
11
42.814802
21
12.237497
31
0
39
0
210
0
220
0
230
1
0
LINE
5
123
100
AcDbEntity
8
2
62
256
6
ByLayer
370
13
48
1
60
0
100
AcDbLine
10
44.516279
20
12.237503
30
0
11
42.814802
21
12.237497
31
0
39
0
210
0
220
0
230
1
0
ENDBLK
5
125
100
AcDbEntity
8
0
100
AcDbBlockEnd
0
BLOCK
5
132
100
AcDbEntity
8
0
100
AcDbBlockBegin
2
DimnDraft3D3
70
0
10
0
20
0
30
0
3
DimnDraft3D3
0
MTEXT
5
128
100
AcDbEntity
8
SK2
62
256
6
ByLayer
370
13
48
1
60
0
100
AcDbMText
10
-38.691697
20
34.0375
30
0
210
0
220
0
230
1
1
\W0.6217;125
40
4.5
41
0
44
1.084337
50
0
71
7
72
5
7
iso_b_vert
0
LINE
5
129
100
AcDbEntity
8
SK2
62
256
6
ByLayer
370
13
48
1
60
0
100
AcDbLine
10
-99.18446
20
11.65
30
0
11
-99.18446
21
36.0875
31
0
39
0
210
0
220
0
230
1
0
LINE
5
12A
100
AcDbEntity
8
SK2
62
256
6
ByLayer
370
13
48
1
60
0
100
AcDbLine
10
27.16554
20
17
30
0
11
27.16554
21
36.0875
31
0
39
0
210
0
220
0
230
1
0
LINE
5
12B
100
AcDbEntity
8
SK2
62
256
6
ByLayer
370
13
48
1
60
0
100
AcDbLine
10
-99.18446
20
32.9125
30
0
11
27.16554
21
32.9125
31
0
39
0
210
0
220
0
230
1
0
LINE
5
12C
100
AcDbEntity
8
SK2
62
256
6
ByLayer
370
13
48
1
60
0
100
AcDbLine
10
-99.18446
20
32.9125
30
0
11
-96.009463
21
33.763239
31
0
39
0
210
0
220
0
230
1
0
LINE
5
12D
100
AcDbEntity
8
SK2
62
256
6
ByLayer
370
13
48
1
60
0
100
AcDbLine
10
-99.18446
20
32.9125
30
0
11
-96.009457
21
32.061761
31
0
39
0
210
0
220
0
230
1
0
LINE
5
12E
100
AcDbEntity
8
SK2
62
256
6
ByLayer
370
13
48
1
60
0
100
AcDbLine
10
-96.009463
20
33.763239
30
0
11
-96.009457
21
32.061761
31
0
39
0
210
0
220
0
230
1
0
LINE
5
12F
100
AcDbEntity
8
SK2
62
256
6
ByLayer
370
13
48
1
60
0
100
AcDbLine
10
27.16554
20
32.9125
30
0
11
23.990543
21
32.061761
31
0
39
0
210
0
220
0
230
1
0
LINE
5
130
100
AcDbEntity
8
SK2
62
256
6
ByLayer
370
13
48
1
60
0
100
AcDbLine
10
27.16554
20
32.9125
30
0
11
23.990537
21
33.763239
31
0
39
0
210
0
220
0
230
1
0
LINE
5
131
100
AcDbEntity
8
SK2
62
256
6
ByLayer
370
13
48
1
60
0
100
AcDbLine
10
23.990543
20
32.061761
30
0
11
23.990537
21
33.763239
31
0
39
0
210
0
220
0
230
1
0
ENDBLK
5
133
100
AcDbEntity
8
0
100
AcDbBlockEnd
0
BLOCK
5
140
100
AcDbEntity
8
0
100
AcDbBlockBegin
2
DimnDraft3D4
70
0
10
0
20
0
30
0
3
DimnDraft3D4
0
MTEXT
5
136
100
AcDbEntity
8
2
62
256
6
ByLayer
370
13
48
1
60
0
100
AcDbMText
10
13.485378
20
20.603934
30
0
210
0
220
0
230
1
1
\W0.8292;95%%d0'
40
4.5
41
0
44
1.084337
50
47.5
71
7
72
5
7
iso_b_vert
0
LINE
5
137
100
AcDbEntity
8
2
62
256
6
ByLayer
370
13
48
1
60
0
100
AcDbLine
10
27.16554
20
17
30
0
11
27.16554
21
31.079368
31
0
39
0
210
0
220
0
230
1
0
LINE
5
138
100
AcDbEntity
8
2
62
256
6
ByLayer
370
13
48
1
60
0
100
AcDbLine
10
12.721151
20
14.221256
30
0
11
11.63049
21
14.125835
31
0
39
0
210
0
220
0
230
1
0
ARC
5
139
100
AcDbEntity
8
2
62
256
6
ByLayer
370
13
48
1
60
0
100
AcDbCircle
39
0
10
27.16554
20
15.484976
30
0
40
12.4193920057133
210
0
220
0
230
1
100
AcDbArc
50
90
51
185
0
LINE
5
13A
100
AcDbEntity
8
2
62
256
6
ByLayer
370
13
48
1
60
0
100
AcDbLine
10
27.16554
20
27.904368
30
0
11
24.050999
21
26.853657
31
0
39
0
210
0
220
0
230
1
0
LINE
5
13B
100
AcDbEntity
8
2
62
256
6
ByLayer
370
13
48
1
60
0
100
AcDbLine
10
27.16554
20
27.904368
30
0
11
23.942907
21
28.551698
31
0
39
0
210
0
220
0
230
1
0
LINE
5
13C
100
AcDbEntity
8
2
62
256
6
ByLayer
370
13
48
1
60
0
100
AcDbLine
10
24.050999
20
26.853657
30
0
11
23.942907
21
28.551698
31
0
39
0
210
0
220
0
230
1
0
LINE
5
13D
100
AcDbEntity
8
2
62
256
6
ByLayer
370
13
48
1
60
0
100
AcDbLine
10
14.793408
20
14.402555
30
0
11
13.867671
21
17.5565
31
0
39
0
210
0
220
0
230
1
0
LINE
5
13E
100
AcDbEntity
8
2
62
256
6
ByLayer
370
13
48
1
60
0
100
AcDbLine
10
14.793408
20
14.402555
30
0
11
15.56867
21
17.596826
31
0
39
0
210
0
220
0
230
1
0
LINE
5
13F
100
AcDbEntity
8
2
62
256
6
ByLayer
370
13
48
1
60
0
100
AcDbLine
10
13.867671
20
17.5565
30
0
11
15.56867
21
17.596826
31
0
39
0
210
0
220
0
230
1
0
ENDBLK
5
141
100
AcDbEntity
8
0
100
AcDbBlockEnd
0
ENDSEC
0
SECTION
2
ENTITIES
0
ARC
5
B4
100
AcDbEntity
8
1
62
256
6
ByLayer
370
18
48
1
60
0
100
AcDbCircle
39
0
10
0
20
11.5375
30
0
40
1.59999999999992
210
0
220
0
230
-1
100
AcDbArc
50
195
51
270
0
ELLIPSE
5
B5
100
AcDbEntity
8
1
62
256
6
ByLayer
370
18
48
1
60
0
100
AcDbEllipse
10
15.707625
20
-0.359692
30
0
11
1.8520393592766
21
-1.85203935927659
31
0
210
0
220
0
230
1
40
0.989133
41
0.289528161669232
42
0.698131700797729
0
ELLIPSE
5
B6
100
AcDbEntity
8
1
62
256
6
ByLayer
370
18
48
1
60
0
100
AcDbEllipse
10
15.69185
20
-0.375468
30
0
11
-1.74598052191906
21
1.74598052191904
31
0
210
0
220
0
230
1
40
0.989133
41
-2.97370292852228
42
-2.44346095279207
0
ELLIPSE
5
B7
100
AcDbEntity
8
1
62
256
6
ByLayer
370
18
48
1
60
0
100
AcDbEllipse
10
16.426354
20
8.981652
30
0
11
-1.83847763108503
21
1.83847763108502
31
0
210
0
220
0
230
1
40
0.989133
41
0.356793928598303
42
0.698131700797731
0
ELLIPSE
5
B8
100
AcDbEntity
8
1
62
256
6
ByLayer
370
18
48
1
60
0
100
AcDbEllipse
10
18.155041
20
-0.587274
30
0
11
0.149497441244717
21
-0.0122684579830764
31
0
210
0
220
0
230
1
40
0.112627
41
-1.66605064319143
42
-0.0836187880501198
0
ELLIPSE
5
B9
100
AcDbEntity
8
1
62
256
6
ByLayer
370
18
48
1
60
0
100
AcDbEllipse
10
16.471562
20
0.404245
30
0
11
-1.79157841689387
21
1.79157841689385
31
0
210
0
220
0
230
1
40
0.989133
41
2.13705220807585
42
-2.44346095279206
0
ELLIPSE
5
BA
100
AcDbEntity
8
1
62
256
6
ByLayer
370
18
48
1
60
0
100
AcDbEllipse
10
0
20
-9.944481
30
0
11
1.60000000000009
21
1.61702248813187E-15
31
0
210
0
220
0
230
-1
40
0.004363
41
-1.5707963267949
42
-0.261799387798642
0
ELLIPSE
5
BB
100
AcDbEntity
8
1
62
256
6
ByLayer
370
18
48
1
60
0
100
AcDbEllipse
10
16.196465
20
6.180337
30
0
11
-1.83847763108503
21
1.83847763108502
31
0
210
0
220
0
230
1
40
0.989133
41
0.698131700797724
42
1.03946947299714
0
ELLIPSE
5
BC
100
AcDbEntity
8
1
62
256
6
ByLayer
370
18
48
1
60
0
100
AcDbEllipse
10
18.635415
20
1.602316
30
0
11
0.0138248362462958
21
0.151738984752743
31
0
210
0
220
0
230
-1
40
0.081741
41
3.02056656109573
42
-1.68018689097425
0
ELLIPSE
5
BD
100
AcDbEntity
8
1
62
256
6
ByLayer
370
18
48
1
60
0
100
AcDbEllipse
10
15.811063
20
0.46561
30
0
11
1.79157841689387
21
-1.79157841689385
31
0
210
0
220
0
230
1
40
0.989133
41
-2.44346095279206
42
-0.740788806480391
0
ELLIPSE
5
BE
100
AcDbEntity
8
1
62
256
6
ByLayer
370
18
48
1
60
0
100
AcDbEllipse
10
19.237392
20
7.484352
30
0
11
-1.96222131779268
21
1.96222131779266
31
0
210
0
220
0
230
1
40
0.989133
41
-2.72658645110005
42
-2.42592738419872
0
ELLIPSE
5
BF
100
AcDbEntity
8
1
62
256
6
ByLayer
370
18
48
1
60
0
100
AcDbEllipse
10
19.237392
20
7.484352
30
0
11
-1.96222131779268
21
1.96222131779266
31
0
210
0
220
0
230
1
40
0.989133
41
-0.775751358630781
42
-0.414984955452043
0
ELLIPSE
5
C0
100
AcDbEntity
8
1
62
256
6
ByLayer
370
18
48
1
60
0
100
AcDbEllipse
10
19.564704
20
8.516606
30
0
11
-1.83847763108503
21
1.83847763108502
31
0
210
0
220
0
230
1
40
0.989133
41
2.61854837670686
42
3.14157221074962
0
ELLIPSE
5
C1
100
AcDbEntity
8
1
62
256
6
ByLayer
370
18
48
1
60
0
100
AcDbEllipse
10
7.948897
20
3.846064
30
0
11
1.09955104474509
21
-1.09955104474508
31
0
210
0
220
0
230
1
40
0.989133
41
0.246481968554636
42
0.790861299489181
0
ELLIPSE
5
C2
100
AcDbEntity
8
1
62
256
6
ByLayer
370
18
48
1
60
0
100
AcDbEllipse
10
7.948897
20
3.846064
30
0
11
1.09955104474509
21
-1.09955104474508
31
0
210
0
220
0
230
1
40
0.989133
41
0.790861299489181
42
2.9868343207561
0
ELLIPSE
5
C3
100
AcDbEntity
8
1
62
256
6
ByLayer
370
18
48
1
60
0
100
AcDbEllipse
10
19.944499
20
7.486516
30
0
11
-1.83847763108503
21
1.83847763108502
31
0
210
0
220
0
230
1
40
0.989133
41
-4.40955731162124E-06
42
0.0551687809030059
0
ELLIPSE
5
C4
100
AcDbEntity
8
1
62
256
6
ByLayer
370
18
48
1
60
0
100
AcDbEllipse
10
20.014724
20
8.052498
30
0
11
1.66170093578839
21
-1.66170093578838
31
0
210
0
220
0
230
1
40
0.989133
41
-3.14156232384444
42
-2.89428143295535
0
ELLIPSE
5
C5
100
AcDbEntity
8
1
62
256
6
ByLayer
370
18
48
1
60
0
100
AcDbEllipse
10
19.047662
20
7.294622
30
0
11
2.01525432638167
21
-2.01525432638165
31
0
210
0
220
0
230
1
40
0.989133
41
2.41724352235665
42
2.66023662770659
0
ELLIPSE
5
C6
100
AcDbEntity
8
1
62
256
6
ByLayer
370
18
48
1
60
0
100
AcDbEllipse
10
19.047662
20
7.294622
30
0
11
2.01525432638167
21
-2.01525432638165
31
0
210
0
220
0
230
1
40
0.989133
41
0.481390406242433
42
0.692392527857938
0
ELLIPSE
5
C7
100
AcDbEntity
8
1
62
256
6
ByLayer
370
18
48
1
60
0
100
AcDbEllipse
10
14.706407
20
13.210897
30
0
11
0.561266007566825
21
-0.56126600756682
31
0
210
0
220
0
230
1
40
0.989133
41
-3.14159261094367
42
-2.80729722215597
0
ELLIPSE
5
C8
100
AcDbEntity
8
1
62
256
6
ByLayer
370
18
48
1
60
0
100
AcDbEllipse
10
8.052858
20
3.950026
30
0
11
-1.09955104474509
21
1.09955104474508
31
0
210
0
220
0
230
1
40
0.989133
41
-0.214803610393494
42
-0.0627299301801537
0
ELLIPSE
5
C9
100
AcDbEntity
8
1
62
256
6
ByLayer
370
18
48
1
60
0
100
AcDbEllipse
10
8.052858
20
3.950026
30
0
11
-1.09955104474509
21
1.09955104474508
31
0
210
0
220
0
230
1
40
0.989133
41
-2.98014910794613
42
-2.75225611799687
0
ELLIPSE
5
CA
100
AcDbEntity
8
1
62
256
6
ByLayer
370
18
48
1
60
0
100
AcDbEllipse
10
13.789369
20
2.036329
30
0
11
0.561266007566825
21
-0.56126600756682
31
0
210
0
220
0
230
1
40
0.989133
41
-1.37264672945804
42
-0.698131700797728
0
ELLIPSE
5
CB
100
AcDbEntity
8
1
62
256
6
ByLayer
370
18
48
1
60
0
100
AcDbEllipse
10
19.835172
20
8.082131
30
0
11
-1.82292128189893
21
1.82292128189891
31
0
210
0
220
0
230
1
40
0.989133
41
-3.0037898066854
42
-2.41307203409645
0
ELLIPSE
5
CC
100
AcDbEntity
8
1
62
256
6
ByLayer
370
18
48
1
60
0
100
AcDbEllipse
10
19.835172
20
8.082131
30
0
11
-1.82292128189893
21
1.82292128189891
31
0
210
0
220
0
230
1
40
0.989133
41
-1.09556699263068
42
-0.137773979354464
0
ELLIPSE
5
CD
100
AcDbEntity
8
1
62
256
6
ByLayer
370
18
48
1
60
0
100
AcDbEllipse
10
24.963937
20
2.953366
30
0
11
0.561266007566825
21
-0.56126600756682
31
0
210
0
220
0
230
1
40
0.989133
41
-0.334296618414517
42
-1.23103756215893E-06
0
ELLIPSE
5
CE
100
AcDbEntity
8
1
62
256
6
ByLayer
370
18
48
1
60
0
100
AcDbEllipse
10
20.330289
20
8.577249
30
0
11
-1.82292128189893
21
1.82292128189891
31
0
210
0
220
0
230
1
40
0.989133
41
0
42
6.28318530717959
0
ELLIPSE
5
CF
100
AcDbEntity
8
1
62
256
6
ByLayer
370
18
48
1
60
0
100
AcDbEllipse
10
25.459054
20
3.448484
30
0
11
-0.561266007566825
21
0.56126600756682
31
0
210
0
220
0
230
1
40
0.989133
41
2.44346095279208
42
-2.44346095279207
0
ELLIPSE
5
D0
100
AcDbEntity
8
1
62
256
6
ByLayer
370
18
48
1
60
0
100
AcDbEllipse
10
26.376091
20
14.623051
30
0
11
-0.561266007566825
21
0.56126600756682
31
0
210
0
220
0
230
1
40
0.989133
41
-2.44346095279209
42
-0.698131700797726
0
ELLIPSE
5
D1
100
AcDbEntity
8
1
62
256
6
ByLayer
370
18
48
1
60
0
100
AcDbEllipse
10
15.201524
20
13.706014
30
0
11
-0.561266007566825
21
0.56126600756682
31
0
210
0
220
0
230
1
40
0.989133
41
-0.698131700797755
42
0.698131700797701
0
ELLIPSE
5
D2
100
AcDbEntity
8
1
62
256
6
ByLayer
370
18
48
1
60
0
100
AcDbEllipse
10
14.284487
20
2.531446
30
0
11
-0.561266007566825
21
0.56126600756682
31
0
210
0
220
0
230
1
40
0.989133
41
0.698131700797729
42
2.44346095279208
0
ELLIPSE
5
D3
100
AcDbEntity
8
1
62
256
6
ByLayer
370
18
48
1
60
0
100
AcDbEllipse
10
20.264014
20
8.510973
30
0
11
-1.30814754519512
21
1.30814754519511
31
0
210
0
220
0
230
1
40
0.989133
41
0.791150234154365
42
1.47777779343825
0
ELLIPSE
5
D4
100
AcDbEntity
8
1
62
256
6
ByLayer
370
18
48
1
60
0
100
AcDbEllipse
10
20.022135
20
8.974037
30
0
11
1.83847763108503
21
-1.83847763108502
31
0
210
0
220
0
230
1
40
0.989133
41
-1.43851833952931
42
0.565853713532123
0
ELLIPSE
5
D5
100
AcDbEntity
8
1
62
256
6
ByLayer
370
18
48
1
60
0
100
AcDbEllipse
10
20.40193
20
7.943948
30
0
11
1.83847763108503
21
-1.83847763108502
31
0
210
0
220
0
230
1
40
0.989133
41
1.70307431406049
42
-2.57573894005766
0
ELLIPSE
5
D6
100
AcDbEntity
8
1
62
256
6
ByLayer
370
18
48
1
60
0
100
AcDbEllipse
10
20.074116
20
9.026018
30
0
11
-1.48492424049176
21
1.48492424049174
31
0
210
0
220
0
230
1
40
0.989133
41
1.7269699503267
42
-2.59963457632388
0
ELLIPSE
5
D7
100
AcDbEntity
8
1
62
256
6
ByLayer
370
18
48
1
60
0
100
AcDbEllipse
10
20.212033
20
8.458992
30
0
11
1.66170093578839
21
-1.66170093578838
31
0
210
0
220
0
230
1
40
0.989133
41
-2.37722162994188
42
-1.6370356496451
0
ELLIPSE
5
D8
100
AcDbEntity
8
1
62
256
6
ByLayer
370
18
48
1
60
0
100
AcDbEllipse
10
20.212033
20
8.458992
30
0
11
1.66170093578839
21
-1.66170093578838
31
0
210
0
220
0
230
1
40
0.989133
41
0.764371023647929
42
1.50455700394469
0
ELLIPSE
5
D9
100
AcDbEntity
8
1
62
256
6
ByLayer
370
18
48
1
60
0
100
AcDbEllipse
10
20.264014
20
8.510973
30
0
11
-1.30814754519512
21
1.30814754519511
31
0
210
0
220
0
230
1
40
0.989133
41
-2.35044241943543
42
-1.66381486015155
0
ELLIPSE
5
DA
100
AcDbEntity
8
1
62
256
6
ByLayer
370
18
48
1
60
0
100
AcDbEllipse
10
20.453911
20
7.995928
30
0
11
-1.48492424049176
21
1.48492424049174
31
0
210
0
220
0
230
1
40
0.989133
41
-1.41462270326309
42
0.541958077265906
0
ELLIPSE
5
DB
100
AcDbEntity
8
1
62
256
6
ByLayer
370
18
48
1
60
0
100
AcDbEllipse
10
8.468705
20
4.365872
30
0
11
1.36287119209428
21
-1.36287119209427
31
0
210
0
220
0
230
1
40
0.989133
41
0
42
6.28318530717959
0
ELLIPSE
5
DC
100
AcDbEntity
8
1
62
256
6
ByLayer
370
18
48
1
60
0
100
AcDbEllipse
10
8.389174
20
4.286342
30
0
11
2.8284271247462
21
-2.82842712474618
31
0
210
0
220
0
230
1
40
0.989133
41
0
42
6.28318530717959
0
ELLIPSE
5
DD
100
AcDbEntity
8
1
62
256
6
ByLayer
370
18
48
1
60
0
100
AcDbEllipse
10
8.446353
20
4.343521
30
0
11
-1.09955104474509
21
1.09955104474508
31
0
210
0
220
0
230
1
40
0.989133
41
2.48373163798611
42
2.92678904319629
0
ELLIPSE
5
DE
100
AcDbEntity
8
1
62
256
6
ByLayer
370
18
48
1
60
0
100
AcDbEllipse
10
8.446353
20
4.343521
30
0
11
-1.09955104474509
21
1.09955104474508
31
0
210
0
220
0
230
1
40
0.989133
41
-1.70505856680028
42
-1.26200116159008
0
ELLIPSE
5
DF
100
AcDbEntity
8
1
62
256
6
ByLayer
370
18
48
1
60
0
100
AcDbEllipse
10
8.052858
20
3.950026
30
0
11
-1.09955104474509
21
1.09955104474508
31
0
210
0
220
0
230
1
40
0.989133
41
-2.3091987127867
42
-1.70505856680028
0
ELLIPSE
5
E0
100
AcDbEntity
8
1
62
256
6
ByLayer
370
18
48
1
60
0
100
AcDbEllipse
10
8.052858
20
3.950026
30
0
11
-1.09955104474509
21
1.09955104474508
31
0
210
0
220
0
230
1
40
0.989133
41
-1.26200116159008
42
-0.657861015603709
0
ELLIPSE
5
E1
100
AcDbEntity
8
1
62
256
6
ByLayer
370
18
48
1
60
0
100
AcDbEllipse
10
8.446353
20
4.343521
30
0
11
-1.09955104474509
21
1.09955104474508
31
0
210
0
220
0
230
1
40
0.989133
41
0.389336535592921
42
0.83239394080311
0
ELLIPSE
5
E2
100
AcDbEntity
8
1
62
256
6
ByLayer
370
18
48
1
60
0
100
AcDbEllipse
10
8.446353
20
4.343521
30
0
11
-1.09955104474509
21
1.09955104474508
31
0
210
0
220
0
230
1
40
0.989133
41
-0.657861015603692
42
-0.214803610393475
0
ELLIPSE
5
E3
100
AcDbEntity
8
1
62
256
6
ByLayer
370
18
48
1
60
0
100
AcDbEllipse
10
8.446353
20
4.343521
30
0
11
-1.09955104474509
21
1.09955104474508
31
0
210
0
220
0
230
1
40
0.989133
41
-2.75225611799688
42
-2.3091987127867
0
ELLIPSE
5
E4
100
AcDbEntity
8
1
62
256
6
ByLayer
370
18
48
1
60
0
100
AcDbEllipse
10
8.446353
20
4.343521
30
0
11
-1.09955104474509
21
1.09955104474508
31
0
210
0
220
0
230
1
40
0.989133
41
1.43653408678951
42
1.87959149199969
0
ELLIPSE
5
E5
100
AcDbEntity
8
1
62
256
6
ByLayer
370
18
48
1
60
0
100
AcDbEllipse
10
8.468705
20
4.365872
30
0
11
2.28749043713849
21
-2.28749043713847
31
0
210
0
220
0
230
1
40
0.989133
41
0
42
6.28318530717959
0
POINT
5
6C
100
AcDbEntity
8
80
62
256
6
ByLayer
370
18
48
1
60
0
100
AcDbPoint
10
0
20
0
30
0
39
0
210
0
220
0
230
1
50
360
0
POINT
5
6E
100
AcDbEntity
8
81
62
256
6
ByLayer
370
18
48
1
60
0
100
AcDbPoint
10
25.81554
20
15.0625
30
0
39
0
210
0
220
0
230
1
50
360
0
POINT
5
70
100
AcDbEntity
8
1
62
256
6
ByLayer
370
18
48
1
60
0
100
AcDbPoint
10
-99.18446
20
-9.9375
30
0
39
0
210
0
220
0
230
1
50
360
0
SPLINE
5
E6
100
AcDbEntity
8
1
62
256
6
ByLayer
370
18
48
1
60
0
100
AcDbSpline
70
4
71
1
72
4
73
2
40
0
40
0
40
1
40
1
41
1
10
18.4699926451013
20
9.80911448365475
30
0
41
1
10
18.5627919882977
20
9.89452106456821
30
0
0
SPLINE
5
E7
100
AcDbEntity
8
1
62
256
6
ByLayer
370
18
48
1
60
0
100
AcDbSpline
70
4
71
3
72
8
73
4
40
0
40
0
40
0
40
0
40
1
40
1
40
1
40
1
41
1
10
19.178328239746
20
10.2157218385645
30
0
41
1
10
19.1281002574326
20
10.2051017037796
30
0
41
1
10
19.0779642925309
20
10.192793495972
30
0
41
1
10
19.0285501045244
20
10.1789298864257
30
0
0
SPLINE
5
E8
100
AcDbEntity
8
1
62
256
6
ByLayer
370
18
48
1
60
0
100
AcDbSpline
70
4
71
3
72
18
73
14
40
0
40
0
40
0
40
0
40
0.0101665244250283
40
0.0101665244250283
40
0.275127849602163
40
0.275127849602163
40
0.407608512190731
40
0.407608512190731
40
0.540089174779297
40
0.540089174779297
40
0.805050499956431
40
0.805050499956431
40
1
40
1
40
1
40
1
41
1
10
21.2330055520524
20
6.16383226339917
30
0
41
1
10
21.2364231285036
20
6.1668251397501
30
0
41
1
10
21.2398314319749
20
6.16982746147943
30
0
41
1
10
21.3318152749876
20
6.25133069353268
30
0
41
1
10
21.4144250726995
20
6.33642715364397
30
0
41
1
10
21.5293000566622
20
6.47415423993039
30
0
41
1
10
21.5661911790971
20
6.52193273586104
30
0
41
1
10
21.6357239174726
20
6.61928372912519
30
0
41
1
10
21.6685042870291
20
6.66899861180295
30
0
41
1
10
21.7610878381421
20
6.82113270338968
30
0
41
1
10
21.8151508471941
20
6.92653709288578
30
0
41
1
10
21.8961295738566
20
7.11600258045945
30
0
41
1
10
21.9264380366788
20
7.19866204338879
30
0
41
1
10
21.9524531126423
20
7.28174677766859
30
0
0
SPLINE
5
E9
100
AcDbEntity
8
1
62
256
6
ByLayer
370
18
48
1
60
0
100
AcDbSpline
70
4
71
3
72
8
73
4
40
0
40
0
40
0
40
0
40
1
40
1
40
1
40
1
41
1
10
18.4970018768174
20
9.92826994927105
30
0
41
1
10
18.3660810402538
20
9.87101790886206
30
0
41
1
10
18.2289997646642
20
9.81199664505263
30
0
41
1
10
18.0880377642662
20
9.75186087152832
30
0
0
SPLINE
5
EA
100
AcDbEntity
8
1
62
256
6
ByLayer
370
18
48
1
60
0
100
AcDbSpline
70
4
71
3
72
18
73
14
40
0
40
0
40
0
40
0
40
0.179799028553982
40
0.179799028553982
40
0.359598057107965
40
0.359598057107965
40
0.539397085661947
40
0.539397085661947
40
0.71919611421593
40
0.71919611421593
40
0.898995142769912
40
0.898995142769912
40
1
40
1
40
1
40
1
41
1
10
18.094763010602
20
9.30814178211972
30
0
41
1
10
18.1017676143449
20
9.31514638586262
30
0
41
1
10
18.0991967818657
20
9.31160236344252
30
0
41
1
10
18.0797178124368
20
9.28716308690318
30
0
41
1
10
18.0635256433433
20
9.26702687602597
30
0
41
1
10
18.0248282071029
20
9.21602965213836
30
0
41
1
10
18.0022761474251
20
9.18507596081207
30
0
41
1
10
17.9558685575298
20
9.11689254200684
30
0
41
1
10
17.9317666246925
20
9.07936588041898
30
0
41
1
10
17.8836836949954
20
8.99864270278769
30
0
41
1
10
17.859589339782
20
8.955225895762
30
0
41
1
10
17.8235499622954
20
8.88460181016839
30
0
41
1
10
17.8108836383089
20
8.8586002360889
30
0
41
1
10
17.7985713707033
20
8.83204029424186
30
0
0
SPLINE
5
EB
100
AcDbEntity
8
1
62
256
6
ByLayer
370
18
48
1
60
0
100
AcDbSpline
70
4
71
3
72
8
73
4
40
0
40
0
40
0
40
0
40
1
40
1
40
1
40
1
41
1
10
21.9620607293922
20
9.98904147799445
30
0
41
1
10
21.8661535394693
20
9.88530951687844
30
0
41
1
10
21.7701269380903
20
9.78156730890456
30
0
41
1
10
21.6738580868114
20
9.67780464254838
30
0
0
SPLINE
5
EC
100
AcDbEntity
8
1
62
256
6
ByLayer
370
18
48
1
60
0
100
AcDbSpline
70
4
71
3
72
22
73
18
40
0
40
0
40
0
40
0
40
0.062499999999999
40
0.062499999999999
40
0.124999999999998
40
0.124999999999998
40
0.187499999999997
40
0.187499999999997
40
0.249999999999996
40
0.249999999999996
40
0.374999999999997
40
0.374999999999997
40
0.499999999999998
40
0.499999999999998
40
0.749999999999999
40
0.749999999999999
40
1
40
1
40
1
40
1
41
1
10
18.0085446295822
20
9.2219234010999
30
0
41
1
10
18.0055687701609
20
9.21894754167869
30
0
41
1
10
18.0050065022926
20
9.22050673125975
30
0
41
1
10
18.0080470382738
20
9.23111193897759
30
0
41
1
10
18.011657073303
20
9.24008709199106
30
0
41
1
10
18.0218349139703
20
9.26239426674778
30
0
41
1
10
18.0285100246431
20
9.27595375954058
30
0
41
1
10
18.043928579964
20
9.3053460480966
30
0
41
1
10
18.0526849520353
20
9.32122396401101
30
0
41
1
10
18.0815757738654
20
9.37110621233194
30
0
41
1
10
18.1044777626384
20
9.40752296984675
30
0
41
1
10
18.1547468912407
20
9.48088727210427
30
0
41
1
10
18.1822441260768
20
9.51811208614214
30
0
41
1
10
18.2711005244977
20
9.62945810203067
30
0
41
1
10
18.3392986747735
20
9.70360951728028
30
0
41
1
10
18.4879851269993
20
9.84276036011033
30
0
41
1
10
18.5686712367384
20
9.9082159131822
30
0
41
1
10
18.6554937611144
20
9.96863158042902
30
0
0
SPLINE
5
ED
100
AcDbEntity
8
1
62
256
6
ByLayer
370
18
48
1
60
0
100
AcDbSpline
70
4
71
3
72
8
73
4
40
0
40
0
40
0
40
0
40
1
40
1
40
1
40
1
41
1
10
22.103873210383
20
8.51150477809011
30
0
41
1
10
22.2524135852638
20
8.47349505656942
30
0
41
1
10
22.4007620037407
20
8.4353284691442
30
0
41
1
10
22.5490156790848
20
8.39708472869742
30
0
0
SPLINE
5
EE
100
AcDbEntity
8
1
62
256
6
ByLayer
370
18
48
1
60
0
100
AcDbSpline
70
4
71
3
72
14
73
10
40
0
40
0
40
0
40
0
40
0.25
40
0.25
40
0.5
40
0.5
40
0.75
40
0.75
40
1
40
1
40
1
40
1
41
1
10
19.0285501045244
20
10.1789298864257
30
0
41
1
10
19.01100530174
20
10.1690618267483
30
0
41
1
10
18.9794031659339
20
10.1553828183662
30
0
41
1
10
18.9024598683278
20
10.1230628031006
30
0
41
1
10
18.8563941870761
20
10.1039992113976
30
0
41
1
10
18.7597889330938
20
10.061746476071
30
0
41
1
10
18.7087504865369
20
10.0383861608398
30
0
41
1
10
18.6039515758994
20
9.986763848913
30
0
41
1
10
18.5502078429916
20
9.95849561343005
30
0
41
1
10
18.4970018768174
20
9.92826994927105
30
0
0
SPLINE
5
EF
100
AcDbEntity
8
1
62
256
6
ByLayer
370
18
48
1
60
0
100
AcDbSpline
70
4
71
3
72
8
73
4
40
0
40
0
40
0
40
0
40
1
40
1
40
1
40
1
41
1
10
18.8541689286932
20
7.34414175441094
30
0
41
1
10
18.7232738547281
20
7.20575286536848
30
0
41
1
10
18.5925877147449
20
7.06735111879038
30
0
41
1
10
18.4620046451815
20
6.92894327803393
30
0
0
SPLINE
5
F0
100
AcDbEntity
8
1
62
256
6
ByLayer
370
18
48
1
60
0
100
AcDbSpline
70
4
71
3
72
8
73
4
40
0
40
0
40
0
40
0
40
1
40
1
40
1
40
1
41
1
10
18.6554937611144
20
9.96863158042902
30
0
41
1
10
18.7718569209237
20
10.0496031715381
30
0
41
1
10
18.8962598691189
20
10.1200372427031
30
0
41
1
10
19.0285501045244
20
10.1789298864256
30
0
0
SPLINE
5
F1
100
AcDbEntity
8
1
62
256
6
ByLayer
370
18
48
1
60
0
100
AcDbSpline
70
4
71
3
72
8
73
4
40
0
40
0
40
0
40
0
40
1
40
1
40
1
40
1
41
1
10
17.8750496954889
20
8.52090002733095
30
0
41
1
10
18.0579792504735
20
8.51733216652462
30
0
41
1
10
18.2409872075546
20
8.51382511770362
30
0
41
1
10
18.4241538051216
20
8.51044161886921
30
0
0
SPLINE
5
F2
100
AcDbEntity
8
1
62
256
6
ByLayer
370
18
48
1
60
0
100
AcDbSpline
70
4
71
3
72
10
73
6
40
0
40
0
40
0
40
0
40
0.5
40
0.5
40
1
40
1
40
1
40
1
41
1
10
9.79885053079187
20
3.22819399301193
30
0
41
1
10
9.7148124794403
20
3.19632709361815
30
0
41
1
10
9.63019538219038
20
3.16442198161698
30
0
41
1
10
9.4594304174212
20
3.10051073846663
30
0
41
1
10
9.37382173691549
20
3.06870957484676
30
0
41
1
10
9.28880618636489
20
3.03741065947634
30
0
0
SPLINE
5
F3
100
AcDbEntity
8
1
62
256
6
ByLayer
370
18
48
1
60
0
100
AcDbSpline
70
4
71
3
72
10
73
6
40
0
40
0
40
0
40
0
40
0.5
40
0.5
40
1
40
1
40
1
40
1
41
1
10
7.60390013845353
20
5.64963046977891
30
0
41
1
10
7.52073544312114
20
5.62052023380471
30
0
41
1
10
7.43781057327362
20
5.59179167670837
30
0
41
1
10
7.2756871944878
20
5.5361157215205
30
0
41
1
10
7.19603983864124
20
5.50900905033134
30
0
41
1
10
7.1174662446675
20
5.48245758688427
30
0
0
SPLINE
5
F4
100
AcDbEntity
8
1
62
256
6
ByLayer
370
18
48
1
60
0
100
AcDbSpline
70
4
71
3
72
8
73
4
40
0
40
0
40
0
40
0
40
1
40
1
40
1
40
1
41
1
10
9.99079954371354
20
4.40773535543877
30
0
41
1
10
10.0237326744089
20
4.58863432525121
30
0
41
1
10
10.0575876563341
20
4.76638770922472
30
0
41
1
10
10.0920007224614
20
4.94223677099762
30
0
0
SPLINE
5
F5
100
AcDbEntity
8
1
62
256
6
ByLayer
370
18
48
1
60
0
100
AcDbSpline
70
4
71
3
72
10
73
6
40
0
40
0
40
0
40
0
40
0.5
40
0.5
40
1
40
1
40
1
40
1
41
1
10
8.75130857939919
20
6.06936856793379
30
0
41
1
10
8.66727052804765
20
6.03750166854002
30
0
41
1
10
8.58265343079773
20
6.00559655653885
30
0
41
1
10
8.41188846602859
20
5.94168531338849
30
0
41
1
10
8.32627978552284
20
5.90988414976863
30
0
41
1
10
8.24126423497228
20
5.87858523439823
30
0
0
SPLINE
5
F6
100
AcDbEntity
8
1
62
256
6
ByLayer
370
18
48
1
60
0
100
AcDbSpline
70
4
71
3
72
10
73
6
40
0
40
0
40
0
40
0
40
0.5
40
0.5
40
1
40
1
40
1
40
1
41
1
10
6.82431605299797
20
3.76841480889857
30
0
41
1
10
6.88879202614086
20
3.70936573972981
30
0
41
1
10
6.95451813687851
20
3.64974333328405
30
0
41
1
10
7.08701879941299
20
3.53099781054763
30
0
41
1
10
7.15384496042594
20
3.47182568803771
30
0
41
1
10
7.22135399335667
20
3.41289150155484
30
0
0
SPLINE
5
F7
100
AcDbEntity
8
1
62
256
6
ByLayer
370
18
48
1
60
0
100
AcDbSpline
70
4
71
3
72
8
73
4
40
0
40
0
40
0
40
0
40
1
40
1
40
1
40
1
41
1
10
7.74435980506058
20
2.97319586866519
30
0
41
1
10
7.88637959391775
20
2.85822674534725
30
0
41
1
10
8.02632254782316
20
2.74824516243533
30
0
41
1
10
8.16500819606017
20
2.64128301196237
30
0
0
SPLINE
5
F8
100
AcDbEntity
8
1
62
256
6
ByLayer
370
18
48
1
60
0
100
AcDbSpline
70
4
71
3
72
8
73
4
40
0
40
0
40
0
40
0
40
1
40
1
40
1
40
1
41
1
10
9.14834651975787
20
5.71384526059006
30
0
41
1
10
9.01113811099287
20
5.8336257640002
30
0
41
1
10
8.87952857897039
20
5.95194076879505
30
0
41
1
10
8.75130857939919
20
6.06936856793379
30
0
0
SPLINE
5
F9
100
AcDbEntity
8
1
62
256
6
ByLayer
370
18
48
1
60
0
100
AcDbSpline
70
4
71
3
72
8
73
4
40
0
40
0
40
0
40
0
40
1
40
1
40
1
40
1
41
1
10
6.90190678110488
20
4.27930577381647
30
0
41
1
10
6.87378503050172
20
4.10321818409622
30
0
41
1
10
6.84826347045941
20
3.93379822200564
30
0
41
1
10
6.82431605299797
20
3.76841480889854
30
0
0
SPLINE
5
FA
100
AcDbEntity
8
1
62
256
6
ByLayer
370
18
48
1
60
0
100
AcDbSpline
70
4
71
3
72
10
73
6
40
0
40
0
40
0
40
0
40
0.5
40
0.5
40
1
40
1
40
1
40
1
41
1
10
9.79885053079187
20
3.2281939930119
30
0
41
1
10
9.81089259170471
20
3.31135774700843
30
0
41
1
10
9.8234107615653
20
3.3960475073479
30
0
41
1
10
9.84926243875975
20
3.56655854869132
30
0
41
1
10
9.86260484606788
20
3.65244666075756
30
0
41
1
10
9.87644125889875
20
3.73908495792986
30
0
0
SPLINE
5
FB
100
AcDbEntity
8
1
62
256
6
ByLayer
370
18
48
1
60
0
100
AcDbSpline
70
4
71
3
72
10
73
6
40
0
40
0
40
0
40
0
40
0.5
40
0.5
40
1
40
1
40
1
40
1
41
1
10
7.1174662446675
20
5.48245758688427
30
0
41
1
10
7.10016148772783
20
5.39403113686095
30
0
41
1
10
7.08289962243902
20
5.30459768109324
30
0
41
1
10
7.04906076322638
20
5.12609945773167
30
0
41
1
10
7.03246876527481
20
5.03696175502196
30
0
41
1
10
7.0162650659197
20
4.94795617132542
30
0
0
SPLINE
5
FC
100
AcDbEntity
8
1
62
256
6
ByLayer
370
18
48
1
60
0
100
AcDbSpline
70
4
71
3
72
10
73
6
40
0
40
0
40
0
40
0
40
0.5
40
0.5
40
1
40
1
40
1
40
1
41
1
10
8.6514420898462
20
2.80845589485705
30
0
41
1
10
8.56827739451381
20
2.77934565888285
30
0
41
1
10
8.48535252466627
20
2.7506171017865
30
0
41
1
10
8.32322914588048
20
2.69494114659864
30
0
41
1
10
8.24358179003391
20
2.66783447540948
30
0
41
1
10
8.16500819606014
20
2.64128301196237
30
0
0
SPLINE
5
FD
100
AcDbEntity
8
1
62
256
6
ByLayer
370
18
48
1
60
0
100
AcDbSpline
70
4
71
3
72
10
73
6
40
0
40
0
40
0
40
0
40
0.5
40
0.5
40
1
40
1
40
1
40
1
41
1
10
10.0920007224614
20
4.94223677099762
30
0
41
1
10
10.0222620532917
20
4.99602314413957
30
0
41
1
10
9.95179224712581
20
5.05090185515706
30
0
41
1
10
9.81130440257311
20
5.16166019587533
30
0
41
1
10
9.74122865091678
20
5.21758272774181
30
0
41
1
10
9.67135233146178
20
5.27414962770044
30
0
0
LINE
5
72
100
AcDbEntity
8
1
62
256
6
ByLayer
370
18
48
1
60
0
100
AcDbLine
10
18.364026
20
9.725202
30
0
11
18.353023
21
9.714199
31
0
39
0
210
0
220
0
230
1
0
LINE
5
73
100
AcDbEntity
8
1
62
256
6
ByLayer
370
18
48
1
60
0
100
AcDbLine
10
18.563452
20
9.782425
30
0
11
18.106021
21
9.324994
31
0
39
0
210
0
220
0
230
1
0
LINE
5
74
100
AcDbEntity
8
1
62
256
6
ByLayer
370
18
48
1
60
0
100
AcDbLine
10
25.525203
20
2.3921
30
0
11
26.02032
21
2.887218
31
0
39
0
210
0
220
0
230
1
0
LINE
5
75
100
AcDbEntity
8
1
62
256
6
ByLayer
370
18
48
1
60
0
100
AcDbLine
10
21.403182
20
6.678128
30
0
11
21.860613
21
7.13556
31
0
39
0
210
0
220
0
230
1
0
LINE
5
76
100
AcDbEntity
8
1
62
256
6
ByLayer
370
18
48
1
60
0
100
AcDbLine
10
14.640258
20
14.26728
30
0
11
14.145141
21
13.772163
31
0
39
0
210
0
220
0
230
1
0
LINE
5
77
100
AcDbEntity
8
1
62
256
6
ByLayer
370
18
48
1
60
0
100
AcDbLine
10
5.560747
20
7.114769
30
0
11
5.517442
21
7.071463
31
0
39
0
210
0
220
0
230
1
0
LINE
5
78
100
AcDbEntity
8
1
62
256
6
ByLayer
370
18
48
1
60
0
100
AcDbLine
10
11.174296
20
1.414609
30
0
11
11.217601
21
1.457915
31
0
39
0
210
0
220
0
230
1
0
LINE
5
79
100
AcDbEntity
8
1
62
256
6
ByLayer
370
18
48
1
60
0
100
AcDbLine
10
21.250607
20
6.174165
30
0
11
21.347397
21
6.270955
31
0
39
0
210
0
220
0
230
1
0
LINE
5
7A
100
AcDbEntity
8
1
62
256
6
ByLayer
370
18
48
1
60
0
100
AcDbLine
10
19.140383
20
2.087712
30
0
11
20.883335
21
2.23842
31
0
39
0
210
0
220
0
230
1
0
LINE
5
7B
100
AcDbEntity
8
1
62
256
6
ByLayer
370
18
48
1
60
0
100
AcDbLine
10
24.920866
20
-2.524798
30
0
11
25.341782
21
2.604279
31
0
39
0
210
0
220
0
230
1
0
LINE
5
7C
100
AcDbEntity
8
1
62
256
6
ByLayer
370
18
48
1
60
0
100
AcDbLine
10
18.486897
20
1.628993
30
0
11
18.303901
21
-0.600905
31
0
39
0
210
0
220
0
230
1
0
LINE
5
7D
100
AcDbEntity
8
1
62
256
6
ByLayer
370
18
48
1
60
0
100
AcDbLine
10
18.621577
20
1.586874
30
0
11
18.625973
21
1.640439
31
0
39
0
210
0
220
0
230
1
0
LINE
5
7E
100
AcDbEntity
8
1
62
256
6
ByLayer
370
18
48
1
60
0
100
AcDbLine
10
13.311638
20
0.172011
30
0
11
13.408248
21
1.349245
31
0
39
0
210
0
220
0
230
1
0
LINE
5
7F
100
AcDbEntity
8
1
62
256
6
ByLayer
370
18
48
1
60
0
100
AcDbLine
10
18.621577
20
1.586874
30
0
11
18.741714
21
1.597262
31
0
39
0
210
0
220
0
230
1
0
LINE
5
80
100
AcDbEntity
8
1
62
256
6
ByLayer
370
18
48
1
60
0
100
AcDbLine
10
18.139447
20
-0.602868
30
0
11
18.32149
21
1.615423
31
0
39
0
210
0
220
0
230
1
0
LINE
5
81
100
AcDbEntity
8
1
62
256
6
ByLayer
370
18
48
1
60
0
100
AcDbLine
10
24.920866
20
-2.524798
30
0
11
5.173697
21
-9.957836
31
0
39
0
210
0
220
0
230
1
0
LINE
5
82
100
AcDbEntity
8
1
62
256
6
ByLayer
370
18
48
1
60
0
100
AcDbLine
10
5.173697
20
-9.957836
30
0
11
2.550449
21
-9.95904
31
0
39
0
210
0
220
0
230
1
0
LINE
5
83
100
AcDbEntity
8
1
62
256
6
ByLayer
370
18
48
1
60
0
100
AcDbLine
10
18.983081
20
0.170906
30
0
11
19.140383
21
2.087712
31
0
39
0
210
0
220
0
230
1
0
LINE
5
84
100
AcDbEntity
8
1
62
256
6
ByLayer
370
18
48
1
60
0
100
AcDbLine
10
14.357342
20
13.588743
30
0
11
1.933377
21
12.569175
31
0
39
0
210
0
220
0
230
1
0
LINE
5
85
100
AcDbEntity
8
1
62
256
6
ByLayer
370
18
48
1
60
0
100
AcDbLine
10
5.173697
20
-9.957836
30
0
11
9.55757
21
-9.850778
31
0
39
0
210
0
220
0
230
1
0
LINE
5
86
100
AcDbEntity
8
1
62
256
6
ByLayer
370
18
48
1
60
0
100
AcDbLine
10
2.550449
20
-9.95904
30
0
11
1.933377
21
12.569175
31
0
39
0
210
0
220
0
230
1
0
LINE
5
87
100
AcDbEntity
8
1
62
256
6
ByLayer
370
18
48
1
60
0
100
AcDbLine
10
1.545481
20
11.12339
30
0
11
1.93281
21
12.56892
31
0
39
0
210
0
220
0
230
1
0
LINE
5
88
100
AcDbEntity
8
1
62
256
6
ByLayer
370
18
48
1
60
0
100
AcDbLine
10
18.623189
20
1.451551
30
0
11
19.140383
21
2.087712
31
0
39
0
210
0
220
0
230
1
0
LINE
5
89
100
AcDbEntity
8
1
62
256
6
ByLayer
370
18
48
1
60
0
100
AcDbLine
10
1.933377
20
12.569175
30
0
11
1.93281
21
12.56892
31
0
39
0
210
0
220
0
230
1
0
LINE
5
8A
100
AcDbEntity
8
1
62
256
6
ByLayer
370
18
48
1
60
0
100
AcDbLine
10
18.983081
20
0.170906
30
0
11
18.303901
21
-0.600905
31
0
39
0
210
0
220
0
230
1
0
LINE
5
8B
100
AcDbEntity
8
1
62
256
6
ByLayer
370
18
48
1
60
0
100
AcDbLine
10
1.545481
20
11.12339
30
0
11
1.545481
21
-9.942674
31
0
39
0
210
0
220
0
230
1
0
LINE
5
8C
100
AcDbEntity
8
1
62
256
6
ByLayer
370
18
48
1
60
0
100
AcDbLine
10
13.84909
20
9.221099
30
0
11
13.619201
21
6.419784
31
0
39
0
210
0
220
0
230
1
0
LINE
5
8D
100
AcDbEntity
8
1
62
256
6
ByLayer
370
18
48
1
60
0
100
AcDbLine
10
1.545481
20
-9.942674
30
0
11
2.550449
21
-9.95904
31
0
39
0
210
0
220
0
230
1
0
LINE
5
8E
100
AcDbEntity
8
1
62
256
6
ByLayer
370
18
48
1
60
0
100
AcDbLine
10
14.357342
20
13.588743
30
0
11
14.068511
21
10.069194
31
0
39
0
210
0
220
0
230
1
0
LINE
5
8F
100
AcDbEntity
8
1
62
256
6
ByLayer
370
18
48
1
60
0
100
AcDbLine
10
13.697157
20
5.54406
30
0
11
13.299545
21
0.698949
31
0
39
0
210
0
220
0
230
1
0
LINE
5
90
100
AcDbEntity
8
1
62
256
6
ByLayer
370
18
48
1
60
0
100
AcDbLine
10
9.55757
20
-9.850778
30
0
11
22.642331
21
-4.803332
31
0
39
0
210
0
220
0
230
1
0
LINE
5
91
100
AcDbEntity
8
1
62
256
6
ByLayer
370
18
48
1
60
0
100
AcDbLine
10
22.642331
20
-4.803332
30
0
11
24.920866
21
-2.524798
31
0
39
0
210
0
220
0
230
1
0
LINE
5
92
100
AcDbEntity
8
1
62
256
6
ByLayer
370
18
48
1
60
0
100
AcDbLine
10
0
20
-9.9375
30
0
11
0
21
9.9375
31
0
39
0
210
0
220
0
230
1
0
LINE
5
93
100
AcDbEntity
8
SK1
62
256
6
ByLayer
370
18
48
1
60
0
100
AcDbLine
10
-99.18446
20
-9.9375
30
0
11
0
21
-9.9375
31
0
39
0
210
0
220
0
230
1
0
LINE
5
95
100
AcDbEntity
8
SK1
62
256
6
ByLayer
370
18
48
1
60
0
100
AcDbLine
10
0
20
-9.9375
30
0
11
0
21
9.9375
31
0
39
0
210
0
220
0
230
1
0
LINE
5
96
100
AcDbEntity
8
SK1
62
256
6
ByLayer
370
18
48
1
60
0
100
AcDbLine
10
-99.18446
20
9.9375
30
0
11
-99.18446
21
-9.9375
31
0
39
0
210
0
220
0
230
1
0
LINE
5
97
100
AcDbEntity
8
SK1
62
256
6
ByLayer
370
18
48
1
60
0
100
AcDbLine
10
-99.18446
20
9.9375
30
0
11
0
21
9.9375
31
0
39
0
210
0
220
0
230
1
0
LINE
5
98
100
AcDbEntity
8
1
62
256
6
ByLayer
370
18
48
1
60
0
100
AcDbLine
10
18.420472
20
6.887411
30
0
11
18.462005
21
6.928943
31
0
39
0
210
0
220
0
230
1
0
LINE
5
99
100
AcDbEntity
8
1
62
256
6
ByLayer
370
18
48
1
60
0
100
AcDbLine
10
17.87505
20
8.5209
30
0
11
17.773037
21
8.418888
31
0
39
0
210
0
220
0
230
1
0
LINE
5
9A
100
AcDbEntity
8
1
62
256
6
ByLayer
370
18
48
1
60
0
100
AcDbLine
10
7.064157
20
5.2036
30
0
11
7.210405
21
5.256136
31
0
39
0
210
0
220
0
230
1
0
LINE
5
9B
100
AcDbEntity
8
1
62
256
6
ByLayer
370
18
48
1
60
0
100
AcDbLine
10
9.482946
20
3.34559
30
0
11
9.439817
21
3.093414
31
0
39
0
210
0
220
0
230
1
0
LINE
5
9C
100
AcDbEntity
8
1
62
256
6
ByLayer
370
18
48
1
60
0
100
AcDbLine
10
13.452189
20
2.559058
30
0
11
13.497678
21
2.604547
31
0
39
0
210
0
220
0
230
1
0
LINE
5
9D
100
AcDbEntity
8
1
62
256
6
ByLayer
370
18
48
1
60
0
100
AcDbLine
10
25.329891
20
2.459411
30
0
11
25.532155
21
2.661675
31
0
39
0
210
0
220
0
230
1
0
LINE
5
9E
100
AcDbEntity
8
1
62
256
6
ByLayer
370
18
48
1
60
0
100
AcDbLine
10
18.78766
20
1.653704
30
0
11
13.86247
21
1.24952
31
0
39
0
210
0
220
0
230
1
0
LINE
5
9F
100
AcDbEntity
8
1
62
256
6
ByLayer
370
18
48
1
60
0
100
AcDbLine
10
14.414715
20
13.779114
30
0
11
14.212452
21
13.576851
31
0
39
0
210
0
220
0
230
1
0
LINE
5
A0
100
AcDbEntity
8
80
62
256
6
ByLayer
370
18
48
1
60
0
100
AcDbLine
10
0
20
0
30
0
11
-5
21
0
31
0
39
0
210
0
220
0
230
1
0
LINE
5
A1
100
AcDbEntity
8
81
62
256
6
ByLayer
370
18
48
1
60
0
100
AcDbLine
10
25.81554
20
15.0625
30
0
11
35.81554
21
15.0625
31
0
39
0
210
0
220
0
230
1
0
LINE
5
A2
100
AcDbEntity
8
1
62
256
6
ByLayer
370
18
48
1
60
0
100
AcDbLine
10
27.1629
20
14.549951
30
0
11
26.245863
21
3.375383
31
0
39
0
210
0
220
0
230
1
0
LINE
5
A3
100
AcDbEntity
8
1
62
256
6
ByLayer
370
18
48
1
60
0
100
AcDbLine
10
15.128423
20
14.492823
30
0
11
26.302991
21
15.40986
31
0
39
0
210
0
220
0
230
1
0
LINE
5
A4
100
AcDbEntity
8
1
62
256
6
ByLayer
370
18
48
1
60
0
100
AcDbLine
10
13.497678
20
2.604547
30
0
11
14.414715
21
13.779114
31
0
39
0
210
0
220
0
230
1
0
LINE
5
A5
100
AcDbEntity
8
1
62
256
6
ByLayer
370
18
48
1
60
0
100
AcDbLine
10
14.357587
20
1.744637
30
0
11
13.86247
21
1.24952
31
0
39
0
210
0
220
0
230
1
0
LINE
5
A6
100
AcDbEntity
8
1
62
256
6
ByLayer
370
18
48
1
60
0
100
AcDbLine
10
25.532155
20
2.661675
30
0
11
14.357587
21
1.744637
31
0
39
0
210
0
220
0
230
1
0
LINE
5
A7
100
AcDbEntity
8
1
62
256
6
ByLayer
370
18
48
1
60
0
100
AcDbLine
10
18.008545
20
9.221923
30
0
11
18.094763
21
9.308142
31
0
39
0
210
0
220
0
230
1
0
LINE
5
A8
100
AcDbEntity
8
1
62
256
6
ByLayer
370
18
48
1
60
0
100
AcDbLine
10
9.277858
20
4.880655
30
0
11
9.671352
21
5.27415
31
0
39
0
210
0
220
0
230
1
0
LINE
5
A9
100
AcDbEntity
8
1
62
256
6
ByLayer
370
18
48
1
60
0
100
AcDbLine
10
10.092001
20
4.942237
30
0
11
9.686701
21
4.536937
31
0
39
0
210
0
220
0
230
1
0
LINE
5
AA
100
AcDbEntity
8
1
62
256
6
ByLayer
370
18
48
1
60
0
100
AcDbLine
10
7.847769
20
5.48509
30
0
11
8.346009
21
5.664069
31
0
39
0
210
0
220
0
230
1
0
LINE
5
AB
100
AcDbEntity
8
1
62
256
6
ByLayer
370
18
48
1
60
0
100
AcDbLine
10
9.148347
20
5.713845
30
0
11
8.754852
21
5.32035
31
0
39
0
210
0
220
0
230
1
0
LINE
5
AC
100
AcDbEntity
8
1
62
256
6
ByLayer
370
18
48
1
60
0
100
AcDbLine
10
9.9908
20
4.407735
30
0
11
9.597305
21
4.014241
31
0
39
0
210
0
220
0
230
1
0
LINE
5
AD
100
AcDbEntity
8
1
62
256
6
ByLayer
370
18
48
1
60
0
100
AcDbLine
10
9.686701
20
4.536937
30
0
11
9.597305
21
4.014241
31
0
39
0
210
0
220
0
230
1
0
LINE
5
AE
100
AcDbEntity
8
1
62
256
6
ByLayer
370
18
48
1
60
0
100
AcDbLine
10
8.346009
20
5.664069
30
0
11
8.754852
21
5.32035
31
0
39
0
210
0
220
0
230
1
0
LINE
5
AF
100
AcDbEntity
8
1
62
256
6
ByLayer
370
18
48
1
60
0
100
AcDbLine
10
9.482946
20
3.34559
30
0
11
9.876441
21
3.739085
31
0
39
0
210
0
220
0
230
1
0
LINE
5
B0
100
AcDbEntity
8
1
62
256
6
ByLayer
370
18
48
1
60
0
100
AcDbLine
10
7.847769
20
5.48509
30
0
11
8.241264
21
5.878585
31
0
39
0
210
0
220
0
230
1
0
LINE
5
B1
100
AcDbEntity
8
1
62
256
6
ByLayer
370
18
48
1
60
0
100
AcDbLine
10
9.277858
20
4.880655
30
0
11
9.686701
21
4.536937
31
0
39
0
210
0
220
0
230
1
0
LINE
5
B2
100
AcDbEntity
8
1
62
256
6
ByLayer
370
18
48
1
60
0
100
AcDbLine
10
8.751309
20
6.069369
30
0
11
8.346009
21
5.664069
31
0
39
0
210
0
220
0
230
1
0
LINE
5
B3
100
AcDbEntity
8
1
62
256
6
ByLayer
370
18
48
1
60
0
100
AcDbLine
10
7.6039
20
5.64963
30
0
11
7.210405
21
5.256136
31
0
39
0
210
0
220
0
230
1
0
MTEXT
5
FE
100
AcDbEntity
8
SK6
62
256
6
ByLayer
370
13
48
1
60
0
100
AcDbMText
10
-75.304259
20
-34.999425
30
0
210
0
220
0
230
1
1
\W0.7470;PCLNR 2020K 12
40
3.5
41
0
44
1.084337
50
0
71
7
72
5
7
iso_b_vert
0
DIMENSION
5
110
100
AcDbEntity
8
SK2
62
256
6
ByLayer
370
13
48
1
60
0
100
AcDbDimension
2
DimnDraft3D1
10
-108.93446
20
-9.9375
30
0
11
-108.93446
21
0.0625
31
0
70
32
71
5
72
1
41
1
210
0
220
0
230
1
3
Standard
100
AcDbAlignedDimension
13
-100.77196
23
10.0625
33
0
14
-100.77196
24
-9.9375
34
0
50
90
100
AcDbRotatedDimension
1001
ACAD
1000
DSTYLE
1002
{
1070
    74
1070
     0
1070
   279
1070
     0
1070
   172
1070
     1
1070
   173
1070
     1
1070
   340
1005
FF
1070
   271
1070
     1
1070
   272
1070
     2
1070
    77
1070
     1
1070
    73
1070
     0
1070
   171
1070
     3
1070
   274
1070
     4
1070
   177
1070
   150
1070
   176
1070
     9
1070
   178
1070
    43
1070
    78
1070
     8
1070
    48
1040
-0.005
1070
    41
1041
3.175
1070
   147
1041
2.25
1070
    42
1041
1.5875
1070
    44
1041
3.175
1070
   140
1041
4.5
1070
   343
1005
111
1070
   344
1005
111
1002
}
0
DIMENSION
5
126
100
AcDbEntity
8
2
62
256
6
ByLayer
370
13
48
1
60
0
100
AcDbDimension
2
DimnDraft3D2
10
43.66554
20
15.4125
30
0
11
43.66554
21
2.7375
31
0
70
32
71
5
72
1
41
1
210
0
220
0
230
1
3
Standard
100
AcDbAlignedDimension
13
1.5875
23
-9.9375
33
0
14
28.75304
24
15.4125
34
0
50
90
100
AcDbRotatedDimension
1001
ACAD
1000
DSTYLE
1002
{
1070
    74
1070
     0
1070
   279
1070
     0
1070
   172
1070
     1
1070
   173
1070
     1
1070
   340
1005
FF
1070
   271
1070
     1
1070
   272
1070
     2
1070
    77
1070
     1
1070
    73
1070
     0
1070
   171
1070
     3
1070
   274
1070
     4
1070
   177
1070
   150
1070
   176
1070
     9
1070
   178
1070
    43
1070
    78
1070
     8
1070
    48
1040
-0.005
1070
    41
1041
3.175
1070
   147
1041
2.25
1070
    42
1041
1.5875
1070
    44
1041
3.175
1070
   140
1041
4.5
1070
   343
1005
111
1070
   344
1005
111
1002
}
0
DIMENSION
5
134
100
AcDbEntity
8
SK2
62
256
6
ByLayer
370
13
48
1
60
0
100
AcDbDimension
2
DimnDraft3D3
10
27.16554
20
32.9125
30
0
11
-36.00946
21
32.9125
31
0
70
32
71
5
72
1
41
1
210
0
220
0
230
1
3
Standard
100
AcDbAlignedDimension
13
-99.18446
23
11.65
33
0
14
27.16554
24
17
34
0
50
0
100
AcDbRotatedDimension
1001
ACAD
1000
DSTYLE
1002
{
1070
   279
1070
     0
1070
   172
1070
     1
1070
   173
1070
     1
1070
   340
1005
FF
1070
   271
1070
     1
1070
   272
1070
     2
1070
    77
1070
     1
1070
    73
1070
     0
1070
   171
1070
     3
1070
   274
1070
     4
1070
   177
1070
   150
1070
   176
1070
     9
1070
   178
1070
    43
1070
    78
1070
     8
1070
    48
1040
-0.005
1070
    41
1041
3.175
1070
   147
1041
2.25
1070
    42
1041
1.5875
1070
    44
1041
3.175
1070
   140
1041
4.5
1070
   343
1005
111
1070
   344
1005
111
1002
}
0
DIMENSION
5
142
100
AcDbEntity
8
2
62
256
6
ByLayer
370
13
48
1
60
0
100
AcDbDimension
2
DimnDraft3D4
10
14.30261
20
14.359616
30
0
11
14.691256
21
26.915552
31
0
70
34
71
5
72
1
41
1
210
0
220
0
230
1
3
Standard
100
AcDb2LineAngularDimension
13
27.16554
23
15.4125
33
0
14
27.16554
24
13.825
34
0
15
26.30261
25
15.40948
35
0
16
18.009004
26
23.875396
36
0
40
0
0
ENDSEC
0
SECTION
2
OBJECTS
0
DICTIONARY
5
1ac
330
0
100
AcDbDictionary
280
0
281
1
3
ACAD_GROUP
350
1ad
3
ACAD_MLINESTYLE
350
1ae
0
DICTIONARY
5
1ad
330
0
100
AcDbDictionary
280
0
281
1
0
DICTIONARY
5
1ae
330
0
100
AcDbDictionary
280
0
281
1
3
Standard
350
18
0
MLINESTYLE
5
18
330
1ae
100
AcDbMlineStyle
2
Standard
70
0
3

62
256
51
90
52
90
71
2
49
-0.5
62
256
6
ByLayer
49
0.5
62
256
6
ByLayer
0
RASTERVARIABLES
5
19b
330

100
AcDbRasterVariables
90
0
70
1
71
1
72
1
0
ENDSEC
0
EOF
