0
SECTION
2
HEADER
9
$ACADVER
1
AC1015
9
$DWGCODEPAGE
3
ANSI_1252
9
$HANDSEED
5
1b2
9
$ANGBASE
50
0
9
$ANGDIR
70
0
9
$ATTMODE
70
1
9
$AUNITS
70
0
9
$AUPREC
70
0
9
$CECOLOR
62
256
9
$CELTSCALE
40
1
9
$CELTYPE
6
ByLayer
9
$CELWEIGHT
370
18
9
$CLAYER
8
0
9
$CMLJUST
70
0
9
$CMLSCALE
40
1
9
$CMLSTYLE
2
Standard
9
$DIMSTYLE
2
Standard
9
$TEXTSIZE
40
0.2
9
$TEXTSTYLE
7
Standard
9
$LUNITS
70
2
9
$LUPREC
70
4
9
$EXTNAMES
290
1
9
$INSUNITS
70
4
9
$LTSCALE
40
1
9
$LWDISPLAY
290
1
9
$PDMODE
70
0
9
$PDSIZE
40
0
9
$PLINEGEN
70
0
0
ENDSEC
0
SECTION
2
CLASSES
0
CLASS
1
RASTERVARIABLES
2
AcDbRasterVariables
3
ISM
90
0
280
0
281
0
0
ENDSEC
0
SECTION
2
TABLES
0
TABLE
2
VPORT
5
1a8
100
AcDbSymbolTable
0
VPORT
5
1
100
AcDbSymbolTableRecord
100
AcDbViewportTableRecord
2
*Active
70
0
10
0
20
0
11
1
21
1
12
-1
22
1
13
0
23
0
14
0.5
24
0.5
15
10
25
10
16
0
26
0
36
1
17
0
27
0
37
0
0
ENDTAB
0
TABLE
2
LTYPE
5
1a9
100
AcDbSymbolTable
0
LTYPE
5
14
100
AcDbSymbolTableRecord
100
AcDbLinetypeTableRecord
70
0
2
ByBlock
3

72
65
73
0
40
0
0
LTYPE
5
15
100
AcDbSymbolTableRecord
100
AcDbLinetypeTableRecord
70
0
2
ByLayer
3

72
65
73
0
40
0
0
LTYPE
5
16
100
AcDbSymbolTableRecord
100
AcDbLinetypeTableRecord
70
0
2
CONTINUOUS
3
Solid line
72
65
73
0
40
0
0
LTYPE
5
6A
100
AcDbSymbolTableRecord
100
AcDbLinetypeTableRecord
70
0
2
CENTER
3
____ _ ____ _ ____ _ ____
72
65
73
4
40
47.5
49
22
74
0
49
-8.5
74
0
49
8.5
74
0
49
-8.5
74
0
0
LTYPE
5
6B
100
AcDbSymbolTableRecord
100
AcDbLinetypeTableRecord
70
0
2
DASHED
3
__ __ __ __ __ __ __ __ __
72
65
73
2
40
25.72
49
12.86
74
0
49
-12.86
74
0
0
ENDTAB
0
TABLE
2
LAYER
5
1aa
100
AcDbSymbolTable
0
LAYER
5
10
100
AcDbSymbolTableRecord
100
AcDbLayerTableRecord
2
0
70
0
62
7
6
CONTINUOUS
290
1
370
-3
390
0
0
LAYER
5
6D
100
AcDbSymbolTableRecord
100
AcDbLayerTableRecord
2
80
70
0
62
-6
6
CONTINUOUS
290
1
370
-3
390
0
0
LAYER
5
6F
100
AcDbSymbolTableRecord
100
AcDbLayerTableRecord
2
81
70
0
62
-3
6
CONTINUOUS
290
1
370
-3
390
0
0
LAYER
5
71
100
AcDbSymbolTableRecord
100
AcDbLayerTableRecord
2
1
70
0
62
4
6
CONTINUOUS
290
1
370
-3
390
0
0
LAYER
5
114
100
AcDbSymbolTableRecord
100
AcDbLayerTableRecord
2
2
70
0
62
7
6
CONTINUOUS
290
1
370
-3
390
0
0
LAYER
5
195
100
AcDbSymbolTableRecord
100
AcDbLayerTableRecord
2
SK1
70
0
62
4
6
CONTINUOUS
290
1
370
-3
390
0
0
LAYER
5
196
100
AcDbSymbolTableRecord
100
AcDbLayerTableRecord
2
SK6
70
0
62
5
6
CONTINUOUS
290
1
370
-3
390
0
0
LAYER
5
197
100
AcDbSymbolTableRecord
100
AcDbLayerTableRecord
2
SK2
70
0
62
7
6
CONTINUOUS
290
1
370
-3
390
0
0
ENDTAB
0
TABLE
2
STYLE
5
1ab
100
AcDbSymbolTable
0
STYLE
5
11
100
AcDbSymbolTableRecord
100
AcDbTextStyleTableRecord
2
Standard
3
txt
70
0
71
0
40
0
41
1
42
0
50
0
0
STYLE
5
F9
100
AcDbSymbolTableRecord
100
AcDbTextStyleTableRecord
2
iso_b_vert
3
simplex.shx
70
0
71
0
40
0
41
1
42
0
50
0
0
STYLE
5
FA
100
AcDbSymbolTableRecord
100
AcDbTextStyleTableRecord
2
DWGDirectTextStyle
3
simplex
70
0
71
0
40
0
41
1
42
0
50
0
0
ENDTAB
0
TABLE
2
DIMSTYLE
5
1ac
100
AcDbSymbolTable
100
AcDbDimStyleTable
0
DIMSTYLE
105
27
100
AcDbSymbolTableRecord
100
AcDbDimStyleTableRecord
2
Standard
70
0
3
<>
41
0.18
42
0.0625
44
0.18
140
0.18
147
0.09
73
0
74
0
77
1
271
2
275
0
278
52
280
0
340
11
0
ENDTAB
0
TABLE
2
VIEW
5
1ad
100
AcDbSymbolTable
0
ENDTAB
0
TABLE
2
UCS
5
1ae
100
AcDbSymbolTable
0
ENDTAB
0
TABLE
2
APPID
5
1af
100
AcDbSymbolTable
0
APPID
5
12
100
AcDbSymbolTableRecord
100
AcDbRegAppTableRecord
2
ACAD
70
0
0
ENDTAB
0
TABLE
2
BLOCK_RECORD
5
1b0
100
AcDbSymbolTable
0
BLOCK_RECORD
5
1F
100
AcDbSymbolTableRecord
100
AcDbBlockTableRecord
2
*Model_Space
340
0
70
0
0
BLOCK_RECORD
5
1B
100
AcDbSymbolTableRecord
100
AcDbBlockTableRecord
2
*Paper_Space
340
0
70
0
0
BLOCK_RECORD
5
23
100
AcDbSymbolTableRecord
100
AcDbBlockTableRecord
2
*Paper_Space0
340
0
70
0
0
BLOCK_RECORD
5
FC
100
AcDbSymbolTableRecord
100
AcDbBlockTableRecord
2
DimnDraft3D1
340
0
70
0
0
BLOCK_RECORD
5
10B
100
AcDbSymbolTableRecord
100
AcDbBlockTableRecord
2
_CLOSED
340
0
70
0
0
BLOCK_RECORD
5
112
100
AcDbSymbolTableRecord
100
AcDbBlockTableRecord
2
DimnDraft3D2
340
0
70
0
0
BLOCK_RECORD
5
121
100
AcDbSymbolTableRecord
100
AcDbBlockTableRecord
2
DimnDraft3D3
340
0
70
0
0
BLOCK_RECORD
5
12F
100
AcDbSymbolTableRecord
100
AcDbBlockTableRecord
2
DimnDraft3D4
340
0
70
0
0
ENDTAB
0
ENDSEC
0
SECTION
2
BLOCKS
0
BLOCK
5
20
100
AcDbEntity
8
0
100
AcDbBlockBegin
2
*Model_Space
70
0
10
0
20
0
30
0
3
*Model_Space
0
ENDBLK
5
21
100
AcDbEntity
8
0
100
AcDbBlockEnd
0
BLOCK
5
1C
100
AcDbEntity
8
0
100
AcDbBlockBegin
2
*Paper_Space
70
0
10
0
20
0
30
0
3
*Paper_Space
0
ENDBLK
5
1D
100
AcDbEntity
8
0
100
AcDbBlockEnd
0
BLOCK
5
24
100
AcDbEntity
8
0
100
AcDbBlockBegin
2
*Paper_Space0
70
0
10
0
20
0
30
0
3
*Paper_Space0
0
ENDBLK
5
25
100
AcDbEntity
8
0
100
AcDbBlockEnd
0
BLOCK
5
108
100
AcDbEntity
8
0
100
AcDbBlockBegin
2
DimnDraft3D1
70
0
10
0
20
0
30
0
3
DimnDraft3D1
0
MTEXT
5
FD
100
AcDbEntity
8
SK2
62
256
6
ByLayer
370
13
48
1
60
0
100
AcDbMText
10
-262.190107
20
-1.638158
30
0
210
0
220
0
230
1
1
\W0.6740;50
40
4.5
41
0
44
1.084337
50
90
71
7
72
5
7
iso_b_vert
0
LINE
5
FF
100
AcDbEntity
8
SK2
62
256
6
ByLayer
370
13
48
1
60
0
100
AcDbLine
10
-252.902607
20
-25.075
30
0
11
-264.240107
21
-25.075
31
0
39
0
210
0
220
0
230
1
0
LINE
5
100
100
AcDbEntity
8
SK2
62
256
6
ByLayer
370
13
48
1
60
0
100
AcDbLine
10
-252.902607
20
24.925
30
0
11
-264.240107
21
24.925
31
0
39
0
210
0
220
0
230
1
0
LINE
5
101
100
AcDbEntity
8
SK2
62
256
6
ByLayer
370
13
48
1
60
0
100
AcDbLine
10
-261.065107
20
-25.075
30
0
11
-261.065107
21
24.925
31
0
39
0
210
0
220
0
230
1
0
LINE
5
102
100
AcDbEntity
8
SK2
62
256
6
ByLayer
370
13
48
1
60
0
100
AcDbLine
10
-261.065107
20
-25.075
30
0
11
-261.915846
21
-21.900003
31
0
39
0
210
0
220
0
230
1
0
LINE
5
103
100
AcDbEntity
8
SK2
62
256
6
ByLayer
370
13
48
1
60
0
100
AcDbLine
10
-261.065107
20
-25.075
30
0
11
-260.214368
21
-21.899997
31
0
39
0
210
0
220
0
230
1
0
LINE
5
104
100
AcDbEntity
8
SK2
62
256
6
ByLayer
370
13
48
1
60
0
100
AcDbLine
10
-261.915846
20
-21.900003
30
0
11
-260.214368
21
-21.899997
31
0
39
0
210
0
220
0
230
1
0
LINE
5
105
100
AcDbEntity
8
SK2
62
256
6
ByLayer
370
13
48
1
60
0
100
AcDbLine
10
-261.065107
20
24.925
30
0
11
-260.214368
21
21.750003
31
0
39
0
210
0
220
0
230
1
0
LINE
5
106
100
AcDbEntity
8
SK2
62
256
6
ByLayer
370
13
48
1
60
0
100
AcDbLine
10
-261.065107
20
24.925
30
0
11
-261.915846
21
21.749997
31
0
39
0
210
0
220
0
230
1
0
LINE
5
107
100
AcDbEntity
8
SK2
62
256
6
ByLayer
370
13
48
1
60
0
100
AcDbLine
10
-260.214368
20
21.750003
30
0
11
-261.915846
21
21.749997
31
0
39
0
210
0
220
0
230
1
0
ENDBLK
5
109
100
AcDbEntity
8
0
100
AcDbBlockEnd
0
BLOCK
5
10C
100
AcDbEntity
8
0
100
AcDbBlockBegin
2
_CLOSED
70
0
10
0
20
0
30
0
3
_CLOSED
0
LINE
5
10E
100
AcDbEntity
8
0
62
256
6
ByLayer
370
-2
48
1
60
0
100
AcDbLine
10
-1
20
0.166667
30
0
11
0
21
0
31
0
39
0
210
0
220
0
230
1
0
LINE
5
10F
100
AcDbEntity
8
0
62
256
6
ByLayer
370
-2
48
1
60
0
100
AcDbLine
10
0
20
0
30
0
11
-1
21
-0.166667
31
0
39
0
210
0
220
0
230
1
0
LINE
5
110
100
AcDbEntity
8
0
62
256
6
ByLayer
370
-2
48
1
60
0
100
AcDbLine
10
-1
20
0.166667
30
0
11
-1
21
-0.166667
31
0
39
0
210
0
220
0
230
1
0
LINE
5
111
100
AcDbEntity
8
0
62
256
6
ByLayer
370
-2
48
1
60
0
100
AcDbLine
10
0
20
0
30
0
11
-1
21
0
31
0
39
0
210
0
220
0
230
1
0
ENDBLK
5
10D
100
AcDbEntity
8
0
100
AcDbBlockEnd
0
BLOCK
5
11E
100
AcDbEntity
8
0
100
AcDbBlockBegin
2
DimnDraft3D2
70
0
10
0
20
0
30
0
3
DimnDraft3D2
0
MTEXT
5
113
100
AcDbEntity
8
2
62
256
6
ByLayer
370
13
48
1
60
0
100
AcDbMText
10
65.409893
20
-6.813158
30
0
210
0
220
0
230
1
1
\W0.6740;60
40
4.5
41
0
44
1.084337
50
90
71
7
72
5
7
iso_b_vert
0
LINE
5
115
100
AcDbEntity
8
2
62
256
6
ByLayer
370
13
48
1
60
0
100
AcDbLine
10
51.622393
20
-35.425
30
0
11
69.709893
21
-35.425
31
0
39
0
210
0
220
0
230
1
0
LINE
5
116
100
AcDbEntity
8
2
62
256
6
ByLayer
370
13
48
1
60
0
100
AcDbLine
10
1.5875
20
24.925
30
0
11
69.709893
21
24.925
31
0
39
0
210
0
220
0
230
1
0
LINE
5
117
100
AcDbEntity
8
2
62
256
6
ByLayer
370
13
48
1
60
0
100
AcDbLine
10
66.534893
20
-35.425
30
0
11
66.534893
21
24.925
31
0
39
0
210
0
220
0
230
1
0
LINE
5
118
100
AcDbEntity
8
2
62
256
6
ByLayer
370
13
48
1
60
0
100
AcDbLine
10
66.534893
20
-35.425
30
0
11
65.684154
21
-32.250003
31
0
39
0
210
0
220
0
230
1
0
LINE
5
119
100
AcDbEntity
8
2
62
256
6
ByLayer
370
13
48
1
60
0
100
AcDbLine
10
66.534893
20
-35.425
30
0
11
67.385632
21
-32.249997
31
0
39
0
210
0
220
0
230
1
0
LINE
5
11A
100
AcDbEntity
8
2
62
256
6
ByLayer
370
13
48
1
60
0
100
AcDbLine
10
65.684154
20
-32.250003
30
0
11
67.385632
21
-32.249997
31
0
39
0
210
0
220
0
230
1
0
LINE
5
11B
100
AcDbEntity
8
2
62
256
6
ByLayer
370
13
48
1
60
0
100
AcDbLine
10
66.534893
20
24.925
30
0
11
67.385632
21
21.750003
31
0
39
0
210
0
220
0
230
1
0
LINE
5
11C
100
AcDbEntity
8
2
62
256
6
ByLayer
370
13
48
1
60
0
100
AcDbLine
10
66.534893
20
24.925
30
0
11
65.684154
21
21.749997
31
0
39
0
210
0
220
0
230
1
0
LINE
5
11D
100
AcDbEntity
8
2
62
256
6
ByLayer
370
13
48
1
60
0
100
AcDbLine
10
67.385632
20
21.750003
30
0
11
65.684154
21
21.749997
31
0
39
0
210
0
220
0
230
1
0
ENDBLK
5
11F
100
AcDbEntity
8
0
100
AcDbBlockEnd
0
BLOCK
5
12C
100
AcDbEntity
8
0
100
AcDbBlockBegin
2
DimnDraft3D3
70
0
10
0
20
0
30
0
3
DimnDraft3D3
0
MTEXT
5
122
100
AcDbEntity
8
SK2
62
256
6
ByLayer
370
13
48
1
60
0
100
AcDbMText
10
-103.884844
20
-60.8
30
0
210
0
220
0
230
1
1
\W0.7138;300
40
4.5
41
0
44
1.084337
50
0
71
7
72
5
7
iso_b_vert
0
LINE
5
123
100
AcDbEntity
8
SK2
62
256
6
ByLayer
370
13
48
1
60
0
100
AcDbLine
10
-251.315107
20
-26.6625
30
0
11
-251.315107
21
-65.1
31
0
39
0
210
0
220
0
230
1
0
LINE
5
124
100
AcDbEntity
8
SK2
62
256
6
ByLayer
370
13
48
1
60
0
100
AcDbLine
10
50.034893
20
-37.0125
30
0
11
50.034893
21
-65.1
31
0
39
0
210
0
220
0
230
1
0
LINE
5
125
100
AcDbEntity
8
SK2
62
256
6
ByLayer
370
13
48
1
60
0
100
AcDbLine
10
-251.315107
20
-61.925
30
0
11
50.034893
21
-61.925
31
0
39
0
210
0
220
0
230
1
0
LINE
5
126
100
AcDbEntity
8
SK2
62
256
6
ByLayer
370
13
48
1
60
0
100
AcDbLine
10
-251.315107
20
-61.925
30
0
11
-248.14011
21
-61.074261
31
0
39
0
210
0
220
0
230
1
0
LINE
5
127
100
AcDbEntity
8
SK2
62
256
6
ByLayer
370
13
48
1
60
0
100
AcDbLine
10
-251.315107
20
-61.925
30
0
11
-248.140104
21
-62.775739
31
0
39
0
210
0
220
0
230
1
0
LINE
5
128
100
AcDbEntity
8
SK2
62
256
6
ByLayer
370
13
48
1
60
0
100
AcDbLine
10
-248.14011
20
-61.074261
30
0
11
-248.140104
21
-62.775739
31
0
39
0
210
0
220
0
230
1
0
LINE
5
129
100
AcDbEntity
8
SK2
62
256
6
ByLayer
370
13
48
1
60
0
100
AcDbLine
10
50.034893
20
-61.925
30
0
11
46.859896
21
-62.775739
31
0
39
0
210
0
220
0
230
1
0
LINE
5
12A
100
AcDbEntity
8
SK2
62
256
6
ByLayer
370
13
48
1
60
0
100
AcDbLine
10
50.034893
20
-61.925
30
0
11
46.85989
21
-61.074261
31
0
39
0
210
0
220
0
230
1
0
LINE
5
12B
100
AcDbEntity
8
SK2
62
256
6
ByLayer
370
13
48
1
60
0
100
AcDbLine
10
46.859896
20
-62.775739
30
0
11
46.85989
21
-61.074261
31
0
39
0
210
0
220
0
230
1
0
ENDBLK
5
12D
100
AcDbEntity
8
0
100
AcDbBlockEnd
0
BLOCK
5
139
100
AcDbEntity
8
0
100
AcDbBlockBegin
2
DimnDraft3D4
70
0
10
0
20
0
30
0
3
DimnDraft3D4
0
MTEXT
5
130
100
AcDbEntity
8
2
62
256
6
ByLayer
370
13
48
1
60
0
100
AcDbMText
10
31.453216
20
-45.252797
30
0
210
0
220
0
230
1
1
\W0.8292;95%%d0'
40
4.5
41
0
44
1.084337
50
312.5
71
7
72
5
7
iso_b_vert
0
LINE
5
131
100
AcDbEntity
8
2
62
256
6
ByLayer
370
13
48
1
60
0
100
AcDbLine
10
50.034893
20
-37.0125
30
0
11
50.034893
21
-60.134949
31
0
39
0
210
0
220
0
230
1
0
ARC
5
132
100
AcDbEntity
8
2
62
256
6
ByLayer
370
13
48
1
60
0
100
AcDbCircle
39
0
10
50.034893
20
-35.642428
30
0
40
21.3175204551437
210
0
220
0
230
1
100
AcDbArc
50
175
51
270
0
LINE
5
133
100
AcDbEntity
8
2
62
256
6
ByLayer
370
13
48
1
60
0
100
AcDbLine
10
28.798492
20
-33.784484
30
0
11
29.489161
21
-36.998102
31
0
39
0
210
0
220
0
230
1
0
LINE
5
134
100
AcDbEntity
8
2
62
256
6
ByLayer
370
13
48
1
60
0
100
AcDbLine
10
28.798492
20
-33.784484
30
0
11
27.789819
21
-36.912899
31
0
39
0
210
0
220
0
230
1
0
LINE
5
135
100
AcDbEntity
8
2
62
256
6
ByLayer
370
13
48
1
60
0
100
AcDbLine
10
29.489161
20
-36.998102
30
0
11
27.789819
21
-36.912899
31
0
39
0
210
0
220
0
230
1
0
LINE
5
136
100
AcDbEntity
8
2
62
256
6
ByLayer
370
13
48
1
60
0
100
AcDbLine
10
50.034893
20
-56.959949
30
0
11
46.830477
21
-57.692125
31
0
39
0
210
0
220
0
230
1
0
LINE
5
137
100
AcDbEntity
8
2
62
256
6
ByLayer
370
13
48
1
60
0
100
AcDbLine
10
50.034893
20
-56.959949
30
0
11
46.893694
21
-55.991823
31
0
39
0
210
0
220
0
230
1
0
LINE
5
138
100
AcDbEntity
8
2
62
256
6
ByLayer
370
13
48
1
60
0
100
AcDbLine
10
46.830477
20
-57.692125
30
0
11
46.893694
21
-55.991823
31
0
39
0
210
0
220
0
230
1
0
ENDBLK
5
13A
100
AcDbEntity
8
0
100
AcDbBlockEnd
0
ENDSEC
0
SECTION
2
ENTITIES
0
ARC
5
B6
100
AcDbEntity
8
1
62
256
6
ByLayer
370
18
48
1
60
0
100
AcDbCircle
39
0
10
0
20
-26.525
30
0
40
1.59999999999974
210
0
220
0
230
-1
100
AcDbArc
50
90
51
165
0
ELLIPSE
5
B7
100
AcDbEntity
8
1
62
256
6
ByLayer
370
18
48
1
60
0
100
AcDbEllipse
10
26.093149
20
-5.336472
30
0
11
-3.20541587942303
21
-3.20541587942325
31
0
210
0
220
0
230
1
40
0.989133
41
2.45077215875198
42
2.80876144791027
0
ELLIPSE
5
B8
100
AcDbEntity
8
1
62
256
6
ByLayer
370
18
48
1
60
0
100
AcDbEllipse
10
26.077373
20
-5.320697
30
0
11
3.09935704213729
21
3.09935704213749
31
0
210
0
220
0
230
1
40
0.989133
41
-0.690167449646623
42
-0.276554246868103
0
ELLIPSE
5
B9
100
AcDbEntity
8
1
62
256
6
ByLayer
370
18
48
1
60
0
100
AcDbEllipse
10
27.678382
20
-6.921706
30
0
11
-3.07995364446495
21
-3.07995364446515
31
0
210
0
220
0
230
1
40
0.989133
41
2.44346095279202
42
-1.82447819474015
0
ELLIPSE
5
BA
100
AcDbEntity
8
1
62
256
6
ByLayer
370
18
48
1
60
0
100
AcDbEllipse
10
26.774599
20
-17.207986
30
0
11
2.54558441227149
21
2.54558441227166
31
0
210
0
220
0
230
1
40
0.989133
41
2.15377395879488
42
2.44346095279202
0
ELLIPSE
5
BB
100
AcDbEntity
8
1
62
256
6
ByLayer
370
18
48
1
60
0
100
AcDbEllipse
10
31.047344
20
-7.470832
30
0
11
0.0138248362421337
21
-0.151738984724966
31
0
210
0
220
0
230
-1
40
0.081741
41
1.68018689080721
42
-3.02056656049426
0
ELLIPSE
5
BC
100
AcDbEntity
8
1
62
256
6
ByLayer
370
18
48
1
60
0
100
AcDbEllipse
10
27.185114
20
-22.21032
30
0
11
2.54558441227148
21
2.54558441227166
31
0
210
0
220
0
230
1
40
0.989133
41
2.44346095279203
42
2.73314794678915
0
ELLIPSE
5
BD
100
AcDbEntity
8
1
62
256
6
ByLayer
370
18
48
1
60
0
100
AcDbEllipse
10
26.865859
20
-7.296553
30
0
11
-3.0799541546428
21
-3.079954154643
31
0
210
0
220
0
230
1
40
0.989133
41
-2.03055008998736
42
-0.69813170079776
0
ELLIPSE
5
BE
100
AcDbEntity
8
1
62
256
6
ByLayer
370
18
48
1
60
0
100
AcDbEllipse
10
0
20
24.931981
30
0
11
1.6000000000001
21
1.61702248813188E-15
31
0
210
0
220
0
230
-1
40
0.004363
41
0.261799387799424
42
1.5707963245831
0
ELLIPSE
5
BF
100
AcDbEntity
8
1
62
256
6
ByLayer
370
18
48
1
60
0
100
AcDbEllipse
10
35.997964
20
-22.221184
30
0
11
-3.18198051533936
21
-3.18198051533957
31
0
210
0
220
0
230
1
40
0.989133
41
2.40532959579416
42
-1.59246737299536
0
ELLIPSE
5
C0
100
AcDbEntity
8
1
62
256
6
ByLayer
370
18
48
1
60
0
100
AcDbEllipse
10
36.222387
20
-21.612494
30
0
11
-3.03348809129019
21
-3.03348809129039
31
0
210
0
220
0
230
1
40
0.989133
41
-1.0446674299689
42
-0.876381723925087
0
ELLIPSE
5
C1
100
AcDbEntity
8
1
62
256
6
ByLayer
370
18
48
1
60
0
100
AcDbEllipse
10
35.218251
20
-21.441471
30
0
11
3.18198051533936
21
3.18198051533957
31
0
210
0
220
0
230
1
40
0.989133
41
1.78886002506808E-05
42
0.376771946787841
0
ELLIPSE
5
C2
100
AcDbEntity
8
1
62
256
6
ByLayer
370
18
48
1
60
0
100
AcDbEllipse
10
35.667099
20
-20.224093
30
0
11
-3.18198051533936
21
-3.18198051533957
31
0
210
0
220
0
230
1
40
0.989133
41
-0.166869724850332
42
1.63425000079443E-05
0
ELLIPSE
5
C3
100
AcDbEntity
8
1
62
256
6
ByLayer
370
18
48
1
60
0
100
AcDbEllipse
10
35.634171
20
-20.785209
30
0
11
-3.04055915910205
21
-3.04055915910226
31
0
210
0
220
0
230
1
40
0.989133
41
-0.173583562495899
42
-4.50128331495997E-05
0
ELLIPSE
5
C4
100
AcDbEntity
8
1
62
256
6
ByLayer
370
18
48
1
60
0
100
AcDbEllipse
10
34.190457
20
-19.580564
30
0
11
4.06586399182251
21
4.06586399182279
31
0
210
0
220
0
230
1
40
0.989133
41
-2.29411070246749
42
-2.21668150609833
0
ELLIPSE
5
C5
100
AcDbEntity
8
1
62
256
6
ByLayer
370
18
48
1
60
0
100
AcDbEllipse
10
34.190457
20
-19.580564
30
0
11
4.06586399182251
21
4.06586399182279
31
0
210
0
220
0
230
1
40
0.989133
41
-0.859284376590676
42
-0.847452100843496
0
ELLIPSE
5
C6
100
AcDbEntity
8
1
62
256
6
ByLayer
370
18
48
1
60
0
100
AcDbEllipse
10
15.030795
20
-13.689231
30
0
11
-1.8207999615553
21
-1.82079996155542
31
0
210
0
220
0
230
1
40
0.989133
41
0.0970313106530194
42
2.3507312019846
0
ELLIPSE
5
C7
100
AcDbEntity
8
1
62
256
6
ByLayer
370
18
48
1
60
0
100
AcDbEllipse
10
15.030795
20
-13.689231
30
0
11
-1.8207999615553
21
-1.82079996155542
31
0
210
0
220
0
230
1
40
0.989133
41
2.3507312019846
42
2.96363646315757
0
ELLIPSE
5
C8
100
AcDbEntity
8
1
62
256
6
ByLayer
370
18
48
1
60
0
100
AcDbEllipse
10
15.176341
20
-13.834777
30
0
11
1.8207999615553
21
1.82079996155542
31
0
210
0
220
0
230
1
40
0.989133
41
-0.411999357064734
42
-0.104558552100678
0
ELLIPSE
5
C9
100
AcDbEntity
8
1
62
256
6
ByLayer
370
18
48
1
60
0
100
AcDbEllipse
10
15.176341
20
-13.834777
30
0
11
1.8207999615553
21
1.82079996155542
31
0
210
0
220
0
230
1
40
0.989133
41
3.14158804716695
42
-2.90412622172462
0
ELLIPSE
5
CA
100
AcDbEntity
8
1
62
256
6
ByLayer
370
18
48
1
60
0
100
AcDbEllipse
10
24.220474
20
-9.610581
30
0
11
-1.68379802270041
21
-1.68379802270052
31
0
210
0
220
0
230
1
40
0.989133
41
-2.44346095279205
42
-1.57821407057859
0
ELLIPSE
5
CB
100
AcDbEntity
8
1
62
256
6
ByLayer
370
18
48
1
60
0
100
AcDbEllipse
10
35.448393
20
-20.8385
30
0
11
3.22440692221055
21
3.22440692221077
31
0
210
0
220
0
230
1
40
0.989133
41
-2.98565660239842
42
-2.35429457232042
0
ELLIPSE
5
CC
100
AcDbEntity
8
1
62
256
6
ByLayer
370
18
48
1
60
0
100
AcDbEllipse
10
35.448393
20
-20.8385
30
0
11
3.22440692221055
21
3.22440692221077
31
0
210
0
220
0
230
1
40
0.989133
41
-0.60894354097705
42
-0.155965124991117
0
ELLIPSE
5
CD
100
AcDbEntity
8
1
62
256
6
ByLayer
370
18
48
1
60
0
100
AcDbEllipse
10
36.438628
20
-21.828735
30
0
11
3.22440692221055
21
3.22440692221077
31
0
210
0
220
0
230
1
40
0.989133
41
0
42
6.28318530717959
0
ELLIPSE
5
CE
100
AcDbEntity
8
1
62
256
6
ByLayer
370
18
48
1
60
0
100
AcDbEllipse
10
26.913778
20
-31.353584
30
0
11
1.68379802270041
21
1.68379802270052
31
0
210
0
220
0
230
1
40
0.989133
41
2.44346095279202
42
-2.44346095279208
0
ELLIPSE
5
CF
100
AcDbEntity
8
1
62
256
6
ByLayer
370
18
48
1
60
0
100
AcDbEllipse
10
47.666546
20
-33.056653
30
0
11
1.68379802270041
21
1.68379802270052
31
0
210
0
220
0
230
1
40
0.989133
41
-2.44346095279205
42
-0.698131700797761
0
ELLIPSE
5
D0
100
AcDbEntity
8
1
62
256
6
ByLayer
370
18
48
1
60
0
100
AcDbEllipse
10
45.963477
20
-12.303885
30
0
11
1.68379802270041
21
1.68379802270052
31
0
210
0
220
0
230
1
40
0.989133
41
-0.698131700797759
42
0.698131700797741
0
ELLIPSE
5
D1
100
AcDbEntity
8
1
62
256
6
ByLayer
370
18
48
1
60
0
100
AcDbEllipse
10
25.210709
20
-10.600816
30
0
11
1.68379802270041
21
1.68379802270052
31
0
210
0
220
0
230
1
40
0.989133
41
0.698131700797725
42
2.44346095279204
0
ELLIPSE
5
D2
100
AcDbEntity
8
1
62
256
6
ByLayer
370
18
48
1
60
0
100
AcDbEllipse
10
36.049944
20
-22.273165
30
0
11
2.82842712474609
21
2.82842712474628
31
0
210
0
220
0
230
1
40
0.989133
41
-0.72747492732791
42
1.60013955332494
0
ELLIPSE
5
D3
100
AcDbEntity
8
1
62
256
6
ByLayer
370
18
48
1
60
0
100
AcDbEllipse
10
36.222387
20
-21.612494
30
0
11
-3.03348809129019
21
-3.03348809129039
31
0
210
0
220
0
230
1
40
0.989133
41
1.74904634992213
42
2.2652109296647
0
ELLIPSE
5
D4
100
AcDbEntity
8
1
62
256
6
ByLayer
370
18
48
1
60
0
100
AcDbEllipse
10
36.274368
20
-21.664475
30
0
11
2.67993470069693
21
2.67993470069711
31
0
210
0
220
0
230
1
40
0.989133
41
1.75829300476975
42
2.25596427481707
0
ELLIPSE
5
D5
100
AcDbEntity
8
1
62
256
6
ByLayer
370
18
48
1
60
0
100
AcDbEllipse
10
36.274368
20
-21.664475
30
0
11
2.67993470069693
21
2.67993470069711
31
0
210
0
220
0
230
1
40
0.989133
41
-1.38329964882003
42
-0.885628378772724
0
ELLIPSE
5
D6
100
AcDbEntity
8
1
62
256
6
ByLayer
370
18
48
1
60
0
100
AcDbEllipse
10
36.498792
20
-21.055786
30
0
11
2.82842712474609
21
2.82842712474628
31
0
210
0
220
0
230
1
40
0.989133
41
2.41411772626188
42
-1.54145310026486
0
ELLIPSE
5
D7
100
AcDbEntity
8
1
62
256
6
ByLayer
370
18
48
1
60
0
100
AcDbEllipse
10
36.446811
20
-21.003805
30
0
11
-3.18198051533936
21
-3.18198051533957
31
0
210
0
220
0
230
1
40
0.989133
41
-0.736263057795616
42
1.60892768379266
0
ELLIPSE
5
D8
100
AcDbEntity
8
1
62
256
6
ByLayer
370
18
48
1
60
0
100
AcDbEllipse
10
15.176341
20
-13.834777
30
0
11
1.8207999615553
21
1.82079996155542
31
0
210
0
220
0
230
1
40
0.989133
41
-1.45919690826131
42
-0.809731119331443
0
ELLIPSE
5
D9
100
AcDbEntity
8
1
62
256
6
ByLayer
370
18
48
1
60
0
100
AcDbEllipse
10
15.746571
20
-14.405007
30
0
11
1.8207999615553
21
1.82079996155542
31
0
210
0
220
0
230
1
40
0.989133
41
0.237466431865144
42
0.635198194131901
0
ELLIPSE
5
DA
100
AcDbEntity
8
1
62
256
6
ByLayer
370
18
48
1
60
0
100
AcDbEllipse
10
15.689392
20
-14.347828
30
0
11
-4.24264068711915
21
-4.24264068711943
31
0
210
0
220
0
230
1
40
0.989133
41
0
42
6.28318530717959
0
ELLIPSE
5
DB
100
AcDbEntity
8
1
62
256
6
ByLayer
370
18
48
1
60
0
100
AcDbEllipse
10
15.768923
20
-14.427359
30
0
11
-2.08412010890448
21
-2.08412010890462
31
0
210
0
220
0
230
1
40
0.989133
41
0
42
6.28318530717959
0
ELLIPSE
5
DC
100
AcDbEntity
8
1
62
256
6
ByLayer
370
18
48
1
60
0
100
AcDbEllipse
10
15.746571
20
-14.405007
30
0
11
1.8207999615553
21
1.82079996155542
31
0
210
0
220
0
230
1
40
0.989133
41
-0.809731119331443
42
-0.411999357064712
0
ELLIPSE
5
DD
100
AcDbEntity
8
1
62
256
6
ByLayer
370
18
48
1
60
0
100
AcDbEllipse
10
15.176341
20
-13.834777
30
0
11
1.8207999615553
21
1.82079996155542
31
0
210
0
220
0
230
1
40
0.989133
41
-2.50639445945793
42
-1.85692867052804
0
ELLIPSE
5
DE
100
AcDbEntity
8
1
62
256
6
ByLayer
370
18
48
1
60
0
100
AcDbEllipse
10
15.746571
20
-14.405007
30
0
11
1.8207999615553
21
1.82079996155542
31
0
210
0
220
0
230
1
40
0.989133
41
-1.85692867052804
42
-1.45919690826134
0
ELLIPSE
5
DF
100
AcDbEntity
8
1
62
256
6
ByLayer
370
18
48
1
60
0
100
AcDbEllipse
10
15.746571
20
-14.405007
30
0
11
1.8207999615553
21
1.82079996155542
31
0
210
0
220
0
230
1
40
0.989133
41
1.28466398306175
42
1.68239574532849
0
ELLIPSE
5
E0
100
AcDbEntity
8
1
62
256
6
ByLayer
370
18
48
1
60
0
100
AcDbEllipse
10
15.746571
20
-14.405007
30
0
11
1.8207999615553
21
1.82079996155542
31
0
210
0
220
0
230
1
40
0.989133
41
2.33186153425834
42
2.72959329652506
0
ELLIPSE
5
E1
100
AcDbEntity
8
1
62
256
6
ByLayer
370
18
48
1
60
0
100
AcDbEllipse
10
15.746571
20
-14.405007
30
0
11
1.8207999615553
21
1.82079996155542
31
0
210
0
220
0
230
1
40
0.989133
41
-2.90412622172468
42
-2.50639445945794
0
ELLIPSE
5
E2
100
AcDbEntity
8
1
62
256
6
ByLayer
370
18
48
1
60
0
100
AcDbEllipse
10
15.768923
20
-14.427359
30
0
11
-3.70170399951145
21
-3.7017039995117
31
0
210
0
220
0
230
1
40
0.989133
41
0
42
6.28318530717959
0
POINT
5
6C
100
AcDbEntity
8
80
62
256
6
ByLayer
370
18
48
1
60
0
100
AcDbPoint
10
0
20
0
30
0
39
0
210
0
220
0
230
1
50
360
0
POINT
5
6E
100
AcDbEntity
8
81
62
256
6
ByLayer
370
18
48
1
60
0
100
AcDbPoint
10
48.684893
20
-35.075
30
0
39
0
210
0
220
0
230
1
50
360
0
POINT
5
70
100
AcDbEntity
8
1
62
256
6
ByLayer
370
18
48
1
60
0
100
AcDbPoint
10
-251.315107
20
24.925
30
0
39
0
210
0
220
0
230
1
50
360
0
SPLINE
5
E3
100
AcDbEntity
8
1
62
256
6
ByLayer
370
18
48
1
60
0
100
AcDbSpline
70
4
71
3
72
8
73
4
40
0
40
0
40
0
40
0
40
1
40
1
40
1
40
1
41
1
10
30.8499072145885
20
-5.21815387097678
30
0
41
1
10
30.7612572898823
20
-5.10749301263299
30
0
41
1
10
30.6725669970986
20
-4.99683584541846
30
0
41
1
10
30.583837212415
20
-4.88618228985106
30
0
0
SPLINE
5
E4
100
AcDbEntity
8
1
62
256
6
ByLayer
370
18
48
1
60
0
100
AcDbSpline
70
4
71
3
72
10
73
6
40
0
40
0
40
0
40
0
40
0.5
40
0.5
40
1
40
1
40
1
40
1
41
1
10
30.5838372124173
20
-4.88618228985084
30
0
41
1
10
30.5801103338979
20
-4.88153455672709
30
0
41
1
10
30.5603716158233
20
-4.87848613540068
30
0
41
1
10
30.4989772260668
20
-4.87710019703528
30
0
41
1
10
30.4584271105965
20
-4.87883509623967
30
0
41
1
10
30.4193597172961
20
-4.88246018133459
30
0
0
SPLINE
5
E5
100
AcDbEntity
8
1
62
256
6
ByLayer
370
18
48
1
60
0
100
AcDbSpline
70
4
71
3
72
8
73
4
40
0
40
0
40
0
40
0
40
1
40
1
40
1
40
1
41
1
10
32.7769531498777
20
-19.234859361495
30
0
41
1
10
32.9081032632359
20
-19.3431272014471
30
0
41
1
10
33.0392745422562
20
-19.4513947215022
30
0
41
1
10
33.1704750235257
20
-19.5596617893805
30
0
0
SPLINE
5
E6
100
AcDbEntity
8
1
62
256
6
ByLayer
370
18
48
1
60
0
100
AcDbSpline
70
4
71
3
72
18
73
14
40
0
40
0
40
0
40
0
40
0.0281458278934267
40
0.0281458278934267
40
0.216727369940314
40
0.216727369940314
40
0.593890454034088
40
0.593890454034088
40
0.782471996080976
40
0.782471996080976
40
0.971053538127864
40
0.971053538127864
40
1
40
1
40
1
40
1
41
1
10
38.350774276363
20
-17.6739064072892
30
0
41
1
10
38.3636639815811
20
-17.6867754133432
30
0
41
1
10
38.3764821587952
20
-17.6997367277897
30
0
41
1
10
38.4746321689602
20
-17.8002536874969
30
0
41
1
10
38.5571185932604
20
-17.8922912491767
30
0
41
1
10
38.7904552141574
20
-18.1760644297333
30
0
41
1
10
38.9285061518227
20
-18.3764249243537
30
0
41
1
10
39.1103431184355
20
-18.6931240495616
30
0
41
1
10
39.1667273375107
20
-18.8013974217516
30
0
41
1
10
39.2709707823369
20
-19.0234134687872
30
0
41
1
10
39.3188922409211
20
-19.1374685220536
30
0
41
1
10
39.368225911535
20
-19.2695230680518
30
0
41
1
10
39.3746759144934
20
-19.2871181214704
30
0
41
1
10
39.3810118819027
20
-19.3047351533429
30
0
0
SPLINE
5
E7
100
AcDbEntity
8
1
62
256
6
ByLayer
370
18
48
1
60
0
100
AcDbSpline
70
4
71
3
72
16
73
12
40
0
40
0
40
0
40
0
40
0.347520402169283
40
0.347520402169283
40
0.521280603253925
40
0.521280603253925
40
0.695040804338566
40
0.695040804338566
40
0.868801005423208
40
0.868801005423208
40
1
40
1
40
1
40
1
41
1
10
33.9181192668332
20
-24.7501327732886
30
0
41
1
10
33.6434607361422
20
-24.6304805406004
30
0
41
1
10
33.3887706268275
20
-24.4844734130744
30
0
41
1
10
33.0362627174032
20
-24.2294733684781
30
0
41
1
10
32.9237257396124
20
-24.1384295817537
30
0
41
1
10
32.7091071627394
20
-23.9444717523959
30
0
41
1
10
32.6083881234666
20
-23.8427062673354
30
0
41
1
10
32.422188359008
20
-23.6332294326204
30
0
41
1
10
32.3363304847021
20
-23.525157945128
30
0
41
1
10
32.1987700917091
20
-23.3315465459263
30
0
41
1
10
32.1438238547963
20
-23.2469017410992
30
0
41
1
10
32.0935380739163
20
-23.1619446418793
30
0
0
SPLINE
5
E8
100
AcDbEntity
8
1
62
256
6
ByLayer
370
18
48
1
60
0
100
AcDbSpline
70
4
71
3
72
8
73
4
40
0
40
0
40
0
40
0
40
1
40
1
40
1
40
1
41
1
10
32.5474868221646
20
-24.1154078540708
30
0
41
1
10
32.8823690715282
20
-24.259925767346
30
0
41
1
10
33.2107868263832
20
-24.4026185639784
30
0
41
1
10
33.5366364314577
20
-24.544586296509
30
0
0
SPLINE
5
E9
100
AcDbEntity
8
1
62
256
6
ByLayer
370
18
48
1
60
0
100
AcDbSpline
70
4
71
3
72
8
73
4
40
0
40
0
40
0
40
0
40
1
40
1
40
1
40
1
41
1
10
40.4693120567855
20
-21.976944257994
30
0
41
1
10
40.3205020468921
20
-21.9917044585561
30
0
41
1
10
40.1716672073055
20
-22.0064463158931
30
0
41
1
10
40.0227965407896
20
-22.0211616897516
30
0
0
SPLINE
5
EA
100
AcDbEntity
8
1
62
256
6
ByLayer
370
18
48
1
60
0
100
AcDbSpline
70
4
71
3
72
8
73
4
40
0
40
0
40
0
40
0
40
1
40
1
40
1
40
1
41
1
10
32.5259400588587
20
-21.3077887754411
30
0
41
1
10
32.3424217193268
20
-21.2878564762835
30
0
41
1
10
32.1589322898387
20
-21.267943743719
30
0
41
1
10
31.9754629019318
20
-21.2480445662678
30
0
0
SPLINE
5
EB
100
AcDbEntity
8
1
62
256
6
ByLayer
370
18
48
1
60
0
100
AcDbSpline
70
4
71
3
72
8
73
4
40
0
40
0
40
0
40
0
40
1
40
1
40
1
40
1
41
1
10
39.3782615761225
20
-23.7692886758122
30
0
41
1
10
39.4899562363992
20
-23.855403176675
30
0
41
1
10
39.6016076481173
20
-23.9415113232234
30
0
41
1
10
39.7132290926294
20
-24.0276150606631
30
0
0
SPLINE
5
EC
100
AcDbEntity
8
1
62
256
6
ByLayer
370
18
48
1
60
0
100
AcDbSpline
70
4
71
3
72
10
73
6
40
0
40
0
40
0
40
0
40
0.5
40
0.5
40
1
40
1
40
1
40
1
41
1
10
18.4856363896699
20
-15.4020047745762
30
0
41
1
10
18.4549257599027
20
-15.2450749790427
30
0
41
1
10
18.4242983993657
20
-15.0862480978557
30
0
41
1
10
18.3643828882611
20
-14.7694289902869
30
0
41
1
10
18.3350563387423
20
-14.6112452977046
30
0
41
1
10
18.3064810222157
20
-14.4533304149523
30
0
0
SPLINE
5
ED
100
AcDbEntity
8
1
62
256
6
ByLayer
370
18
48
1
60
0
100
AcDbSpline
70
4
71
3
72
8
73
4
40
0
40
0
40
0
40
0
40
1
40
1
40
1
40
1
41
1
10
18.1362117010317
20
-13.4577694070407
30
0
41
1
10
18.0857283939038
20
-13.1439348263783
30
0
41
1
10
18.0402974624787
20
-12.8430837538337
30
0
41
1
10
17.9978418139799
20
-12.5498805278192
30
0
0
SPLINE
5
EE
100
AcDbEntity
8
1
62
256
6
ByLayer
370
18
48
1
60
0
100
AcDbSpline
70
4
71
3
72
10
73
6
40
0
40
0
40
0
40
0
40
0.5
40
0.5
40
1
40
1
40
1
40
1
41
1
10
13.0482909533529
20
-13.4487944332258
30
0
41
1
10
13.0696619136975
20
-13.5963845593366
30
0
41
1
10
13.0919332935895
20
-13.7468554598788
30
0
41
1
10
13.1380234570437
20
-14.0498492197972
30
0
41
1
10
13.1618670015221
20
-14.2025499073391
30
0
41
1
10
13.1866608404047
20
-14.3566833124473
30
0
0
SPLINE
5
EF
100
AcDbEntity
8
1
62
256
6
ByLayer
370
18
48
1
60
0
100
AcDbSpline
70
4
71
3
72
10
73
6
40
0
40
0
40
0
40
0
40
0.5
40
0.5
40
1
40
1
40
1
40
1
41
1
10
16.1436234713663
20
-11.8707385555127
30
0
41
1
10
15.9959505788781
20
-11.8189097811168
30
0
41
1
10
15.8484046912375
20
-11.7676970752761
30
0
41
1
10
15.560048224913
20
-11.6685533427859
30
0
41
1
10
15.4185930098608
20
-11.6203892636112
30
0
41
1
10
15.2791690958214
20
-11.573275357144
30
0
0
SPLINE
5
F0
100
AcDbEntity
8
1
62
256
6
ByLayer
370
18
48
1
60
0
100
AcDbSpline
70
4
71
3
72
8
73
4
40
0
40
0
40
0
40
0
40
1
40
1
40
1
40
1
41
1
10
17.7391591609755
20
-15.9920377152278
30
0
41
1
10
17.9914956895973
20
-15.7869824721447
30
0
41
1
10
18.239764819474
20
-15.5916347198707
30
0
41
1
10
18.4856363896699
20
-15.4020047745762
30
0
0
SPLINE
5
F1
100
AcDbEntity
8
1
62
256
6
ByLayer
370
18
48
1
60
0
100
AcDbSpline
70
4
71
3
72
10
73
6
40
0
40
0
40
0
40
0
40
0.5
40
0.5
40
1
40
1
40
1
40
1
41
1
10
17.9978418139799
20
-12.5498805278192
30
0
41
1
10
17.8487027561845
20
-12.4933275821712
30
0
41
1
10
17.6984721506054
20
-12.4367037549779
30
0
41
1
10
17.3950739342764
20
-12.3232653810753
30
0
41
1
10
17.243338866698
20
-12.2669922885693
30
0
41
1
10
17.0926019580327
20
-12.2116318490481
30
0
0
SPLINE
5
F2
100
AcDbEntity
8
1
62
256
6
ByLayer
370
18
48
1
60
0
100
AcDbSpline
70
4
71
3
72
8
73
4
40
0
40
0
40
0
40
0
40
1
40
1
40
1
40
1
41
1
10
13.3569301615887
20
-15.3522443203589
30
0
41
1
10
13.4151130225533
20
-15.673778454858
30
0
41
1
10
13.475075650144
20
-15.9891612235682
30
0
41
1
10
13.5360855290429
20
-16.3009186799828
30
0
0
SPLINE
5
F3
100
AcDbEntity
8
1
62
256
6
ByLayer
370
18
48
1
60
0
100
AcDbSpline
70
4
71
3
72
8
73
4
40
0
40
0
40
0
40
0
40
1
40
1
40
1
40
1
41
1
10
13.7539827016448
20
-12.8179760121718
30
0
41
1
10
13.5093457268598
20
-13.0307308090917
30
0
41
1
10
13.2756082931487
20
-13.2406102575312
30
0
41
1
10
13.0482909533529
20
-13.4487944332258
30
0
0
SPLINE
5
F4
100
AcDbEntity
8
1
62
256
6
ByLayer
370
18
48
1
60
0
100
AcDbSpline
70
4
71
3
72
10
73
6
40
0
40
0
40
0
40
0
40
0.5
40
0.5
40
1
40
1
40
1
40
1
41
1
10
16.2547582472014
20
-17.277523850658
30
0
41
1
10
16.3691833007851
20
-17.1727298851799
30
0
41
1
10
16.4859687750731
20
-17.0668568353799
30
0
41
1
10
16.7214591066692
20
-16.8561538011075
30
0
41
1
10
16.8403015725267
20
-16.7511955760792
30
0
41
1
10
16.9604499954934
20
-16.6467054296041
30
0
0
SPLINE
5
F5
100
AcDbEntity
8
1
62
256
6
ByLayer
370
18
48
1
60
0
100
AcDbSpline
70
4
71
3
72
10
73
6
40
0
40
0
40
0
40
0
40
0.5
40
0.5
40
1
40
1
40
1
40
1
41
1
10
15.2791690958214
20
-11.573275357144
30
0
41
1
10
15.155404372815
20
-11.6687296531994
30
0
41
1
10
15.0302629178822
20
-11.7662467223546
30
0
41
1
10
14.7809472386357
20
-11.9631244089765
30
0
41
1
10
14.6566217677378
20
-12.0625996289644
30
0
41
1
10
14.5326918671271
20
-12.1633082977956
30
0
0
SPLINE
5
F6
100
AcDbEntity
8
1
62
256
6
ByLayer
370
18
48
1
60
0
100
AcDbSpline
70
4
71
3
72
10
73
6
40
0
40
0
40
0
40
0
40
0.5
40
0.5
40
1
40
1
40
1
40
1
41
1
10
16.2547582472014
20
-17.277523850658
30
0
41
1
10
16.105619189406
20
-17.22097090501
30
0
41
1
10
15.9553885838269
20
-17.1643470778168
30
0
41
1
10
15.6519903674979
20
-17.0509087039141
30
0
41
1
10
15.5002552999194
20
-16.9946356114081
30
0
41
1
10
15.3495183912542
20
-16.939275171887
30
0
0
SPLINE
5
F7
100
AcDbEntity
8
1
62
256
6
ByLayer
370
18
48
1
60
0
100
AcDbSpline
70
4
71
3
72
10
73
6
40
0
40
0
40
0
40
0
40
0.5
40
0.5
40
1
40
1
40
1
40
1
41
1
10
14.4005399045877
20
-16.5983818783516
30
0
41
1
10
14.2528670120996
20
-16.5465531039556
30
0
41
1
10
14.105321124459
20
-16.4953403981149
30
0
41
1
10
13.8169646581345
20
-16.3961966656248
30
0
41
1
10
13.6755094430824
20
-16.34803258645
30
0
41
1
10
13.5360855290429
20
-16.3009186799828
30
0
0
LINE
5
72
100
AcDbEntity
8
1
62
256
6
ByLayer
370
18
48
1
60
0
100
AcDbLine
10
32.593611
20
-23.825768
30
0
11
32.67272
21
-23.904876
31
0
39
0
210
0
220
0
230
1
0
LINE
5
73
100
AcDbEntity
8
1
62
256
6
ByLayer
370
18
48
1
60
0
100
AcDbLine
10
32.485119
20
-23.406073
30
0
11
33.264831
21
-24.185786
31
0
39
0
210
0
220
0
230
1
0
LINE
5
74
100
AcDbEntity
8
1
62
256
6
ByLayer
370
18
48
1
60
0
100
AcDbLine
10
47.647275
20
-10.620087
30
0
11
47.036517
21
-10.009329
31
0
39
0
210
0
220
0
230
1
0
LINE
5
75
100
AcDbEntity
8
1
62
256
6
ByLayer
370
18
48
1
60
0
100
AcDbLine
10
24.573888
20
-32.38129
30
0
11
25.22998
21
-33.037382
31
0
39
0
210
0
220
0
230
1
0
LINE
5
76
100
AcDbEntity
8
1
62
256
6
ByLayer
370
18
48
1
60
0
100
AcDbLine
10
19.932033
20
-10.105187
30
0
11
19.924789
21
-10.097944
31
0
39
0
210
0
220
0
230
1
0
LINE
5
77
100
AcDbEntity
8
1
62
256
6
ByLayer
370
18
48
1
60
0
100
AcDbLine
10
11.439508
20
-18.583225
30
0
11
11.446751
21
-18.590469
31
0
39
0
210
0
220
0
230
1
0
LINE
5
78
100
AcDbEntity
8
1
62
256
6
ByLayer
370
18
48
1
60
0
100
AcDbLine
10
39.179944
20
-19.039203
30
0
11
38.400232
21
-18.259491
31
0
39
0
210
0
220
0
230
1
0
LINE
5
79
100
AcDbEntity
8
1
62
256
6
ByLayer
370
18
48
1
60
0
100
AcDbLine
10
47.210092
20
-10.02433
30
0
11
46.557086
21
-9.967866
31
0
39
0
210
0
220
0
230
1
0
LINE
5
7A
100
AcDbEntity
8
1
62
256
6
ByLayer
370
18
48
1
60
0
100
AcDbLine
10
37.585774
20
-9.192141
30
0
11
32.176867
21
-8.724448
31
0
39
0
210
0
220
0
230
1
0
LINE
5
7B
100
AcDbEntity
8
1
62
256
6
ByLayer
370
18
48
1
60
0
100
AcDbLine
10
31.061256
20
-7.793549
30
0
11
31.033505
21
-7.45539
31
0
39
0
210
0
220
0
230
1
0
LINE
5
7C
100
AcDbEntity
8
1
62
256
6
ByLayer
370
18
48
1
60
0
100
AcDbLine
10
30.583972
20
-4.886355
30
0
11
30.82093
21
-7.773804
31
0
39
0
210
0
220
0
230
1
0
LINE
5
7D
100
AcDbEntity
8
1
62
256
6
ByLayer
370
18
48
1
60
0
100
AcDbLine
10
31.153773
20
-7.465789
30
0
11
31.033505
21
-7.45539
31
0
39
0
210
0
220
0
230
1
0
LINE
5
7E
100
AcDbEntity
8
1
62
256
6
ByLayer
370
18
48
1
60
0
100
AcDbLine
10
30.655522
20
-7.760215
30
0
11
30.41936
21
-4.88246
31
0
39
0
210
0
220
0
230
1
0
LINE
5
7F
100
AcDbEntity
8
1
62
256
6
ByLayer
370
18
48
1
60
0
100
AcDbLine
10
2.896997
20
-31.154814
30
0
11
2.928205
21
-30.818902
31
0
39
0
210
0
220
0
230
1
0
LINE
5
80
100
AcDbEntity
8
1
62
256
6
ByLayer
370
18
48
1
60
0
100
AcDbLine
10
46.692697
20
-3.71961
30
0
11
9.263183
21
22.137245
31
0
39
0
210
0
220
0
230
1
0
LINE
5
81
100
AcDbEntity
8
1
62
256
6
ByLayer
370
18
48
1
60
0
100
AcDbLine
10
2.622277
20
-30.129546
30
0
11
3.907215
21
16.781277
31
0
39
0
210
0
220
0
230
1
0
LINE
5
82
100
AcDbEntity
8
1
62
256
6
ByLayer
370
18
48
1
60
0
100
AcDbLine
10
23.848856
20
-23.54643
30
0
11
24.591564
21
-32.596698
31
0
39
0
210
0
220
0
230
1
0
LINE
5
83
100
AcDbEntity
8
1
62
256
6
ByLayer
370
18
48
1
60
0
100
AcDbLine
10
8.314153
20
24.707487
30
0
11
5.197922
21
24.968634
31
0
39
0
210
0
220
0
230
1
0
LINE
5
84
100
AcDbEntity
8
1
62
256
6
ByLayer
370
18
48
1
60
0
100
AcDbLine
10
24.591564
20
-32.596698
30
0
11
2.928205
21
-30.818902
31
0
39
0
210
0
220
0
230
1
0
LINE
5
85
100
AcDbEntity
8
1
62
256
6
ByLayer
370
18
48
1
60
0
100
AcDbLine
10
46.692697
20
-3.71961
30
0
11
47.210092
21
-10.02433
31
0
39
0
210
0
220
0
230
1
0
LINE
5
86
100
AcDbEntity
8
1
62
256
6
ByLayer
370
18
48
1
60
0
100
AcDbLine
10
32.176866
20
-8.724448
30
0
11
31.035117
21
-7.320067
31
0
39
0
210
0
220
0
230
1
0
LINE
5
87
100
AcDbEntity
8
1
62
256
6
ByLayer
370
18
48
1
60
0
100
AcDbLine
10
9.263183
20
22.137245
30
0
11
5.197922
21
24.968634
31
0
39
0
210
0
220
0
230
1
0
LINE
5
88
100
AcDbEntity
8
1
62
256
6
ByLayer
370
18
48
1
60
0
100
AcDbLine
10
1.545481
20
24.930174
30
0
11
1.545481
21
-26.11089
31
0
39
0
210
0
220
0
230
1
0
LINE
5
89
100
AcDbEntity
8
1
62
256
6
ByLayer
370
18
48
1
60
0
100
AcDbLine
10
0
20
-24.925
30
0
11
0
21
24.925
31
0
39
0
210
0
220
0
230
1
0
LINE
5
8A
100
AcDbEntity
8
1
62
256
6
ByLayer
370
18
48
1
60
0
100
AcDbLine
10
30.41936
20
-4.88246
30
0
11
30.419222
21
-4.882473
31
0
39
0
210
0
220
0
230
1
0
LINE
5
8B
100
AcDbEntity
8
1
62
256
6
ByLayer
370
18
48
1
60
0
100
AcDbLine
10
2.896997
20
-31.154814
30
0
11
2.622277
21
-30.129546
31
0
39
0
210
0
220
0
230
1
0
LINE
5
8C
100
AcDbEntity
8
1
62
256
6
ByLayer
370
18
48
1
60
0
100
AcDbLine
10
3.907215
20
24.968634
30
0
11
3.907215
21
16.781277
31
0
39
0
210
0
220
0
230
1
0
LINE
5
8D
100
AcDbEntity
8
1
62
256
6
ByLayer
370
18
48
1
60
0
100
AcDbLine
10
31.996006
20
-6.520566
30
0
11
30.849907
21
-5.218154
31
0
39
0
210
0
220
0
230
1
0
LINE
5
8E
100
AcDbEntity
8
1
62
256
6
ByLayer
370
18
48
1
60
0
100
AcDbLine
10
3.907215
20
16.781277
30
0
11
9.263183
21
22.137245
31
0
39
0
210
0
220
0
230
1
0
LINE
5
8F
100
AcDbEntity
8
1
62
256
6
ByLayer
370
18
48
1
60
0
100
AcDbLine
10
32.176867
20
-8.724448
30
0
11
31.996006
21
-6.520566
31
0
39
0
210
0
220
0
230
1
0
LINE
5
90
100
AcDbEntity
8
1
62
256
6
ByLayer
370
18
48
1
60
0
100
AcDbLine
10
8.314153
20
24.707487
30
0
11
41.101347
21
1.87174
31
0
39
0
210
0
220
0
230
1
0
LINE
5
91
100
AcDbEntity
8
1
62
256
6
ByLayer
370
18
48
1
60
0
100
AcDbLine
10
1.545481
20
24.930174
30
0
11
3.907215
21
24.968634
31
0
39
0
210
0
220
0
230
1
0
LINE
5
92
100
AcDbEntity
8
1
62
256
6
ByLayer
370
18
48
1
60
0
100
AcDbLine
10
1.545481
20
-26.11089
30
0
11
2.622277
21
-30.129546
31
0
39
0
210
0
220
0
230
1
0
LINE
5
93
100
AcDbEntity
8
1
62
256
6
ByLayer
370
18
48
1
60
0
100
AcDbLine
10
46.692697
20
-3.71961
30
0
11
41.101347
21
1.87174
31
0
39
0
210
0
220
0
230
1
0
LINE
5
94
100
AcDbEntity
8
1
62
256
6
ByLayer
370
18
48
1
60
0
100
AcDbLine
10
23.20608
20
-17.539528
30
0
11
23.616595
21
-22.541862
31
0
39
0
210
0
220
0
230
1
0
LINE
5
95
100
AcDbEntity
8
1
62
256
6
ByLayer
370
18
48
1
60
0
100
AcDbLine
10
3.907215
20
24.968634
30
0
11
5.197922
21
24.968634
31
0
39
0
210
0
220
0
230
1
0
LINE
5
96
100
AcDbEntity
8
1
62
256
6
ByLayer
370
18
48
1
60
0
100
AcDbLine
10
22.548235
20
-7.697693
30
0
11
23.271195
21
-16.507332
31
0
39
0
210
0
220
0
230
1
0
LINE
5
97
100
AcDbEntity
8
SK1
62
256
6
ByLayer
370
18
48
1
60
0
100
AcDbLine
10
0
20
-24.925
30
0
11
0
21
24.925
31
0
39
0
210
0
220
0
230
1
0
LINE
5
99
100
AcDbEntity
8
SK1
62
256
6
ByLayer
370
18
48
1
60
0
100
AcDbLine
10
-251.315107
20
24.925
30
0
11
0
21
24.925
31
0
39
0
210
0
220
0
230
1
0
LINE
5
9A
100
AcDbEntity
8
SK1
62
256
6
ByLayer
370
18
48
1
60
0
100
AcDbLine
10
-251.315107
20
24.925
30
0
11
-251.315107
21
-24.925
31
0
39
0
210
0
220
0
230
1
0
LINE
5
9B
100
AcDbEntity
8
SK1
62
256
6
ByLayer
370
18
48
1
60
0
100
AcDbLine
10
-251.315107
20
-24.925
30
0
11
0
21
-24.925
31
0
39
0
210
0
220
0
230
1
0
LINE
5
9C
100
AcDbEntity
8
1
62
256
6
ByLayer
370
18
48
1
60
0
100
AcDbLine
10
31.9508
20
-21.223381
30
0
11
31.975463
21
-21.248045
31
0
39
0
210
0
220
0
230
1
0
LINE
5
9D
100
AcDbEntity
8
1
62
256
6
ByLayer
370
18
48
1
60
0
100
AcDbLine
10
17.474582
20
-12.353125
30
0
11
17.565982
21
-12.88754
31
0
39
0
210
0
220
0
230
1
0
LINE
5
9E
100
AcDbEntity
8
1
62
256
6
ByLayer
370
18
48
1
60
0
100
AcDbLine
10
13.459407
20
-15.894916
30
0
11
13.83031
21
-16.028152
31
0
39
0
210
0
220
0
230
1
0
LINE
5
9F
100
AcDbEntity
8
1
62
256
6
ByLayer
370
18
48
1
60
0
100
AcDbLine
10
22.850282
20
-10.820117
30
0
11
22.800368
21
-10.770203
31
0
39
0
210
0
220
0
230
1
0
LINE
5
A0
100
AcDbEntity
8
1
62
256
6
ByLayer
370
18
48
1
60
0
100
AcDbLine
10
24.503437
20
-31.522972
30
0
11
24.553351
21
-31.572886
31
0
39
0
210
0
220
0
230
1
0
LINE
5
A1
100
AcDbEntity
8
1
62
256
6
ByLayer
370
18
48
1
60
0
100
AcDbLine
10
46.182779
20
-9.943458
30
0
11
46.132865
21
-9.893544
31
0
39
0
210
0
220
0
230
1
0
LINE
5
A2
100
AcDbEntity
8
1
62
256
6
ByLayer
370
18
48
1
60
0
100
AcDbLine
10
24.439776
20
-7.250154
30
0
11
31.445781
21
-7.8251
31
0
39
0
210
0
220
0
230
1
0
LINE
5
A3
100
AcDbEntity
8
80
62
256
6
ByLayer
370
18
48
1
60
0
100
AcDbLine
10
0
20
0
30
0
11
-5
21
0
31
0
39
0
210
0
220
0
230
1
0
LINE
5
A4
100
AcDbEntity
8
81
62
256
6
ByLayer
370
18
48
1
60
0
100
AcDbLine
10
48.684893
20
-35.075
30
0
11
58.684893
21
-35.075
31
0
39
0
210
0
220
0
230
1
0
LINE
5
A5
100
AcDbEntity
8
1
62
256
6
ByLayer
370
18
48
1
60
0
100
AcDbLine
10
47.447245
20
-35.41708
30
0
11
26.694477
21
-33.714011
31
0
39
0
210
0
220
0
230
1
0
LINE
5
A6
100
AcDbEntity
8
1
62
256
6
ByLayer
370
18
48
1
60
0
100
AcDbLine
10
24.439776
20
-7.250154
30
0
11
25.43001
21
-8.240389
31
0
39
0
210
0
220
0
230
1
0
LINE
5
A7
100
AcDbEntity
8
1
62
256
6
ByLayer
370
18
48
1
60
0
100
AcDbLine
10
48.323904
20
-12.084584
30
0
11
50.026973
21
-32.837352
31
0
39
0
210
0
220
0
230
1
0
LINE
5
A8
100
AcDbEntity
8
1
62
256
6
ByLayer
370
18
48
1
60
0
100
AcDbLine
10
25.43001
20
-8.240389
30
0
11
46.182779
21
-9.943458
31
0
39
0
210
0
220
0
230
1
0
LINE
5
A9
100
AcDbEntity
8
1
62
256
6
ByLayer
370
18
48
1
60
0
100
AcDbLine
10
24.553351
20
-31.572886
30
0
11
22.850282
21
-10.820117
31
0
39
0
210
0
220
0
230
1
0
LINE
5
AA
100
AcDbEntity
8
1
62
256
6
ByLayer
370
18
48
1
60
0
100
AcDbLine
10
17.736251
20
-13.883101
30
0
11
18.306481
21
-14.45333
31
0
39
0
210
0
220
0
230
1
0
LINE
5
AB
100
AcDbEntity
8
1
62
256
6
ByLayer
370
18
48
1
60
0
100
AcDbLine
10
14.779289
20
-16.369046
30
0
11
15.349518
21
-16.939275
31
0
39
0
210
0
220
0
230
1
0
LINE
5
AC
100
AcDbEntity
8
1
62
256
6
ByLayer
370
18
48
1
60
0
100
AcDbLine
10
16.254758
20
-17.277524
30
0
11
15.664136
21
-16.686902
31
0
39
0
210
0
220
0
230
1
0
LINE
5
AD
100
AcDbEntity
8
1
62
256
6
ByLayer
370
18
48
1
60
0
100
AcDbLine
10
18.136212
20
-13.457769
30
0
11
17.565982
21
-12.88754
31
0
39
0
210
0
220
0
230
1
0
LINE
5
AE
100
AcDbEntity
8
1
62
256
6
ByLayer
370
18
48
1
60
0
100
AcDbLine
10
17.739159
20
-15.992038
30
0
11
17.16893
21
-15.421808
31
0
39
0
210
0
220
0
230
1
0
LINE
5
AF
100
AcDbEntity
8
1
62
256
6
ByLayer
370
18
48
1
60
0
100
AcDbLine
10
17.895014
20
-14.811382
30
0
11
17.16893
21
-15.421808
31
0
39
0
210
0
220
0
230
1
0
LINE
5
B0
100
AcDbEntity
8
1
62
256
6
ByLayer
370
18
48
1
60
0
100
AcDbLine
10
17.736251
20
-13.883101
30
0
11
17.895014
21
-14.811382
31
0
39
0
210
0
220
0
230
1
0
LINE
5
B1
100
AcDbEntity
8
1
62
256
6
ByLayer
370
18
48
1
60
0
100
AcDbLine
10
14.779289
20
-16.369046
30
0
11
15.664136
21
-16.686902
31
0
39
0
210
0
220
0
230
1
0
LINE
5
B2
100
AcDbEntity
8
1
62
256
6
ByLayer
370
18
48
1
60
0
100
AcDbLine
10
16.39022
20
-16.076476
30
0
11
15.664136
21
-16.686902
31
0
39
0
210
0
220
0
230
1
0
LINE
5
B3
100
AcDbEntity
8
1
62
256
6
ByLayer
370
18
48
1
60
0
100
AcDbLine
10
16.39022
20
-16.076476
30
0
11
16.96045
21
-16.646705
31
0
39
0
210
0
220
0
230
1
0
LINE
5
B4
100
AcDbEntity
8
1
62
256
6
ByLayer
370
18
48
1
60
0
100
AcDbLine
10
14.40054
20
-16.598382
30
0
11
13.83031
21
-16.028152
31
0
39
0
210
0
220
0
230
1
0
LINE
5
B5
100
AcDbEntity
8
1
62
256
6
ByLayer
370
18
48
1
60
0
100
AcDbLine
10
18.485636
20
-15.402005
30
0
11
17.895014
21
-14.811382
31
0
39
0
210
0
220
0
230
1
0
MTEXT
5
F8
100
AcDbEntity
8
SK6
62
256
6
ByLayer
370
13
48
1
60
0
100
AcDbMText
10
-199.732238
20
33.910722
30
0
210
0
220
0
230
1
1
\W0.7837;PCLNL 5050T 25
40
3.5
41
0
44
1.084337
50
0
71
7
72
5
7
iso_b_vert
0
DIMENSION
5
10A
100
AcDbEntity
8
SK2
62
256
6
ByLayer
370
13
48
1
60
0
100
AcDbDimension
2
DimnDraft3D1
10
-261.065107
20
24.925
30
0
11
-261.065107
21
-0.075
31
0
70
32
71
5
72
1
41
1
210
0
220
0
230
1
3
Standard
100
AcDbAlignedDimension
13
-252.902607
23
-25.075
33
0
14
-252.902607
24
24.925
34
0
50
90
100
AcDbRotatedDimension
1001
ACAD
1000
DSTYLE
1002
{
1070
    74
1070
     0
1070
   279
1070
     0
1070
   172
1070
     1
1070
   173
1070
     1
1070
   340
1005
F9
1070
   271
1070
     1
1070
   272
1070
     2
1070
    77
1070
     1
1070
    73
1070
     0
1070
   171
1070
     3
1070
   274
1070
     4
1070
   177
1070
   150
1070
   176
1070
     9
1070
   178
1070
    43
1070
    78
1070
     8
1070
    48
1040
-0.005
1070
    41
1041
3.175
1070
   147
1041
2.25
1070
    42
1041
1.5875
1070
    44
1041
3.175
1070
   140
1041
4.5
1070
   343
1005
10B
1070
   344
1005
10B
1002
}
0
DIMENSION
5
120
100
AcDbEntity
8
2
62
256
6
ByLayer
370
13
48
1
60
0
100
AcDbDimension
2
DimnDraft3D2
10
66.534893
20
24.925
30
0
11
66.534893
21
-5.25
31
0
70
32
71
5
72
1
41
1
210
0
220
0
230
1
3
Standard
100
AcDbAlignedDimension
13
51.622393
23
-35.425
33
0
14
1.5875
24
24.925
34
0
50
90
100
AcDbRotatedDimension
1001
ACAD
1000
DSTYLE
1002
{
1070
    74
1070
     0
1070
   279
1070
     0
1070
   172
1070
     1
1070
   173
1070
     1
1070
   340
1005
F9
1070
   271
1070
     1
1070
   272
1070
     2
1070
    77
1070
     1
1070
    73
1070
     0
1070
   171
1070
     3
1070
   274
1070
     4
1070
   177
1070
   150
1070
   176
1070
     9
1070
   178
1070
    43
1070
    78
1070
     8
1070
    48
1040
-0.005
1070
    41
1041
3.175
1070
   147
1041
2.25
1070
    42
1041
1.5875
1070
    44
1041
3.175
1070
   140
1041
4.5
1070
   343
1005
10B
1070
   344
1005
10B
1002
}
0
DIMENSION
5
12E
100
AcDbEntity
8
SK2
62
256
6
ByLayer
370
13
48
1
60
0
100
AcDbDimension
2
DimnDraft3D3
10
50.034893
20
-61.925
30
0
11
-100.640107
21
-61.925
31
0
70
32
71
5
72
1
41
1
210
0
220
0
230
1
3
Standard
100
AcDbAlignedDimension
13
-251.315107
23
-26.6625
33
0
14
50.034893
24
-37.0125
34
0
50
0
100
AcDbRotatedDimension
1001
ACAD
1000
DSTYLE
1002
{
1070
   279
1070
     0
1070
   172
1070
     1
1070
   173
1070
     1
1070
   340
1005
F9
1070
   271
1070
     1
1070
   272
1070
     2
1070
    77
1070
     1
1070
    73
1070
     0
1070
   171
1070
     3
1070
   274
1070
     4
1070
   177
1070
   150
1070
   176
1070
     9
1070
   178
1070
    43
1070
    78
1070
     8
1070
    48
1040
-0.005
1070
    41
1041
3.175
1070
   147
1041
2.25
1070
    42
1041
1.5875
1070
    44
1041
3.175
1070
   140
1041
4.5
1070
   343
1005
10B
1070
   344
1005
10B
1002
}
0
DIMENSION
5
13B
100
AcDbEntity
8
2
62
256
6
ByLayer
370
13
48
1
60
0
100
AcDbDimension
2
DimnDraft3D4
10
50.034893
20
-30.6625
30
0
11
37.635716
21
-47.004181
31
0
70
34
71
5
72
1
41
1
210
0
220
0
230
1
3
Standard
100
AcDb2LineAngularDimension
13
47.446103
23
-35.415939
33
0
14
22.541236
24
-33.237045
34
0
15
50.034893
25
-35.425
35
0
16
34.317968
26
-50.044336
36
0
40
0
0
ENDSEC
0
SECTION
2
OBJECTS
0
DICTIONARY
5
1a5
330
0
100
AcDbDictionary
280
0
281
1
3
ACAD_GROUP
350
1a6
3
ACAD_MLINESTYLE
350
1a7
0
DICTIONARY
5
1a6
330
0
100
AcDbDictionary
280
0
281
1
0
DICTIONARY
5
1a7
330
0
100
AcDbDictionary
280
0
281
1
3
Standard
350
18
0
MLINESTYLE
5
18
330
1a7
100
AcDbMlineStyle
2
Standard
70
0
3

62
256
51
90
52
90
71
2
49
-0.5
62
256
6
ByLayer
49
0.5
62
256
6
ByLayer
0
RASTERVARIABLES
5
194
330

100
AcDbRasterVariables
90
0
70
1
71
1
72
1
0
ENDSEC
0
EOF
