0
SECTION
2
HEADER
9
$ACADVER
1
AC1015
9
$DWGCODEPAGE
3
ANSI_1252
9
$HANDSEED
5
1af
9
$ANGBASE
50
0
9
$ANGDIR
70
0
9
$ATTMODE
70
1
9
$AUNITS
70
0
9
$AUPREC
70
0
9
$CECOLOR
62
256
9
$CELTSCALE
40
1
9
$CELTYPE
6
ByLayer
9
$CELWEIGHT
370
18
9
$CLAYER
8
0
9
$CMLJUST
70
0
9
$CMLSCALE
40
1
9
$CMLSTYLE
2
Standard
9
$DIMSTYLE
2
Standard
9
$TEXTSIZE
40
0.2
9
$TEXTSTYLE
7
Standard
9
$LUNITS
70
2
9
$LUPREC
70
4
9
$EXTNAMES
290
1
9
$INSUNITS
70
4
9
$LTSCALE
40
1
9
$LWDISPLAY
290
1
9
$PDMODE
70
0
9
$PDSIZE
40
0
9
$PLINEGEN
70
0
0
ENDSEC
0
SECTION
2
CLASSES
0
CLASS
1
RASTERVARIABLES
2
AcDbRasterVariables
3
ISM
90
0
280
0
281
0
0
ENDSEC
0
SECTION
2
TABLES
0
TABLE
2
VPORT
5
1a5
100
AcDbSymbolTable
0
VPORT
5
1
100
AcDbSymbolTableRecord
100
AcDbViewportTableRecord
2
*Active
70
0
10
0
20
0
11
1
21
1
12
-1
22
1
13
0
23
0
14
0.5
24
0.5
15
10
25
10
16
0
26
0
36
1
17
0
27
0
37
0
0
ENDTAB
0
TABLE
2
LTYPE
5
1a6
100
AcDbSymbolTable
0
LTYPE
5
14
100
AcDbSymbolTableRecord
100
AcDbLinetypeTableRecord
70
0
2
ByBlock
3

72
65
73
0
40
0
0
LTYPE
5
15
100
AcDbSymbolTableRecord
100
AcDbLinetypeTableRecord
70
0
2
ByLayer
3

72
65
73
0
40
0
0
LTYPE
5
16
100
AcDbSymbolTableRecord
100
AcDbLinetypeTableRecord
70
0
2
CONTINUOUS
3
Solid line
72
65
73
0
40
0
0
LTYPE
5
6A
100
AcDbSymbolTableRecord
100
AcDbLinetypeTableRecord
70
0
2
CENTER
3
____ _ ____ _ ____ _ ____
72
65
73
4
40
47.5
49
22
74
0
49
-8.5
74
0
49
8.5
74
0
49
-8.5
74
0
0
LTYPE
5
6B
100
AcDbSymbolTableRecord
100
AcDbLinetypeTableRecord
70
0
2
DASHED
3
__ __ __ __ __ __ __ __ __
72
65
73
2
40
25.72
49
12.86
74
0
49
-12.86
74
0
0
ENDTAB
0
TABLE
2
LAYER
5
1a7
100
AcDbSymbolTable
0
LAYER
5
10
100
AcDbSymbolTableRecord
100
AcDbLayerTableRecord
2
0
70
0
62
7
6
CONTINUOUS
290
1
370
-3
390
0
0
LAYER
5
6D
100
AcDbSymbolTableRecord
100
AcDbLayerTableRecord
2
80
70
0
62
-6
6
CONTINUOUS
290
1
370
-3
390
0
0
LAYER
5
6F
100
AcDbSymbolTableRecord
100
AcDbLayerTableRecord
2
81
70
0
62
-3
6
CONTINUOUS
290
1
370
-3
390
0
0
LAYER
5
71
100
AcDbSymbolTableRecord
100
AcDbLayerTableRecord
2
1
70
0
62
4
6
CONTINUOUS
290
1
370
-3
390
0
0
LAYER
5
110
100
AcDbSymbolTableRecord
100
AcDbLayerTableRecord
2
2
70
0
62
7
6
CONTINUOUS
290
1
370
-3
390
0
0
LAYER
5
192
100
AcDbSymbolTableRecord
100
AcDbLayerTableRecord
2
SK1
70
0
62
4
6
CONTINUOUS
290
1
370
-3
390
0
0
LAYER
5
193
100
AcDbSymbolTableRecord
100
AcDbLayerTableRecord
2
SK6
70
0
62
5
6
CONTINUOUS
290
1
370
-3
390
0
0
LAYER
5
194
100
AcDbSymbolTableRecord
100
AcDbLayerTableRecord
2
SK2
70
0
62
7
6
CONTINUOUS
290
1
370
-3
390
0
0
ENDTAB
0
TABLE
2
STYLE
5
1a8
100
AcDbSymbolTable
0
STYLE
5
11
100
AcDbSymbolTableRecord
100
AcDbTextStyleTableRecord
2
Standard
3
txt
70
0
71
0
40
0
41
1
42
0
50
0
0
STYLE
5
F5
100
AcDbSymbolTableRecord
100
AcDbTextStyleTableRecord
2
iso_b_vert
3
simplex.shx
70
0
71
0
40
0
41
1
42
0
50
0
0
STYLE
5
F6
100
AcDbSymbolTableRecord
100
AcDbTextStyleTableRecord
2
DWGDirectTextStyle
3
simplex
70
0
71
0
40
0
41
1
42
0
50
0
0
ENDTAB
0
TABLE
2
DIMSTYLE
5
1a9
100
AcDbSymbolTable
100
AcDbDimStyleTable
0
DIMSTYLE
105
27
100
AcDbSymbolTableRecord
100
AcDbDimStyleTableRecord
2
Standard
70
0
3
<>
41
0.18
42
0.0625
44
0.18
140
0.18
147
0.09
73
0
74
0
77
1
271
2
275
0
278
52
280
0
340
11
0
ENDTAB
0
TABLE
2
VIEW
5
1aa
100
AcDbSymbolTable
0
ENDTAB
0
TABLE
2
UCS
5
1ab
100
AcDbSymbolTable
0
ENDTAB
0
TABLE
2
APPID
5
1ac
100
AcDbSymbolTable
0
APPID
5
12
100
AcDbSymbolTableRecord
100
AcDbRegAppTableRecord
2
ACAD
70
0
0
ENDTAB
0
TABLE
2
BLOCK_RECORD
5
1ad
100
AcDbSymbolTable
0
BLOCK_RECORD
5
1F
100
AcDbSymbolTableRecord
100
AcDbBlockTableRecord
2
*Model_Space
340
0
70
0
0
BLOCK_RECORD
5
1B
100
AcDbSymbolTableRecord
100
AcDbBlockTableRecord
2
*Paper_Space
340
0
70
0
0
BLOCK_RECORD
5
23
100
AcDbSymbolTableRecord
100
AcDbBlockTableRecord
2
*Paper_Space0
340
0
70
0
0
BLOCK_RECORD
5
F8
100
AcDbSymbolTableRecord
100
AcDbBlockTableRecord
2
DimnDraft3D1
340
0
70
0
0
BLOCK_RECORD
5
107
100
AcDbSymbolTableRecord
100
AcDbBlockTableRecord
2
_CLOSED
340
0
70
0
0
BLOCK_RECORD
5
10E
100
AcDbSymbolTableRecord
100
AcDbBlockTableRecord
2
DimnDraft3D2
340
0
70
0
0
BLOCK_RECORD
5
11D
100
AcDbSymbolTableRecord
100
AcDbBlockTableRecord
2
DimnDraft3D3
340
0
70
0
0
BLOCK_RECORD
5
12B
100
AcDbSymbolTableRecord
100
AcDbBlockTableRecord
2
DimnDraft3D4
340
0
70
0
0
ENDTAB
0
ENDSEC
0
SECTION
2
BLOCKS
0
BLOCK
5
20
100
AcDbEntity
8
0
100
AcDbBlockBegin
2
*Model_Space
70
0
10
0
20
0
30
0
3
*Model_Space
0
ENDBLK
5
21
100
AcDbEntity
8
0
100
AcDbBlockEnd
0
BLOCK
5
1C
100
AcDbEntity
8
0
100
AcDbBlockBegin
2
*Paper_Space
70
0
10
0
20
0
30
0
3
*Paper_Space
0
ENDBLK
5
1D
100
AcDbEntity
8
0
100
AcDbBlockEnd
0
BLOCK
5
24
100
AcDbEntity
8
0
100
AcDbBlockBegin
2
*Paper_Space0
70
0
10
0
20
0
30
0
3
*Paper_Space0
0
ENDBLK
5
25
100
AcDbEntity
8
0
100
AcDbBlockEnd
0
BLOCK
5
104
100
AcDbEntity
8
0
100
AcDbBlockBegin
2
DimnDraft3D1
70
0
10
0
20
0
30
0
3
DimnDraft3D1
0
MTEXT
5
F9
100
AcDbEntity
8
SK2
62
256
6
ByLayer
370
13
48
1
60
0
100
AcDbMText
10
-224.33737
20
-1.875
30
0
210
0
220
0
230
1
1
\W0.7361;40
40
4.5
41
0
44
1.084337
50
90
71
7
72
5
7
iso_b_vert
0
LINE
5
FB
100
AcDbEntity
8
SK2
62
256
6
ByLayer
370
13
48
1
60
0
100
AcDbLine
10
-215.04987
20
-20.075
30
0
11
-226.38737
21
-20.075
31
0
39
0
210
0
220
0
230
1
0
LINE
5
FC
100
AcDbEntity
8
SK2
62
256
6
ByLayer
370
13
48
1
60
0
100
AcDbLine
10
-215.04987
20
19.925
30
0
11
-226.38737
21
19.925
31
0
39
0
210
0
220
0
230
1
0
LINE
5
FD
100
AcDbEntity
8
SK2
62
256
6
ByLayer
370
13
48
1
60
0
100
AcDbLine
10
-223.21237
20
-20.075
30
0
11
-223.21237
21
19.925
31
0
39
0
210
0
220
0
230
1
0
LINE
5
FE
100
AcDbEntity
8
SK2
62
256
6
ByLayer
370
13
48
1
60
0
100
AcDbLine
10
-223.21237
20
-20.075
30
0
11
-224.063109
21
-16.900003
31
0
39
0
210
0
220
0
230
1
0
LINE
5
FF
100
AcDbEntity
8
SK2
62
256
6
ByLayer
370
13
48
1
60
0
100
AcDbLine
10
-223.21237
20
-20.075
30
0
11
-222.361631
21
-16.899997
31
0
39
0
210
0
220
0
230
1
0
LINE
5
100
100
AcDbEntity
8
SK2
62
256
6
ByLayer
370
13
48
1
60
0
100
AcDbLine
10
-224.063109
20
-16.900003
30
0
11
-222.361631
21
-16.899997
31
0
39
0
210
0
220
0
230
1
0
LINE
5
101
100
AcDbEntity
8
SK2
62
256
6
ByLayer
370
13
48
1
60
0
100
AcDbLine
10
-223.21237
20
19.925
30
0
11
-222.361631
21
16.750003
31
0
39
0
210
0
220
0
230
1
0
LINE
5
102
100
AcDbEntity
8
SK2
62
256
6
ByLayer
370
13
48
1
60
0
100
AcDbLine
10
-223.21237
20
19.925
30
0
11
-224.063109
21
16.749997
31
0
39
0
210
0
220
0
230
1
0
LINE
5
103
100
AcDbEntity
8
SK2
62
256
6
ByLayer
370
13
48
1
60
0
100
AcDbLine
10
-222.361631
20
16.750003
30
0
11
-224.063109
21
16.749997
31
0
39
0
210
0
220
0
230
1
0
ENDBLK
5
105
100
AcDbEntity
8
0
100
AcDbBlockEnd
0
BLOCK
5
108
100
AcDbEntity
8
0
100
AcDbBlockBegin
2
_CLOSED
70
0
10
0
20
0
30
0
3
_CLOSED
0
LINE
5
10A
100
AcDbEntity
8
0
62
256
6
ByLayer
370
-2
48
1
60
0
100
AcDbLine
10
-1
20
0.166667
30
0
11
0
21
0
31
0
39
0
210
0
220
0
230
1
0
LINE
5
10B
100
AcDbEntity
8
0
62
256
6
ByLayer
370
-2
48
1
60
0
100
AcDbLine
10
0
20
0
30
0
11
-1
21
-0.166667
31
0
39
0
210
0
220
0
230
1
0
LINE
5
10C
100
AcDbEntity
8
0
62
256
6
ByLayer
370
-2
48
1
60
0
100
AcDbLine
10
-1
20
0.166667
30
0
11
-1
21
-0.166667
31
0
39
0
210
0
220
0
230
1
0
LINE
5
10D
100
AcDbEntity
8
0
62
256
6
ByLayer
370
-2
48
1
60
0
100
AcDbLine
10
0
20
0
30
0
11
-1
21
0
31
0
39
0
210
0
220
0
230
1
0
ENDBLK
5
109
100
AcDbEntity
8
0
100
AcDbBlockEnd
0
BLOCK
5
11A
100
AcDbEntity
8
0
100
AcDbBlockBegin
2
DimnDraft3D2
70
0
10
0
20
0
30
0
3
DimnDraft3D2
0
MTEXT
5
10F
100
AcDbEntity
8
2
62
256
6
ByLayer
370
13
48
1
60
0
100
AcDbMText
10
53.26263
20
-6.813158
30
0
210
0
220
0
230
1
1
\W0.6740;50
40
4.5
41
0
44
1.084337
50
90
71
7
72
5
7
iso_b_vert
0
LINE
5
111
100
AcDbEntity
8
2
62
256
6
ByLayer
370
13
48
1
60
0
100
AcDbLine
10
39.47513
20
-30.425
30
0
11
57.56263
21
-30.425
31
0
39
0
210
0
220
0
230
1
0
LINE
5
112
100
AcDbEntity
8
2
62
256
6
ByLayer
370
13
48
1
60
0
100
AcDbLine
10
1.5875
20
19.925
30
0
11
57.56263
21
19.925
31
0
39
0
210
0
220
0
230
1
0
LINE
5
113
100
AcDbEntity
8
2
62
256
6
ByLayer
370
13
48
1
60
0
100
AcDbLine
10
54.38763
20
-30.425
30
0
11
54.38763
21
19.925
31
0
39
0
210
0
220
0
230
1
0
LINE
5
114
100
AcDbEntity
8
2
62
256
6
ByLayer
370
13
48
1
60
0
100
AcDbLine
10
54.38763
20
-30.425
30
0
11
53.536891
21
-27.250003
31
0
39
0
210
0
220
0
230
1
0
LINE
5
115
100
AcDbEntity
8
2
62
256
6
ByLayer
370
13
48
1
60
0
100
AcDbLine
10
54.38763
20
-30.425
30
0
11
55.238369
21
-27.249997
31
0
39
0
210
0
220
0
230
1
0
LINE
5
116
100
AcDbEntity
8
2
62
256
6
ByLayer
370
13
48
1
60
0
100
AcDbLine
10
53.536891
20
-27.250003
30
0
11
55.238369
21
-27.249997
31
0
39
0
210
0
220
0
230
1
0
LINE
5
117
100
AcDbEntity
8
2
62
256
6
ByLayer
370
13
48
1
60
0
100
AcDbLine
10
54.38763
20
19.925
30
0
11
55.238369
21
16.750003
31
0
39
0
210
0
220
0
230
1
0
LINE
5
118
100
AcDbEntity
8
2
62
256
6
ByLayer
370
13
48
1
60
0
100
AcDbLine
10
54.38763
20
19.925
30
0
11
53.536891
21
16.749997
31
0
39
0
210
0
220
0
230
1
0
LINE
5
119
100
AcDbEntity
8
2
62
256
6
ByLayer
370
13
48
1
60
0
100
AcDbLine
10
55.238369
20
16.750003
30
0
11
53.536891
21
16.749997
31
0
39
0
210
0
220
0
230
1
0
ENDBLK
5
11B
100
AcDbEntity
8
0
100
AcDbBlockEnd
0
BLOCK
5
128
100
AcDbEntity
8
0
100
AcDbBlockBegin
2
DimnDraft3D3
70
0
10
0
20
0
30
0
3
DimnDraft3D3
0
MTEXT
5
11E
100
AcDbEntity
8
SK2
62
256
6
ByLayer
370
13
48
1
60
0
100
AcDbMText
10
-91.032107
20
-55.8
30
0
210
0
220
0
230
1
1
\W0.7138;250
40
4.5
41
0
44
1.084337
50
0
71
7
72
5
7
iso_b_vert
0
LINE
5
11F
100
AcDbEntity
8
SK2
62
256
6
ByLayer
370
13
48
1
60
0
100
AcDbLine
10
-213.46237
20
-21.6625
30
0
11
-213.46237
21
-60.1
31
0
39
0
210
0
220
0
230
1
0
LINE
5
120
100
AcDbEntity
8
SK2
62
256
6
ByLayer
370
13
48
1
60
0
100
AcDbLine
10
37.88763
20
-32.0125
30
0
11
37.88763
21
-60.1
31
0
39
0
210
0
220
0
230
1
0
LINE
5
121
100
AcDbEntity
8
SK2
62
256
6
ByLayer
370
13
48
1
60
0
100
AcDbLine
10
-213.46237
20
-56.925
30
0
11
37.88763
21
-56.925
31
0
39
0
210
0
220
0
230
1
0
LINE
5
122
100
AcDbEntity
8
SK2
62
256
6
ByLayer
370
13
48
1
60
0
100
AcDbLine
10
-213.46237
20
-56.925
30
0
11
-210.287373
21
-56.074261
31
0
39
0
210
0
220
0
230
1
0
LINE
5
123
100
AcDbEntity
8
SK2
62
256
6
ByLayer
370
13
48
1
60
0
100
AcDbLine
10
-213.46237
20
-56.925
30
0
11
-210.287367
21
-57.775739
31
0
39
0
210
0
220
0
230
1
0
LINE
5
124
100
AcDbEntity
8
SK2
62
256
6
ByLayer
370
13
48
1
60
0
100
AcDbLine
10
-210.287373
20
-56.074261
30
0
11
-210.287367
21
-57.775739
31
0
39
0
210
0
220
0
230
1
0
LINE
5
125
100
AcDbEntity
8
SK2
62
256
6
ByLayer
370
13
48
1
60
0
100
AcDbLine
10
37.88763
20
-56.925
30
0
11
34.712633
21
-57.775739
31
0
39
0
210
0
220
0
230
1
0
LINE
5
126
100
AcDbEntity
8
SK2
62
256
6
ByLayer
370
13
48
1
60
0
100
AcDbLine
10
37.88763
20
-56.925
30
0
11
34.712627
21
-56.074261
31
0
39
0
210
0
220
0
230
1
0
LINE
5
127
100
AcDbEntity
8
SK2
62
256
6
ByLayer
370
13
48
1
60
0
100
AcDbLine
10
34.712633
20
-57.775739
30
0
11
34.712627
21
-56.074261
31
0
39
0
210
0
220
0
230
1
0
ENDBLK
5
129
100
AcDbEntity
8
0
100
AcDbBlockEnd
0
BLOCK
5
136
100
AcDbEntity
8
0
100
AcDbBlockBegin
2
DimnDraft3D4
70
0
10
0
20
0
30
0
3
DimnDraft3D4
0
MTEXT
5
12C
100
AcDbEntity
8
2
62
256
6
ByLayer
370
13
48
1
60
0
100
AcDbMText
10
19.249665
20
-40.195661
30
0
210
0
220
0
230
1
1
\W0.8292;95%%d0'
40
4.5
41
0
44
1.084337
50
312.5
71
7
72
5
7
iso_b_vert
0
LINE
5
12D
100
AcDbEntity
8
2
62
256
6
ByLayer
370
13
48
1
60
0
100
AcDbLine
10
16.084077
20
-28.62615
30
0
11
13.412257
21
-28.392396
31
0
39
0
210
0
220
0
230
1
0
LINE
5
12E
100
AcDbEntity
8
2
62
256
6
ByLayer
370
13
48
1
60
0
100
AcDbLine
10
37.88763
20
-32.0125
30
0
11
37.88763
21
-55.102579
31
0
39
0
210
0
220
0
230
1
0
ARC
5
12F
100
AcDbEntity
8
2
62
256
6
ByLayer
370
13
48
1
60
0
100
AcDbCircle
39
0
10
37.88763
20
-30.533714
30
0
40
21.3938651100264
210
0
220
0
230
1
100
AcDbArc
50
175
51
270
0
LINE
5
130
100
AcDbEntity
8
2
62
256
6
ByLayer
370
13
48
1
60
0
100
AcDbLine
10
16.575175
20
-28.669116
30
0
11
17.265419
21
-31.882825
31
0
39
0
210
0
220
0
230
1
0
LINE
5
131
100
AcDbEntity
8
2
62
256
6
ByLayer
370
13
48
1
60
0
100
AcDbLine
10
16.575175
20
-28.669116
30
0
11
15.566088
21
-31.797397
31
0
39
0
210
0
220
0
230
1
0
LINE
5
132
100
AcDbEntity
8
2
62
256
6
ByLayer
370
13
48
1
60
0
100
AcDbLine
10
17.265419
20
-31.882825
30
0
11
15.566088
21
-31.797397
31
0
39
0
210
0
220
0
230
1
0
LINE
5
133
100
AcDbEntity
8
2
62
256
6
ByLayer
370
13
48
1
60
0
100
AcDbLine
10
37.88763
20
-51.927579
30
0
11
34.683311
21
-52.660179
31
0
39
0
210
0
220
0
230
1
0
LINE
5
134
100
AcDbEntity
8
2
62
256
6
ByLayer
370
13
48
1
60
0
100
AcDbLine
10
37.88763
20
-51.927579
30
0
11
34.746303
21
-50.959868
31
0
39
0
210
0
220
0
230
1
0
LINE
5
135
100
AcDbEntity
8
2
62
256
6
ByLayer
370
13
48
1
60
0
100
AcDbLine
10
34.683311
20
-52.660179
30
0
11
34.746303
21
-50.959868
31
0
39
0
210
0
220
0
230
1
0
ENDBLK
5
137
100
AcDbEntity
8
0
100
AcDbBlockEnd
0
ENDSEC
0
SECTION
2
ENTITIES
0
ARC
5
B0
100
AcDbEntity
8
1
62
256
6
ByLayer
370
18
48
1
60
0
100
AcDbCircle
39
0
10
0
20
-21.525
30
0
40
1.60000000000065
210
0
220
0
230
-1
100
AcDbArc
50
90
51
165
0
ELLIPSE
5
B1
100
AcDbEntity
8
1
62
256
6
ByLayer
370
18
48
1
60
0
100
AcDbEllipse
10
20.26518
20
-6.640133
30
0
11
-2.56902083039044
21
-2.56902083039026
31
0
210
0
220
0
230
1
40
0.989133
41
2.4434609527921
42
2.84666485141988
0
ELLIPSE
5
B2
100
AcDbEntity
8
1
62
256
6
ByLayer
370
18
48
1
60
0
100
AcDbEllipse
10
20.249405
20
-6.624358
30
0
11
2.46296199375088
21
2.46296199375071
31
0
210
0
220
0
230
1
40
0.989133
41
-0.698131700797696
42
-0.209564954172283
0
ELLIPSE
5
B3
100
AcDbEntity
8
1
62
256
6
ByLayer
370
18
48
1
60
0
100
AcDbEllipse
10
10.589508
20
-12.26861
30
0
11
-3.18198051533957
21
-3.18198051533935
31
0
210
0
220
0
230
1
40
0.989133
41
0
42
6.28318530717959
0
ELLIPSE
5
B4
100
AcDbEntity
8
1
62
256
6
ByLayer
370
18
48
1
60
0
100
AcDbEllipse
10
21.24057
20
-16.721253
30
0
11
2.54558441227165
21
2.54558441227148
31
0
210
0
220
0
230
1
40
0.989133
41
2.15377395879499
42
2.44346095279209
0
ELLIPSE
5
B5
100
AcDbEntity
8
1
62
256
6
ByLayer
370
18
48
1
60
0
100
AcDbEllipse
10
21.351398
20
-7.726351
30
0
11
-2.48304899978693
21
-2.48304899978675
31
0
210
0
220
0
230
1
40
0.989133
41
2.4434609527921
42
-1.4134540035738
0
ELLIPSE
5
B6
100
AcDbEntity
8
1
62
256
6
ByLayer
370
18
48
1
60
0
100
AcDbEllipse
10
21.535553
20
-20.315768
30
0
11
2.54558441227166
21
2.54558441227148
31
0
210
0
220
0
230
1
40
0.989133
41
2.4434609527921
42
2.73314794678922
0
ELLIPSE
5
B7
100
AcDbEntity
8
1
62
256
6
ByLayer
370
18
48
1
60
0
100
AcDbEllipse
10
23.717694
20
-6.319171
30
0
11
0.149497441244717
21
0.0122684579830756
31
0
210
0
220
0
230
1
40
0.112627
41
0.0836182062737235
42
1.66605064319146
0
ELLIPSE
5
B8
100
AcDbEntity
8
1
62
256
6
ByLayer
370
18
48
1
60
0
100
AcDbEllipse
10
20.520957
20
-8.420182
30
0
11
-2.41234144856478
21
-2.41234144856462
31
0
210
0
220
0
230
1
40
0.989133
41
-1.72606466083492
42
-0.698131700797693
0
ELLIPSE
5
B9
100
AcDbEntity
8
1
62
256
6
ByLayer
370
18
48
1
60
0
100
AcDbEllipse
10
24.395339
20
-9.687136
30
0
11
0.0138248253323589
21
-0.151738984040838
31
0
210
0
220
0
230
-1
40
0.08174
41
1.68018678386075
42
-3.02056666818079
0
ELLIPSE
5
BA
100
AcDbEntity
8
1
62
256
6
ByLayer
370
18
48
1
60
0
100
AcDbEllipse
10
0
20
19.931981
30
0
11
1.59999999999985
21
1.61702248813163E-15
31
0
210
0
220
0
230
-1
40
0.004363
41
0.26179938779894
42
1.5707963267949
0
ELLIPSE
5
BB
100
AcDbEntity
8
1
62
256
6
ByLayer
370
18
48
1
60
0
100
AcDbEllipse
10
25.82582
20
-18.363191
30
0
11
2.94156420973614
21
2.94156420973594
31
0
210
0
220
0
230
1
40
0.989133
41
-0.441594421920716
42
-0.395664269869309
0
ELLIPSE
5
BC
100
AcDbEntity
8
1
62
256
6
ByLayer
370
18
48
1
60
0
100
AcDbEllipse
10
9.9667
20
-11.645802
30
0
11
-1.4637110370562
21
-1.4637110370561
31
0
210
0
220
0
230
1
40
0.989133
41
0.0430352526715312
42
2.35073129723735
0
ELLIPSE
5
BD
100
AcDbEntity
8
1
62
256
6
ByLayer
370
18
48
1
60
0
100
AcDbEllipse
10
9.9667
20
-11.645802
30
0
11
-1.4637110370562
21
-1.4637110370561
31
0
210
0
220
0
230
1
40
0.989133
41
2.35073129723736
42
2.9360494177291
0
ELLIPSE
5
BE
100
AcDbEntity
8
1
62
256
6
ByLayer
370
18
48
1
60
0
100
AcDbEllipse
10
10.091454
20
-11.770556
30
0
11
1.4637110370562
21
1.4637110370561
31
0
210
0
220
0
230
1
40
0.989133
41
-0.476790421617724
42
-0.161734098874154
0
ELLIPSE
5
BF
100
AcDbEntity
8
1
62
256
6
ByLayer
370
18
48
1
60
0
100
AcDbEllipse
10
17.905893
20
-10.443263
30
0
11
-0.841899011350262
21
-0.841899011350204
31
0
210
0
220
0
230
1
40
0.989133
41
-2.44346095279206
42
-1.71413140714999
0
ELLIPSE
5
C0
100
AcDbEntity
8
1
62
256
6
ByLayer
370
18
48
1
60
0
100
AcDbEllipse
10
26.974597
20
-19.511967
30
0
11
2.80191062045179
21
2.8019106204516
31
0
210
0
220
0
230
1
40
0.989133
41
-3.01059298198455
42
-2.15823951212611
0
ELLIPSE
5
C1
100
AcDbEntity
8
1
62
256
6
ByLayer
370
18
48
1
60
0
100
AcDbEllipse
10
26.974597
20
-19.511967
30
0
11
2.80191062045179
21
2.8019106204516
31
0
210
0
220
0
230
1
40
0.989133
41
-0.710358029516692
42
-0.131028602643912
0
ELLIPSE
5
C2
100
AcDbEntity
8
1
62
256
6
ByLayer
370
18
48
1
60
0
100
AcDbEllipse
10
26.567245
20
-20.034863
30
0
11
-2.82842712474629
21
-2.82842712474609
31
0
210
0
220
0
230
1
40
0.989133
41
-3.1415704607843
42
-2.66010846387697
0
ELLIPSE
5
C3
100
AcDbEntity
8
1
62
256
6
ByLayer
370
18
48
1
60
0
100
AcDbEllipse
10
27.162589
20
-18.769711
30
0
11
2.82842712474629
21
2.82842712474609
31
0
210
0
220
0
230
1
40
0.989133
41
2.89852779791017
42
-3.14156498566418
0
ELLIPSE
5
C4
100
AcDbEntity
8
1
62
256
6
ByLayer
370
18
48
1
60
0
100
AcDbEllipse
10
26.991956
20
-19.360035
30
0
11
2.65165042944964
21
2.65165042944946
31
0
210
0
220
0
230
1
40
0.989133
41
2.95778284492855
42
3.14158119672436
0
ELLIPSE
5
C5
100
AcDbEntity
8
1
62
256
6
ByLayer
370
18
48
1
60
0
100
AcDbEllipse
10
25.586189
20
-18.123559
30
0
11
-3.00520382004292
21
-3.00520382004271
31
0
210
0
220
0
230
1
40
0.989133
41
2.65970722012607
42
2.6866072147065
0
ELLIPSE
5
C6
100
AcDbEntity
8
1
62
256
6
ByLayer
370
18
48
1
60
0
100
AcDbEllipse
10
18.566049
20
-11.10342
30
0
11
0.841899011350262
21
0.841899011350204
31
0
210
0
220
0
230
1
40
0.989133
41
0.698131700797774
42
2.44346095279209
0
ELLIPSE
5
C7
100
AcDbEntity
8
1
62
256
6
ByLayer
370
18
48
1
60
0
100
AcDbEllipse
10
36.703456
20
-29.240827
30
0
11
0.841899011350262
21
0.841899011350204
31
0
210
0
220
0
230
1
40
0.989133
41
-2.44346095279204
42
-0.698131700797724
0
ELLIPSE
5
C8
100
AcDbEntity
8
1
62
256
6
ByLayer
370
18
48
1
60
0
100
AcDbEllipse
10
27.634753
20
-20.172123
30
0
11
2.80191062045179
21
2.8019106204516
31
0
210
0
220
0
230
1
40
0.989133
41
0
42
6.28318530717959
0
ELLIPSE
5
C9
100
AcDbEntity
8
1
62
256
6
ByLayer
370
18
48
1
60
0
100
AcDbEllipse
10
19.941605
20
-27.865271
30
0
11
0.841899011350262
21
0.841899011350204
31
0
210
0
220
0
230
1
40
0.989133
41
2.44346095279207
42
-2.44346095279205
0
ELLIPSE
5
CA
100
AcDbEntity
8
1
62
256
6
ByLayer
370
18
48
1
60
0
100
AcDbEllipse
10
35.327901
20
-12.478975
30
0
11
0.841899011350262
21
0.841899011350204
31
0
210
0
220
0
230
1
40
0.989133
41
-0.698131700797704
42
0.69813170079774
0
ELLIPSE
5
CB
100
AcDbEntity
8
1
62
256
6
ByLayer
370
18
48
1
60
0
100
AcDbEllipse
10
27.83834
20
-19.445462
30
0
11
2.474873734153
21
2.47487373415283
31
0
210
0
220
0
230
1
40
0.989133
41
2.38035288684065
42
-1.68222118604286
0
ELLIPSE
5
CC
100
AcDbEntity
8
1
62
256
6
ByLayer
370
18
48
1
60
0
100
AcDbEllipse
10
27.191014
20
-20.658633
30
0
11
-2.82842712474629
21
-2.82842712474609
31
0
210
0
220
0
230
1
40
0.989133
41
2.36821543730083
42
-1.67008373650292
0
ELLIPSE
5
CD
100
AcDbEntity
8
1
62
256
6
ByLayer
370
18
48
1
60
0
100
AcDbEllipse
10
27.540668
20
-20.078038
30
0
11
2.29809703885635
21
2.29809703885619
31
0
210
0
220
0
230
1
40
0.989133
41
-1.48805446862163
42
-0.955406484170264
0
ELLIPSE
5
CE
100
AcDbEntity
8
1
62
256
6
ByLayer
370
18
48
1
60
0
100
AcDbEllipse
10
27.488687
20
-20.026057
30
0
11
-2.65165042944964
21
-2.65165042944946
31
0
210
0
220
0
230
1
40
0.989133
41
1.64052946582758
42
2.19919488856008
0
ELLIPSE
5
CF
100
AcDbEntity
8
1
62
256
6
ByLayer
370
18
48
1
60
0
100
AcDbEllipse
10
27.540668
20
-20.078038
30
0
11
2.29809703885636
21
2.2980970388562
31
0
210
0
220
0
230
1
40
0.989133
41
1.65353818496819
42
2.18618616941946
0
ELLIPSE
5
D0
100
AcDbEntity
8
1
62
256
6
ByLayer
370
18
48
1
60
0
100
AcDbEllipse
10
27.242995
20
-20.710614
30
0
11
2.474873734153
21
2.47487373415283
31
0
210
0
220
0
230
1
40
0.989133
41
-0.761239766749084
42
1.459371467547
0
ELLIPSE
5
D1
100
AcDbEntity
8
1
62
256
6
ByLayer
370
18
48
1
60
0
100
AcDbEllipse
10
27.786359
20
-19.393481
30
0
11
-2.82842712474629
21
-2.82842712474609
31
0
210
0
220
0
230
1
40
0.989133
41
-0.773377216289016
42
1.47150891708683
0
ELLIPSE
5
D2
100
AcDbEntity
8
1
62
256
6
ByLayer
370
18
48
1
60
0
100
AcDbEllipse
10
27.488687
20
-20.026057
30
0
11
-2.65165042944964
21
-2.65165042944946
31
0
210
0
220
0
230
1
40
0.989133
41
-1.50106318776216
42
-0.942397765029761
0
ELLIPSE
5
D3
100
AcDbEntity
8
1
62
256
6
ByLayer
370
18
48
1
60
0
100
AcDbEllipse
10
10.580073
20
-12.259176
30
0
11
-2.99459721832513
21
-2.99459721832493
31
0
210
0
220
0
230
1
40
0.989133
41
0
42
6.28318530717959
0
ELLIPSE
5
D4
100
AcDbEntity
8
1
62
256
6
ByLayer
370
18
48
1
60
0
100
AcDbEllipse
10
10.557722
20
-12.236824
30
0
11
1.4637110370562
21
1.4637110370561
31
0
210
0
220
0
230
1
40
0.989133
41
0.127724571218949
42
0.570407129578861
0
ELLIPSE
5
D5
100
AcDbEntity
8
1
62
256
6
ByLayer
370
18
48
1
60
0
100
AcDbEllipse
10
10.557722
20
-12.236824
30
0
11
1.4637110370562
21
1.4637110370561
31
0
210
0
220
0
230
1
40
0.989133
41
2.22211967361216
42
2.66480223197208
0
ELLIPSE
5
D6
100
AcDbEntity
8
1
62
256
6
ByLayer
370
18
48
1
60
0
100
AcDbEllipse
10
10.580073
20
-12.259176
30
0
11
-1.7270311844054
21
-1.72703118440528
31
0
210
0
220
0
230
1
40
0.989133
41
0
42
6.28318530717959
0
ELLIPSE
5
D7
100
AcDbEntity
8
1
62
256
6
ByLayer
370
18
48
1
60
0
100
AcDbEllipse
10
10.557722
20
-12.236824
30
0
11
1.4637110370562
21
1.4637110370561
31
0
210
0
220
0
230
1
40
0.989133
41
-1.96667053117419
42
-1.52398797281432
0
ELLIPSE
5
D8
100
AcDbEntity
8
1
62
256
6
ByLayer
370
18
48
1
60
0
100
AcDbEllipse
10
10.557722
20
-12.236824
30
0
11
1.4637110370562
21
1.4637110370561
31
0
210
0
220
0
230
1
40
0.989133
41
-3.01386808237079
42
-2.57118552401089
0
ELLIPSE
5
D9
100
AcDbEntity
8
1
62
256
6
ByLayer
370
18
48
1
60
0
100
AcDbEllipse
10
10.091454
20
-11.770556
30
0
11
1.4637110370562
21
1.4637110370561
31
0
210
0
220
0
230
1
40
0.989133
41
2.66480223197209
42
-3.0138680823708
0
ELLIPSE
5
DA
100
AcDbEntity
8
1
62
256
6
ByLayer
370
18
48
1
60
0
100
AcDbEllipse
10
10.557722
20
-12.236824
30
0
11
1.4637110370562
21
1.4637110370561
31
0
210
0
220
0
230
1
40
0.989133
41
1.17492212241557
42
1.61760468077549
0
ELLIPSE
5
DB
100
AcDbEntity
8
1
62
256
6
ByLayer
370
18
48
1
60
0
100
AcDbEllipse
10
10.557722
20
-12.236824
30
0
11
1.4637110370562
21
1.4637110370561
31
0
210
0
220
0
230
1
40
0.989133
41
-0.919472979977612
42
-0.476790421617731
0
ELLIPSE
5
DC
100
AcDbEntity
8
1
62
256
6
ByLayer
370
18
48
1
60
0
100
AcDbEllipse
10
10.091454
20
-11.770556
30
0
11
1.4637110370562
21
1.4637110370561
31
0
210
0
220
0
230
1
40
0.989133
41
-2.5711855240109
42
-1.9666705311742
0
ELLIPSE
5
DD
100
AcDbEntity
8
1
62
256
6
ByLayer
370
18
48
1
60
0
100
AcDbEllipse
10
10.091454
20
-11.770556
30
0
11
1.4637110370562
21
1.4637110370561
31
0
210
0
220
0
230
1
40
0.989133
41
-1.52398797281432
42
-0.919472979977612
0
POINT
5
6C
100
AcDbEntity
8
80
62
256
6
ByLayer
370
18
48
1
60
0
100
AcDbPoint
10
0
20
0
30
0
39
0
210
0
220
0
230
1
50
360
0
POINT
5
6E
100
AcDbEntity
8
81
62
256
6
ByLayer
370
18
48
1
60
0
100
AcDbPoint
10
36.53763
20
-30.075
30
0
39
0
210
0
220
0
230
1
50
360
0
POINT
5
70
100
AcDbEntity
8
1
62
256
6
ByLayer
370
18
48
1
60
0
100
AcDbPoint
10
-213.46237
20
19.925
30
0
39
0
210
0
220
0
230
1
50
360
0
SPLINE
5
DE
100
AcDbEntity
8
1
62
256
6
ByLayer
370
18
48
1
60
0
100
AcDbSpline
70
4
71
3
72
8
73
4
40
0
40
0
40
0
40
0
40
1
40
1
40
1
40
1
41
1
10
24.3308381562022
20
-21.5857427127098
30
0
41
1
10
24.3054032044699
20
-21.5584987452459
30
0
41
1
10
24.2803914291163
20
-21.5307694552277
30
0
41
1
10
24.2557784704002
20
-21.5025638620623
30
0
0
SPLINE
5
DF
100
AcDbEntity
8
1
62
256
6
ByLayer
370
18
48
1
60
0
100
AcDbSpline
70
4
71
3
72
14
73
10
40
0
40
0
40
0
40
0
40
0.180230906265059
40
0.180230906265059
40
0.453487270843372
40
0.453487270843372
40
0.726743635421686
40
0.726743635421686
40
1
40
1
40
1
40
1
41
1
10
23.7534958638874
20
-20.6042118644748
30
0
41
1
10
23.7585153389647
20
-20.6188151236854
30
0
41
1
10
23.7633110018758
20
-20.6326658841045
30
0
41
1
10
23.7745514888864
20
-20.6652442638277
30
0
41
1
10
23.7805449847446
20
-20.6827316868562
30
0
41
1
10
23.7895816940691
20
-20.7109066690299
30
0
41
1
10
23.792686820329
20
-20.7217641590094
30
0
41
1
10
23.7944643384037
20
-20.7344054123763
30
0
41
1
10
23.7930432921445
20
-20.7358177649085
30
0
41
1
10
23.7889678492394
20
-20.7317423220034
30
0
0
SPLINE
5
E0
100
AcDbEntity
8
1
62
256
6
ByLayer
370
18
48
1
60
0
100
AcDbSpline
70
4
71
3
72
16
73
12
40
0
40
0
40
0
40
0
40
0.0694693303982994
40
0.0694693303982994
40
0.413426096842656
40
0.413426096842656
40
0.585404480064834
40
0.585404480064834
40
0.757382863287013
40
0.757382863287013
40
1
40
1
40
1
40
1
41
1
10
29.3872798697335
20
-16.621357727105
30
0
41
1
10
29.4173214048695
20
-16.6513396402851
30
0
41
1
10
29.4468085925764
20
-16.6817849060444
30
0
41
1
10
29.6187048093794
20
-16.8653798097588
30
0
41
1
10
29.7480701257808
20
-17.0289457456353
30
0
41
1
10
29.9220675760773
20
-17.2902843892196
30
0
41
1
10
29.9767086631285
20
-17.3800755917217
30
0
41
1
10
30.0791514682798
20
-17.5651361833502
30
0
41
1
10
30.1264436114299
20
-17.6595307170245
30
0
41
1
10
30.2305010372683
20
-17.8896572063597
30
0
41
1
10
30.2834529124045
20
-18.0268898131892
30
0
41
1
10
30.3287493878564
20
-18.1665043050862
30
0
0
SPLINE
5
E1
100
AcDbEntity
8
1
62
256
6
ByLayer
370
18
48
1
60
0
100
AcDbSpline
70
4
71
3
72
10
73
6
40
0
40
0
40
0
40
0
40
0.887606800432353
40
0.887606800432353
40
1
40
1
40
1
40
1
41
1
10
25.2980031052147
20
-22.7287708839698
30
0
41
1
10
25.4908231692692
20
-22.8071903699451
30
0
41
1
10
25.6890168146413
20
-22.8691514272145
30
0
41
1
10
25.9183206044833
20
-22.9206294315377
30
0
41
1
10
25.9441788417292
20
-22.9261530402596
30
0
41
1
10
25.9701237950839
20
-22.9314127967838
30
0
0
SPLINE
5
E2
100
AcDbEntity
8
1
62
256
6
ByLayer
370
18
48
1
60
0
100
AcDbSpline
70
4
71
3
72
14
73
10
40
0
40
0
40
0
40
0
40
0.0803480556676046
40
0.0803480556676046
40
0.310261041750703
40
0.310261041750703
40
0.540174027833802
40
0.540174027833802
40
1
40
1
40
1
40
1
41
1
10
23.9671651566798
20
-21.5337275851944
30
0
41
1
10
23.9922923506703
20
-21.5725432072569
30
0
41
1
10
24.0183622979041
20
-21.6110142371601
30
0
41
1
10
24.1226121256167
20
-21.7580532803675
30
0
41
1
10
24.2074674934614
20
-21.8638377145512
30
0
41
1
10
24.3924824484902
20
-22.0676025018855
30
0
41
1
10
24.4928241252696
20
-22.1655725469533
30
0
41
1
10
24.8090568874606
20
-22.4390733797332
30
0
41
1
10
25.0424168181289
20
-22.5972933129818
30
0
41
1
10
25.2980031052147
20
-22.7287708839698
30
0
0
SPLINE
5
E3
100
AcDbEntity
8
1
62
256
6
ByLayer
370
18
48
1
60
0
100
AcDbSpline
70
4
71
3
72
8
73
4
40
0
40
0
40
0
40
0
40
1
40
1
40
1
40
1
41
1
10
25.0415140945997
20
-22.5623569459352
30
0
41
1
10
24.7624342203039
20
-22.4161359365996
30
0
41
1
10
24.4817655730205
20
-22.2692941193693
30
0
41
1
10
24.1959162845712
20
-22.1204279833971
30
0
0
SPLINE
5
E4
100
AcDbEntity
8
1
62
256
6
ByLayer
370
18
48
1
60
0
100
AcDbSpline
70
4
71
3
72
8
73
4
40
0
40
0
40
0
40
0
40
1
40
1
40
1
40
1
41
1
10
24.6874684567036
20
-17.5943547962268
30
0
41
1
10
24.8200583408836
20
-17.7304409669378
30
0
41
1
10
24.9526910389387
20
-17.8665299044144
30
0
41
1
10
25.0853889854133
20
-18.0026230076254
30
0
0
SPLINE
5
E5
100
AcDbEntity
8
1
62
256
6
ByLayer
370
18
48
1
60
0
100
AcDbSpline
70
4
71
3
72
8
73
4
40
0
40
0
40
0
40
0
40
1
40
1
40
1
40
1
41
1
10
24.3579138844793
20
-19.5485606829925
30
0
41
1
10
24.1746069252478
20
-19.5200154249704
30
0
41
1
10
23.9913476324982
20
-19.4915116955832
30
0
41
1
10
23.8081196394994
20
-19.4630352013156
30
0
0
SPLINE
5
E6
100
AcDbEntity
8
1
62
256
6
ByLayer
370
18
48
1
60
0
100
AcDbSpline
70
4
71
3
72
8
73
4
40
0
40
0
40
0
40
0
40
1
40
1
40
1
40
1
41
1
10
31.1692540463639
20
-20.5890788213882
30
0
41
1
10
31.02068919993
20
-20.5952654736856
30
0
41
1
10
30.8720851720178
20
-20.6014170091358
30
0
41
1
10
30.7234214423149
20
-20.6075149806423
30
0
0
SPLINE
5
E7
100
AcDbEntity
8
1
62
256
6
ByLayer
370
18
48
1
60
0
100
AcDbSpline
70
4
71
3
72
8
73
4
40
0
40
0
40
0
40
0
40
1
40
1
40
1
40
1
41
1
10
29.9959463413808
20
-22.1534526560097
30
0
41
1
10
30.0940010583268
20
-22.2549025296921
30
0
41
1
10
30.1919784915444
20
-22.3563362023312
30
0
41
1
10
30.2899052291596
20
-22.4577592264773
30
0
0
SPLINE
5
E8
100
AcDbEntity
8
1
62
256
6
ByLayer
370
18
48
1
60
0
100
AcDbSpline
70
4
71
3
72
10
73
6
40
0
40
0
40
0
40
0
40
0.5
40
0.5
40
1
40
1
40
1
40
1
41
1
10
10.3839291126394
20
-9.94322724532884
30
0
41
1
10
10.2849252968962
20
-10.0068570027148
30
0
41
1
10
10.1848530036344
20
-10.0718263984854
30
0
41
1
10
9.9852511471708
20
-10.203084944674
30
0
41
1
10
9.88566048800624
20
-10.269411161451
30
0
41
1
10
9.78631911933525
20
-10.3365636597014
30
0
0
SPLINE
5
E9
100
AcDbEntity
8
1
62
256
6
ByLayer
370
18
48
1
60
0
100
AcDbSpline
70
4
71
3
72
8
73
4
40
0
40
0
40
0
40
0
40
1
40
1
40
1
40
1
41
1
10
8.59281368638705
20
-12.8728497981288
30
0
41
1
10
8.61576392324366
20
-13.1166939385998
30
0
41
1
10
8.64051630095616
20
-13.3562412968556
30
0
41
1
10
8.66635888059693
20
-13.5931893242981
30
0
0
SPLINE
5
EA
100
AcDbEntity
8
1
62
256
6
ByLayer
370
18
48
1
60
0
100
AcDbSpline
70
4
71
3
72
10
73
6
40
0
40
0
40
0
40
0
40
0.5
40
0.5
40
1
40
1
40
1
40
1
41
1
10
10.7629558527822
20
-14.5618621131204
30
0
41
1
10
10.6549384996733
20
-14.5100787128804
30
0
41
1
10
10.5461918228406
20
-14.4581483337132
30
0
41
1
10
10.3267704009048
20
-14.3538990162289
30
0
41
1
10
10.2167417455202
20
-14.3018906994236
30
0
41
1
10
10.1075215653914
20
-14.2505799014468
30
0
0
SPLINE
5
EB
100
AcDbEntity
8
1
62
256
6
ByLayer
370
18
48
1
60
0
100
AcDbSpline
70
4
71
3
72
10
73
6
40
0
40
0
40
0
40
0
40
0.5
40
0.5
40
1
40
1
40
1
40
1
41
1
10
9.29035136774132
20
-13.8730297357252
30
0
41
1
10
9.18365778929279
20
-13.8245887748
30
0
41
1
10
9.07726644989361
20
-13.7766182560249
30
0
41
1
10
8.86928157356692
20
-13.6833896775329
30
0
41
1
10
8.76712388855219
20
-13.6378729474692
30
0
41
1
10
8.66635888059693
20
-13.5931893242981
30
0
0
SPLINE
5
EC
100
AcDbEntity
8
1
62
256
6
ByLayer
370
18
48
1
60
0
100
AcDbSpline
70
4
71
3
72
10
73
6
40
0
40
0
40
0
40
0
40
0.5
40
0.5
40
1
40
1
40
1
40
1
41
1
10
12.6700394548961
20
-13.2212174680469
30
0
41
1
10
12.6570448624243
20
-13.1020713496487
30
0
41
1
10
12.6442553313128
20
-12.9815585065838
30
0
41
1
10
12.6196299307916
20
-12.7409793153759
30
0
41
1
10
12.6077848788397
20
-12.6208397137852
30
0
41
1
10
12.5964942606861
20
-12.5008779418775
30
0
0
SPLINE
5
ED
100
AcDbEntity
8
1
62
256
6
ByLayer
370
18
48
1
60
0
100
AcDbSpline
70
4
71
3
72
10
73
6
40
0
40
0
40
0
40
0
40
0.5
40
0.5
40
1
40
1
40
1
40
1
41
1
10
11.0079215997837
20
-10.2230676567559
30
0
41
1
10
10.9012280213353
20
-10.1746266958307
30
0
41
1
10
10.7948366819361
20
-10.1266561770556
30
0
41
1
10
10.5868518056094
20
-10.0334275985636
30
0
41
1
10
10.4846941205947
20
-9.98791086849991
30
0
41
1
10
10.3839291126394
20
-9.94322724532884
30
0
0
SPLINE
5
EE
100
AcDbEntity
8
1
62
256
6
ByLayer
370
18
48
1
60
0
100
AcDbSpline
70
4
71
3
72
8
73
4
40
0
40
0
40
0
40
0
40
1
40
1
40
1
40
1
41
1
10
12.0724294615919
20
-13.6145538824194
30
0
41
1
10
12.2743588785352
20
-13.4780542045974
30
0
41
1
10
12.4731487868239
20
-13.347759110376
30
0
41
1
10
12.6700394548961
20
-13.2212174680469
30
0
0
SPLINE
5
EF
100
AcDbEntity
8
1
62
256
6
ByLayer
370
18
48
1
60
0
100
AcDbSpline
70
4
71
3
72
10
73
6
40
0
40
0
40
0
40
0
40
0.5
40
0.5
40
1
40
1
40
1
40
1
41
1
10
8.47684551052555
20
-11.2838718904023
30
0
41
1
10
8.4828311000054
20
-11.3960090058087
30
0
41
1
10
8.489302790468
20
-11.5102040082245
30
0
41
1
10
8.50329051589665
20
-11.74014552434
30
0
41
1
10
8.51080882437282
20
-11.8559583824549
30
0
41
1
10
8.51894890448898
20
-11.9727696163252
30
0
0
SPLINE
5
F0
100
AcDbEntity
8
1
62
256
6
ByLayer
370
18
48
1
60
0
100
AcDbSpline
70
4
71
3
72
10
73
6
40
0
40
0
40
0
40
0
40
0.5
40
0.5
40
1
40
1
40
1
40
1
41
1
10
12.4805260848246
20
-10.9119000341511
30
0
41
1
10
12.3725087317157
20
-10.8601166339112
30
0
41
1
10
12.2637620548831
20
-10.808186254744
30
0
41
1
10
12.0443406329473
20
-10.7039369372596
30
0
41
1
10
11.9343119775627
20
-10.6519286204544
30
0
41
1
10
11.8250917974339
20
-10.6006178224776
30
0
0
SPLINE
5
F1
100
AcDbEntity
8
1
62
256
6
ByLayer
370
18
48
1
60
0
100
AcDbSpline
70
4
71
3
72
8
73
4
40
0
40
0
40
0
40
0
40
1
40
1
40
1
40
1
41
1
10
12.5226294787881
20
-11.600797760074
30
0
41
1
10
12.5060832840484
20
-11.3633576617199
30
0
41
1
10
12.4924297342209
20
-11.134909131349
30
0
41
1
10
12.4805260848246
20
-10.9119000341511
30
0
0
SPLINE
5
F2
100
AcDbEntity
8
1
62
256
6
ByLayer
370
18
48
1
60
0
100
AcDbSpline
70
4
71
3
72
8
73
4
40
0
40
0
40
0
40
0
40
1
40
1
40
1
40
1
41
1
10
9.04301370358326
20
-10.8590936757833
30
0
41
1
10
8.84748832875687
20
-11.0019973957223
30
0
41
1
10
8.65979724835313
20
-11.1433913178286
30
0
41
1
10
8.47684551052555
20
-11.2838718904023
30
0
0
SPLINE
5
F3
100
AcDbEntity
8
1
62
256
6
ByLayer
370
18
48
1
60
0
100
AcDbSpline
70
4
71
3
72
10
73
6
40
0
40
0
40
0
40
0
40
0.5
40
0.5
40
1
40
1
40
1
40
1
41
1
10
10.7629558527822
20
-14.5618621131204
30
0
41
1
10
10.8549506655335
20
-14.4912233527425
30
0
41
1
10
10.9487051181464
20
-14.419936116323
30
0
41
1
10
11.1376692995175
20
-14.2780398950419
30
0
41
1
10
11.2329332152062
20
-14.207386934789
30
0
41
1
10
11.3291240458399
20
-14.1370838985013
30
0
0
LINE
5
72
100
AcDbEntity
8
1
62
256
6
ByLayer
370
18
48
1
60
0
100
AcDbLine
10
24.334162
20
-21.598139
30
0
11
24.957932
21
-22.221908
31
0
39
0
210
0
220
0
230
1
0
LINE
5
73
100
AcDbEntity
8
1
62
256
6
ByLayer
370
18
48
1
60
0
100
AcDbLine
10
18.458055
20
-28.065518
30
0
11
19.099706
21
-28.70717
31
0
39
0
210
0
220
0
230
1
0
LINE
5
74
100
AcDbEntity
8
1
62
256
6
ByLayer
370
18
48
1
60
0
100
AcDbLine
10
24.340305
20
-22.011685
30
0
11
24.414351
21
-22.085731
31
0
39
0
210
0
220
0
230
1
0
LINE
5
75
100
AcDbEntity
8
1
62
256
6
ByLayer
370
18
48
1
60
0
100
AcDbLine
10
30.019441
20
-17.830206
30
0
11
29.395672
21
-17.206436
31
0
39
0
210
0
220
0
230
1
0
LINE
5
76
100
AcDbEntity
8
1
62
256
6
ByLayer
370
18
48
1
60
0
100
AcDbLine
10
36.1698
20
-11.637076
30
0
11
35.528148
21
-10.995425
31
0
39
0
210
0
220
0
230
1
0
LINE
5
77
100
AcDbEntity
8
1
62
256
6
ByLayer
370
18
48
1
60
0
100
AcDbLine
10
27.345341
20
-10.586486
30
0
11
25.077415
21
-10.390384
31
0
39
0
210
0
220
0
230
1
0
LINE
5
78
100
AcDbEntity
8
1
62
256
6
ByLayer
370
18
48
1
60
0
100
AcDbLine
10
17.139224
20
-8.73437
30
0
11
17.329435
21
-11.052188
31
0
39
0
210
0
220
0
230
1
0
LINE
5
79
100
AcDbEntity
8
1
62
256
6
ByLayer
370
18
48
1
60
0
100
AcDbLine
10
18.722706
20
-28.029903
30
0
11
18.727443
21
-28.087624
31
0
39
0
210
0
220
0
230
1
0
LINE
5
7A
100
AcDbEntity
8
1
62
256
6
ByLayer
370
18
48
1
60
0
100
AcDbLine
10
35.133681
20
-6.188659
30
0
11
35.550829
21
-11.271824
31
0
39
0
210
0
220
0
230
1
0
LINE
5
7B
100
AcDbEntity
8
1
62
256
6
ByLayer
370
18
48
1
60
0
100
AcDbLine
10
24.381501
20
-9.671693
30
0
11
24.390901
21
-9.786244
31
0
39
0
210
0
220
0
230
1
0
LINE
5
7C
100
AcDbEntity
8
1
62
256
6
ByLayer
370
18
48
1
60
0
100
AcDbLine
10
23.866554
20
-6.305539
30
0
11
24.150574
21
-9.766466
31
0
39
0
210
0
220
0
230
1
0
LINE
5
7D
100
AcDbEntity
8
1
62
256
6
ByLayer
370
18
48
1
60
0
100
AcDbLine
10
24.501594
20
-9.682077
30
0
11
24.381501
21
-9.671693
31
0
39
0
210
0
220
0
230
1
0
LINE
5
7E
100
AcDbEntity
8
1
62
256
6
ByLayer
370
18
48
1
60
0
100
AcDbLine
10
23.985169
20
-9.752913
30
0
11
23.7021
21
-6.303576
31
0
39
0
210
0
220
0
230
1
0
LINE
5
7F
100
AcDbEntity
8
1
62
256
6
ByLayer
370
18
48
1
60
0
100
AcDbLine
10
2.314433
20
-23.980656
30
0
11
3.518078
21
19.962297
31
0
39
0
210
0
220
0
230
1
0
LINE
5
80
100
AcDbEntity
8
1
62
256
6
ByLayer
370
18
48
1
60
0
100
AcDbLine
10
1.545481
20
19.930174
30
0
11
3.518078
21
19.962297
31
0
39
0
210
0
220
0
230
1
0
LINE
5
81
100
AcDbEntity
8
1
62
256
6
ByLayer
370
18
48
1
60
0
100
AcDbLine
10
3.070611
20
-26.802751
30
0
11
2.314433
21
-23.980656
31
0
39
0
210
0
220
0
230
1
0
LINE
5
82
100
AcDbEntity
8
1
62
256
6
ByLayer
370
18
48
1
60
0
100
AcDbLine
10
1.545481
20
-21.11089
30
0
11
2.314433
21
-23.980656
31
0
39
0
210
0
220
0
230
1
0
LINE
5
83
100
AcDbEntity
8
1
62
256
6
ByLayer
370
18
48
1
60
0
100
AcDbLine
10
17.672051
20
-17.052795
30
0
11
17.967034
21
-20.64731
31
0
39
0
210
0
220
0
230
1
0
LINE
5
84
100
AcDbEntity
8
1
62
256
6
ByLayer
370
18
48
1
60
0
100
AcDbLine
10
35.133681
20
-6.188659
30
0
11
5.185886
21
19.961531
31
0
39
0
210
0
220
0
230
1
0
LINE
5
85
100
AcDbEntity
8
1
62
256
6
ByLayer
370
18
48
1
60
0
100
AcDbLine
10
0
20
-19.925
30
0
11
0
21
19.925
31
0
39
0
210
0
220
0
230
1
0
LINE
5
86
100
AcDbEntity
8
1
62
256
6
ByLayer
370
18
48
1
60
0
100
AcDbLine
10
6.145148
20
19.75112
30
0
11
5.185886
21
19.961531
31
0
39
0
210
0
220
0
230
1
0
LINE
5
87
100
AcDbEntity
8
1
62
256
6
ByLayer
370
18
48
1
60
0
100
AcDbLine
10
5.185886
20
19.961531
30
0
11
3.518078
21
19.962297
31
0
39
0
210
0
220
0
230
1
0
LINE
5
88
100
AcDbEntity
8
1
62
256
6
ByLayer
370
18
48
1
60
0
100
AcDbLine
10
18.727443
20
-28.087624
30
0
11
3.070611
21
-26.802751
31
0
39
0
210
0
220
0
230
1
0
LINE
5
89
100
AcDbEntity
8
1
62
256
6
ByLayer
370
18
48
1
60
0
100
AcDbLine
10
24.832252
20
-7.402954
30
0
11
25.077415
21
-10.390384
31
0
39
0
210
0
220
0
230
1
0
LINE
5
8A
100
AcDbEntity
8
1
62
256
6
ByLayer
370
18
48
1
60
0
100
AcDbLine
10
23.866554
20
-6.305539
30
0
11
24.832252
21
-7.402954
31
0
39
0
210
0
220
0
230
1
0
LINE
5
8B
100
AcDbEntity
8
1
62
256
6
ByLayer
370
18
48
1
60
0
100
AcDbLine
10
35.133681
20
-6.188659
30
0
11
30.685032
21
-1.74001
31
0
39
0
210
0
220
0
230
1
0
LINE
5
8C
100
AcDbEntity
8
1
62
256
6
ByLayer
370
18
48
1
60
0
100
AcDbLine
10
6.145148
20
19.75112
30
0
11
30.685032
21
-1.74001
31
0
39
0
210
0
220
0
230
1
0
LINE
5
8D
100
AcDbEntity
8
1
62
256
6
ByLayer
370
18
48
1
60
0
100
AcDbLine
10
1.545481
20
19.930174
30
0
11
1.545481
21
-21.11089
31
0
39
0
210
0
220
0
230
1
0
LINE
5
8E
100
AcDbEntity
8
1
62
256
6
ByLayer
370
18
48
1
60
0
100
AcDbLine
10
25.077415
20
-10.390384
30
0
11
24.383113
21
-9.53637
31
0
39
0
210
0
220
0
230
1
0
LINE
5
8F
100
AcDbEntity
8
SK1
62
256
6
ByLayer
370
18
48
1
60
0
100
AcDbLine
10
-213.46237
20
19.925
30
0
11
0
21
19.925
31
0
39
0
210
0
220
0
230
1
0
LINE
5
91
100
AcDbEntity
8
SK1
62
256
6
ByLayer
370
18
48
1
60
0
100
AcDbLine
10
-213.46237
20
-19.925
30
0
11
0
21
-19.925
31
0
39
0
210
0
220
0
230
1
0
LINE
5
92
100
AcDbEntity
8
SK1
62
256
6
ByLayer
370
18
48
1
60
0
100
AcDbLine
10
0
20
-19.925
30
0
11
0
21
19.925
31
0
39
0
210
0
220
0
230
1
0
LINE
5
93
100
AcDbEntity
8
SK1
62
256
6
ByLayer
370
18
48
1
60
0
100
AcDbLine
10
-213.46237
20
19.925
30
0
11
-213.46237
21
-19.925
31
0
39
0
210
0
220
0
230
1
0
LINE
5
94
100
AcDbEntity
8
1
62
256
6
ByLayer
370
18
48
1
60
0
100
AcDbLine
10
8.638567
20
-13.321049
30
0
11
8.824083
21
-13.406762
31
0
39
0
210
0
220
0
230
1
0
LINE
5
95
100
AcDbEntity
8
1
62
256
6
ByLayer
370
18
48
1
60
0
100
AcDbLine
10
12.020103
20
-10.692701
30
0
11
12.056362
21
-11.13453
31
0
39
0
210
0
220
0
230
1
0
LINE
5
96
100
AcDbEntity
8
1
62
256
6
ByLayer
370
18
48
1
60
0
100
AcDbLine
10
17.385836
20
-11.21307
30
0
11
17.333333
21
-11.160567
31
0
39
0
210
0
220
0
230
1
0
LINE
5
97
100
AcDbEntity
8
1
62
256
6
ByLayer
370
18
48
1
60
0
100
AcDbLine
10
35.437551
20
-11.298762
30
0
11
35.385048
21
-11.246259
31
0
39
0
210
0
220
0
230
1
0
LINE
5
98
100
AcDbEntity
8
1
62
256
6
ByLayer
370
18
48
1
60
0
100
AcDbLine
10
18.015544
20
-9.26305
30
0
11
24.600332
21
-9.803428
31
0
39
0
210
0
220
0
230
1
0
LINE
5
99
100
AcDbEntity
8
1
62
256
6
ByLayer
370
18
48
1
60
0
100
AcDbLine
10
18.708889
20
-27.922418
30
0
11
18.761392
21
-27.974922
31
0
39
0
210
0
220
0
230
1
0
LINE
5
9A
100
AcDbEntity
8
1
62
256
6
ByLayer
370
18
48
1
60
0
100
AcDbLine
10
24.687468
20
-17.594355
30
0
11
24.684564
21
-17.59145
31
0
39
0
210
0
220
0
230
1
0
LINE
5
9B
100
AcDbEntity
8
1
62
256
6
ByLayer
370
18
48
1
60
0
100
AcDbLine
10
23.719161
20
-20.661935
30
0
11
23.788968
21
-20.731742
31
0
39
0
210
0
220
0
230
1
0
LINE
5
9C
100
AcDbEntity
8
1
62
256
6
ByLayer
370
18
48
1
60
0
100
AcDbLine
10
23.772992
20
-19.427908
30
0
11
23.80812
21
-19.463035
31
0
39
0
210
0
220
0
230
1
0
LINE
5
9D
100
AcDbEntity
8
80
62
256
6
ByLayer
370
18
48
1
60
0
100
AcDbLine
10
0
20
0
30
0
11
-5
21
0
31
0
39
0
210
0
220
0
230
1
0
LINE
5
9E
100
AcDbEntity
8
81
62
256
6
ByLayer
370
18
48
1
60
0
100
AcDbLine
10
36.53763
20
-30.075
30
0
11
46.53763
21
-30.075
31
0
39
0
210
0
220
0
230
1
0
LINE
5
9F
100
AcDbEntity
8
1
62
256
6
ByLayer
370
18
48
1
60
0
100
AcDbLine
10
18.761392
20
-27.974922
30
0
11
17.385836
21
-11.21307
31
0
39
0
210
0
220
0
230
1
0
LINE
5
A0
100
AcDbEntity
8
1
62
256
6
ByLayer
370
18
48
1
60
0
100
AcDbLine
10
36.593806
20
-30.42104
30
0
11
19.831955
21
-29.045484
31
0
39
0
210
0
220
0
230
1
0
LINE
5
A1
100
AcDbEntity
8
1
62
256
6
ByLayer
370
18
48
1
60
0
100
AcDbLine
10
18.6757
20
-9.923206
30
0
11
35.437551
21
-11.298762
31
0
39
0
210
0
220
0
230
1
0
LINE
5
A2
100
AcDbEntity
8
1
62
256
6
ByLayer
370
18
48
1
60
0
100
AcDbLine
10
18.015544
20
-9.26305
30
0
11
18.6757
21
-9.923206
31
0
39
0
210
0
220
0
230
1
0
LINE
5
A3
100
AcDbEntity
8
1
62
256
6
ByLayer
370
18
48
1
60
0
100
AcDbLine
10
36.508114
20
-12.369325
30
0
11
37.88367
21
-29.131176
31
0
39
0
210
0
220
0
230
1
0
LINE
5
A4
100
AcDbEntity
8
1
62
256
6
ByLayer
370
18
48
1
60
0
100
AcDbLine
10
12.130226
20
-12.03461
30
0
11
12.188051
21
-12.739229
31
0
39
0
210
0
220
0
230
1
0
LINE
5
A5
100
AcDbEntity
8
1
62
256
6
ByLayer
370
18
48
1
60
0
100
AcDbLine
10
10.862856
20
-13.670816
30
0
11
10.280967
21
-14.079873
31
0
39
0
210
0
220
0
230
1
0
LINE
5
A6
100
AcDbEntity
8
1
62
256
6
ByLayer
370
18
48
1
60
0
100
AcDbLine
10
12.670039
20
-13.221217
30
0
11
12.188051
21
-12.739229
31
0
39
0
210
0
220
0
230
1
0
LINE
5
A7
100
AcDbEntity
8
1
62
256
6
ByLayer
370
18
48
1
60
0
100
AcDbLine
10
12.130226
20
-12.03461
30
0
11
12.596494
21
-12.500878
31
0
39
0
210
0
220
0
230
1
0
LINE
5
A8
100
AcDbEntity
8
1
62
256
6
ByLayer
370
18
48
1
60
0
100
AcDbLine
10
9.641254
20
-13.784312
30
0
11
10.107522
21
-14.25058
31
0
39
0
210
0
220
0
230
1
0
LINE
5
A9
100
AcDbEntity
8
1
62
256
6
ByLayer
370
18
48
1
60
0
100
AcDbLine
10
12.522629
20
-11.600798
30
0
11
12.056362
21
-11.13453
31
0
39
0
210
0
220
0
230
1
0
LINE
5
AA
100
AcDbEntity
8
1
62
256
6
ByLayer
370
18
48
1
60
0
100
AcDbLine
10
10.862856
20
-13.670816
30
0
11
11.329124
21
-14.137084
31
0
39
0
210
0
220
0
230
1
0
LINE
5
AB
100
AcDbEntity
8
1
62
256
6
ByLayer
370
18
48
1
60
0
100
AcDbLine
10
9.641254
20
-13.784312
30
0
11
10.280967
21
-14.079873
31
0
39
0
210
0
220
0
230
1
0
LINE
5
AC
100
AcDbEntity
8
1
62
256
6
ByLayer
370
18
48
1
60
0
100
AcDbLine
10
12.072429
20
-13.614554
30
0
11
11.606162
21
-13.148286
31
0
39
0
210
0
220
0
230
1
0
LINE
5
AD
100
AcDbEntity
8
1
62
256
6
ByLayer
370
18
48
1
60
0
100
AcDbLine
10
12.188051
20
-12.739229
30
0
11
11.606162
21
-13.148286
31
0
39
0
210
0
220
0
230
1
0
LINE
5
AE
100
AcDbEntity
8
1
62
256
6
ByLayer
370
18
48
1
60
0
100
AcDbLine
10
10.762956
20
-14.561862
30
0
11
10.280967
21
-14.079873
31
0
39
0
210
0
220
0
230
1
0
LINE
5
AF
100
AcDbEntity
8
1
62
256
6
ByLayer
370
18
48
1
60
0
100
AcDbLine
10
9.290351
20
-13.87303
30
0
11
8.824083
21
-13.406762
31
0
39
0
210
0
220
0
230
1
0
MTEXT
5
F4
100
AcDbEntity
8
SK6
62
256
6
ByLayer
370
13
48
1
60
0
100
AcDbMText
10
-170.212834
20
28.910722
30
0
210
0
220
0
230
1
1
\W0.7716;PCLNL 4040S 19
40
3.5
41
0
44
1.084337
50
0
71
7
72
5
7
iso_b_vert
0
DIMENSION
5
106
100
AcDbEntity
8
SK2
62
256
6
ByLayer
370
13
48
1
60
0
100
AcDbDimension
2
DimnDraft3D1
10
-223.21237
20
19.925
30
0
11
-223.21237
21
-0.075
31
0
70
32
71
5
72
1
41
1
210
0
220
0
230
1
3
Standard
100
AcDbAlignedDimension
13
-215.04987
23
-20.075
33
0
14
-215.04987
24
19.925
34
0
50
90
100
AcDbRotatedDimension
1001
ACAD
1000
DSTYLE
1002
{
1070
    74
1070
     0
1070
   279
1070
     0
1070
   172
1070
     1
1070
   173
1070
     1
1070
   340
1005
F5
1070
   271
1070
     1
1070
   272
1070
     2
1070
    77
1070
     1
1070
    73
1070
     0
1070
   171
1070
     3
1070
   274
1070
     4
1070
   177
1070
   150
1070
   176
1070
     9
1070
   178
1070
    43
1070
    78
1070
     8
1070
    48
1040
-0.005
1070
    41
1041
3.175
1070
   147
1041
2.25
1070
    42
1041
1.5875
1070
    44
1041
3.175
1070
   140
1041
4.5
1070
   343
1005
107
1070
   344
1005
107
1002
}
0
DIMENSION
5
11C
100
AcDbEntity
8
2
62
256
6
ByLayer
370
13
48
1
60
0
100
AcDbDimension
2
DimnDraft3D2
10
54.38763
20
19.925
30
0
11
54.38763
21
-5.25
31
0
70
32
71
5
72
1
41
1
210
0
220
0
230
1
3
Standard
100
AcDbAlignedDimension
13
39.47513
23
-30.425
33
0
14
1.5875
24
19.925
34
0
50
90
100
AcDbRotatedDimension
1001
ACAD
1000
DSTYLE
1002
{
1070
    74
1070
     0
1070
   279
1070
     0
1070
   172
1070
     1
1070
   173
1070
     1
1070
   340
1005
F5
1070
   271
1070
     1
1070
   272
1070
     2
1070
    77
1070
     1
1070
    73
1070
     0
1070
   171
1070
     3
1070
   274
1070
     4
1070
   177
1070
   150
1070
   176
1070
     9
1070
   178
1070
    43
1070
    78
1070
     8
1070
    48
1040
-0.005
1070
    41
1041
3.175
1070
   147
1041
2.25
1070
    42
1041
1.5875
1070
    44
1041
3.175
1070
   140
1041
4.5
1070
   343
1005
107
1070
   344
1005
107
1002
}
0
DIMENSION
5
12A
100
AcDbEntity
8
SK2
62
256
6
ByLayer
370
13
48
1
60
0
100
AcDbDimension
2
DimnDraft3D3
10
37.88763
20
-56.925
30
0
11
-87.78737
21
-56.925
31
0
70
32
71
5
72
1
41
1
210
0
220
0
230
1
3
Standard
100
AcDbAlignedDimension
13
-213.46237
23
-21.6625
33
0
14
37.88763
24
-32.0125
34
0
50
0
100
AcDbRotatedDimension
1001
ACAD
1000
DSTYLE
1002
{
1070
   279
1070
     0
1070
   172
1070
     1
1070
   173
1070
     1
1070
   340
1005
F5
1070
   271
1070
     1
1070
   272
1070
     2
1070
    77
1070
     1
1070
    73
1070
     0
1070
   171
1070
     3
1070
   274
1070
     4
1070
   177
1070
   150
1070
   176
1070
     9
1070
   178
1070
    43
1070
    78
1070
     8
1070
    48
1040
-0.005
1070
    41
1041
3.175
1070
   147
1041
2.25
1070
    42
1041
1.5875
1070
    44
1041
3.175
1070
   140
1041
4.5
1070
   343
1005
107
1070
   344
1005
107
1002
}
0
DIMENSION
5
138
100
AcDbEntity
8
2
62
256
6
ByLayer
370
13
48
1
60
0
100
AcDbDimension
2
DimnDraft3D4
10
37.88763
20
-28.04375
30
0
11
25.432166
21
-41.947044
31
0
70
34
71
5
72
1
41
1
210
0
220
0
230
1
3
Standard
100
AcDb2LineAngularDimension
13
36.593235
23
-30.420469
33
0
14
17.665536
24
-28.76451
34
0
15
37.88763
25
-30.425
35
0
16
22.114418
26
-44.9872
36
0
40
0
0
ENDSEC
0
SECTION
2
OBJECTS
0
DICTIONARY
5
1a2
330
0
100
AcDbDictionary
280
0
281
1
3
ACAD_GROUP
350
1a3
3
ACAD_MLINESTYLE
350
1a4
0
DICTIONARY
5
1a3
330
0
100
AcDbDictionary
280
0
281
1
0
DICTIONARY
5
1a4
330
0
100
AcDbDictionary
280
0
281
1
3
Standard
350
18
0
MLINESTYLE
5
18
330
1a4
100
AcDbMlineStyle
2
Standard
70
0
3

62
256
51
90
52
90
71
2
49
-0.5
62
256
6
ByLayer
49
0.5
62
256
6
ByLayer
0
RASTERVARIABLES
5
191
330

100
AcDbRasterVariables
90
0
70
1
71
1
72
1
0
ENDSEC
0
EOF
