0
SECTION
2
HEADER
9
$ACADVER
1
AC1015
9
$DWGCODEPAGE
3
ANSI_1252
9
$HANDSEED
5
1af
9
$ANGBASE
50
0
9
$ANGDIR
70
0
9
$ATTMODE
70
1
9
$AUNITS
70
0
9
$AUPREC
70
0
9
$CECOLOR
62
256
9
$CELTSCALE
40
1
9
$CELTYPE
6
ByLayer
9
$CELWEIGHT
370
18
9
$CLAYER
8
0
9
$CMLJUST
70
0
9
$CMLSCALE
40
1
9
$CMLSTYLE
2
Standard
9
$DIMSTYLE
2
Standard
9
$TEXTSIZE
40
0.2
9
$TEXTSTYLE
7
Standard
9
$LUNITS
70
2
9
$LUPREC
70
4
9
$EXTNAMES
290
1
9
$INSUNITS
70
4
9
$LTSCALE
40
1
9
$LWDISPLAY
290
1
9
$PDMODE
70
0
9
$PDSIZE
40
0
9
$PLINEGEN
70
0
0
ENDSEC
0
SECTION
2
CLASSES
0
CLASS
1
RASTERVARIABLES
2
AcDbRasterVariables
3
ISM
90
0
280
0
281
0
0
ENDSEC
0
SECTION
2
TABLES
0
TABLE
2
VPORT
5
1a5
100
AcDbSymbolTable
0
VPORT
5
1
100
AcDbSymbolTableRecord
100
AcDbViewportTableRecord
2
*Active
70
0
10
0
20
0
11
1
21
1
12
-1
22
1
13
0
23
0
14
0.5
24
0.5
15
10
25
10
16
0
26
0
36
1
17
0
27
0
37
0
0
ENDTAB
0
TABLE
2
LTYPE
5
1a6
100
AcDbSymbolTable
0
LTYPE
5
14
100
AcDbSymbolTableRecord
100
AcDbLinetypeTableRecord
70
0
2
ByBlock
3

72
65
73
0
40
0
0
LTYPE
5
15
100
AcDbSymbolTableRecord
100
AcDbLinetypeTableRecord
70
0
2
ByLayer
3

72
65
73
0
40
0
0
LTYPE
5
16
100
AcDbSymbolTableRecord
100
AcDbLinetypeTableRecord
70
0
2
CONTINUOUS
3
Solid line
72
65
73
0
40
0
0
LTYPE
5
6A
100
AcDbSymbolTableRecord
100
AcDbLinetypeTableRecord
70
0
2
CENTER
3
____ _ ____ _ ____ _ ____
72
65
73
4
40
47.5
49
22
74
0
49
-8.5
74
0
49
8.5
74
0
49
-8.5
74
0
0
LTYPE
5
6B
100
AcDbSymbolTableRecord
100
AcDbLinetypeTableRecord
70
0
2
DASHED
3
__ __ __ __ __ __ __ __ __
72
65
73
2
40
25.72
49
12.86
74
0
49
-12.86
74
0
0
ENDTAB
0
TABLE
2
LAYER
5
1a7
100
AcDbSymbolTable
0
LAYER
5
10
100
AcDbSymbolTableRecord
100
AcDbLayerTableRecord
2
0
70
0
62
7
6
CONTINUOUS
290
1
370
-3
390
0
0
LAYER
5
6D
100
AcDbSymbolTableRecord
100
AcDbLayerTableRecord
2
80
70
0
62
-6
6
CONTINUOUS
290
1
370
-3
390
0
0
LAYER
5
6F
100
AcDbSymbolTableRecord
100
AcDbLayerTableRecord
2
81
70
0
62
-3
6
CONTINUOUS
290
1
370
-3
390
0
0
LAYER
5
71
100
AcDbSymbolTableRecord
100
AcDbLayerTableRecord
2
1
70
0
62
4
6
CONTINUOUS
290
1
370
-3
390
0
0
LAYER
5
110
100
AcDbSymbolTableRecord
100
AcDbLayerTableRecord
2
2
70
0
62
7
6
CONTINUOUS
290
1
370
-3
390
0
0
LAYER
5
192
100
AcDbSymbolTableRecord
100
AcDbLayerTableRecord
2
SK1
70
0
62
4
6
CONTINUOUS
290
1
370
-3
390
0
0
LAYER
5
193
100
AcDbSymbolTableRecord
100
AcDbLayerTableRecord
2
SK6
70
0
62
5
6
CONTINUOUS
290
1
370
-3
390
0
0
LAYER
5
194
100
AcDbSymbolTableRecord
100
AcDbLayerTableRecord
2
SK2
70
0
62
7
6
CONTINUOUS
290
1
370
-3
390
0
0
ENDTAB
0
TABLE
2
STYLE
5
1a8
100
AcDbSymbolTable
0
STYLE
5
11
100
AcDbSymbolTableRecord
100
AcDbTextStyleTableRecord
2
Standard
3
txt
70
0
71
0
40
0
41
1
42
0
50
0
0
STYLE
5
F5
100
AcDbSymbolTableRecord
100
AcDbTextStyleTableRecord
2
iso_b_vert
3
simplex.shx
70
0
71
0
40
0
41
1
42
0
50
0
0
STYLE
5
F6
100
AcDbSymbolTableRecord
100
AcDbTextStyleTableRecord
2
DWGDirectTextStyle
3
simplex
70
0
71
0
40
0
41
1
42
0
50
0
0
ENDTAB
0
TABLE
2
DIMSTYLE
5
1a9
100
AcDbSymbolTable
100
AcDbDimStyleTable
0
DIMSTYLE
105
27
100
AcDbSymbolTableRecord
100
AcDbDimStyleTableRecord
2
Standard
70
0
3
<>
41
0.18
42
0.0625
44
0.18
140
0.18
147
0.09
73
0
74
0
77
1
271
2
275
0
278
52
280
0
340
11
0
ENDTAB
0
TABLE
2
VIEW
5
1aa
100
AcDbSymbolTable
0
ENDTAB
0
TABLE
2
UCS
5
1ab
100
AcDbSymbolTable
0
ENDTAB
0
TABLE
2
APPID
5
1ac
100
AcDbSymbolTable
0
APPID
5
12
100
AcDbSymbolTableRecord
100
AcDbRegAppTableRecord
2
ACAD
70
0
0
ENDTAB
0
TABLE
2
BLOCK_RECORD
5
1ad
100
AcDbSymbolTable
0
BLOCK_RECORD
5
1F
100
AcDbSymbolTableRecord
100
AcDbBlockTableRecord
2
*Model_Space
340
0
70
0
0
BLOCK_RECORD
5
1B
100
AcDbSymbolTableRecord
100
AcDbBlockTableRecord
2
*Paper_Space
340
0
70
0
0
BLOCK_RECORD
5
23
100
AcDbSymbolTableRecord
100
AcDbBlockTableRecord
2
*Paper_Space0
340
0
70
0
0
BLOCK_RECORD
5
F8
100
AcDbSymbolTableRecord
100
AcDbBlockTableRecord
2
DimnDraft3D1
340
0
70
0
0
BLOCK_RECORD
5
107
100
AcDbSymbolTableRecord
100
AcDbBlockTableRecord
2
_CLOSED
340
0
70
0
0
BLOCK_RECORD
5
10E
100
AcDbSymbolTableRecord
100
AcDbBlockTableRecord
2
DimnDraft3D2
340
0
70
0
0
BLOCK_RECORD
5
11D
100
AcDbSymbolTableRecord
100
AcDbBlockTableRecord
2
DimnDraft3D3
340
0
70
0
0
BLOCK_RECORD
5
12B
100
AcDbSymbolTableRecord
100
AcDbBlockTableRecord
2
DimnDraft3D4
340
0
70
0
0
ENDTAB
0
ENDSEC
0
SECTION
2
BLOCKS
0
BLOCK
5
20
100
AcDbEntity
8
0
100
AcDbBlockBegin
2
*Model_Space
70
0
10
0
20
0
30
0
3
*Model_Space
0
ENDBLK
5
21
100
AcDbEntity
8
0
100
AcDbBlockEnd
0
BLOCK
5
1C
100
AcDbEntity
8
0
100
AcDbBlockBegin
2
*Paper_Space
70
0
10
0
20
0
30
0
3
*Paper_Space
0
ENDBLK
5
1D
100
AcDbEntity
8
0
100
AcDbBlockEnd
0
BLOCK
5
24
100
AcDbEntity
8
0
100
AcDbBlockBegin
2
*Paper_Space0
70
0
10
0
20
0
30
0
3
*Paper_Space0
0
ENDBLK
5
25
100
AcDbEntity
8
0
100
AcDbBlockEnd
0
BLOCK
5
104
100
AcDbEntity
8
0
100
AcDbBlockBegin
2
DimnDraft3D1
70
0
10
0
20
0
30
0
3
DimnDraft3D1
0
MTEXT
5
F9
100
AcDbEntity
8
SK2
62
256
6
ByLayer
370
13
48
1
60
0
100
AcDbMText
10
-144.33737
20
-1.625658
30
0
210
0
220
0
230
1
1
\W0.6740;25
40
4.5
41
0
44
1.084337
50
90
71
7
72
5
7
iso_b_vert
0
LINE
5
FB
100
AcDbEntity
8
SK2
62
256
6
ByLayer
370
13
48
1
60
0
100
AcDbLine
10
-135.04987
20
-12.5625
30
0
11
-146.38737
21
-12.5625
31
0
39
0
210
0
220
0
230
1
0
LINE
5
FC
100
AcDbEntity
8
SK2
62
256
6
ByLayer
370
13
48
1
60
0
100
AcDbLine
10
-135.04987
20
12.4375
30
0
11
-146.38737
21
12.4375
31
0
39
0
210
0
220
0
230
1
0
LINE
5
FD
100
AcDbEntity
8
SK2
62
256
6
ByLayer
370
13
48
1
60
0
100
AcDbLine
10
-143.21237
20
-12.5625
30
0
11
-143.21237
21
12.4375
31
0
39
0
210
0
220
0
230
1
0
LINE
5
FE
100
AcDbEntity
8
SK2
62
256
6
ByLayer
370
13
48
1
60
0
100
AcDbLine
10
-143.21237
20
-12.5625
30
0
11
-144.063109
21
-9.387503
31
0
39
0
210
0
220
0
230
1
0
LINE
5
FF
100
AcDbEntity
8
SK2
62
256
6
ByLayer
370
13
48
1
60
0
100
AcDbLine
10
-143.21237
20
-12.5625
30
0
11
-142.361631
21
-9.387497
31
0
39
0
210
0
220
0
230
1
0
LINE
5
100
100
AcDbEntity
8
SK2
62
256
6
ByLayer
370
13
48
1
60
0
100
AcDbLine
10
-144.063109
20
-9.387503
30
0
11
-142.361631
21
-9.387497
31
0
39
0
210
0
220
0
230
1
0
LINE
5
101
100
AcDbEntity
8
SK2
62
256
6
ByLayer
370
13
48
1
60
0
100
AcDbLine
10
-143.21237
20
12.4375
30
0
11
-142.361631
21
9.262503
31
0
39
0
210
0
220
0
230
1
0
LINE
5
102
100
AcDbEntity
8
SK2
62
256
6
ByLayer
370
13
48
1
60
0
100
AcDbLine
10
-143.21237
20
12.4375
30
0
11
-144.063109
21
9.262497
31
0
39
0
210
0
220
0
230
1
0
LINE
5
103
100
AcDbEntity
8
SK2
62
256
6
ByLayer
370
13
48
1
60
0
100
AcDbLine
10
-142.361631
20
9.262503
30
0
11
-144.063109
21
9.262497
31
0
39
0
210
0
220
0
230
1
0
ENDBLK
5
105
100
AcDbEntity
8
0
100
AcDbBlockEnd
0
BLOCK
5
108
100
AcDbEntity
8
0
100
AcDbBlockBegin
2
_CLOSED
70
0
10
0
20
0
30
0
3
_CLOSED
0
LINE
5
10A
100
AcDbEntity
8
0
62
256
6
ByLayer
370
-2
48
1
60
0
100
AcDbLine
10
-1
20
0.166667
30
0
11
0
21
0
31
0
39
0
210
0
220
0
230
1
0
LINE
5
10B
100
AcDbEntity
8
0
62
256
6
ByLayer
370
-2
48
1
60
0
100
AcDbLine
10
0
20
0
30
0
11
-1
21
-0.166667
31
0
39
0
210
0
220
0
230
1
0
LINE
5
10C
100
AcDbEntity
8
0
62
256
6
ByLayer
370
-2
48
1
60
0
100
AcDbLine
10
-1
20
0.166667
30
0
11
-1
21
-0.166667
31
0
39
0
210
0
220
0
230
1
0
LINE
5
10D
100
AcDbEntity
8
0
62
256
6
ByLayer
370
-2
48
1
60
0
100
AcDbLine
10
0
20
0
30
0
11
-1
21
0
31
0
39
0
210
0
220
0
230
1
0
ENDBLK
5
109
100
AcDbEntity
8
0
100
AcDbBlockEnd
0
BLOCK
5
11A
100
AcDbEntity
8
0
100
AcDbBlockBegin
2
DimnDraft3D2
70
0
10
0
20
0
30
0
3
DimnDraft3D2
0
MTEXT
5
10F
100
AcDbEntity
8
2
62
256
6
ByLayer
370
13
48
1
60
0
100
AcDbMText
10
53.26263
20
-5.300658
30
0
210
0
220
0
230
1
1
\W0.6740;32
40
4.5
41
0
44
1.084337
50
90
71
7
72
5
7
iso_b_vert
0
LINE
5
111
100
AcDbEntity
8
2
62
256
6
ByLayer
370
13
48
1
60
0
100
AcDbLine
10
39.47513
20
-19.9125
30
0
11
57.56263
21
-19.9125
31
0
39
0
210
0
220
0
230
1
0
LINE
5
112
100
AcDbEntity
8
2
62
256
6
ByLayer
370
13
48
1
60
0
100
AcDbLine
10
1.5875
20
12.4375
30
0
11
57.56263
21
12.4375
31
0
39
0
210
0
220
0
230
1
0
LINE
5
113
100
AcDbEntity
8
2
62
256
6
ByLayer
370
13
48
1
60
0
100
AcDbLine
10
54.38763
20
-19.9125
30
0
11
54.38763
21
12.4375
31
0
39
0
210
0
220
0
230
1
0
LINE
5
114
100
AcDbEntity
8
2
62
256
6
ByLayer
370
13
48
1
60
0
100
AcDbLine
10
54.38763
20
-19.9125
30
0
11
53.536891
21
-16.737503
31
0
39
0
210
0
220
0
230
1
0
LINE
5
115
100
AcDbEntity
8
2
62
256
6
ByLayer
370
13
48
1
60
0
100
AcDbLine
10
54.38763
20
-19.9125
30
0
11
55.238369
21
-16.737497
31
0
39
0
210
0
220
0
230
1
0
LINE
5
116
100
AcDbEntity
8
2
62
256
6
ByLayer
370
13
48
1
60
0
100
AcDbLine
10
53.536891
20
-16.737503
30
0
11
55.238369
21
-16.737497
31
0
39
0
210
0
220
0
230
1
0
LINE
5
117
100
AcDbEntity
8
2
62
256
6
ByLayer
370
13
48
1
60
0
100
AcDbLine
10
54.38763
20
12.4375
30
0
11
55.238369
21
9.262503
31
0
39
0
210
0
220
0
230
1
0
LINE
5
118
100
AcDbEntity
8
2
62
256
6
ByLayer
370
13
48
1
60
0
100
AcDbLine
10
54.38763
20
12.4375
30
0
11
53.536891
21
9.262497
31
0
39
0
210
0
220
0
230
1
0
LINE
5
119
100
AcDbEntity
8
2
62
256
6
ByLayer
370
13
48
1
60
0
100
AcDbLine
10
55.238369
20
9.262503
30
0
11
53.536891
21
9.262497
31
0
39
0
210
0
220
0
230
1
0
ENDBLK
5
11B
100
AcDbEntity
8
0
100
AcDbBlockEnd
0
BLOCK
5
128
100
AcDbEntity
8
0
100
AcDbBlockBegin
2
DimnDraft3D3
70
0
10
0
20
0
30
0
3
DimnDraft3D3
0
MTEXT
5
11E
100
AcDbEntity
8
SK2
62
256
6
ByLayer
370
13
48
1
60
0
100
AcDbMText
10
-50.469607
20
-45.2875
30
0
210
0
220
0
230
1
1
\W0.6217;170
40
4.5
41
0
44
1.084337
50
0
71
7
72
5
7
iso_b_vert
0
LINE
5
11F
100
AcDbEntity
8
SK2
62
256
6
ByLayer
370
13
48
1
60
0
100
AcDbLine
10
-133.46237
20
-14.15
30
0
11
-133.46237
21
-49.5875
31
0
39
0
210
0
220
0
230
1
0
LINE
5
120
100
AcDbEntity
8
SK2
62
256
6
ByLayer
370
13
48
1
60
0
100
AcDbLine
10
37.88763
20
-21.5
30
0
11
37.88763
21
-49.5875
31
0
39
0
210
0
220
0
230
1
0
LINE
5
121
100
AcDbEntity
8
SK2
62
256
6
ByLayer
370
13
48
1
60
0
100
AcDbLine
10
-133.46237
20
-46.4125
30
0
11
37.88763
21
-46.4125
31
0
39
0
210
0
220
0
230
1
0
LINE
5
122
100
AcDbEntity
8
SK2
62
256
6
ByLayer
370
13
48
1
60
0
100
AcDbLine
10
-133.46237
20
-46.4125
30
0
11
-130.287373
21
-45.561761
31
0
39
0
210
0
220
0
230
1
0
LINE
5
123
100
AcDbEntity
8
SK2
62
256
6
ByLayer
370
13
48
1
60
0
100
AcDbLine
10
-133.46237
20
-46.4125
30
0
11
-130.287367
21
-47.263239
31
0
39
0
210
0
220
0
230
1
0
LINE
5
124
100
AcDbEntity
8
SK2
62
256
6
ByLayer
370
13
48
1
60
0
100
AcDbLine
10
-130.287373
20
-45.561761
30
0
11
-130.287367
21
-47.263239
31
0
39
0
210
0
220
0
230
1
0
LINE
5
125
100
AcDbEntity
8
SK2
62
256
6
ByLayer
370
13
48
1
60
0
100
AcDbLine
10
37.88763
20
-46.4125
30
0
11
34.712633
21
-47.263239
31
0
39
0
210
0
220
0
230
1
0
LINE
5
126
100
AcDbEntity
8
SK2
62
256
6
ByLayer
370
13
48
1
60
0
100
AcDbLine
10
37.88763
20
-46.4125
30
0
11
34.712627
21
-45.561761
31
0
39
0
210
0
220
0
230
1
0
LINE
5
127
100
AcDbEntity
8
SK2
62
256
6
ByLayer
370
13
48
1
60
0
100
AcDbLine
10
34.712633
20
-47.263239
30
0
11
34.712627
21
-45.561761
31
0
39
0
210
0
220
0
230
1
0
ENDBLK
5
129
100
AcDbEntity
8
0
100
AcDbBlockEnd
0
BLOCK
5
136
100
AcDbEntity
8
0
100
AcDbBlockBegin
2
DimnDraft3D4
70
0
10
0
20
0
30
0
3
DimnDraft3D4
0
MTEXT
5
12C
100
AcDbEntity
8
2
62
256
6
ByLayer
370
13
48
1
60
0
100
AcDbMText
10
19.249665
20
-29.683161
30
0
210
0
220
0
230
1
1
\W0.8292;95%%d0'
40
4.5
41
0
44
1.084337
50
312.5
71
7
72
5
7
iso_b_vert
0
LINE
5
12D
100
AcDbEntity
8
2
62
256
6
ByLayer
370
13
48
1
60
0
100
AcDbLine
10
16.084077
20
-18.11365
30
0
11
13.412257
21
-17.879896
31
0
39
0
210
0
220
0
230
1
0
LINE
5
12E
100
AcDbEntity
8
2
62
256
6
ByLayer
370
13
48
1
60
0
100
AcDbLine
10
37.88763
20
-21.5
30
0
11
37.88763
21
-44.590079
31
0
39
0
210
0
220
0
230
1
0
ARC
5
12F
100
AcDbEntity
8
2
62
256
6
ByLayer
370
13
48
1
60
0
100
AcDbCircle
39
0
10
37.88763
20
-20.021214
30
0
40
21.3938651100264
210
0
220
0
230
1
100
AcDbArc
50
175
51
270
0
LINE
5
130
100
AcDbEntity
8
2
62
256
6
ByLayer
370
13
48
1
60
0
100
AcDbLine
10
16.575175
20
-18.156616
30
0
11
17.265419
21
-21.370325
31
0
39
0
210
0
220
0
230
1
0
LINE
5
131
100
AcDbEntity
8
2
62
256
6
ByLayer
370
13
48
1
60
0
100
AcDbLine
10
16.575175
20
-18.156616
30
0
11
15.566088
21
-21.284897
31
0
39
0
210
0
220
0
230
1
0
LINE
5
132
100
AcDbEntity
8
2
62
256
6
ByLayer
370
13
48
1
60
0
100
AcDbLine
10
17.265419
20
-21.370325
30
0
11
15.566088
21
-21.284897
31
0
39
0
210
0
220
0
230
1
0
LINE
5
133
100
AcDbEntity
8
2
62
256
6
ByLayer
370
13
48
1
60
0
100
AcDbLine
10
37.88763
20
-41.415079
30
0
11
34.683311
21
-42.147679
31
0
39
0
210
0
220
0
230
1
0
LINE
5
134
100
AcDbEntity
8
2
62
256
6
ByLayer
370
13
48
1
60
0
100
AcDbLine
10
37.88763
20
-41.415079
30
0
11
34.746303
21
-40.447368
31
0
39
0
210
0
220
0
230
1
0
LINE
5
135
100
AcDbEntity
8
2
62
256
6
ByLayer
370
13
48
1
60
0
100
AcDbLine
10
34.683311
20
-42.147679
30
0
11
34.746303
21
-40.447368
31
0
39
0
210
0
220
0
230
1
0
ENDBLK
5
137
100
AcDbEntity
8
0
100
AcDbBlockEnd
0
ENDSEC
0
SECTION
2
ENTITIES
0
ARC
5
B0
100
AcDbEntity
8
1
62
256
6
ByLayer
370
18
48
1
60
0
100
AcDbCircle
39
0
10
0
20
-14.0375
30
0
40
1.6
210
0
220
0
230
-1
100
AcDbArc
50
90
51
165
0
ELLIPSE
5
B1
100
AcDbEntity
8
1
62
256
6
ByLayer
370
18
48
1
60
0
100
AcDbEllipse
10
20.249405
20
3.888142
30
0
11
2.46296199375088
21
2.4629619937507
31
0
210
0
220
0
230
1
40
0.989133
41
-0.698131700797692
42
-0.209564954172281
0
ELLIPSE
5
B2
100
AcDbEntity
8
1
62
256
6
ByLayer
370
18
48
1
60
0
100
AcDbEllipse
10
20.26518
20
3.872367
30
0
11
-2.56902083039044
21
-2.56902083039025
31
0
210
0
220
0
230
1
40
0.989133
41
2.4434609527921
42
2.84666485141988
0
ELLIPSE
5
B3
100
AcDbEntity
8
1
62
256
6
ByLayer
370
18
48
1
60
0
100
AcDbEllipse
10
20.520957
20
2.092318
30
0
11
-2.41234144856479
21
-2.41234144856461
31
0
210
0
220
0
230
1
40
0.989133
41
-1.72606466083493
42
-0.698131700797692
0
ELLIPSE
5
B4
100
AcDbEntity
8
1
62
256
6
ByLayer
370
18
48
1
60
0
100
AcDbEllipse
10
23.717694
20
4.193329
30
0
11
0.149497441244717
21
0.0122684579830756
31
0
210
0
220
0
230
1
40
0.112627
41
0.0836182062734595
42
1.66605064319164
0
ELLIPSE
5
B5
100
AcDbEntity
8
1
62
256
6
ByLayer
370
18
48
1
60
0
100
AcDbEllipse
10
21.351398
20
2.786149
30
0
11
-2.48304899978693
21
-2.48304899978675
31
0
210
0
220
0
230
1
40
0.989133
41
2.4434609527921
42
-1.4134540035738
0
ELLIPSE
5
B6
100
AcDbEntity
8
1
62
256
6
ByLayer
370
18
48
1
60
0
100
AcDbEllipse
10
0
20
12.444481
30
0
11
1.6000000000002
21
1.61702248813198E-15
31
0
210
0
220
0
230
-1
40
0.004363
41
0.261799387799407
42
1.57079632730354
0
ELLIPSE
5
B7
100
AcDbEntity
8
1
62
256
6
ByLayer
370
18
48
1
60
0
100
AcDbEllipse
10
21.535553
20
-9.803268
30
0
11
2.54558441227166
21
2.54558441227148
31
0
210
0
220
0
230
1
40
0.989133
41
2.4434609527921
42
2.73314794678922
0
ELLIPSE
5
B8
100
AcDbEntity
8
1
62
256
6
ByLayer
370
18
48
1
60
0
100
AcDbEllipse
10
21.24057
20
-6.208753
30
0
11
2.54558441227166
21
2.54558441227148
31
0
210
0
220
0
230
1
40
0.989133
41
2.153773958795
42
2.4434609527921
0
ELLIPSE
5
B9
100
AcDbEntity
8
1
62
256
6
ByLayer
370
18
48
1
60
0
100
AcDbEllipse
10
24.395339
20
0.825364
30
0
11
0.0138248253328909
21
-0.151738984044911
31
0
210
0
220
0
230
-1
40
0.08174
41
1.68018678388522
42
-3.02056666818447
0
ELLIPSE
5
BA
100
AcDbEntity
8
1
62
256
6
ByLayer
370
18
48
1
60
0
100
AcDbEllipse
10
10.589508
20
-1.75611
30
0
11
-3.18198051533958
21
-3.18198051533935
31
0
210
0
220
0
230
1
40
0.989133
41
0
42
6.28318530717959
0
ELLIPSE
5
BB
100
AcDbEntity
8
1
62
256
6
ByLayer
370
18
48
1
60
0
100
AcDbEllipse
10
9.9667
20
-1.133302
30
0
11
-1.46371103705621
21
-1.4637110370561
31
0
210
0
220
0
230
1
40
0.989133
41
0.0430352526715281
42
2.35073129723735
0
ELLIPSE
5
BC
100
AcDbEntity
8
1
62
256
6
ByLayer
370
18
48
1
60
0
100
AcDbEllipse
10
9.9667
20
-1.133302
30
0
11
-1.46371103705621
21
-1.4637110370561
31
0
210
0
220
0
230
1
40
0.989133
41
2.35073129723735
42
2.93604941772909
0
ELLIPSE
5
BD
100
AcDbEntity
8
1
62
256
6
ByLayer
370
18
48
1
60
0
100
AcDbEllipse
10
10.091454
20
-1.258056
30
0
11
1.46371103705621
21
1.4637110370561
31
0
210
0
220
0
230
1
40
0.989133
41
-0.476790421617719
42
-0.161734098874146
0
ELLIPSE
5
BE
100
AcDbEntity
8
1
62
256
6
ByLayer
370
18
48
1
60
0
100
AcDbEllipse
10
17.905893
20
0.069237
30
0
11
-0.841899011350263
21
-0.841899011350203
31
0
210
0
220
0
230
1
40
0.989133
41
-2.44346095279205
42
-1.71413140714997
0
ELLIPSE
5
BF
100
AcDbEntity
8
1
62
256
6
ByLayer
370
18
48
1
60
0
100
AcDbEllipse
10
26.974597
20
-8.999467
30
0
11
2.80191062045179
21
2.80191062045159
31
0
210
0
220
0
230
1
40
0.989133
41
-3.01059298198455
42
-2.15823951212611
0
ELLIPSE
5
C0
100
AcDbEntity
8
1
62
256
6
ByLayer
370
18
48
1
60
0
100
AcDbEllipse
10
26.974597
20
-8.999467
30
0
11
2.80191062045179
21
2.80191062045159
31
0
210
0
220
0
230
1
40
0.989133
41
-0.710358029516693
42
-0.131028602643912
0
ELLIPSE
5
C1
100
AcDbEntity
8
1
62
256
6
ByLayer
370
18
48
1
60
0
100
AcDbEllipse
10
25.82582
20
-7.850691
30
0
11
2.94156420973614
21
2.94156420973593
31
0
210
0
220
0
230
1
40
0.989133
41
-0.441594421920691
42
-0.395664269869288
0
ELLIPSE
5
C2
100
AcDbEntity
8
1
62
256
6
ByLayer
370
18
48
1
60
0
100
AcDbEllipse
10
26.567245
20
-9.522363
30
0
11
-2.82842712474629
21
-2.82842712474609
31
0
210
0
220
0
230
1
40
0.989133
41
-3.1415704607843
42
-2.66010846387697
0
ELLIPSE
5
C3
100
AcDbEntity
8
1
62
256
6
ByLayer
370
18
48
1
60
0
100
AcDbEllipse
10
27.162589
20
-8.257211
30
0
11
2.82842712474629
21
2.82842712474609
31
0
210
0
220
0
230
1
40
0.989133
41
2.89852779791017
42
-3.14156498566418
0
ELLIPSE
5
C4
100
AcDbEntity
8
1
62
256
6
ByLayer
370
18
48
1
60
0
100
AcDbEllipse
10
26.991956
20
-8.847535
30
0
11
2.65165042944964
21
2.65165042944946
31
0
210
0
220
0
230
1
40
0.989133
41
2.95778284492855
42
3.14158119672436
0
ELLIPSE
5
C5
100
AcDbEntity
8
1
62
256
6
ByLayer
370
18
48
1
60
0
100
AcDbEllipse
10
25.586189
20
-7.611059
30
0
11
-3.00520382004293
21
-3.00520382004271
31
0
210
0
220
0
230
1
40
0.989133
41
2.65970722012607
42
2.6866072147065
0
ELLIPSE
5
C6
100
AcDbEntity
8
1
62
256
6
ByLayer
370
18
48
1
60
0
100
AcDbEllipse
10
36.703456
20
-18.728327
30
0
11
0.841899011350263
21
0.841899011350203
31
0
210
0
220
0
230
1
40
0.989133
41
-2.44346095279204
42
-0.698131700797733
0
ELLIPSE
5
C7
100
AcDbEntity
8
1
62
256
6
ByLayer
370
18
48
1
60
0
100
AcDbEllipse
10
18.566049
20
-0.59092
30
0
11
0.841899011350263
21
0.841899011350203
31
0
210
0
220
0
230
1
40
0.989133
41
0.698131700797741
42
2.44346095279208
0
ELLIPSE
5
C8
100
AcDbEntity
8
1
62
256
6
ByLayer
370
18
48
1
60
0
100
AcDbEllipse
10
27.634753
20
-9.659623
30
0
11
2.80191062045179
21
2.80191062045159
31
0
210
0
220
0
230
1
40
0.989133
41
0
42
6.28318530717959
0
ELLIPSE
5
C9
100
AcDbEntity
8
1
62
256
6
ByLayer
370
18
48
1
60
0
100
AcDbEllipse
10
19.941605
20
-17.352771
30
0
11
0.841899011350263
21
0.841899011350203
31
0
210
0
220
0
230
1
40
0.989133
41
2.44346095279208
42
-2.443460952792
0
ELLIPSE
5
CA
100
AcDbEntity
8
1
62
256
6
ByLayer
370
18
48
1
60
0
100
AcDbEllipse
10
35.327901
20
-1.966475
30
0
11
0.841899011350263
21
0.841899011350203
31
0
210
0
220
0
230
1
40
0.989133
41
-0.698131700797724
42
0.698131700797741
0
ELLIPSE
5
CB
100
AcDbEntity
8
1
62
256
6
ByLayer
370
18
48
1
60
0
100
AcDbEllipse
10
27.191014
20
-10.146133
30
0
11
-2.82842712474629
21
-2.82842712474609
31
0
210
0
220
0
230
1
40
0.989133
41
2.36821543730083
42
-1.67008373650292
0
ELLIPSE
5
CC
100
AcDbEntity
8
1
62
256
6
ByLayer
370
18
48
1
60
0
100
AcDbEllipse
10
27.83834
20
-8.932962
30
0
11
2.474873734153
21
2.47487373415282
31
0
210
0
220
0
230
1
40
0.989133
41
2.38035288684065
42
-1.68222118604284
0
ELLIPSE
5
CD
100
AcDbEntity
8
1
62
256
6
ByLayer
370
18
48
1
60
0
100
AcDbEllipse
10
27.488687
20
-9.513557
30
0
11
-2.65165042944964
21
-2.65165042944945
31
0
210
0
220
0
230
1
40
0.989133
41
1.64052946582758
42
2.19919488856008
0
ELLIPSE
5
CE
100
AcDbEntity
8
1
62
256
6
ByLayer
370
18
48
1
60
0
100
AcDbEllipse
10
27.540668
20
-9.565538
30
0
11
2.29809703885635
21
2.29809703885619
31
0
210
0
220
0
230
1
40
0.989133
41
-1.48805446862164
42
-0.955406484170276
0
ELLIPSE
5
CF
100
AcDbEntity
8
1
62
256
6
ByLayer
370
18
48
1
60
0
100
AcDbEllipse
10
27.540668
20
-9.565538
30
0
11
2.29809703885636
21
2.2980970388562
31
0
210
0
220
0
230
1
40
0.989133
41
1.65353818496819
42
2.18618616941945
0
ELLIPSE
5
D0
100
AcDbEntity
8
1
62
256
6
ByLayer
370
18
48
1
60
0
100
AcDbEllipse
10
27.242995
20
-10.198114
30
0
11
2.474873734153
21
2.47487373415283
31
0
210
0
220
0
230
1
40
0.989133
41
-0.761239766749075
42
1.459371467547
0
ELLIPSE
5
D1
100
AcDbEntity
8
1
62
256
6
ByLayer
370
18
48
1
60
0
100
AcDbEllipse
10
27.488687
20
-9.513557
30
0
11
-2.65165042944965
21
-2.65165042944946
31
0
210
0
220
0
230
1
40
0.989133
41
-1.50106318776217
42
-0.942397765029762
0
ELLIPSE
5
D2
100
AcDbEntity
8
1
62
256
6
ByLayer
370
18
48
1
60
0
100
AcDbEllipse
10
27.786359
20
-8.880981
30
0
11
-2.82842712474629
21
-2.82842712474609
31
0
210
0
220
0
230
1
40
0.989133
41
-0.773377216289005
42
1.47150891708682
0
ELLIPSE
5
D3
100
AcDbEntity
8
1
62
256
6
ByLayer
370
18
48
1
60
0
100
AcDbEllipse
10
10.557722
20
-1.724324
30
0
11
1.46371103705621
21
1.4637110370561
31
0
210
0
220
0
230
1
40
0.989133
41
-0.919472979977603
42
-0.47679042161771
0
ELLIPSE
5
D4
100
AcDbEntity
8
1
62
256
6
ByLayer
370
18
48
1
60
0
100
AcDbEllipse
10
10.091454
20
-1.258056
30
0
11
1.46371103705621
21
1.4637110370561
31
0
210
0
220
0
230
1
40
0.989133
41
-2.5711855240109
42
-1.9666705311742
0
ELLIPSE
5
D5
100
AcDbEntity
8
1
62
256
6
ByLayer
370
18
48
1
60
0
100
AcDbEllipse
10
10.580073
20
-1.746676
30
0
11
-1.72703118440541
21
-1.72703118440528
31
0
210
0
220
0
230
1
40
0.989133
41
0
42
6.28318530717959
0
ELLIPSE
5
D6
100
AcDbEntity
8
1
62
256
6
ByLayer
370
18
48
1
60
0
100
AcDbEllipse
10
10.557722
20
-1.724324
30
0
11
1.46371103705621
21
1.4637110370561
31
0
210
0
220
0
230
1
40
0.989133
41
-1.96667053117419
42
-1.52398797281432
0
ELLIPSE
5
D7
100
AcDbEntity
8
1
62
256
6
ByLayer
370
18
48
1
60
0
100
AcDbEllipse
10
10.557722
20
-1.724324
30
0
11
1.46371103705621
21
1.4637110370561
31
0
210
0
220
0
230
1
40
0.989133
41
0.127724571218964
42
0.570407129578878
0
ELLIPSE
5
D8
100
AcDbEntity
8
1
62
256
6
ByLayer
370
18
48
1
60
0
100
AcDbEllipse
10
10.557722
20
-1.724324
30
0
11
1.46371103705621
21
1.4637110370561
31
0
210
0
220
0
230
1
40
0.989133
41
2.22211967361218
42
2.66480223197208
0
ELLIPSE
5
D9
100
AcDbEntity
8
1
62
256
6
ByLayer
370
18
48
1
60
0
100
AcDbEllipse
10
10.557722
20
-1.724324
30
0
11
1.46371103705621
21
1.4637110370561
31
0
210
0
220
0
230
1
40
0.989133
41
-3.0138680823708
42
-2.57118552401091
0
ELLIPSE
5
DA
100
AcDbEntity
8
1
62
256
6
ByLayer
370
18
48
1
60
0
100
AcDbEllipse
10
10.091454
20
-1.258056
30
0
11
1.46371103705621
21
1.4637110370561
31
0
210
0
220
0
230
1
40
0.989133
41
2.66480223197209
42
-3.0138680823708
0
ELLIPSE
5
DB
100
AcDbEntity
8
1
62
256
6
ByLayer
370
18
48
1
60
0
100
AcDbEllipse
10
10.557722
20
-1.724324
30
0
11
1.46371103705621
21
1.4637110370561
31
0
210
0
220
0
230
1
40
0.989133
41
1.17492212241559
42
1.61760468077548
0
ELLIPSE
5
DC
100
AcDbEntity
8
1
62
256
6
ByLayer
370
18
48
1
60
0
100
AcDbEllipse
10
10.091454
20
-1.258056
30
0
11
1.46371103705621
21
1.4637110370561
31
0
210
0
220
0
230
1
40
0.989133
41
-1.52398797281432
42
-0.919472979977613
0
ELLIPSE
5
DD
100
AcDbEntity
8
1
62
256
6
ByLayer
370
18
48
1
60
0
100
AcDbEllipse
10
10.580073
20
-1.746676
30
0
11
-2.99459721832514
21
-2.99459721832492
31
0
210
0
220
0
230
1
40
0.989133
41
0
42
6.28318530717959
0
POINT
5
6C
100
AcDbEntity
8
80
62
256
6
ByLayer
370
18
48
1
60
0
100
AcDbPoint
10
0
20
0
30
0
39
0
210
0
220
0
230
1
50
360
0
POINT
5
6E
100
AcDbEntity
8
81
62
256
6
ByLayer
370
18
48
1
60
0
100
AcDbPoint
10
36.53763
20
-19.5625
30
0
39
0
210
0
220
0
230
1
50
360
0
POINT
5
70
100
AcDbEntity
8
1
62
256
6
ByLayer
370
18
48
1
60
0
100
AcDbPoint
10
-133.46237
20
12.4375
30
0
39
0
210
0
220
0
230
1
50
360
0
SPLINE
5
DE
100
AcDbEntity
8
1
62
256
6
ByLayer
370
18
48
1
60
0
100
AcDbSpline
70
4
71
3
72
8
73
4
40
0
40
0
40
0
40
0
40
1
40
1
40
1
40
1
41
1
10
24.3308381561951
20
-11.0732427127022
30
0
41
1
10
24.3054032044652
20
-11.0459987452407
30
0
41
1
10
24.2803914291141
20
-11.018269455225
30
0
41
1
10
24.2557784704002
20
-10.9900638620622
30
0
0
SPLINE
5
DF
100
AcDbEntity
8
1
62
256
6
ByLayer
370
18
48
1
60
0
100
AcDbSpline
70
4
71
3
72
14
73
10
40
0
40
0
40
0
40
0
40
0.180230906224401
40
0.180230906224401
40
0.453487270816267
40
0.453487270816267
40
0.726743635408134
40
0.726743635408134
40
1
40
1
40
1
40
1
41
1
10
23.7534958638915
20
-10.0917118644867
30
0
41
1
10
23.7585153389674
20
-10.1063151236929
30
0
41
1
10
23.7633110018771
20
-10.1201658841079
30
0
41
1
10
23.7745514888864
20
-10.1527442638276
30
0
41
1
10
23.7805449847446
20
-10.1702316868561
30
0
41
1
10
23.7895816940691
20
-10.1984066690298
30
0
41
1
10
23.792686820329
20
-10.2092641590093
30
0
41
1
10
23.7944643384037
20
-10.2219054123762
30
0
41
1
10
23.7930432921445
20
-10.2233177649084
30
0
41
1
10
23.7889678492394
20
-10.2192423220033
30
0
0
SPLINE
5
E0
100
AcDbEntity
8
1
62
256
6
ByLayer
370
18
48
1
60
0
100
AcDbSpline
70
4
71
3
72
16
73
12
40
0
40
0
40
0
40
0
40
0.069469330428204
40
0.069469330428204
40
0.413426096871546
40
0.413426096871546
40
0.585404480093216
40
0.585404480093216
40
0.757382863314887
40
0.757382863314887
40
1
40
1
40
1
40
1
41
1
10
29.3872798696943
20
-6.10885772706587
30
0
41
1
10
29.4173214048439
20
-6.13883964025857
30
0
41
1
10
29.4468085925638
20
-6.1692849060309
30
0
41
1
10
29.6187048093794
20
-6.35287980975863
30
0
41
1
10
29.7480701257808
20
-6.5164457456352
30
0
41
1
10
29.9220675760774
20
-6.77778438921945
30
0
41
1
10
29.9767086631285
20
-6.86757559172153
30
0
41
1
10
30.0791514682799
20
-7.05263618335007
30
0
41
1
10
30.1264436114299
20
-7.14703071702434
30
0
41
1
10
30.2305010372614
20
-7.37715720634452
30
0
41
1
10
30.2834529123927
20
-7.51438981315835
30
0
41
1
10
30.3287493878413
20
-7.65400430503917
30
0
0
SPLINE
5
E1
100
AcDbEntity
8
1
62
256
6
ByLayer
370
18
48
1
60
0
100
AcDbSpline
70
4
71
3
72
10
73
6
40
0
40
0
40
0
40
0
40
0.887606800432173
40
0.887606800432173
40
1
40
1
40
1
40
1
41
1
10
25.2980031052148
20
-12.2162708839697
30
0
41
1
10
25.4908231692692
20
-12.294690369945
30
0
41
1
10
25.6890168146414
20
-12.3566514272143
30
0
41
1
10
25.9183206044834
20
-12.4081294315376
30
0
41
1
10
25.9441788417293
20
-12.4136530402595
30
0
41
1
10
25.970123795084
20
-12.4189127967837
30
0
0
SPLINE
5
E2
100
AcDbEntity
8
1
62
256
6
ByLayer
370
18
48
1
60
0
100
AcDbSpline
70
4
71
3
72
14
73
10
40
0
40
0
40
0
40
0
40
0.0803480556822317
40
0.0803480556822317
40
0.310261041761674
40
0.310261041761674
40
0.540174027841116
40
0.540174027841116
40
1
40
1
40
1
40
1
41
1
10
23.9671651566648
20
-11.0212275851712
30
0
41
1
10
23.9922923506598
20
-11.0600432072416
30
0
41
1
10
24.0183622978987
20
-11.0985142371524
30
0
41
1
10
24.1226121256167
20
-11.2455532803674
30
0
41
1
10
24.2074674934614
20
-11.3513377145511
30
0
41
1
10
24.3924824484902
20
-11.5551025018853
30
0
41
1
10
24.4928241252696
20
-11.6530725469532
30
0
41
1
10
24.8090568874606
20
-11.9265733797331
30
0
41
1
10
25.0424168181289
20
-12.0847933129816
30
0
41
1
10
25.2980031052148
20
-12.2162708839697
30
0
0
SPLINE
5
E3
100
AcDbEntity
8
1
62
256
6
ByLayer
370
18
48
1
60
0
100
AcDbSpline
70
4
71
3
72
8
73
4
40
0
40
0
40
0
40
0
40
1
40
1
40
1
40
1
41
1
10
25.0415140945997
20
-12.0498569459351
30
0
41
1
10
24.7624342203039
20
-11.9036359365995
30
0
41
1
10
24.4817655730206
20
-11.7567941193692
30
0
41
1
10
24.1959162845713
20
-11.607927983397
30
0
0
SPLINE
5
E4
100
AcDbEntity
8
1
62
256
6
ByLayer
370
18
48
1
60
0
100
AcDbSpline
70
4
71
3
72
8
73
4
40
0
40
0
40
0
40
0
40
1
40
1
40
1
40
1
41
1
10
24.6874684567036
20
-7.08185479622671
30
0
41
1
10
24.8200583408836
20
-7.21794096693768
30
0
41
1
10
24.9526910389388
20
-7.35402990441423
30
0
41
1
10
25.0853889854133
20
-7.49012300762524
30
0
0
SPLINE
5
E5
100
AcDbEntity
8
1
62
256
6
ByLayer
370
18
48
1
60
0
100
AcDbSpline
70
4
71
3
72
8
73
4
40
0
40
0
40
0
40
0
40
1
40
1
40
1
40
1
41
1
10
29.9959463413808
20
-11.6409526560095
30
0
41
1
10
30.0940010583268
20
-11.742402529692
30
0
41
1
10
30.1919784915445
20
-11.8438362023311
30
0
41
1
10
30.2899052291596
20
-11.9452592264772
30
0
0
SPLINE
5
E6
100
AcDbEntity
8
1
62
256
6
ByLayer
370
18
48
1
60
0
100
AcDbSpline
70
4
71
3
72
8
73
4
40
0
40
0
40
0
40
0
40
1
40
1
40
1
40
1
41
1
10
24.3579138844793
20
-9.03606068299234
30
0
41
1
10
24.1746069252478
20
-9.00751542497025
30
0
41
1
10
23.9913476324982
20
-8.97901169558304
30
0
41
1
10
23.8081196394995
20
-8.95053520131549
30
0
0
SPLINE
5
E7
100
AcDbEntity
8
1
62
256
6
ByLayer
370
18
48
1
60
0
100
AcDbSpline
70
4
71
3
72
8
73
4
40
0
40
0
40
0
40
0
40
1
40
1
40
1
40
1
41
1
10
31.1692540463639
20
-10.0765788213881
30
0
41
1
10
31.0206891999301
20
-10.0827654736854
30
0
41
1
10
30.8720851720178
20
-10.0889170091357
30
0
41
1
10
30.7234214423149
20
-10.0950149806422
30
0
0
SPLINE
5
E8
100
AcDbEntity
8
1
62
256
6
ByLayer
370
18
48
1
60
0
100
AcDbSpline
70
4
71
3
72
8
73
4
40
0
40
0
40
0
40
0
40
1
40
1
40
1
40
1
41
1
10
9.04301370358326
20
-0.346593675783169
30
0
41
1
10
8.84748832875687
20
-0.48949739572214
30
0
41
1
10
8.65979724835313
20
-0.630891317828485
30
0
41
1
10
8.47684551052555
20
-0.771371890402207
30
0
0
SPLINE
5
E9
100
AcDbEntity
8
1
62
256
6
ByLayer
370
18
48
1
60
0
100
AcDbSpline
70
4
71
3
72
10
73
6
40
0
40
0
40
0
40
0
40
0.5
40
0.5
40
1
40
1
40
1
40
1
41
1
10
10.7629558527822
20
-4.04936211312022
30
0
41
1
10
10.8549506655335
20
-3.97872335274235
30
0
41
1
10
10.9487051181464
20
-3.90743611632286
30
0
41
1
10
11.1376692995175
20
-3.7655398950418
30
0
41
1
10
11.2329332152062
20
-3.69488693478883
30
0
41
1
10
11.3291240458399
20
-3.62458389850119
30
0
0
SPLINE
5
EA
100
AcDbEntity
8
1
62
256
6
ByLayer
370
18
48
1
60
0
100
AcDbSpline
70
4
71
3
72
10
73
6
40
0
40
0
40
0
40
0
40
0.5
40
0.5
40
1
40
1
40
1
40
1
41
1
10
10.7629558527822
20
-4.04936211312022
30
0
41
1
10
10.6549384996733
20
-3.99757871288028
30
0
41
1
10
10.5461918228406
20
-3.94564833371305
30
0
41
1
10
10.3267704009048
20
-3.84139901622871
30
0
41
1
10
10.2167417455202
20
-3.78939069942351
30
0
41
1
10
10.1075215653914
20
-3.7380799014467
30
0
0
SPLINE
5
EB
100
AcDbEntity
8
1
62
256
6
ByLayer
370
18
48
1
60
0
100
AcDbSpline
70
4
71
3
72
10
73
6
40
0
40
0
40
0
40
0
40
0.5
40
0.5
40
1
40
1
40
1
40
1
41
1
10
9.29035136774132
20
-3.36052973572501
30
0
41
1
10
9.18365778929279
20
-3.31208877479983
30
0
41
1
10
9.07726644989361
20
-3.26411825602474
30
0
41
1
10
8.86928157356692
20
-3.17088967753276
30
0
41
1
10
8.76712388855219
20
-3.125372947469
30
0
41
1
10
8.66635888059693
20
-3.08068932429796
30
0
0
SPLINE
5
EC
100
AcDbEntity
8
1
62
256
6
ByLayer
370
18
48
1
60
0
100
AcDbSpline
70
4
71
3
72
8
73
4
40
0
40
0
40
0
40
0
40
1
40
1
40
1
40
1
41
1
10
12.5226294787881
20
-1.08829776007383
30
0
41
1
10
12.5060832840484
20
-0.850857661719743
30
0
41
1
10
12.4924297342209
20
-0.622409131348888
30
0
41
1
10
12.4805260848247
20
-0.399400034150972
30
0
0
SPLINE
5
ED
100
AcDbEntity
8
1
62
256
6
ByLayer
370
18
48
1
60
0
100
AcDbSpline
70
4
71
3
72
10
73
6
40
0
40
0
40
0
40
0
40
0.5
40
0.5
40
1
40
1
40
1
40
1
41
1
10
12.6700394548961
20
-2.70871746804673
30
0
41
1
10
12.6570448624244
20
-2.58957134964851
30
0
41
1
10
12.6442553313128
20
-2.46905850658371
30
0
41
1
10
12.6196299307916
20
-2.22847931537572
30
0
41
1
10
12.6077848788397
20
-2.108339713785
30
0
41
1
10
12.5964942606862
20
-1.98837794187742
30
0
0
SPLINE
5
EE
100
AcDbEntity
8
1
62
256
6
ByLayer
370
18
48
1
60
0
100
AcDbSpline
70
4
71
3
72
10
73
6
40
0
40
0
40
0
40
0
40
0.5
40
0.5
40
1
40
1
40
1
40
1
41
1
10
8.47684551052555
20
-0.771371890402207
30
0
41
1
10
8.4828311000054
20
-0.88350900580852
30
0
41
1
10
8.489302790468
20
-0.997704008224389
30
0
41
1
10
8.50329051589671
20
-1.22764552433986
30
0
41
1
10
8.51080882437282
20
-1.34345838245471
30
0
41
1
10
8.51894890448898
20
-1.46026961632504
30
0
0
SPLINE
5
EF
100
AcDbEntity
8
1
62
256
6
ByLayer
370
18
48
1
60
0
100
AcDbSpline
70
4
71
3
72
10
73
6
40
0
40
0
40
0
40
0
40
0.5
40
0.5
40
1
40
1
40
1
40
1
41
1
10
11.0079215997838
20
0.289432343244243
30
0
41
1
10
10.9012280213353
20
0.33787330416942
30
0
41
1
10
10.7948366819361
20
0.385843822944508
30
0
41
1
10
10.5868518056094
20
0.479072401436497
30
0
41
1
10
10.4846941205947
20
0.52458913150025
30
0
41
1
10
10.3839291126394
20
0.569272754671289
30
0
0
SPLINE
5
F0
100
AcDbEntity
8
1
62
256
6
ByLayer
370
18
48
1
60
0
100
AcDbSpline
70
4
71
3
72
10
73
6
40
0
40
0
40
0
40
0
40
0.5
40
0.5
40
1
40
1
40
1
40
1
41
1
10
12.4805260848247
20
-0.399400034150972
30
0
41
1
10
12.3725087317157
20
-0.347616633911059
30
0
41
1
10
12.2637620548831
20
-0.295686254743828
30
0
41
1
10
12.0443406329473
20
-0.191436937259482
30
0
41
1
10
11.9343119775627
20
-0.139428620454282
30
0
41
1
10
11.8250917974339
20
-0.0881178224774715
30
0
0
SPLINE
5
F1
100
AcDbEntity
8
1
62
256
6
ByLayer
370
18
48
1
60
0
100
AcDbSpline
70
4
71
3
72
8
73
4
40
0
40
0
40
0
40
0
40
1
40
1
40
1
40
1
41
1
10
12.0724294615919
20
-3.10205388241931
30
0
41
1
10
12.2743588785353
20
-2.96555420459728
30
0
41
1
10
12.4731487868239
20
-2.83525911037586
30
0
41
1
10
12.6700394548961
20
-2.70871746804673
30
0
0
SPLINE
5
F2
100
AcDbEntity
8
1
62
256
6
ByLayer
370
18
48
1
60
0
100
AcDbSpline
70
4
71
3
72
10
73
6
40
0
40
0
40
0
40
0
40
0.5
40
0.5
40
1
40
1
40
1
40
1
41
1
10
10.3839291126394
20
0.569272754671289
30
0
41
1
10
10.2849252968962
20
0.505642997285321
30
0
41
1
10
10.1848530036344
20
0.44067360151476
30
0
41
1
10
9.9852511471708
20
0.309415055326213
30
0
41
1
10
9.88566048800624
20
0.243088838549113
30
0
41
1
10
9.7863191193353
20
0.175936340298733
30
0
0
SPLINE
5
F3
100
AcDbEntity
8
1
62
256
6
ByLayer
370
18
48
1
60
0
100
AcDbSpline
70
4
71
3
72
8
73
4
40
0
40
0
40
0
40
0
40
1
40
1
40
1
40
1
41
1
10
8.59281368638705
20
-2.36034979812865
30
0
41
1
10
8.61576392324366
20
-2.60419393859968
30
0
41
1
10
8.64051630095616
20
-2.84374129685546
30
0
41
1
10
8.66635888059693
20
-3.08068932429796
30
0
0
LINE
5
72
100
AcDbEntity
8
1
62
256
6
ByLayer
370
18
48
1
60
0
100
AcDbLine
10
18.458055
20
-17.553018
30
0
11
19.099706
21
-18.19467
31
0
39
0
210
0
220
0
230
1
0
LINE
5
73
100
AcDbEntity
8
1
62
256
6
ByLayer
370
18
48
1
60
0
100
AcDbLine
10
36.1698
20
-1.124576
30
0
11
35.528148
21
-0.482925
31
0
39
0
210
0
220
0
230
1
0
LINE
5
74
100
AcDbEntity
8
1
62
256
6
ByLayer
370
18
48
1
60
0
100
AcDbLine
10
24.340305
20
-11.499185
30
0
11
24.414351
21
-11.573231
31
0
39
0
210
0
220
0
230
1
0
LINE
5
75
100
AcDbEntity
8
1
62
256
6
ByLayer
370
18
48
1
60
0
100
AcDbLine
10
24.334162
20
-11.085639
30
0
11
24.957932
21
-11.709408
31
0
39
0
210
0
220
0
230
1
0
LINE
5
76
100
AcDbEntity
8
1
62
256
6
ByLayer
370
18
48
1
60
0
100
AcDbLine
10
30.019441
20
-7.317706
30
0
11
29.395672
21
-6.693936
31
0
39
0
210
0
220
0
230
1
0
LINE
5
77
100
AcDbEntity
8
1
62
256
6
ByLayer
370
18
48
1
60
0
100
AcDbLine
10
23.985169
20
0.759587
30
0
11
23.7021
21
4.208924
31
0
39
0
210
0
220
0
230
1
0
LINE
5
78
100
AcDbEntity
8
1
62
256
6
ByLayer
370
18
48
1
60
0
100
AcDbLine
10
27.345341
20
-0.073986
30
0
11
25.077415
21
0.122116
31
0
39
0
210
0
220
0
230
1
0
LINE
5
79
100
AcDbEntity
8
1
62
256
6
ByLayer
370
18
48
1
60
0
100
AcDbLine
10
17.139224
20
1.77813
30
0
11
17.329435
21
-0.539688
31
0
39
0
210
0
220
0
230
1
0
LINE
5
7A
100
AcDbEntity
8
1
62
256
6
ByLayer
370
18
48
1
60
0
100
AcDbLine
10
18.722706
20
-17.517403
30
0
11
18.727443
21
-17.575124
31
0
39
0
210
0
220
0
230
1
0
LINE
5
7B
100
AcDbEntity
8
1
62
256
6
ByLayer
370
18
48
1
60
0
100
AcDbLine
10
35.133681
20
4.323841
30
0
11
35.550829
21
-0.759324
31
0
39
0
210
0
220
0
230
1
0
LINE
5
7C
100
AcDbEntity
8
1
62
256
6
ByLayer
370
18
48
1
60
0
100
AcDbLine
10
24.381501
20
0.840807
30
0
11
24.390901
21
0.726256
31
0
39
0
210
0
220
0
230
1
0
LINE
5
7D
100
AcDbEntity
8
1
62
256
6
ByLayer
370
18
48
1
60
0
100
AcDbLine
10
23.866554
20
4.206961
30
0
11
24.150574
21
0.746034
31
0
39
0
210
0
220
0
230
1
0
LINE
5
7E
100
AcDbEntity
8
1
62
256
6
ByLayer
370
18
48
1
60
0
100
AcDbLine
10
24.501594
20
0.830423
30
0
11
24.381501
21
0.840807
31
0
39
0
210
0
220
0
230
1
0
LINE
5
7F
100
AcDbEntity
8
1
62
256
6
ByLayer
370
18
48
1
60
0
100
AcDbLine
10
17.672051
20
-6.540295
30
0
11
17.967034
21
-10.13481
31
0
39
0
210
0
220
0
230
1
0
LINE
5
80
100
AcDbEntity
8
1
62
256
6
ByLayer
370
18
48
1
60
0
100
AcDbLine
10
35.133681
20
4.323841
30
0
11
31.525863
21
7.931659
31
0
39
0
210
0
220
0
230
1
0
LINE
5
81
100
AcDbEntity
8
1
62
256
6
ByLayer
370
18
48
1
60
0
100
AcDbLine
10
2.241841
20
-16.222239
30
0
11
2.239259
21
-16.212605
31
0
39
0
210
0
220
0
230
1
0
LINE
5
82
100
AcDbEntity
8
1
62
256
6
ByLayer
370
18
48
1
60
0
100
AcDbLine
10
35.133681
20
4.323841
30
0
11
21.470251
21
12.458301
31
0
39
0
210
0
220
0
230
1
0
LINE
5
83
100
AcDbEntity
8
1
62
256
6
ByLayer
370
18
48
1
60
0
100
AcDbLine
10
0
20
-12.4375
30
0
11
0
21
12.4375
31
0
39
0
210
0
220
0
230
1
0
LINE
5
84
100
AcDbEntity
8
1
62
256
6
ByLayer
370
18
48
1
60
0
100
AcDbLine
10
18.727443
20
-17.575124
30
0
11
2.241841
21
-16.222239
31
0
39
0
210
0
220
0
230
1
0
LINE
5
85
100
AcDbEntity
8
1
62
256
6
ByLayer
370
18
48
1
60
0
100
AcDbLine
10
1.545481
20
-13.62339
30
0
11
2.239259
21
-16.212605
31
0
39
0
210
0
220
0
230
1
0
LINE
5
86
100
AcDbEntity
8
1
62
256
6
ByLayer
370
18
48
1
60
0
100
AcDbLine
10
2.239259
20
-16.212605
30
0
11
3.024818
21
12.466764
31
0
39
0
210
0
220
0
230
1
0
LINE
5
87
100
AcDbEntity
8
1
62
256
6
ByLayer
370
18
48
1
60
0
100
AcDbLine
10
1.545481
20
12.442674
30
0
11
1.545481
21
-13.62339
31
0
39
0
210
0
220
0
230
1
0
LINE
5
88
100
AcDbEntity
8
1
62
256
6
ByLayer
370
18
48
1
60
0
100
AcDbLine
10
24.276184
20
12.298527
30
0
11
31.525863
21
7.931659
31
0
39
0
210
0
220
0
230
1
0
LINE
5
89
100
AcDbEntity
8
1
62
256
6
ByLayer
370
18
48
1
60
0
100
AcDbLine
10
25.077415
20
0.122116
30
0
11
24.383113
21
0.97613
31
0
39
0
210
0
220
0
230
1
0
LINE
5
8A
100
AcDbEntity
8
1
62
256
6
ByLayer
370
18
48
1
60
0
100
AcDbLine
10
24.832252
20
3.109546
30
0
11
25.077415
21
0.122116
31
0
39
0
210
0
220
0
230
1
0
LINE
5
8B
100
AcDbEntity
8
1
62
256
6
ByLayer
370
18
48
1
60
0
100
AcDbLine
10
1.545481
20
12.442674
30
0
11
3.024818
21
12.466764
31
0
39
0
210
0
220
0
230
1
0
LINE
5
8C
100
AcDbEntity
8
1
62
256
6
ByLayer
370
18
48
1
60
0
100
AcDbLine
10
21.470251
20
12.458301
30
0
11
3.024818
21
12.466764
31
0
39
0
210
0
220
0
230
1
0
LINE
5
8D
100
AcDbEntity
8
1
62
256
6
ByLayer
370
18
48
1
60
0
100
AcDbLine
10
23.866554
20
4.206961
30
0
11
24.832252
21
3.109546
31
0
39
0
210
0
220
0
230
1
0
LINE
5
8E
100
AcDbEntity
8
1
62
256
6
ByLayer
370
18
48
1
60
0
100
AcDbLine
10
24.276184
20
12.298527
30
0
11
21.470251
21
12.458301
31
0
39
0
210
0
220
0
230
1
0
LINE
5
8F
100
AcDbEntity
8
SK1
62
256
6
ByLayer
370
18
48
1
60
0
100
AcDbLine
10
0
20
-12.4375
30
0
11
0
21
12.4375
31
0
39
0
210
0
220
0
230
1
0
LINE
5
91
100
AcDbEntity
8
SK1
62
256
6
ByLayer
370
18
48
1
60
0
100
AcDbLine
10
-133.46237
20
12.4375
30
0
11
0
21
12.4375
31
0
39
0
210
0
220
0
230
1
0
LINE
5
92
100
AcDbEntity
8
SK1
62
256
6
ByLayer
370
18
48
1
60
0
100
AcDbLine
10
-133.46237
20
-12.4375
30
0
11
0
21
-12.4375
31
0
39
0
210
0
220
0
230
1
0
LINE
5
93
100
AcDbEntity
8
SK1
62
256
6
ByLayer
370
18
48
1
60
0
100
AcDbLine
10
-133.46237
20
12.4375
30
0
11
-133.46237
21
-12.4375
31
0
39
0
210
0
220
0
230
1
0
LINE
5
94
100
AcDbEntity
8
1
62
256
6
ByLayer
370
18
48
1
60
0
100
AcDbLine
10
8.638567
20
-2.808549
30
0
11
8.824083
21
-2.894262
31
0
39
0
210
0
220
0
230
1
0
LINE
5
95
100
AcDbEntity
8
1
62
256
6
ByLayer
370
18
48
1
60
0
100
AcDbLine
10
12.020103
20
-0.180201
30
0
11
12.056362
21
-0.62203
31
0
39
0
210
0
220
0
230
1
0
LINE
5
96
100
AcDbEntity
8
1
62
256
6
ByLayer
370
18
48
1
60
0
100
AcDbLine
10
17.385836
20
-0.70057
30
0
11
17.333333
21
-0.648067
31
0
39
0
210
0
220
0
230
1
0
LINE
5
97
100
AcDbEntity
8
1
62
256
6
ByLayer
370
18
48
1
60
0
100
AcDbLine
10
35.437551
20
-0.786262
30
0
11
35.385048
21
-0.733759
31
0
39
0
210
0
220
0
230
1
0
LINE
5
98
100
AcDbEntity
8
1
62
256
6
ByLayer
370
18
48
1
60
0
100
AcDbLine
10
18.015544
20
1.24945
30
0
11
24.600332
21
0.709072
31
0
39
0
210
0
220
0
230
1
0
LINE
5
99
100
AcDbEntity
8
1
62
256
6
ByLayer
370
18
48
1
60
0
100
AcDbLine
10
18.708889
20
-17.409918
30
0
11
18.761392
21
-17.462422
31
0
39
0
210
0
220
0
230
1
0
LINE
5
9A
100
AcDbEntity
8
1
62
256
6
ByLayer
370
18
48
1
60
0
100
AcDbLine
10
24.687468
20
-7.081855
30
0
11
24.684564
21
-7.07895
31
0
39
0
210
0
220
0
230
1
0
LINE
5
9B
100
AcDbEntity
8
1
62
256
6
ByLayer
370
18
48
1
60
0
100
AcDbLine
10
23.719161
20
-10.149435
30
0
11
23.788968
21
-10.219242
31
0
39
0
210
0
220
0
230
1
0
LINE
5
9C
100
AcDbEntity
8
1
62
256
6
ByLayer
370
18
48
1
60
0
100
AcDbLine
10
23.772992
20
-8.915408
30
0
11
23.80812
21
-8.950535
31
0
39
0
210
0
220
0
230
1
0
LINE
5
9D
100
AcDbEntity
8
80
62
256
6
ByLayer
370
18
48
1
60
0
100
AcDbLine
10
0
20
0
30
0
11
-5
21
0
31
0
39
0
210
0
220
0
230
1
0
LINE
5
9E
100
AcDbEntity
8
81
62
256
6
ByLayer
370
18
48
1
60
0
100
AcDbLine
10
36.53763
20
-19.5625
30
0
11
46.53763
21
-19.5625
31
0
39
0
210
0
220
0
230
1
0
LINE
5
9F
100
AcDbEntity
8
1
62
256
6
ByLayer
370
18
48
1
60
0
100
AcDbLine
10
18.761392
20
-17.462422
30
0
11
17.385836
21
-0.70057
31
0
39
0
210
0
220
0
230
1
0
LINE
5
A0
100
AcDbEntity
8
1
62
256
6
ByLayer
370
18
48
1
60
0
100
AcDbLine
10
18.6757
20
0.589294
30
0
11
35.437551
21
-0.786262
31
0
39
0
210
0
220
0
230
1
0
LINE
5
A1
100
AcDbEntity
8
1
62
256
6
ByLayer
370
18
48
1
60
0
100
AcDbLine
10
36.593806
20
-19.90854
30
0
11
19.831955
21
-18.532984
31
0
39
0
210
0
220
0
230
1
0
LINE
5
A2
100
AcDbEntity
8
1
62
256
6
ByLayer
370
18
48
1
60
0
100
AcDbLine
10
18.015544
20
1.24945
30
0
11
18.6757
21
0.589294
31
0
39
0
210
0
220
0
230
1
0
LINE
5
A3
100
AcDbEntity
8
1
62
256
6
ByLayer
370
18
48
1
60
0
100
AcDbLine
10
36.508114
20
-1.856825
30
0
11
37.88367
21
-18.618676
31
0
39
0
210
0
220
0
230
1
0
LINE
5
A4
100
AcDbEntity
8
1
62
256
6
ByLayer
370
18
48
1
60
0
100
AcDbLine
10
12.188051
20
-2.226729
30
0
11
11.606162
21
-2.635786
31
0
39
0
210
0
220
0
230
1
0
LINE
5
A5
100
AcDbEntity
8
1
62
256
6
ByLayer
370
18
48
1
60
0
100
AcDbLine
10
10.762956
20
-4.049362
30
0
11
10.280967
21
-3.567373
31
0
39
0
210
0
220
0
230
1
0
LINE
5
A6
100
AcDbEntity
8
1
62
256
6
ByLayer
370
18
48
1
60
0
100
AcDbLine
10
10.862856
20
-3.158316
30
0
11
11.329124
21
-3.624584
31
0
39
0
210
0
220
0
230
1
0
LINE
5
A7
100
AcDbEntity
8
1
62
256
6
ByLayer
370
18
48
1
60
0
100
AcDbLine
10
9.290351
20
-3.36053
30
0
11
8.824083
21
-2.894262
31
0
39
0
210
0
220
0
230
1
0
LINE
5
A8
100
AcDbEntity
8
1
62
256
6
ByLayer
370
18
48
1
60
0
100
AcDbLine
10
12.130226
20
-1.52211
30
0
11
12.188051
21
-2.226729
31
0
39
0
210
0
220
0
230
1
0
LINE
5
A9
100
AcDbEntity
8
1
62
256
6
ByLayer
370
18
48
1
60
0
100
AcDbLine
10
10.862856
20
-3.158316
30
0
11
10.280967
21
-3.567373
31
0
39
0
210
0
220
0
230
1
0
LINE
5
AA
100
AcDbEntity
8
1
62
256
6
ByLayer
370
18
48
1
60
0
100
AcDbLine
10
12.670039
20
-2.708717
30
0
11
12.188051
21
-2.226729
31
0
39
0
210
0
220
0
230
1
0
LINE
5
AB
100
AcDbEntity
8
1
62
256
6
ByLayer
370
18
48
1
60
0
100
AcDbLine
10
12.130226
20
-1.52211
30
0
11
12.596494
21
-1.988378
31
0
39
0
210
0
220
0
230
1
0
LINE
5
AC
100
AcDbEntity
8
1
62
256
6
ByLayer
370
18
48
1
60
0
100
AcDbLine
10
9.641254
20
-3.271812
30
0
11
10.107522
21
-3.73808
31
0
39
0
210
0
220
0
230
1
0
LINE
5
AD
100
AcDbEntity
8
1
62
256
6
ByLayer
370
18
48
1
60
0
100
AcDbLine
10
9.641254
20
-3.271812
30
0
11
10.280967
21
-3.567373
31
0
39
0
210
0
220
0
230
1
0
LINE
5
AE
100
AcDbEntity
8
1
62
256
6
ByLayer
370
18
48
1
60
0
100
AcDbLine
10
12.522629
20
-1.088298
30
0
11
12.056362
21
-0.62203
31
0
39
0
210
0
220
0
230
1
0
LINE
5
AF
100
AcDbEntity
8
1
62
256
6
ByLayer
370
18
48
1
60
0
100
AcDbLine
10
12.072429
20
-3.102054
30
0
11
11.606162
21
-2.635786
31
0
39
0
210
0
220
0
230
1
0
MTEXT
5
F4
100
AcDbEntity
8
SK6
62
256
6
ByLayer
370
13
48
1
60
0
100
AcDbMText
10
-103.546168
20
21.423222
30
0
210
0
220
0
230
1
1
\W0.7534;PCLNL 3225P 19
40
3.5
41
0
44
1.084337
50
0
71
7
72
5
7
iso_b_vert
0
DIMENSION
5
106
100
AcDbEntity
8
SK2
62
256
6
ByLayer
370
13
48
1
60
0
100
AcDbDimension
2
DimnDraft3D1
10
-143.21237
20
12.4375
30
0
11
-143.21237
21
-0.0625
31
0
70
32
71
5
72
1
41
1
210
0
220
0
230
1
3
Standard
100
AcDbAlignedDimension
13
-135.04987
23
-12.5625
33
0
14
-135.04987
24
12.4375
34
0
50
90
100
AcDbRotatedDimension
1001
ACAD
1000
DSTYLE
1002
{
1070
    74
1070
     0
1070
   279
1070
     0
1070
   172
1070
     1
1070
   173
1070
     1
1070
   340
1005
F5
1070
   271
1070
     1
1070
   272
1070
     2
1070
    77
1070
     1
1070
    73
1070
     0
1070
   171
1070
     3
1070
   274
1070
     4
1070
   177
1070
   150
1070
   176
1070
     9
1070
   178
1070
    43
1070
    78
1070
     8
1070
    48
1040
-0.005
1070
    41
1041
3.175
1070
   147
1041
2.25
1070
    42
1041
1.5875
1070
    44
1041
3.175
1070
   140
1041
4.5
1070
   343
1005
107
1070
   344
1005
107
1002
}
0
DIMENSION
5
11C
100
AcDbEntity
8
2
62
256
6
ByLayer
370
13
48
1
60
0
100
AcDbDimension
2
DimnDraft3D2
10
54.38763
20
12.4375
30
0
11
54.38763
21
-3.7375
31
0
70
32
71
5
72
1
41
1
210
0
220
0
230
1
3
Standard
100
AcDbAlignedDimension
13
39.47513
23
-19.9125
33
0
14
1.5875
24
12.4375
34
0
50
90
100
AcDbRotatedDimension
1001
ACAD
1000
DSTYLE
1002
{
1070
    74
1070
     0
1070
   279
1070
     0
1070
   172
1070
     1
1070
   173
1070
     1
1070
   340
1005
F5
1070
   271
1070
     1
1070
   272
1070
     2
1070
    77
1070
     1
1070
    73
1070
     0
1070
   171
1070
     3
1070
   274
1070
     4
1070
   177
1070
   150
1070
   176
1070
     9
1070
   178
1070
    43
1070
    78
1070
     8
1070
    48
1040
-0.005
1070
    41
1041
3.175
1070
   147
1041
2.25
1070
    42
1041
1.5875
1070
    44
1041
3.175
1070
   140
1041
4.5
1070
   343
1005
107
1070
   344
1005
107
1002
}
0
DIMENSION
5
12A
100
AcDbEntity
8
SK2
62
256
6
ByLayer
370
13
48
1
60
0
100
AcDbDimension
2
DimnDraft3D3
10
37.88763
20
-46.4125
30
0
11
-47.78737
21
-46.4125
31
0
70
32
71
5
72
1
41
1
210
0
220
0
230
1
3
Standard
100
AcDbAlignedDimension
13
-133.46237
23
-14.15
33
0
14
37.88763
24
-21.5
34
0
50
0
100
AcDbRotatedDimension
1001
ACAD
1000
DSTYLE
1002
{
1070
   279
1070
     0
1070
   172
1070
     1
1070
   173
1070
     1
1070
   340
1005
F5
1070
   271
1070
     1
1070
   272
1070
     2
1070
    77
1070
     1
1070
    73
1070
     0
1070
   171
1070
     3
1070
   274
1070
     4
1070
   177
1070
   150
1070
   176
1070
     9
1070
   178
1070
    43
1070
    78
1070
     8
1070
    48
1040
-0.005
1070
    41
1041
3.175
1070
   147
1041
2.25
1070
    42
1041
1.5875
1070
    44
1041
3.175
1070
   140
1041
4.5
1070
   343
1005
107
1070
   344
1005
107
1002
}
0
DIMENSION
5
138
100
AcDbEntity
8
2
62
256
6
ByLayer
370
13
48
1
60
0
100
AcDbDimension
2
DimnDraft3D4
10
37.88763
20
-17.53125
30
0
11
25.432166
21
-31.434544
31
0
70
34
71
5
72
1
41
1
210
0
220
0
230
1
3
Standard
100
AcDb2LineAngularDimension
13
36.593235
23
-19.907969
33
0
14
17.665536
24
-18.25201
34
0
15
37.88763
25
-19.9125
35
0
16
22.114418
26
-34.4747
36
0
40
0
0
ENDSEC
0
SECTION
2
OBJECTS
0
DICTIONARY
5
1a2
330
0
100
AcDbDictionary
280
0
281
1
3
ACAD_GROUP
350
1a3
3
ACAD_MLINESTYLE
350
1a4
0
DICTIONARY
5
1a3
330
0
100
AcDbDictionary
280
0
281
1
0
DICTIONARY
5
1a4
330
0
100
AcDbDictionary
280
0
281
1
3
Standard
350
18
0
MLINESTYLE
5
18
330
1a4
100
AcDbMlineStyle
2
Standard
70
0
3

62
256
51
90
52
90
71
2
49
-0.5
62
256
6
ByLayer
49
0.5
62
256
6
ByLayer
0
RASTERVARIABLES
5
191
330

100
AcDbRasterVariables
90
0
70
1
71
1
72
1
0
ENDSEC
0
EOF
