0
SECTION
2
HEADER
9
$ACADVER
1
AC1015
9
$DWGCODEPAGE
3
ANSI_1252
9
$HANDSEED
5
1d6
9
$ANGBASE
50
0
9
$ANGDIR
70
0
9
$ATTMODE
70
1
9
$AUNITS
70
0
9
$AUPREC
70
0
9
$CECOLOR
62
256
9
$CELTSCALE
40
1
9
$CELTYPE
6
ByLayer
9
$CELWEIGHT
370
18
9
$CLAYER
8
0
9
$CMLJUST
70
0
9
$CMLSCALE
40
1
9
$CMLSTYLE
2
Standard
9
$DIMSTYLE
2
Standard
9
$TEXTSIZE
40
0.2
9
$TEXTSTYLE
7
Standard
9
$LUNITS
70
2
9
$LUPREC
70
4
9
$EXTNAMES
290
1
9
$INSUNITS
70
4
9
$LTSCALE
40
1
9
$LWDISPLAY
290
1
9
$PDMODE
70
0
9
$PDSIZE
40
0
9
$PLINEGEN
70
0
0
ENDSEC
0
SECTION
2
CLASSES
0
CLASS
1
RASTERVARIABLES
2
AcDbRasterVariables
3
ISM
90
0
280
0
281
0
0
ENDSEC
0
SECTION
2
TABLES
0
TABLE
2
VPORT
5
1cc
100
AcDbSymbolTable
0
VPORT
5
1
100
AcDbSymbolTableRecord
100
AcDbViewportTableRecord
2
*Active
70
0
10
0
20
0
11
1
21
1
12
-1
22
1
13
0
23
0
14
0.5
24
0.5
15
10
25
10
16
0
26
0
36
1
17
0
27
0
37
0
0
ENDTAB
0
TABLE
2
LTYPE
5
1cd
100
AcDbSymbolTable
0
LTYPE
5
14
100
AcDbSymbolTableRecord
100
AcDbLinetypeTableRecord
70
0
2
ByBlock
3

72
65
73
0
40
0
0
LTYPE
5
15
100
AcDbSymbolTableRecord
100
AcDbLinetypeTableRecord
70
0
2
ByLayer
3

72
65
73
0
40
0
0
LTYPE
5
16
100
AcDbSymbolTableRecord
100
AcDbLinetypeTableRecord
70
0
2
CONTINUOUS
3
Solid line
72
65
73
0
40
0
0
LTYPE
5
6A
100
AcDbSymbolTableRecord
100
AcDbLinetypeTableRecord
70
0
2
CENTER
3
____ _ ____ _ ____ _ ____
72
65
73
4
40
47.5
49
22
74
0
49
-8.5
74
0
49
8.5
74
0
49
-8.5
74
0
0
LTYPE
5
6B
100
AcDbSymbolTableRecord
100
AcDbLinetypeTableRecord
70
0
2
DASHED
3
__ __ __ __ __ __ __ __ __
72
65
73
2
40
25.72
49
12.86
74
0
49
-12.86
74
0
0
ENDTAB
0
TABLE
2
LAYER
5
1ce
100
AcDbSymbolTable
0
LAYER
5
10
100
AcDbSymbolTableRecord
100
AcDbLayerTableRecord
2
0
70
0
62
7
6
CONTINUOUS
290
1
370
-3
390
0
0
LAYER
5
6D
100
AcDbSymbolTableRecord
100
AcDbLayerTableRecord
2
80
70
0
62
-6
6
CONTINUOUS
290
1
370
-3
390
0
0
LAYER
5
6F
100
AcDbSymbolTableRecord
100
AcDbLayerTableRecord
2
81
70
0
62
-3
6
CONTINUOUS
290
1
370
-3
390
0
0
LAYER
5
71
100
AcDbSymbolTableRecord
100
AcDbLayerTableRecord
2
1
70
0
62
4
6
CONTINUOUS
290
1
370
-3
390
0
0
LAYER
5
137
100
AcDbSymbolTableRecord
100
AcDbLayerTableRecord
2
2
70
0
62
7
6
CONTINUOUS
290
1
370
-3
390
0
0
LAYER
5
1b9
100
AcDbSymbolTableRecord
100
AcDbLayerTableRecord
2
SK1
70
0
62
4
6
CONTINUOUS
290
1
370
-3
390
0
0
LAYER
5
1ba
100
AcDbSymbolTableRecord
100
AcDbLayerTableRecord
2
SK6
70
0
62
5
6
CONTINUOUS
290
1
370
-3
390
0
0
LAYER
5
1bb
100
AcDbSymbolTableRecord
100
AcDbLayerTableRecord
2
SK2
70
0
62
7
6
CONTINUOUS
290
1
370
-3
390
0
0
ENDTAB
0
TABLE
2
STYLE
5
1cf
100
AcDbSymbolTable
0
STYLE
5
11
100
AcDbSymbolTableRecord
100
AcDbTextStyleTableRecord
2
Standard
3
txt
70
0
71
0
40
0
41
1
42
0
50
0
0
STYLE
5
11C
100
AcDbSymbolTableRecord
100
AcDbTextStyleTableRecord
2
iso_b_vert
3
simplex.shx
70
0
71
0
40
0
41
1
42
0
50
0
0
STYLE
5
11D
100
AcDbSymbolTableRecord
100
AcDbTextStyleTableRecord
2
DWGDirectTextStyle
3
simplex
70
0
71
0
40
0
41
1
42
0
50
0
0
ENDTAB
0
TABLE
2
DIMSTYLE
5
1d0
100
AcDbSymbolTable
100
AcDbDimStyleTable
0
DIMSTYLE
105
27
100
AcDbSymbolTableRecord
100
AcDbDimStyleTableRecord
2
Standard
70
0
3
<>
41
0.18
42
0.0625
44
0.18
140
0.18
147
0.09
73
0
74
0
77
1
271
2
275
0
278
52
280
0
340
11
0
ENDTAB
0
TABLE
2
VIEW
5
1d1
100
AcDbSymbolTable
0
ENDTAB
0
TABLE
2
UCS
5
1d2
100
AcDbSymbolTable
0
ENDTAB
0
TABLE
2
APPID
5
1d3
100
AcDbSymbolTable
0
APPID
5
12
100
AcDbSymbolTableRecord
100
AcDbRegAppTableRecord
2
ACAD
70
0
0
ENDTAB
0
TABLE
2
BLOCK_RECORD
5
1d4
100
AcDbSymbolTable
0
BLOCK_RECORD
5
1F
100
AcDbSymbolTableRecord
100
AcDbBlockTableRecord
2
*Model_Space
340
0
70
0
0
BLOCK_RECORD
5
1B
100
AcDbSymbolTableRecord
100
AcDbBlockTableRecord
2
*Paper_Space
340
0
70
0
0
BLOCK_RECORD
5
23
100
AcDbSymbolTableRecord
100
AcDbBlockTableRecord
2
*Paper_Space0
340
0
70
0
0
BLOCK_RECORD
5
11F
100
AcDbSymbolTableRecord
100
AcDbBlockTableRecord
2
DimnDraft3D1
340
0
70
0
0
BLOCK_RECORD
5
12E
100
AcDbSymbolTableRecord
100
AcDbBlockTableRecord
2
_CLOSED
340
0
70
0
0
BLOCK_RECORD
5
135
100
AcDbSymbolTableRecord
100
AcDbBlockTableRecord
2
DimnDraft3D2
340
0
70
0
0
BLOCK_RECORD
5
144
100
AcDbSymbolTableRecord
100
AcDbBlockTableRecord
2
DimnDraft3D3
340
0
70
0
0
BLOCK_RECORD
5
152
100
AcDbSymbolTableRecord
100
AcDbBlockTableRecord
2
DimnDraft3D4
340
0
70
0
0
ENDTAB
0
ENDSEC
0
SECTION
2
BLOCKS
0
BLOCK
5
20
100
AcDbEntity
8
0
100
AcDbBlockBegin
2
*Model_Space
70
0
10
0
20
0
30
0
3
*Model_Space
0
ENDBLK
5
21
100
AcDbEntity
8
0
100
AcDbBlockEnd
0
BLOCK
5
1C
100
AcDbEntity
8
0
100
AcDbBlockBegin
2
*Paper_Space
70
0
10
0
20
0
30
0
3
*Paper_Space
0
ENDBLK
5
1D
100
AcDbEntity
8
0
100
AcDbBlockEnd
0
BLOCK
5
24
100
AcDbEntity
8
0
100
AcDbBlockBegin
2
*Paper_Space0
70
0
10
0
20
0
30
0
3
*Paper_Space0
0
ENDBLK
5
25
100
AcDbEntity
8
0
100
AcDbBlockEnd
0
BLOCK
5
12B
100
AcDbEntity
8
0
100
AcDbBlockBegin
2
DimnDraft3D1
70
0
10
0
20
0
30
0
3
DimnDraft3D1
0
MTEXT
5
120
100
AcDbEntity
8
SK2
62
256
6
ByLayer
370
13
48
1
60
0
100
AcDbMText
10
-150.895252
20
-1.625658
30
0
210
0
220
0
230
1
1
\W0.6740;25
40
4.5
41
0
44
1.084337
50
90
71
7
72
5
7
iso_b_vert
0
LINE
5
122
100
AcDbEntity
8
SK2
62
256
6
ByLayer
370
13
48
1
60
0
100
AcDbLine
10
-141.607752
20
-12.5625
30
0
11
-152.945252
21
-12.5625
31
0
39
0
210
0
220
0
230
1
0
LINE
5
123
100
AcDbEntity
8
SK2
62
256
6
ByLayer
370
13
48
1
60
0
100
AcDbLine
10
-141.607752
20
12.4375
30
0
11
-152.945252
21
12.4375
31
0
39
0
210
0
220
0
230
1
0
LINE
5
124
100
AcDbEntity
8
SK2
62
256
6
ByLayer
370
13
48
1
60
0
100
AcDbLine
10
-149.770252
20
-12.5625
30
0
11
-149.770252
21
12.4375
31
0
39
0
210
0
220
0
230
1
0
LINE
5
125
100
AcDbEntity
8
SK2
62
256
6
ByLayer
370
13
48
1
60
0
100
AcDbLine
10
-149.770252
20
-12.5625
30
0
11
-150.620991
21
-9.387503
31
0
39
0
210
0
220
0
230
1
0
LINE
5
126
100
AcDbEntity
8
SK2
62
256
6
ByLayer
370
13
48
1
60
0
100
AcDbLine
10
-149.770252
20
-12.5625
30
0
11
-148.919514
21
-9.387497
31
0
39
0
210
0
220
0
230
1
0
LINE
5
127
100
AcDbEntity
8
SK2
62
256
6
ByLayer
370
13
48
1
60
0
100
AcDbLine
10
-150.620991
20
-9.387503
30
0
11
-148.919514
21
-9.387497
31
0
39
0
210
0
220
0
230
1
0
LINE
5
128
100
AcDbEntity
8
SK2
62
256
6
ByLayer
370
13
48
1
60
0
100
AcDbLine
10
-149.770252
20
12.4375
30
0
11
-148.919514
21
9.262503
31
0
39
0
210
0
220
0
230
1
0
LINE
5
129
100
AcDbEntity
8
SK2
62
256
6
ByLayer
370
13
48
1
60
0
100
AcDbLine
10
-149.770252
20
12.4375
30
0
11
-150.620991
21
9.262497
31
0
39
0
210
0
220
0
230
1
0
LINE
5
12A
100
AcDbEntity
8
SK2
62
256
6
ByLayer
370
13
48
1
60
0
100
AcDbLine
10
-148.919514
20
9.262503
30
0
11
-150.620991
21
9.262497
31
0
39
0
210
0
220
0
230
1
0
ENDBLK
5
12C
100
AcDbEntity
8
0
100
AcDbBlockEnd
0
BLOCK
5
12F
100
AcDbEntity
8
0
100
AcDbBlockBegin
2
_CLOSED
70
0
10
0
20
0
30
0
3
_CLOSED
0
LINE
5
131
100
AcDbEntity
8
0
62
256
6
ByLayer
370
-2
48
1
60
0
100
AcDbLine
10
-1
20
0.166667
30
0
11
0
21
0
31
0
39
0
210
0
220
0
230
1
0
LINE
5
132
100
AcDbEntity
8
0
62
256
6
ByLayer
370
-2
48
1
60
0
100
AcDbLine
10
0
20
0
30
0
11
-1
21
-0.166667
31
0
39
0
210
0
220
0
230
1
0
LINE
5
133
100
AcDbEntity
8
0
62
256
6
ByLayer
370
-2
48
1
60
0
100
AcDbLine
10
-1
20
0.166667
30
0
11
-1
21
-0.166667
31
0
39
0
210
0
220
0
230
1
0
LINE
5
134
100
AcDbEntity
8
0
62
256
6
ByLayer
370
-2
48
1
60
0
100
AcDbLine
10
0
20
0
30
0
11
-1
21
0
31
0
39
0
210
0
220
0
230
1
0
ENDBLK
5
130
100
AcDbEntity
8
0
100
AcDbBlockEnd
0
BLOCK
5
141
100
AcDbEntity
8
0
100
AcDbBlockBegin
2
DimnDraft3D2
70
0
10
0
20
0
30
0
3
DimnDraft3D2
0
MTEXT
5
136
100
AcDbEntity
8
2
62
256
6
ByLayer
370
13
48
1
60
0
100
AcDbMText
10
46.704748
20
-5.300658
30
0
210
0
220
0
230
1
1
\W0.6740;32
40
4.5
41
0
44
1.084337
50
90
71
7
72
5
7
iso_b_vert
0
LINE
5
138
100
AcDbEntity
8
2
62
256
6
ByLayer
370
13
48
1
60
0
100
AcDbLine
10
32.917248
20
-19.9125
30
0
11
51.004748
21
-19.9125
31
0
39
0
210
0
220
0
230
1
0
LINE
5
139
100
AcDbEntity
8
2
62
256
6
ByLayer
370
13
48
1
60
0
100
AcDbLine
10
1.5875
20
12.4375
30
0
11
51.004748
21
12.4375
31
0
39
0
210
0
220
0
230
1
0
LINE
5
13A
100
AcDbEntity
8
2
62
256
6
ByLayer
370
13
48
1
60
0
100
AcDbLine
10
47.829748
20
-19.9125
30
0
11
47.829748
21
12.4375
31
0
39
0
210
0
220
0
230
1
0
LINE
5
13B
100
AcDbEntity
8
2
62
256
6
ByLayer
370
13
48
1
60
0
100
AcDbLine
10
47.829748
20
-19.9125
30
0
11
46.979009
21
-16.737503
31
0
39
0
210
0
220
0
230
1
0
LINE
5
13C
100
AcDbEntity
8
2
62
256
6
ByLayer
370
13
48
1
60
0
100
AcDbLine
10
47.829748
20
-19.9125
30
0
11
48.680486
21
-16.737497
31
0
39
0
210
0
220
0
230
1
0
LINE
5
13D
100
AcDbEntity
8
2
62
256
6
ByLayer
370
13
48
1
60
0
100
AcDbLine
10
46.979009
20
-16.737503
30
0
11
48.680486
21
-16.737497
31
0
39
0
210
0
220
0
230
1
0
LINE
5
13E
100
AcDbEntity
8
2
62
256
6
ByLayer
370
13
48
1
60
0
100
AcDbLine
10
47.829748
20
12.4375
30
0
11
48.680486
21
9.262503
31
0
39
0
210
0
220
0
230
1
0
LINE
5
13F
100
AcDbEntity
8
2
62
256
6
ByLayer
370
13
48
1
60
0
100
AcDbLine
10
47.829748
20
12.4375
30
0
11
46.979009
21
9.262497
31
0
39
0
210
0
220
0
230
1
0
LINE
5
140
100
AcDbEntity
8
2
62
256
6
ByLayer
370
13
48
1
60
0
100
AcDbLine
10
48.680486
20
9.262503
30
0
11
46.979009
21
9.262497
31
0
39
0
210
0
220
0
230
1
0
ENDBLK
5
142
100
AcDbEntity
8
0
100
AcDbBlockEnd
0
BLOCK
5
14F
100
AcDbEntity
8
0
100
AcDbBlockBegin
2
DimnDraft3D3
70
0
10
0
20
0
30
0
3
DimnDraft3D3
0
MTEXT
5
145
100
AcDbEntity
8
SK2
62
256
6
ByLayer
370
13
48
1
60
0
100
AcDbMText
10
-57.027489
20
-45.2875
30
0
210
0
220
0
230
1
1
\W0.6217;170
40
4.5
41
0
44
1.084337
50
0
71
7
72
5
7
iso_b_vert
0
LINE
5
146
100
AcDbEntity
8
SK2
62
256
6
ByLayer
370
13
48
1
60
0
100
AcDbLine
10
-140.020252
20
-14.15
30
0
11
-140.020252
21
-49.5875
31
0
39
0
210
0
220
0
230
1
0
LINE
5
147
100
AcDbEntity
8
SK2
62
256
6
ByLayer
370
13
48
1
60
0
100
AcDbLine
10
31.329748
20
-21.5
30
0
11
31.329748
21
-49.5875
31
0
39
0
210
0
220
0
230
1
0
LINE
5
148
100
AcDbEntity
8
SK2
62
256
6
ByLayer
370
13
48
1
60
0
100
AcDbLine
10
-140.020252
20
-46.4125
30
0
11
31.329748
21
-46.4125
31
0
39
0
210
0
220
0
230
1
0
LINE
5
149
100
AcDbEntity
8
SK2
62
256
6
ByLayer
370
13
48
1
60
0
100
AcDbLine
10
-140.020252
20
-46.4125
30
0
11
-136.845256
21
-45.561761
31
0
39
0
210
0
220
0
230
1
0
LINE
5
14A
100
AcDbEntity
8
SK2
62
256
6
ByLayer
370
13
48
1
60
0
100
AcDbLine
10
-140.020252
20
-46.4125
30
0
11
-136.845249
21
-47.263239
31
0
39
0
210
0
220
0
230
1
0
LINE
5
14B
100
AcDbEntity
8
SK2
62
256
6
ByLayer
370
13
48
1
60
0
100
AcDbLine
10
-136.845256
20
-45.561761
30
0
11
-136.845249
21
-47.263239
31
0
39
0
210
0
220
0
230
1
0
LINE
5
14C
100
AcDbEntity
8
SK2
62
256
6
ByLayer
370
13
48
1
60
0
100
AcDbLine
10
31.329748
20
-46.4125
30
0
11
28.154751
21
-47.263239
31
0
39
0
210
0
220
0
230
1
0
LINE
5
14D
100
AcDbEntity
8
SK2
62
256
6
ByLayer
370
13
48
1
60
0
100
AcDbLine
10
31.329748
20
-46.4125
30
0
11
28.154744
21
-45.561761
31
0
39
0
210
0
220
0
230
1
0
LINE
5
14E
100
AcDbEntity
8
SK2
62
256
6
ByLayer
370
13
48
1
60
0
100
AcDbLine
10
28.154751
20
-47.263239
30
0
11
28.154744
21
-45.561761
31
0
39
0
210
0
220
0
230
1
0
ENDBLK
5
150
100
AcDbEntity
8
0
100
AcDbBlockEnd
0
BLOCK
5
15D
100
AcDbEntity
8
0
100
AcDbBlockBegin
2
DimnDraft3D4
70
0
10
0
20
0
30
0
3
DimnDraft3D4
0
MTEXT
5
153
100
AcDbEntity
8
2
62
256
6
ByLayer
370
13
48
1
60
0
100
AcDbMText
10
12.672963
20
-29.664168
30
0
210
0
220
0
230
1
1
\W0.8292;95%%d0'
40
4.5
41
0
44
1.084337
50
312.5
71
7
72
5
7
iso_b_vert
0
LINE
5
154
100
AcDbEntity
8
2
62
256
6
ByLayer
370
13
48
1
60
0
100
AcDbLine
10
16.931022
20
-18.725251
30
0
11
6.828945
21
-17.841434
31
0
39
0
210
0
220
0
230
1
0
LINE
5
155
100
AcDbEntity
8
2
62
256
6
ByLayer
370
13
48
1
60
0
100
AcDbLine
10
31.329748
20
-21.5
30
0
11
31.329748
21
-44.579368
31
0
39
0
210
0
220
0
230
1
0
ARC
5
156
100
AcDbEntity
8
2
62
256
6
ByLayer
370
13
48
1
60
0
100
AcDbCircle
39
0
10
31.329748
20
-19.984976
30
0
40
21.4193920057133
210
0
220
0
230
1
100
AcDbArc
50
175
51
270
0
LINE
5
157
100
AcDbEntity
8
2
62
256
6
ByLayer
370
13
48
1
60
0
100
AcDbLine
10
9.991863
20
-18.118153
30
0
11
10.681966
21
-21.331892
31
0
39
0
210
0
220
0
230
1
0
LINE
5
158
100
AcDbEntity
8
2
62
256
6
ByLayer
370
13
48
1
60
0
100
AcDbLine
10
9.991863
20
-18.118153
30
0
11
8.982638
21
-21.24639
31
0
39
0
210
0
220
0
230
1
0
LINE
5
159
100
AcDbEntity
8
2
62
256
6
ByLayer
370
13
48
1
60
0
100
AcDbLine
10
10.681966
20
-21.331892
30
0
11
8.982638
21
-21.24639
31
0
39
0
210
0
220
0
230
1
0
LINE
5
15A
100
AcDbEntity
8
2
62
256
6
ByLayer
370
13
48
1
60
0
100
AcDbLine
10
31.329748
20
-41.404368
30
0
11
28.125461
21
-42.137109
31
0
39
0
210
0
220
0
230
1
0
LINE
5
15B
100
AcDbEntity
8
2
62
256
6
ByLayer
370
13
48
1
60
0
100
AcDbLine
10
31.329748
20
-41.404368
30
0
11
28.188378
21
-40.436795
31
0
39
0
210
0
220
0
230
1
0
LINE
5
15C
100
AcDbEntity
8
2
62
256
6
ByLayer
370
13
48
1
60
0
100
AcDbLine
10
28.125461
20
-42.137109
30
0
11
28.188378
21
-40.436795
31
0
39
0
210
0
220
0
230
1
0
ENDBLK
5
15E
100
AcDbEntity
8
0
100
AcDbBlockEnd
0
ENDSEC
0
SECTION
2
ENTITIES
0
ARC
5
C5
100
AcDbEntity
8
1
62
256
6
ByLayer
370
18
48
1
60
0
100
AcDbCircle
39
0
10
0
20
-14.0375
30
0
40
1.60000000000086
210
0
220
0
230
-1
100
AcDbArc
50
90
51
165
0
ELLIPSE
5
C6
100
AcDbEntity
8
1
62
256
6
ByLayer
370
18
48
1
60
0
100
AcDbEllipse
10
19.856057
20
-4.124532
30
0
11
1.74598052191911
21
1.74598052191899
31
0
210
0
220
0
230
1
40
0.989133
41
-0.698131700797694
42
-0.167889725067488
0
ELLIPSE
5
C7
100
AcDbEntity
8
1
62
256
6
ByLayer
370
18
48
1
60
0
100
AcDbEllipse
10
12.041317
20
-2.783272
30
0
11
-1.13137084989852
21
-1.13137084989844
31
0
210
0
220
0
230
1
40
0.989133
41
-0.0279863482934572
42
9.04981503226449E-06
0
ELLIPSE
5
C8
100
AcDbEntity
8
1
62
256
6
ByLayer
370
18
48
1
60
0
100
AcDbEllipse
10
21.752173
20
3.900873
30
0
11
-1.345476609341
21
-0.865847962240634
31
0
210
0
220
0
230
1
40
0.143753
41
-1.53962691678245
42
-0.521137805760168
0
ELLIPSE
5
C9
100
AcDbEntity
8
1
62
256
6
ByLayer
370
18
48
1
60
0
100
AcDbEllipse
10
11.874979
20
-2.616934
30
0
11
2.26274169979703
21
2.26274169979687
31
0
210
0
220
0
230
1
40
0.989133
41
3.11360630529631
42
-2.85069847329242
0
ELLIPSE
5
CA
100
AcDbEntity
8
1
62
256
6
ByLayer
370
18
48
1
60
0
100
AcDbEllipse
10
20.881514
20
-0.439108
30
0
11
0.920157177627401
21
-1.30893497487873
31
0
210
0
220
0
230
1
40
0.02553
41
-2.00799398055957
42
-1.71614511482022
0
ELLIPSE
5
CB
100
AcDbEntity
8
1
62
256
6
ByLayer
370
18
48
1
60
0
100
AcDbEllipse
10
19.871833
20
-4.140308
30
0
11
-1.85203935927666
21
-1.85203935927653
31
0
210
0
220
0
230
1
40
0.989133
41
2.44346095279209
42
2.85206449192058
0
ELLIPSE
5
CC
100
AcDbEntity
8
1
62
256
6
ByLayer
370
18
48
1
60
0
100
AcDbEllipse
10
12.738551
20
-3.480506
30
0
11
1.17786298801788
21
1.08305537045451
31
0
210
0
220
0
230
-1
40
0.957934
41
1.70518155267719
42
3.12943130256532
0
ELLIPSE
5
CD
100
AcDbEntity
8
1
62
256
6
ByLayer
370
18
48
1
60
0
100
AcDbEllipse
10
0
20
12.444481
30
0
11
1.59999999949938
21
1.61702248762583E-15
31
0
210
0
220
0
230
-1
40
0.004363
41
1.47051820645774
42
1.57079632614705
0
ELLIPSE
5
CE
100
AcDbEntity
8
1
62
256
6
ByLayer
370
18
48
1
60
0
100
AcDbEllipse
10
18.903946
20
2.324301
30
0
11
2.26274169979703
21
2.26274169979687
31
0
210
0
220
0
230
1
40
0.989133
41
-1.7453292519943
42
-0.211335973751689
0
ELLIPSE
5
CF
100
AcDbEntity
8
1
62
256
6
ByLayer
370
18
48
1
60
0
100
AcDbEllipse
10
19.755377
20
1.47287
30
0
11
1.17786298802381
21
1.08305537044591
31
0
210
0
220
0
230
-1
40
0.957934
41
0.171188274427596
42
1.70518155267039
0
ELLIPSE
5
D0
100
AcDbEntity
8
1
62
256
6
ByLayer
370
18
48
1
60
0
100
AcDbEllipse
10
20.635769
20
-4.904245
30
0
11
-1.79157841689393
21
-1.7915784168938
31
0
210
0
220
0
230
1
40
0.989133
41
2.4434609527921
42
-2.13705220807579
0
ELLIPSE
5
D1
100
AcDbEntity
8
1
62
256
6
ByLayer
370
18
48
1
60
0
100
AcDbEllipse
10
20.590562
20
-13.481652
30
0
11
-1.83847763108509
21
-1.83847763108496
31
0
210
0
220
0
230
1
40
0.989133
41
-0.698131700797687
42
-0.356793928598286
0
ELLIPSE
5
D2
100
AcDbEntity
8
1
62
256
6
ByLayer
370
18
48
1
60
0
100
AcDbEllipse
10
19.975271
20
-4.96561
30
0
11
1.79157841689393
21
1.7915784168938
31
0
210
0
220
0
230
1
40
0.989133
41
0.740788806480429
42
2.4434609527921
0
ELLIPSE
5
D3
100
AcDbEntity
8
1
62
256
6
ByLayer
370
18
48
1
60
0
100
AcDbEllipse
10
3.00124
20
2.124283
30
0
11
0.0150203723987697
21
-2.30331797244229
31
0
210
0
220
0
230
-1
40
0.179884
41
1.75716448579785
42
-2.95522449458567
0
ELLIPSE
5
D4
100
AcDbEntity
8
1
62
256
6
ByLayer
370
18
48
1
60
0
100
AcDbEllipse
10
22.799623
20
-6.102316
30
0
11
0.0138248362459728
21
-0.151738984750343
31
0
210
0
220
0
230
-1
40
0.081741
41
1.68018689095991
42
-3.02056656109423
0
ELLIPSE
5
D5
100
AcDbEntity
8
1
62
256
6
ByLayer
370
18
48
1
60
0
100
AcDbEllipse
10
9.716832
20
-4.982499
30
0
11
-1.16292437831179
21
-1.09891168449887
31
0
210
0
220
0
230
1
40
0.146966
41
-3.13743335116658
42
-1.56663702437165
0
ELLIPSE
5
D6
100
AcDbEntity
8
1
62
256
6
ByLayer
370
18
48
1
60
0
100
AcDbEllipse
10
20.360673
20
-10.680337
30
0
11
-1.83847763108509
21
-1.83847763108496
31
0
210
0
220
0
230
1
40
0.989133
41
-1.03946947299723
42
-0.698131700797692
0
ELLIPSE
5
D7
100
AcDbEntity
8
1
62
256
6
ByLayer
370
18
48
1
60
0
100
AcDbEllipse
10
20.477962
20
5.880921
30
0
11
4.62382333868658
21
-4.2285688027909
31
0
210
0
220
0
230
-1
40
0.001676
41
3.10407813350046
42
-1.6083108468903
0
ELLIPSE
5
D8
100
AcDbEntity
8
1
62
256
6
ByLayer
370
18
48
1
60
0
100
AcDbEllipse
10
22.319249
20
-3.912726
30
0
11
-0.149497441244717
21
-0.0122684579830755
31
0
210
0
220
0
230
1
40
0.112627
41
-3.05797386553946
42
-1.47554201039836
0
ELLIPSE
5
D9
100
AcDbEntity
8
1
62
256
6
ByLayer
370
18
48
1
60
0
100
AcDbEllipse
10
12.553382
20
-8.786342
30
0
11
-2.82842712474629
21
-2.82842712474609
31
0
210
0
220
0
230
1
40
0.989133
41
-2.19682214961946
42
-4.48968146700254E-16
0
ELLIPSE
5
DA
100
AcDbEntity
8
1
62
256
6
ByLayer
370
18
48
1
60
0
100
AcDbEllipse
10
12.553382
20
-8.786342
30
0
11
-2.82842712474629
21
-2.82842712474609
31
0
210
0
220
0
230
1
40
0.989133
41
0
42
2.35073128370055
0
ELLIPSE
5
DB
100
AcDbEntity
8
1
62
256
6
ByLayer
370
18
48
1
60
0
100
AcDbEllipse
10
12.553382
20
-8.786342
30
0
11
-2.82842712474629
21
-2.82842712474609
31
0
210
0
220
0
230
1
40
0.989133
41
2.35073131423668
42
-2.55741805204269
0
ELLIPSE
5
DC
100
AcDbEntity
8
1
62
256
6
ByLayer
370
18
48
1
60
0
100
AcDbEllipse
10
12.113104
20
-8.346064
30
0
11
-1.09955104474512
21
-1.09955104474504
31
0
210
0
220
0
230
1
40
0.989133
41
0.147100258449191
42
2.35073145809447
0
ELLIPSE
5
DD
100
AcDbEntity
8
1
62
256
6
ByLayer
370
18
48
1
60
0
100
AcDbEllipse
10
12.113104
20
-8.346064
30
0
11
-1.09955104474512
21
-1.09955104474504
31
0
210
0
220
0
230
1
40
0.989133
41
2.35073145809447
42
2.89138010558391
0
ELLIPSE
5
DE
100
AcDbEntity
8
1
62
256
6
ByLayer
370
18
48
1
60
0
100
AcDbEllipse
10
12.217066
20
-8.450026
30
0
11
1.09955104474512
21
1.09955104474504
31
0
210
0
220
0
230
1
40
0.989133
41
-0.389336535592845
42
-0.166182412197952
0
ELLIPSE
5
DF
100
AcDbEntity
8
1
62
256
6
ByLayer
370
18
48
1
60
0
100
AcDbEllipse
10
12.217066
20
-8.450026
30
0
11
1.09955104474512
21
1.09955104474504
31
0
210
0
220
0
230
1
40
0.989133
41
-3.05968109949347
42
-2.92678904319623
0
ELLIPSE
5
E0
100
AcDbEntity
8
1
62
256
6
ByLayer
370
18
48
1
60
0
100
AcDbEllipse
10
17.953577
20
-6.536329
30
0
11
-0.561266007566842
21
-0.561266007566802
31
0
210
0
220
0
230
1
40
0.989133
41
-2.44346095279204
42
-1.76894592413173
0
ELLIPSE
5
E1
100
AcDbEntity
8
1
62
256
6
ByLayer
370
18
48
1
60
0
100
AcDbEllipse
10
23.999379
20
-12.582131
30
0
11
1.82292128189899
21
1.82292128189885
31
0
210
0
220
0
230
1
40
0.989133
41
-3.00381882042139
42
-2.04602580591504
0
ELLIPSE
5
E2
100
AcDbEntity
8
1
62
256
6
ByLayer
370
18
48
1
60
0
100
AcDbEllipse
10
23.999379
20
-12.582131
30
0
11
1.82292128189899
21
1.82292128189885
31
0
210
0
220
0
230
1
40
0.989133
41
-0.728520374746115
42
-0.137802601012943
0
ELLIPSE
5
E3
100
AcDbEntity
8
1
62
256
6
ByLayer
370
18
48
1
60
0
100
AcDbEllipse
10
29.128144
20
-7.453366
30
0
11
-0.561266007566842
21
-0.561266007566802
31
0
210
0
220
0
230
1
40
0.989133
41
-3.14159261094364
42
-2.80729722215594
0
ELLIPSE
5
E4
100
AcDbEntity
8
1
62
256
6
ByLayer
370
18
48
1
60
0
100
AcDbEllipse
10
18.870614
20
-17.710897
30
0
11
-0.561266007566842
21
-0.561266007566802
31
0
210
0
220
0
230
1
40
0.989133
41
-0.334296618414546
42
-1.23103759157164E-06
0
ELLIPSE
5
E5
100
AcDbEntity
8
1
62
256
6
ByLayer
370
18
48
1
60
0
100
AcDbEllipse
10
23.728912
20
-13.016606
30
0
11
1.83847763108509
21
1.83847763108496
31
0
210
0
220
0
230
1
40
0.989133
41
2.01404084771443E-05
42
0.523043975281427
0
ELLIPSE
5
E6
100
AcDbEntity
8
1
62
256
6
ByLayer
370
18
48
1
60
0
100
AcDbEllipse
10
24.108706
20
-11.986516
30
0
11
1.83847763108509
21
1.83847763108496
31
0
210
0
220
0
230
1
40
0.989133
41
3.08642387268686
42
-3.14158824403241
0
ELLIPSE
5
E7
100
AcDbEntity
8
1
62
256
6
ByLayer
370
18
48
1
60
0
100
AcDbEllipse
10
24.178931
20
-12.552498
30
0
11
-1.66170093578845
21
-1.66170093578833
31
0
210
0
220
0
230
1
40
0.989133
41
-0.499077008529021
42
-3.0626690677283E-05
0
ELLIPSE
5
E8
100
AcDbEntity
8
1
62
256
6
ByLayer
370
18
48
1
60
0
100
AcDbEllipse
10
23.21187
20
-11.794622
30
0
11
-2.01525432638173
21
-2.01525432638159
31
0
210
0
220
0
230
1
40
0.989133
41
2.45638617854516
42
2.66020221128007
0
ELLIPSE
5
E9
100
AcDbEntity
8
1
62
256
6
ByLayer
370
18
48
1
60
0
100
AcDbEllipse
10
23.21187
20
-11.794622
30
0
11
-2.01525432638173
21
-2.01525432638159
31
0
210
0
220
0
230
1
40
0.989133
41
0.481355989815911
42
0.731747824064948
0
ELLIPSE
5
EA
100
AcDbEntity
8
1
62
256
6
ByLayer
370
18
48
1
60
0
100
AcDbEllipse
10
23.4016
20
-11.984352
30
0
11
1.96222131779274
21
1.9622213177926
31
0
210
0
220
0
230
1
40
0.989133
41
-2.72660739353155
42
-2.36584099144599
0
ELLIPSE
5
EB
100
AcDbEntity
8
1
62
256
6
ByLayer
370
18
48
1
60
0
100
AcDbEllipse
10
23.4016
20
-11.984352
30
0
11
1.96222131779274
21
1.9622213177926
31
0
210
0
220
0
230
1
40
0.989133
41
-0.715665328278468
42
-0.415006261550551
0
ELLIPSE
5
EC
100
AcDbEntity
8
1
62
256
6
ByLayer
370
18
48
1
60
0
100
AcDbEllipse
10
18.448694
20
-7.031446
30
0
11
0.561266007566842
21
0.561266007566802
31
0
210
0
220
0
230
1
40
0.989133
41
0.698131700797714
42
2.44346095279209
0
ELLIPSE
5
ED
100
AcDbEntity
8
1
62
256
6
ByLayer
370
18
48
1
60
0
100
AcDbEllipse
10
24.494496
20
-13.077249
30
0
11
1.82292128189899
21
1.82292128189885
31
0
210
0
220
0
230
1
40
0.989133
41
0
42
6.28318530717959
0
ELLIPSE
5
EE
100
AcDbEntity
8
1
62
256
6
ByLayer
370
18
48
1
60
0
100
AcDbEllipse
10
19.365731
20
-18.206014
30
0
11
0.561266007566842
21
0.561266007566802
31
0
210
0
220
0
230
1
40
0.989133
41
2.44346095279207
42
-2.44346095279203
0
ELLIPSE
5
EF
100
AcDbEntity
8
1
62
256
6
ByLayer
370
18
48
1
60
0
100
AcDbEllipse
10
30.540299
20
-19.123051
30
0
11
0.561266007566842
21
0.561266007566802
31
0
210
0
220
0
230
1
40
0.989133
41
-2.44346095279208
42
-0.698131700797726
0
ELLIPSE
5
F0
100
AcDbEntity
8
1
62
256
6
ByLayer
370
18
48
1
60
0
100
AcDbEllipse
10
29.623261
20
-7.948484
30
0
11
0.561266007566842
21
0.561266007566802
31
0
210
0
220
0
230
1
40
0.989133
41
-0.698131700797686
42
0.698131700797742
0
ELLIPSE
5
F1
100
AcDbEntity
8
1
62
256
6
ByLayer
370
18
48
1
60
0
100
AcDbEllipse
10
24.428221
20
-13.010973
30
0
11
1.30814754519516
21
1.30814754519507
31
0
210
0
220
0
230
1
40
0.989133
41
1.66381486015161
42
2.35044241943549
0
ELLIPSE
5
F2
100
AcDbEntity
8
1
62
256
6
ByLayer
370
18
48
1
60
0
100
AcDbEllipse
10
24.618118
20
-12.495928
30
0
11
1.4849242404918
21
1.4849242404917
31
0
210
0
220
0
230
1
40
0.989133
41
2.59963457632395
42
-1.72696995032663
0
ELLIPSE
5
F3
100
AcDbEntity
8
1
62
256
6
ByLayer
370
18
48
1
60
0
100
AcDbEllipse
10
24.186343
20
-13.474037
30
0
11
-1.83847763108509
21
-1.83847763108496
31
0
210
0
220
0
230
1
40
0.989133
41
2.57573894005773
42
-1.70307431406041
0
ELLIPSE
5
F4
100
AcDbEntity
8
1
62
256
6
ByLayer
370
18
48
1
60
0
100
AcDbEllipse
10
24.566137
20
-12.443948
30
0
11
-1.83847763108509
21
-1.83847763108496
31
0
210
0
220
0
230
1
40
0.989133
41
-0.565853713532063
42
1.43851833952936
0
ELLIPSE
5
F5
100
AcDbEntity
8
1
62
256
6
ByLayer
370
18
48
1
60
0
100
AcDbEllipse
10
24.238324
20
-13.526018
30
0
11
1.4849242404918
21
1.4849242404917
31
0
210
0
220
0
230
1
40
0.989133
41
-0.541958077265842
42
1.41462270326315
0
ELLIPSE
5
F6
100
AcDbEntity
8
1
62
256
6
ByLayer
370
18
48
1
60
0
100
AcDbEllipse
10
24.37624
20
-12.958992
30
0
11
-1.66170093578845
21
-1.66170093578833
31
0
210
0
220
0
230
1
40
0.989133
41
1.63703564964516
42
2.37722162994194
0
ELLIPSE
5
F7
100
AcDbEntity
8
1
62
256
6
ByLayer
370
18
48
1
60
0
100
AcDbEllipse
10
24.428221
20
-13.010973
30
0
11
1.30814754519516
21
1.30814754519507
31
0
210
0
220
0
230
1
40
0.989133
41
-1.4777777934382
42
-0.791150234154303
0
ELLIPSE
5
F8
100
AcDbEntity
8
1
62
256
6
ByLayer
370
18
48
1
60
0
100
AcDbEllipse
10
24.37624
20
-12.958992
30
0
11
-1.66170093578845
21
-1.66170093578833
31
0
210
0
220
0
230
1
40
0.989133
41
-1.50455700394461
42
-0.764371023647858
0
ELLIPSE
5
F9
100
AcDbEntity
8
1
62
256
6
ByLayer
370
18
48
1
60
0
100
AcDbEllipse
10
12.217066
20
-8.450026
30
0
11
1.09955104474512
21
1.09955104474504
31
0
210
0
220
0
230
1
40
0.989133
41
-2.48373163798605
42
-1.87959149199965
0
ELLIPSE
5
FA
100
AcDbEntity
8
1
62
256
6
ByLayer
370
18
48
1
60
0
100
AcDbEllipse
10
12.61056
20
-8.843521
30
0
11
1.09955104474512
21
1.09955104474504
31
0
210
0
220
0
230
1
40
0.989133
41
0.214803610393541
42
0.657861015603758
0
ELLIPSE
5
FB
100
AcDbEntity
8
1
62
256
6
ByLayer
370
18
48
1
60
0
100
AcDbEllipse
10
12.61056
20
-8.843521
30
0
11
1.09955104474512
21
1.09955104474504
31
0
210
0
220
0
230
1
40
0.989133
41
-1.87959149199964
42
-1.43653408678947
0
ELLIPSE
5
FC
100
AcDbEntity
8
1
62
256
6
ByLayer
370
18
48
1
60
0
100
AcDbEllipse
10
12.61056
20
-8.843521
30
0
11
1.09955104474512
21
1.09955104474504
31
0
210
0
220
0
230
1
40
0.989133
41
2.30919871278676
42
2.75225611799695
0
ELLIPSE
5
FD
100
AcDbEntity
8
1
62
256
6
ByLayer
370
18
48
1
60
0
100
AcDbEllipse
10
12.632912
20
-8.865872
30
0
11
-2.28749043713856
21
-2.2874904371384
31
0
210
0
220
0
230
1
40
0.989133
41
0
42
6.28318530717959
0
ELLIPSE
5
FE
100
AcDbEntity
8
1
62
256
6
ByLayer
370
18
48
1
60
0
100
AcDbEllipse
10
12.632912
20
-8.865872
30
0
11
-1.36287119209432
21
-1.36287119209422
31
0
210
0
220
0
230
1
40
0.989133
41
0
42
6.28318530717959
0
ELLIPSE
5
FF
100
AcDbEntity
8
1
62
256
6
ByLayer
370
18
48
1
60
0
100
AcDbEllipse
10
12.217066
20
-8.450026
30
0
11
1.09955104474512
21
1.09955104474504
31
0
210
0
220
0
230
1
40
0.989133
41
-1.43653408678948
42
-0.832393940803051
0
ELLIPSE
5
100
100
AcDbEntity
8
1
62
256
6
ByLayer
370
18
48
1
60
0
100
AcDbEllipse
10
12.61056
20
-8.843521
30
0
11
1.09955104474512
21
1.09955104474504
31
0
210
0
220
0
230
1
40
0.989133
41
1.26200116159016
42
1.70505856680035
0
ELLIPSE
5
101
100
AcDbEntity
8
1
62
256
6
ByLayer
370
18
48
1
60
0
100
AcDbEllipse
10
12.61056
20
-8.843521
30
0
11
1.09955104474512
21
1.09955104474504
31
0
210
0
220
0
230
1
40
0.989133
41
-2.92678904319621
42
-2.48373163798605
0
ELLIPSE
5
102
100
AcDbEntity
8
1
62
256
6
ByLayer
370
18
48
1
60
0
100
AcDbEllipse
10
12.61056
20
-8.843521
30
0
11
1.09955104474512
21
1.09955104474504
31
0
210
0
220
0
230
1
40
0.989133
41
-0.832393940803051
42
-0.389336535592845
0
POINT
5
6C
100
AcDbEntity
8
80
62
256
6
ByLayer
370
18
48
1
60
0
100
AcDbPoint
10
0
20
0
30
0
39
0
210
0
220
0
230
1
50
360
0
POINT
5
6E
100
AcDbEntity
8
81
62
256
6
ByLayer
370
18
48
1
60
0
100
AcDbPoint
10
29.979748
20
-19.5625
30
0
39
0
210
0
220
0
230
1
50
360
0
POINT
5
70
100
AcDbEntity
8
1
62
256
6
ByLayer
370
18
48
1
60
0
100
AcDbPoint
10
-140.020252
20
12.4375
30
0
39
0
210
0
220
0
230
1
50
360
0
SPLINE
5
103
100
AcDbEntity
8
1
62
256
6
ByLayer
370
18
48
1
60
0
100
AcDbSpline
70
4
71
2
72
6
73
3
40
0
40
0
40
0
40
1
40
1
40
1
41
1
10
22.7263027808052
20
-14.3955071211715
30
0
41
1
10
22.6235877806793
20
-14.3323408227268
30
0
41
1
10
22.5513409184656
20
-14.2319847344444
30
0
0
SPLINE
5
104
100
AcDbEntity
8
1
62
256
6
ByLayer
370
18
48
1
60
0
100
AcDbSpline
70
4
71
3
72
18
73
14
40
0
40
0
40
0
40
0
40
0.250000000000012
40
0.250000000000012
40
0.375000000000017
40
0.375000000000017
40
0.500000000000023
40
0.500000000000023
40
0.625000000000029
40
0.625000000000029
40
0.750000000000035
40
0.750000000000035
40
1
40
1
40
1
40
1
41
1
10
1.37764009678784
20
13.00043378
30
0
41
1
10
1.31813750395389
20
12.9307886111517
30
0
41
1
10
1.24887265258934
20
12.8616937414599
30
0
41
1
10
1.1284631231639
20
12.7638564804569
30
0
41
1
10
1.08554641825009
20
12.7321816683506
30
0
41
1
10
0.993384925320413
20
12.6714423792022
30
0
41
1
10
0.944015180954978
20
12.6423613258846
30
0
41
1
10
0.840794069546405
20
12.5890833522623
30
0
41
1
10
0.786665131261088
20
12.564678078075
30
0
41
1
10
0.672787848059045
20
12.5211394270386
30
0
41
1
10
0.612458018324674
20
12.5018666102019
30
0
41
1
10
0.42635947954227
20
12.454837922877
30
0
41
1
10
0.296563257728963
20
12.4375949486303
30
0
41
1
10
0.160176228795081
20
12.4375350718385
30
0
0
SPLINE
5
105
100
AcDbEntity
8
1
62
256
6
ByLayer
370
18
48
1
60
0
100
AcDbSpline
70
4
71
3
72
18
73
14
40
0
40
0
40
0
40
0
40
0.0975565125830279
40
0.0975565125830279
40
0.278045210066422
40
0.278045210066422
40
0.639022605033214
40
0.639022605033214
40
0.729266953774911
40
0.729266953774911
40
0.819511302516609
40
0.819511302516609
40
1
40
1
40
1
40
1
41
1
10
21.9641571804798
20
-13.3350085267999
30
0
41
1
10
21.9760349081786
20
-13.3605362944061
30
0
41
1
10
21.9882404980839
20
-13.3855489823214
30
0
41
1
10
22.023818051355
20
-13.4552675834159
30
0
41
1
10
22.0478454222454
20
-13.4985640285019
30
0
41
1
10
22.1200247317212
20
-13.6197475784451
30
0
41
1
10
22.1698250704724
20
-13.690699240105
30
0
41
1
10
22.2178020685244
20
-13.7539430220991
30
0
41
1
10
22.2266481311383
20
-13.7653159406128
30
0
41
1
10
22.2421215985195
20
-13.7849524162798
30
0
41
1
10
22.2487115369467
20
-13.7931692346578
30
0
41
1
10
22.2632224730079
20
-13.8113728850341
30
0
41
1
10
22.2659535401535
20
-13.8151250312149
30
0
41
1
10
22.2589702910602
20
-13.8081417821215
30
0
0
SPLINE
5
106
100
AcDbEntity
8
1
62
256
6
ByLayer
370
18
48
1
60
0
100
AcDbSpline
70
4
71
3
72
20
73
16
40
0
40
0
40
0
40
0
40
0.171873717182783
40
0.171873717182783
40
0.309487642186667
40
0.309487642186667
40
0.447101567190551
40
0.447101567190551
40
0.722329417198318
40
0.722329417198318
40
0.859943342202201
40
0.859943342202201
40
0.997557267206084
40
0.997557267206084
40
1
40
1
40
1
40
1
41
1
10
26.1047385509541
20
-11.7445180270223
30
0
41
1
10
26.0817885112931
20
-11.6747498275973
30
0
41
1
10
26.0558914213065
20
-11.6057711780169
30
0
41
1
10
26.0036836342496
20
-11.483320186786
30
0
41
1
10
25.9784874918683
20
-11.4294872014014
30
0
41
1
10
25.9239607709991
20
-11.3231796323891
30
0
41
1
10
25.8945280664879
20
-11.2705636501429
30
0
41
1
10
25.8012508365483
20
-11.1173268831929
30
0
41
1
10
25.7321288716894
20
-11.0205554510451
30
0
41
1
10
25.6179471587887
20
-10.8835152677404
30
0
41
1
10
25.5781308616357
20
-10.8391928444039
30
0
41
1
10
25.4948914335688
20
-10.7533331046986
30
0
41
1
10
25.4513990686027
20
-10.71176315181
30
0
41
1
10
25.4060138962192
20
-10.6715783049748
30
0
41
1
10
25.4052219341622
20
-10.6708780365814
30
0
41
1
10
25.4044295743702
20
-10.6701783649459
30
0
0
SPLINE
5
107
100
AcDbEntity
8
1
62
256
6
ByLayer
370
18
48
1
60
0
100
AcDbSpline
70
4
71
3
72
8
73
4
40
0
40
0
40
0
40
0
40
1
40
1
40
1
40
1
41
1
10
22.231128737049
20
-14.242856451957
30
0
41
1
10
22.3799289122274
20
-14.3062802284718
30
0
41
1
10
22.5242029371397
20
-14.3683567539594
30
0
41
1
10
22.6612091572721
20
-14.4282699492703
30
0
0
SPLINE
5
108
100
AcDbEntity
8
1
62
256
6
ByLayer
370
18
48
1
60
0
100
AcDbSpline
70
4
71
3
72
8
73
4
40
0
40
0
40
0
40
0
40
1
40
1
40
1
40
1
41
1
10
22.6262119256382
20
-11.428943278034
30
0
41
1
10
22.7567949952015
20
-11.5673511187905
30
0
41
1
10
22.8874811351847
20
-11.7057528653686
30
0
41
1
10
23.0183762091498
20
-11.844141754411
30
0
0
SPLINE
5
109
100
AcDbEntity
8
1
62
256
6
ByLayer
370
18
48
1
60
0
100
AcDbSpline
70
4
71
3
72
20
73
16
40
0
40
0
40
0
40
0
40
0.25
40
0.25
40
0.499999999999999
40
0.499999999999999
40
0.625
40
0.625
40
0.750000000000001
40
0.750000000000001
40
0.812500000000001
40
0.812500000000001
40
0.875000000000002
40
0.875000000000002
40
1
40
1
40
1
40
1
41
1
10
22.8197010415585
20
-14.4686315804204
30
0
41
1
10
22.7327611092529
20
-14.4081342145759
30
0
41
1
10
22.6523426786437
20
-14.3428413092047
30
0
41
1
10
22.5046810017378
20
-14.2047683567436
30
0
41
1
10
22.4373968587209
20
-14.131891286643
30
0
41
1
10
22.3475943173542
20
-14.0196332386109
30
0
41
1
10
22.3196355254561
20
-13.981842853116
30
0
41
1
10
22.2689986981602
20
-13.9080187796114
30
0
41
1
10
22.2461059289742
20
-13.8716345839764
30
0
41
1
10
22.2171441734644
20
-13.821673198474
30
0
41
1
10
22.2083598040117
20
-13.8057592145819
30
0
41
1
10
22.1928786071326
20
-13.7762746462756
30
0
41
1
10
22.186189804209
20
-13.7627022740461
30
0
41
1
10
22.1708152311407
20
-13.7290512579553
30
0
41
1
10
22.1668095254997
20
-13.7159810165604
30
0
41
1
10
22.1727519100383
20
-13.7219234010989
30
0
0
SPLINE
5
10A
100
AcDbEntity
8
1
62
256
6
ByLayer
370
18
48
1
60
0
100
AcDbSpline
70
4
71
3
72
8
73
4
40
0
40
0
40
0
40
0
40
1
40
1
40
1
40
1
41
1
10
26.7132229595414
20
-12.8970847286975
30
0
41
1
10
26.5649692841973
20
-12.9353284691443
30
0
41
1
10
26.4166208657205
20
-12.9734950565695
30
0
41
1
10
26.2680804908397
20
-13.0115047780902
30
0
0
SPLINE
5
10B
100
AcDbEntity
8
1
62
256
6
ByLayer
370
18
48
1
60
0
100
AcDbSpline
70
4
71
3
72
16
73
12
40
0
40
0
40
0
40
0
40
0.250000000000001
40
0.250000000000001
40
0.500000000000001
40
0.500000000000001
40
0.750000000000002
40
0.750000000000002
40
0.875000000000001
40
0.875000000000001
40
1
40
1
40
1
40
1
41
1
10
22.6612091572716
20
-14.4282699492697
30
0
41
1
10
22.7144653715905
20
-14.4585241587904
30
0
41
1
10
22.767636288085
20
-14.4864952402731
30
0
41
1
10
22.8724788793038
20
-14.5381613614067
30
0
41
1
10
22.9241660790262
20
-14.5618237902935
30
0
41
1
10
23.0208685746549
20
-14.6041130044445
30
0
41
1
10
23.0667783254178
20
-14.6231087776041
30
0
41
1
10
23.1244968003533
20
-14.6473544998295
30
0
41
1
10
23.1418623236818
20
-14.6547349431365
30
0
41
1
10
23.1716742905882
20
-14.6680766005912
30
0
41
1
10
23.1839827734424
20
-14.673994613492
30
0
41
1
10
23.1927573849811
20
-14.6789298864258
30
0
0
SPLINE
5
10C
100
AcDbEntity
8
1
62
256
6
ByLayer
370
18
48
1
60
0
100
AcDbSpline
70
4
71
3
72
8
73
4
40
0
40
0
40
0
40
0
40
1
40
1
40
1
40
1
41
1
10
25.838065367268
20
-14.1778046425485
30
0
41
1
10
25.9343342185469
20
-14.2815673089046
30
0
41
1
10
26.0303608199259
20
-14.3853095168785
30
0
41
1
10
26.1262680098488
20
-14.4890414779945
30
0
0
SPLINE
5
10D
100
AcDbEntity
8
1
62
256
6
ByLayer
370
18
48
1
60
0
100
AcDbSpline
70
4
71
3
72
8
73
4
40
0
40
0
40
0
40
0
40
1
40
1
40
1
40
1
41
1
10
23.1927573849811
20
-14.6789298864257
30
0
41
1
10
23.0604493506981
20
-14.6200293190424
30
0
41
1
10
22.9360485608624
20
-14.5495922880465
30
0
41
1
10
22.8197010415581
20
-14.4686315804201
30
0
0
SPLINE
5
10E
100
AcDbEntity
8
1
62
256
6
ByLayer
370
18
48
1
60
0
100
AcDbSpline
70
4
71
3
72
8
73
4
40
0
40
0
40
0
40
0
40
1
40
1
40
1
40
1
41
1
10
22.5883610855782
20
-13.0104416188693
30
0
41
1
10
22.4051944880112
20
-13.0138251177037
30
0
41
1
10
22.2221865309301
20
-13.0173321665247
30
0
41
1
10
22.0392569759455
20
-13.020900027331
30
0
0
SPLINE
5
10F
100
AcDbEntity
8
1
62
256
6
ByLayer
370
18
48
1
60
0
100
AcDbSpline
70
4
71
3
72
10
73
6
40
0
40
0
40
0
40
0
40
0.5
40
0.5
40
1
40
1
40
1
40
1
41
1
10
10.9885233334545
20
-8.26841480889854
30
0
41
1
10
11.0005653943674
20
-8.35157856289504
30
0
41
1
10
11.0130835642279
20
-8.43626832323451
30
0
41
1
10
11.0389352414225
20
-8.6067793645779
30
0
41
1
10
11.0522776487306
20
-8.69266747664417
30
0
41
1
10
11.0661140615614
20
-8.77930577381645
30
0
0
SPLINE
5
110
100
AcDbEntity
8
1
62
256
6
ByLayer
370
18
48
1
60
0
100
AcDbSpline
70
4
71
3
72
10
73
6
40
0
40
0
40
0
40
0
40
0.5
40
0.5
40
1
40
1
40
1
40
1
41
1
10
12.9155158598558
20
-10.5693685679338
30
0
41
1
10
12.8314778085042
20
-10.53750166854
30
0
41
1
10
12.7468607112543
20
-10.5055965565388
30
0
41
1
10
12.5760957464851
20
-10.4416853133885
30
0
41
1
10
12.4904870659794
20
-10.4098841497686
30
0
41
1
10
12.4054715154288
20
-10.3785852343982
30
0
0
SPLINE
5
111
100
AcDbEntity
8
1
62
256
6
ByLayer
370
18
48
1
60
0
100
AcDbSpline
70
4
71
3
72
8
73
4
40
0
40
0
40
0
40
0
40
1
40
1
40
1
40
1
41
1
10
11.1804723463762
20
-9.44795617132539
30
0
41
1
10
11.2134054770716
20
-9.62885514113782
30
0
41
1
10
11.2472604589968
20
-9.80660852511134
30
0
41
1
10
11.2816735251241
20
-9.98245758688424
30
0
0
SPLINE
5
112
100
AcDbEntity
8
1
62
256
6
ByLayer
370
18
48
1
60
0
100
AcDbSpline
70
4
71
3
72
10
73
6
40
0
40
0
40
0
40
0
40
0.5
40
0.5
40
1
40
1
40
1
40
1
41
1
10
14.2562080029179
20
-9.4422367709976
30
0
41
1
10
14.2389032459782
20
-9.35381032097428
30
0
41
1
10
14.2216413806894
20
-9.26437686520657
30
0
41
1
10
14.1878025214768
20
-9.085878641845
30
0
41
1
10
14.1712105235253
20
-8.99674093913529
30
0
41
1
10
14.1550068241701
20
-8.90773535543877
30
0
0
SPLINE
5
113
100
AcDbEntity
8
1
62
256
6
ByLayer
370
18
48
1
60
0
100
AcDbSpline
70
4
71
3
72
10
73
6
40
0
40
0
40
0
40
0
40
0.5
40
0.5
40
1
40
1
40
1
40
1
41
1
10
12.8156493703027
20
-7.30845589485702
30
0
41
1
10
12.7324846749703
20
-7.27934565888282
30
0
41
1
10
12.6495598051228
20
-7.25061710178647
30
0
41
1
10
12.487436426337
20
-7.19494114659861
30
0
41
1
10
12.4077890704905
20
-7.16783447540945
30
0
41
1
10
12.3292154765167
20
-7.14128301196234
30
0
0
SPLINE
5
114
100
AcDbEntity
8
1
62
256
6
ByLayer
370
18
48
1
60
0
100
AcDbSpline
70
4
71
3
72
8
73
4
40
0
40
0
40
0
40
0
40
1
40
1
40
1
40
1
41
1
10
13.8355596119183
20
-9.77414962770041
30
0
41
1
10
13.9775794007755
20
-9.65918050438245
30
0
41
1
10
14.1175223546809
20
-9.54919892147052
30
0
41
1
10
14.2562080029179
20
-9.4422367709976
30
0
0
SPLINE
5
115
100
AcDbEntity
8
1
62
256
6
ByLayer
370
18
48
1
60
0
100
AcDbSpline
70
4
71
3
72
10
73
6
40
0
40
0
40
0
40
0
40
0.5
40
0.5
40
1
40
1
40
1
40
1
41
1
10
13.9630578112484
20
-7.7281939930119
30
0
41
1
10
13.8790197598968
20
-7.69632709361815
30
0
41
1
10
13.7944026626469
20
-7.66442198161698
30
0
41
1
10
13.6236376978778
20
-7.60051073846662
30
0
41
1
10
13.5380290173721
20
-7.56870957484676
30
0
41
1
10
13.4530134668215
20
-7.53741065947634
30
0
0
SPLINE
5
116
100
AcDbEntity
8
1
62
256
6
ByLayer
370
18
48
1
60
0
100
AcDbSpline
70
4
71
3
72
8
73
4
40
0
40
0
40
0
40
0
40
1
40
1
40
1
40
1
41
1
10
14.0406485393553
20
-8.2390849579298
30
0
41
1
10
14.0125267887521
20
-8.06299736820958
30
0
41
1
10
13.9870052287098
20
-7.89357740611899
30
0
41
1
10
13.9630578112484
20
-7.7281939930119
30
0
0
SPLINE
5
117
100
AcDbEntity
8
1
62
256
6
ByLayer
370
18
48
1
60
0
100
AcDbSpline
70
4
71
3
72
10
73
6
40
0
40
0
40
0
40
0
40
0.5
40
0.5
40
1
40
1
40
1
40
1
41
1
10
11.7681074189101
20
-10.1496304697789
30
0
41
1
10
11.6849427235777
20
-10.1205202338047
30
0
41
1
10
11.6020178537302
20
-10.0917916767083
30
0
41
1
10
11.4398944749444
20
-10.0361157215205
30
0
41
1
10
11.3602471190978
20
-10.0090090503313
30
0
41
1
10
11.2816735251241
20
-9.98245758688424
30
0
0
SPLINE
5
118
100
AcDbEntity
8
1
62
256
6
ByLayer
370
18
48
1
60
0
100
AcDbSpline
70
4
71
3
72
8
73
4
40
0
40
0
40
0
40
0
40
1
40
1
40
1
40
1
41
1
10
11.3855612738132
20
-7.91289150155481
30
0
41
1
10
11.2483528650482
20
-8.03267200496495
30
0
41
1
10
11.1167433330257
20
-8.1509870097598
30
0
41
1
10
10.9885233334545
20
-8.26841480889854
30
0
0
SPLINE
5
119
100
AcDbEntity
8
1
62
256
6
ByLayer
370
18
48
1
60
0
100
AcDbSpline
70
4
71
3
72
10
73
6
40
0
40
0
40
0
40
0
40
0.5
40
0.5
40
1
40
1
40
1
40
1
41
1
10
12.9155158598558
20
-10.5693685679338
30
0
41
1
10
12.9799918329986
20
-10.510319498765
30
0
41
1
10
13.0457179437363
20
-10.4506970923193
30
0
41
1
10
13.1782186062708
20
-10.3319515695828
30
0
41
1
10
13.2450447672837
20
-10.2727794470729
30
0
41
1
10
13.3125538002145
20
-10.21384526059
30
0
0
SPLINE
5
11A
100
AcDbEntity
8
1
62
256
6
ByLayer
370
18
48
1
60
0
100
AcDbSpline
70
4
71
3
72
10
73
6
40
0
40
0
40
0
40
0
40
0.5
40
0.5
40
1
40
1
40
1
40
1
41
1
10
12.3292154765167
20
-7.14128301196234
30
0
41
1
10
12.259476807347
20
-7.19506938510432
30
0
41
1
10
12.1890070011811
20
-7.24994809612181
30
0
41
1
10
12.0485191566285
20
-7.36070643684008
30
0
41
1
10
11.9784434049721
20
-7.41662896870656
30
0
41
1
10
11.9085670855171
20
-7.47319586866519
30
0
0
LINE
5
72
100
AcDbEntity
8
1
62
256
6
ByLayer
370
18
48
1
60
0
100
AcDbLine
10
26.02482
20
-11.63556
30
0
11
25.567389
21
-11.178128
31
0
39
0
210
0
220
0
230
1
0
LINE
5
73
100
AcDbEntity
8
1
62
256
6
ByLayer
370
18
48
1
60
0
100
AcDbLine
10
30.184528
20
-7.387218
30
0
11
29.68941
21
-6.8921
31
0
39
0
210
0
220
0
230
1
0
LINE
5
74
100
AcDbEntity
8
1
62
256
6
ByLayer
370
18
48
1
60
0
100
AcDbLine
10
15.381809
20
-5.957915
30
0
11
15.338503
21
-5.914609
31
0
39
0
210
0
220
0
230
1
0
LINE
5
75
100
AcDbEntity
8
1
62
256
6
ByLayer
370
18
48
1
60
0
100
AcDbLine
10
10.909946
20
-3.914643
30
0
11
11.603279
21
-4.607976
31
0
39
0
210
0
220
0
230
1
0
LINE
5
76
100
AcDbEntity
8
1
62
256
6
ByLayer
370
18
48
1
60
0
100
AcDbLine
10
9.681649
20
-11.571463
30
0
11
9.724954
21
-11.614769
31
0
39
0
210
0
220
0
230
1
0
LINE
5
77
100
AcDbEntity
8
1
62
256
6
ByLayer
370
18
48
1
60
0
100
AcDbLine
10
22.51723
20
-14.214199
30
0
11
22.52989
21
-14.226859
31
0
39
0
210
0
220
0
230
1
0
LINE
5
78
100
AcDbEntity
8
1
62
256
6
ByLayer
370
18
48
1
60
0
100
AcDbLine
10
25.510957
20
-10.770307
30
0
11
25.414813
21
-10.674164
31
0
39
0
210
0
220
0
230
1
0
LINE
5
79
100
AcDbEntity
8
1
62
256
6
ByLayer
370
18
48
1
60
0
100
AcDbLine
10
22.270228
20
-13.824994
30
0
11
22.72766
21
-14.282425
31
0
39
0
210
0
220
0
230
1
0
LINE
5
7A
100
AcDbEntity
8
1
62
256
6
ByLayer
370
18
48
1
60
0
100
AcDbLine
10
18.309348
20
-18.272163
30
0
11
18.804465
21
-18.76728
31
0
39
0
210
0
220
0
230
1
0
LINE
5
7B
100
AcDbEntity
8
1
62
256
6
ByLayer
370
18
48
1
60
0
100
AcDbLine
10
22.485698
20
-6.115423
30
0
11
22.303654
21
-3.897132
31
0
39
0
210
0
220
0
230
1
0
LINE
5
7C
100
AcDbEntity
8
1
62
256
6
ByLayer
370
18
48
1
60
0
100
AcDbLine
10
29.505989
20
-7.104279
30
0
11
29.085073
21
-1.975202
31
0
39
0
210
0
220
0
230
1
0
LINE
5
7D
100
AcDbEntity
8
1
62
256
6
ByLayer
370
18
48
1
60
0
100
AcDbLine
10
23.30459
20
-6.587712
30
0
11
25.047543
21
-6.73842
31
0
39
0
210
0
220
0
230
1
0
LINE
5
7E
100
AcDbEntity
8
1
62
256
6
ByLayer
370
18
48
1
60
0
100
AcDbLine
10
20.715175
20
-0.27277
30
0
11
13.958909
21
-5.0223
31
0
39
0
210
0
220
0
230
1
0
LINE
5
7F
100
AcDbEntity
8
1
62
256
6
ByLayer
370
18
48
1
60
0
100
AcDbLine
10
22.785784
20
-6.086874
30
0
11
22.79018
21
-6.140439
31
0
39
0
210
0
220
0
230
1
0
LINE
5
80
100
AcDbEntity
8
1
62
256
6
ByLayer
370
18
48
1
60
0
100
AcDbLine
10
22.468108
20
-3.899095
30
0
11
22.651104
21
-6.128993
31
0
39
0
210
0
220
0
230
1
0
LINE
5
81
100
AcDbEntity
8
1
62
256
6
ByLayer
370
18
48
1
60
0
100
AcDbLine
10
17.475846
20
-4.672011
30
0
11
17.572455
21
-5.849245
31
0
39
0
210
0
220
0
230
1
0
LINE
5
82
100
AcDbEntity
8
1
62
256
6
ByLayer
370
18
48
1
60
0
100
AcDbLine
10
22.905922
20
-6.097262
30
0
11
22.785784
21
-6.086874
31
0
39
0
210
0
220
0
230
1
0
LINE
5
83
100
AcDbEntity
8
1
62
256
6
ByLayer
370
18
48
1
60
0
100
AcDbLine
10
16.725624
20
9.237727
30
0
11
15.857126
21
10.106224
31
0
39
0
210
0
220
0
230
1
0
LINE
5
84
100
AcDbEntity
8
1
62
256
6
ByLayer
370
18
48
1
60
0
100
AcDbLine
10
29.085073
20
-1.975202
30
0
11
25.545293
21
1.564578
31
0
39
0
210
0
220
0
230
1
0
LINE
5
85
100
AcDbEntity
8
1
62
256
6
ByLayer
370
18
48
1
60
0
100
AcDbLine
10
3.063252
20
4.388217
30
0
11
10.879075
21
-3.882886
31
0
39
0
210
0
220
0
230
1
0
LINE
5
86
100
AcDbEntity
8
1
62
256
6
ByLayer
370
18
48
1
60
0
100
AcDbLine
10
5.235368
20
2.140913
30
0
11
3.063252
21
4.388217
31
0
39
0
210
0
220
0
230
1
0
LINE
5
87
100
AcDbEntity
8
1
62
256
6
ByLayer
370
18
48
1
60
0
100
AcDbLine
10
5.235368
20
13.000434
30
0
11
5.235368
21
2.140913
31
0
39
0
210
0
220
0
230
1
0
LINE
5
88
100
AcDbEntity
8
1
62
256
6
ByLayer
370
18
48
1
60
0
100
AcDbLine
10
20.625708
20
0.209619
30
0
11
13.608881
21
-4.743757
31
0
39
0
210
0
220
0
230
1
0
LINE
5
89
100
AcDbEntity
8
1
62
256
6
ByLayer
370
18
48
1
60
0
100
AcDbLine
10
18.013298
20
-13.721099
30
0
11
17.783409
21
-10.919784
31
0
39
0
210
0
220
0
230
1
0
LINE
5
8A
100
AcDbEntity
8
1
62
256
6
ByLayer
370
18
48
1
60
0
100
AcDbLine
10
23.147288
20
-4.670906
30
0
11
22.468108
21
-3.899095
31
0
39
0
210
0
220
0
230
1
0
LINE
5
8B
100
AcDbEntity
8
1
62
256
6
ByLayer
370
18
48
1
60
0
100
AcDbLine
10
5.689122
20
1.661315
30
0
11
15.553585
21
10.306349
31
0
39
0
210
0
220
0
230
1
0
LINE
5
8C
100
AcDbEntity
8
1
62
256
6
ByLayer
370
18
48
1
60
0
100
AcDbLine
10
20.311623
20
6.04726
30
0
11
29.085073
21
-1.975202
31
0
39
0
210
0
220
0
230
1
0
LINE
5
8D
100
AcDbEntity
8
1
62
256
6
ByLayer
370
18
48
1
60
0
100
AcDbLine
10
1.545481
20
-13.62339
30
0
11
2.092426
21
-15.664616
31
0
39
0
210
0
220
0
230
1
0
LINE
5
8E
100
AcDbEntity
8
1
62
256
6
ByLayer
370
18
48
1
60
0
100
AcDbLine
10
20.311623
20
6.04726
30
0
11
21.585835
21
4.067211
31
0
39
0
210
0
220
0
230
1
0
LINE
5
8F
100
AcDbEntity
8
1
62
256
6
ByLayer
370
18
48
1
60
0
100
AcDbLine
10
22.787396
20
-5.951551
30
0
11
23.30459
21
-6.587712
31
0
39
0
210
0
220
0
230
1
0
LINE
5
90
100
AcDbEntity
8
1
62
256
6
ByLayer
370
18
48
1
60
0
100
AcDbLine
10
2.387188
20
-16.764682
30
0
11
18.521549
21
-18.088743
31
0
39
0
210
0
220
0
230
1
0
LINE
5
91
100
AcDbEntity
8
1
62
256
6
ByLayer
370
18
48
1
60
0
100
AcDbLine
10
12.613006
20
13.000434
30
0
11
5.235368
21
13.000434
31
0
39
0
210
0
220
0
230
1
0
LINE
5
92
100
AcDbEntity
8
1
62
256
6
ByLayer
370
18
48
1
60
0
100
AcDbLine
10
23.147288
20
-4.670906
30
0
11
23.30459
21
-6.587712
31
0
39
0
210
0
220
0
230
1
0
LINE
5
93
100
AcDbEntity
8
1
62
256
6
ByLayer
370
18
48
1
60
0
100
AcDbLine
10
1.545481
20
13.000434
30
0
11
1.545481
21
-13.62339
31
0
39
0
210
0
220
0
230
1
0
LINE
5
94
100
AcDbEntity
8
1
62
256
6
ByLayer
370
18
48
1
60
0
100
AcDbLine
10
9.550493
20
-4.81616
30
0
11
2.591301
21
2.548412
31
0
39
0
210
0
220
0
230
1
0
LINE
5
95
100
AcDbEntity
8
1
62
256
6
ByLayer
370
18
48
1
60
0
100
AcDbLine
10
10.879075
20
-3.882886
30
0
11
11.573392
21
-4.577203
31
0
39
0
210
0
220
0
230
1
0
LINE
5
96
100
AcDbEntity
8
1
62
256
6
ByLayer
370
18
48
1
60
0
100
AcDbLine
10
2.591301
20
2.548412
30
0
11
2.092426
21
-15.664616
31
0
39
0
210
0
220
0
230
1
0
LINE
5
97
100
AcDbEntity
8
1
62
256
6
ByLayer
370
18
48
1
60
0
100
AcDbLine
10
5.689122
20
1.661315
30
0
11
5.235368
21
2.140913
31
0
39
0
210
0
220
0
230
1
0
LINE
5
98
100
AcDbEntity
8
1
62
256
6
ByLayer
370
18
48
1
60
0
100
AcDbLine
10
15.553585
20
10.306349
30
0
11
12.613006
21
13.000434
31
0
39
0
210
0
220
0
230
1
0
LINE
5
99
100
AcDbEntity
8
1
62
256
6
ByLayer
370
18
48
1
60
0
100
AcDbLine
10
1.37764
20
13.000434
30
0
11
1.545481
21
13.000434
31
0
39
0
210
0
220
0
230
1
0
LINE
5
9A
100
AcDbEntity
8
1
62
256
6
ByLayer
370
18
48
1
60
0
100
AcDbLine
10
2.092426
20
-15.664616
30
0
11
2.387188
21
-16.764682
31
0
39
0
210
0
220
0
230
1
0
LINE
5
9B
100
AcDbEntity
8
1
62
256
6
ByLayer
370
18
48
1
60
0
100
AcDbLine
10
17.861365
20
-10.04406
30
0
11
17.463752
21
-5.198949
31
0
39
0
210
0
220
0
230
1
0
LINE
5
9C
100
AcDbEntity
8
1
62
256
6
ByLayer
370
18
48
1
60
0
100
AcDbLine
10
11.573392
20
-4.577203
30
0
11
5.689122
21
1.661315
31
0
39
0
210
0
220
0
230
1
0
LINE
5
9D
100
AcDbEntity
8
1
62
256
6
ByLayer
370
18
48
1
60
0
100
AcDbLine
10
21.092764
20
2.347882
30
0
11
16.725624
21
9.237727
31
0
39
0
210
0
220
0
230
1
0
LINE
5
9E
100
AcDbEntity
8
1
62
256
6
ByLayer
370
18
48
1
60
0
100
AcDbLine
10
16.725624
20
9.237727
30
0
11
15.553585
21
10.306349
31
0
39
0
210
0
220
0
230
1
0
LINE
5
9F
100
AcDbEntity
8
1
62
256
6
ByLayer
370
18
48
1
60
0
100
AcDbLine
10
12.613006
20
13.000434
30
0
11
13.063119
21
13.000434
31
0
39
0
210
0
220
0
230
1
0
LINE
5
A0
100
AcDbEntity
8
1
62
256
6
ByLayer
370
18
48
1
60
0
100
AcDbLine
10
13.063119
20
13.000434
30
0
11
25.545293
21
1.564578
31
0
39
0
210
0
220
0
230
1
0
LINE
5
A1
100
AcDbEntity
8
1
62
256
6
ByLayer
370
18
48
1
60
0
100
AcDbLine
10
18.521549
20
-18.088743
30
0
11
18.232718
21
-14.569194
31
0
39
0
210
0
220
0
230
1
0
LINE
5
A2
100
AcDbEntity
8
1
62
256
6
ByLayer
370
18
48
1
60
0
100
AcDbLine
10
0
20
-12.4375
30
0
11
0
21
12.4375
31
0
39
0
210
0
220
0
230
1
0
LINE
5
A3
100
AcDbEntity
8
1
62
256
6
ByLayer
370
18
48
1
60
0
100
AcDbLine
10
1.545481
20
13.000434
30
0
11
5.235368
21
13.000434
31
0
39
0
210
0
220
0
230
1
0
LINE
5
A4
100
AcDbEntity
8
SK1
62
256
6
ByLayer
370
18
48
1
60
0
100
AcDbLine
10
-140.020252
20
12.4375
30
0
11
-140.020252
21
-12.4375
31
0
39
0
210
0
220
0
230
1
0
LINE
5
A6
100
AcDbEntity
8
SK1
62
256
6
ByLayer
370
18
48
1
60
0
100
AcDbLine
10
0
20
-12.4375
30
0
11
0
21
12.4375
31
0
39
0
210
0
220
0
230
1
0
LINE
5
A7
100
AcDbEntity
8
SK1
62
256
6
ByLayer
370
18
48
1
60
0
100
AcDbLine
10
-140.020252
20
12.4375
30
0
11
0
21
12.4375
31
0
39
0
210
0
220
0
230
1
0
LINE
5
A8
100
AcDbEntity
8
SK1
62
256
6
ByLayer
370
18
48
1
60
0
100
AcDbLine
10
-140.020252
20
-12.4375
30
0
11
0
21
-12.4375
31
0
39
0
210
0
220
0
230
1
0
LINE
5
A9
100
AcDbEntity
8
1
62
256
6
ByLayer
370
18
48
1
60
0
100
AcDbLine
10
11.228909
20
-9.703796
30
0
11
11.374613
21
-9.756136
31
0
39
0
210
0
220
0
230
1
0
LINE
5
AA
100
AcDbEntity
8
1
62
256
6
ByLayer
370
18
48
1
60
0
100
AcDbLine
10
13.604024
20
-7.593414
30
0
11
13.647154
21
-7.84559
31
0
39
0
210
0
220
0
230
1
0
LINE
5
AB
100
AcDbEntity
8
1
62
256
6
ByLayer
370
18
48
1
60
0
100
AcDbLine
10
17.661885
20
-7.104547
30
0
11
17.616396
21
-7.059058
31
0
39
0
210
0
220
0
230
1
0
LINE
5
AC
100
AcDbEntity
8
1
62
256
6
ByLayer
370
18
48
1
60
0
100
AcDbLine
10
29.696362
20
-7.161675
30
0
11
29.494099
21
-6.959411
31
0
39
0
210
0
220
0
230
1
0
LINE
5
AD
100
AcDbEntity
8
1
62
256
6
ByLayer
370
18
48
1
60
0
100
AcDbLine
10
18.026677
20
-5.74952
30
0
11
22.951868
21
-6.153704
31
0
39
0
210
0
220
0
230
1
0
LINE
5
AE
100
AcDbEntity
8
1
62
256
6
ByLayer
370
18
48
1
60
0
100
AcDbLine
10
18.376659
20
-18.076851
30
0
11
18.578922
21
-18.279114
31
0
39
0
210
0
220
0
230
1
0
LINE
5
AF
100
AcDbEntity
8
1
62
256
6
ByLayer
370
18
48
1
60
0
100
AcDbLine
10
22.626212
20
-11.428943
30
0
11
22.584679
21
-11.387411
31
0
39
0
210
0
220
0
230
1
0
LINE
5
B0
100
AcDbEntity
8
1
62
256
6
ByLayer
370
18
48
1
60
0
100
AcDbLine
10
21.937245
20
-12.918888
30
0
11
22.039257
21
-13.0209
31
0
39
0
210
0
220
0
230
1
0
LINE
5
B1
100
AcDbEntity
8
80
62
256
6
ByLayer
370
18
48
1
60
0
100
AcDbLine
10
0
20
0
30
0
11
-5
21
0
31
0
39
0
210
0
220
0
230
1
0
LINE
5
B2
100
AcDbEntity
8
81
62
256
6
ByLayer
370
18
48
1
60
0
100
AcDbLine
10
29.979748
20
-19.5625
30
0
11
39.979748
21
-19.5625
31
0
39
0
210
0
220
0
230
1
0
LINE
5
B3
100
AcDbEntity
8
1
62
256
6
ByLayer
370
18
48
1
60
0
100
AcDbLine
10
18.578922
20
-18.279114
30
0
11
17.661885
21
-7.104547
31
0
39
0
210
0
220
0
230
1
0
LINE
5
B4
100
AcDbEntity
8
1
62
256
6
ByLayer
370
18
48
1
60
0
100
AcDbLine
10
30.467198
20
-19.90986
30
0
11
19.292631
21
-18.992823
31
0
39
0
210
0
220
0
230
1
0
LINE
5
B5
100
AcDbEntity
8
1
62
256
6
ByLayer
370
18
48
1
60
0
100
AcDbLine
10
18.026677
20
-5.74952
30
0
11
18.521794
21
-6.244637
31
0
39
0
210
0
220
0
230
1
0
LINE
5
B6
100
AcDbEntity
8
1
62
256
6
ByLayer
370
18
48
1
60
0
100
AcDbLine
10
30.41007
20
-7.875383
30
0
11
31.327108
21
-19.049951
31
0
39
0
210
0
220
0
230
1
0
LINE
5
B7
100
AcDbEntity
8
1
62
256
6
ByLayer
370
18
48
1
60
0
100
AcDbLine
10
18.521794
20
-6.244637
30
0
11
29.696362
21
-7.161675
31
0
39
0
210
0
220
0
230
1
0
LINE
5
B8
100
AcDbEntity
8
1
62
256
6
ByLayer
370
18
48
1
60
0
100
AcDbLine
10
22.25897
20
-13.808142
30
0
11
22.172752
21
-13.721923
31
0
39
0
210
0
220
0
230
1
0
LINE
5
B9
100
AcDbEntity
8
1
62
256
6
ByLayer
370
18
48
1
60
0
100
AcDbLine
10
12.919059
20
-9.82035
30
0
11
13.312554
21
-10.213845
31
0
39
0
210
0
220
0
230
1
0
LINE
5
BA
100
AcDbEntity
8
1
62
256
6
ByLayer
370
18
48
1
60
0
100
AcDbLine
10
11.768107
20
-10.14963
30
0
11
11.374613
21
-9.756136
31
0
39
0
210
0
220
0
230
1
0
LINE
5
BB
100
AcDbEntity
8
1
62
256
6
ByLayer
370
18
48
1
60
0
100
AcDbLine
10
12.915516
20
-10.569369
30
0
11
12.510216
21
-10.164069
31
0
39
0
210
0
220
0
230
1
0
LINE
5
BC
100
AcDbEntity
8
1
62
256
6
ByLayer
370
18
48
1
60
0
100
AcDbLine
10
13.761512
20
-8.514241
30
0
11
13.850908
21
-9.036937
31
0
39
0
210
0
220
0
230
1
0
LINE
5
BD
100
AcDbEntity
8
1
62
256
6
ByLayer
370
18
48
1
60
0
100
AcDbLine
10
13.761512
20
-8.514241
30
0
11
14.155007
21
-8.907735
31
0
39
0
210
0
220
0
230
1
0
LINE
5
BE
100
AcDbEntity
8
1
62
256
6
ByLayer
370
18
48
1
60
0
100
AcDbLine
10
14.256208
20
-9.442237
30
0
11
13.850908
21
-9.036937
31
0
39
0
210
0
220
0
230
1
0
LINE
5
BF
100
AcDbEntity
8
1
62
256
6
ByLayer
370
18
48
1
60
0
100
AcDbLine
10
12.011977
20
-9.98509
30
0
11
12.405472
21
-10.378585
31
0
39
0
210
0
220
0
230
1
0
LINE
5
C0
100
AcDbEntity
8
1
62
256
6
ByLayer
370
18
48
1
60
0
100
AcDbLine
10
13.83556
20
-9.77415
30
0
11
13.442065
21
-9.380655
31
0
39
0
210
0
220
0
230
1
0
LINE
5
C1
100
AcDbEntity
8
1
62
256
6
ByLayer
370
18
48
1
60
0
100
AcDbLine
10
12.011977
20
-9.98509
30
0
11
12.510216
21
-10.164069
31
0
39
0
210
0
220
0
230
1
0
LINE
5
C2
100
AcDbEntity
8
1
62
256
6
ByLayer
370
18
48
1
60
0
100
AcDbLine
10
14.040649
20
-8.239085
30
0
11
13.647154
21
-7.84559
31
0
39
0
210
0
220
0
230
1
0
LINE
5
C3
100
AcDbEntity
8
1
62
256
6
ByLayer
370
18
48
1
60
0
100
AcDbLine
10
12.919059
20
-9.82035
30
0
11
12.510216
21
-10.164069
31
0
39
0
210
0
220
0
230
1
0
LINE
5
C4
100
AcDbEntity
8
1
62
256
6
ByLayer
370
18
48
1
60
0
100
AcDbLine
10
13.850908
20
-9.036937
30
0
11
13.442065
21
-9.380655
31
0
39
0
210
0
220
0
230
1
0
MTEXT
5
11B
100
AcDbEntity
8
SK6
62
256
6
ByLayer
370
13
48
1
60
0
100
AcDbMText
10
-110.10405
20
21.423222
30
0
210
0
220
0
230
1
1
\W0.7615;PCLNL 3225P 12HP
40
3.5
41
0
44
1.084337
50
0
71
7
72
5
7
iso_b_vert
0
DIMENSION
5
12D
100
AcDbEntity
8
SK2
62
256
6
ByLayer
370
13
48
1
60
0
100
AcDbDimension
2
DimnDraft3D1
10
-149.770252
20
12.4375
30
0
11
-149.770252
21
-0.0625
31
0
70
32
71
5
72
1
41
1
210
0
220
0
230
1
3
Standard
100
AcDbAlignedDimension
13
-141.607752
23
-12.5625
33
0
14
-141.607752
24
12.4375
34
0
50
90
100
AcDbRotatedDimension
1001
ACAD
1000
DSTYLE
1002
{
1070
    74
1070
     0
1070
   279
1070
     0
1070
   172
1070
     1
1070
   173
1070
     1
1070
   340
1005
11C
1070
   271
1070
     1
1070
   272
1070
     2
1070
    77
1070
     1
1070
    73
1070
     0
1070
   171
1070
     3
1070
   274
1070
     4
1070
   177
1070
   150
1070
   176
1070
     9
1070
   178
1070
    43
1070
    78
1070
     8
1070
    48
1040
-0.005
1070
    41
1041
3.175
1070
   147
1041
2.25
1070
    42
1041
1.5875
1070
    44
1041
3.175
1070
   140
1041
4.5
1070
   343
1005
12E
1070
   344
1005
12E
1002
}
0
DIMENSION
5
143
100
AcDbEntity
8
2
62
256
6
ByLayer
370
13
48
1
60
0
100
AcDbDimension
2
DimnDraft3D2
10
47.829748
20
12.4375
30
0
11
47.829748
21
-3.7375
31
0
70
32
71
5
72
1
41
1
210
0
220
0
230
1
3
Standard
100
AcDbAlignedDimension
13
32.917248
23
-19.9125
33
0
14
1.5875
24
12.4375
34
0
50
90
100
AcDbRotatedDimension
1001
ACAD
1000
DSTYLE
1002
{
1070
    74
1070
     0
1070
   279
1070
     0
1070
   172
1070
     1
1070
   173
1070
     1
1070
   340
1005
11C
1070
   271
1070
     1
1070
   272
1070
     2
1070
    77
1070
     1
1070
    73
1070
     0
1070
   171
1070
     3
1070
   274
1070
     4
1070
   177
1070
   150
1070
   176
1070
     9
1070
   178
1070
    43
1070
    78
1070
     8
1070
    48
1040
-0.005
1070
    41
1041
3.175
1070
   147
1041
2.25
1070
    42
1041
1.5875
1070
    44
1041
3.175
1070
   140
1041
4.5
1070
   343
1005
12E
1070
   344
1005
12E
1002
}
0
DIMENSION
5
151
100
AcDbEntity
8
SK2
62
256
6
ByLayer
370
13
48
1
60
0
100
AcDbDimension
2
DimnDraft3D3
10
31.329748
20
-46.4125
30
0
11
-54.345252
21
-46.4125
31
0
70
32
71
5
72
1
41
1
210
0
220
0
230
1
3
Standard
100
AcDbAlignedDimension
13
-140.020252
23
-14.15
33
0
14
31.329748
24
-21.5
34
0
50
0
100
AcDbRotatedDimension
1001
ACAD
1000
DSTYLE
1002
{
1070
   279
1070
     0
1070
   172
1070
     1
1070
   173
1070
     1
1070
   340
1005
11C
1070
   271
1070
     1
1070
   272
1070
     2
1070
    77
1070
     1
1070
    73
1070
     0
1070
   171
1070
     3
1070
   274
1070
     4
1070
   177
1070
   150
1070
   176
1070
     9
1070
   178
1070
    43
1070
    78
1070
     8
1070
    48
1040
-0.005
1070
    41
1041
3.175
1070
   147
1041
2.25
1070
    42
1041
1.5875
1070
    44
1041
3.175
1070
   140
1041
4.5
1070
   343
1005
12E
1070
   344
1005
12E
1002
}
0
DIMENSION
5
15F
100
AcDbEntity
8
2
62
256
6
ByLayer
370
13
48
1
60
0
100
AcDbDimension
2
DimnDraft3D4
10
31.329748
20
-18.325
30
0
11
18.855463
21
-31.415552
31
0
70
34
71
5
72
1
41
1
210
0
220
0
230
1
3
Standard
100
AcDb2LineAngularDimension
13
30.466818
23
-19.90948
33
0
14
18.512481
24
-18.863611
34
0
15
31.329748
25
-19.9125
35
0
16
15.537715
26
-34.455708
36
0
40
0
0
ENDSEC
0
SECTION
2
OBJECTS
0
DICTIONARY
5
1c9
330
0
100
AcDbDictionary
280
0
281
1
3
ACAD_GROUP
350
1ca
3
ACAD_MLINESTYLE
350
1cb
0
DICTIONARY
5
1ca
330
0
100
AcDbDictionary
280
0
281
1
0
DICTIONARY
5
1cb
330
0
100
AcDbDictionary
280
0
281
1
3
Standard
350
18
0
MLINESTYLE
5
18
330
1cb
100
AcDbMlineStyle
2
Standard
70
0
3

62
256
51
90
52
90
71
2
49
-0.5
62
256
6
ByLayer
49
0.5
62
256
6
ByLayer
0
RASTERVARIABLES
5
1b8
330

100
AcDbRasterVariables
90
0
70
1
71
1
72
1
0
ENDSEC
0
EOF
