0
SECTION
2
HEADER
9
$ACADVER
1
AC1015
9
$DWGCODEPAGE
3
ANSI_1252
9
$HANDSEED
5
1ac
9
$ANGBASE
50
0
9
$ANGDIR
70
0
9
$ATTMODE
70
1
9
$AUNITS
70
0
9
$AUPREC
70
0
9
$CECOLOR
62
256
9
$CELTSCALE
40
1
9
$CELTYPE
6
ByLayer
9
$CELWEIGHT
370
18
9
$CLAYER
8
0
9
$CMLJUST
70
0
9
$CMLSCALE
40
1
9
$CMLSTYLE
2
Standard
9
$DIMSTYLE
2
Standard
9
$TEXTSIZE
40
0.2
9
$TEXTSTYLE
7
Standard
9
$LUNITS
70
2
9
$LUPREC
70
4
9
$EXTNAMES
290
1
9
$INSUNITS
70
4
9
$LTSCALE
40
1
9
$LWDISPLAY
290
1
9
$PDMODE
70
0
9
$PDSIZE
40
0
9
$PLINEGEN
70
0
0
ENDSEC
0
SECTION
2
CLASSES
0
CLASS
1
RASTERVARIABLES
2
AcDbRasterVariables
3
ISM
90
0
280
0
281
0
0
ENDSEC
0
SECTION
2
TABLES
0
TABLE
2
VPORT
5
1a2
100
AcDbSymbolTable
0
VPORT
5
1
100
AcDbSymbolTableRecord
100
AcDbViewportTableRecord
2
*Active
70
0
10
0
20
0
11
1
21
1
12
-1
22
1
13
0
23
0
14
0.5
24
0.5
15
10
25
10
16
0
26
0
36
1
17
0
27
0
37
0
0
ENDTAB
0
TABLE
2
LTYPE
5
1a3
100
AcDbSymbolTable
0
LTYPE
5
14
100
AcDbSymbolTableRecord
100
AcDbLinetypeTableRecord
70
0
2
ByBlock
3

72
65
73
0
40
0
0
LTYPE
5
15
100
AcDbSymbolTableRecord
100
AcDbLinetypeTableRecord
70
0
2
ByLayer
3

72
65
73
0
40
0
0
LTYPE
5
16
100
AcDbSymbolTableRecord
100
AcDbLinetypeTableRecord
70
0
2
CONTINUOUS
3
Solid line
72
65
73
0
40
0
0
LTYPE
5
6A
100
AcDbSymbolTableRecord
100
AcDbLinetypeTableRecord
70
0
2
CENTER
3
____ _ ____ _ ____ _ ____
72
65
73
4
40
47.5
49
22
74
0
49
-8.5
74
0
49
8.5
74
0
49
-8.5
74
0
0
LTYPE
5
6B
100
AcDbSymbolTableRecord
100
AcDbLinetypeTableRecord
70
0
2
DASHED
3
__ __ __ __ __ __ __ __ __
72
65
73
2
40
25.72
49
12.86
74
0
49
-12.86
74
0
0
ENDTAB
0
TABLE
2
LAYER
5
1a4
100
AcDbSymbolTable
0
LAYER
5
10
100
AcDbSymbolTableRecord
100
AcDbLayerTableRecord
2
0
70
0
62
7
6
CONTINUOUS
290
1
370
-3
390
0
0
LAYER
5
6D
100
AcDbSymbolTableRecord
100
AcDbLayerTableRecord
2
80
70
0
62
-6
6
CONTINUOUS
290
1
370
-3
390
0
0
LAYER
5
6F
100
AcDbSymbolTableRecord
100
AcDbLayerTableRecord
2
81
70
0
62
-3
6
CONTINUOUS
290
1
370
-3
390
0
0
LAYER
5
71
100
AcDbSymbolTableRecord
100
AcDbLayerTableRecord
2
1
70
0
62
4
6
CONTINUOUS
290
1
370
-3
390
0
0
LAYER
5
10D
100
AcDbSymbolTableRecord
100
AcDbLayerTableRecord
2
2
70
0
62
7
6
CONTINUOUS
290
1
370
-3
390
0
0
LAYER
5
18f
100
AcDbSymbolTableRecord
100
AcDbLayerTableRecord
2
SK1
70
0
62
4
6
CONTINUOUS
290
1
370
-3
390
0
0
LAYER
5
190
100
AcDbSymbolTableRecord
100
AcDbLayerTableRecord
2
SK6
70
0
62
5
6
CONTINUOUS
290
1
370
-3
390
0
0
LAYER
5
191
100
AcDbSymbolTableRecord
100
AcDbLayerTableRecord
2
SK2
70
0
62
7
6
CONTINUOUS
290
1
370
-3
390
0
0
ENDTAB
0
TABLE
2
STYLE
5
1a5
100
AcDbSymbolTable
0
STYLE
5
11
100
AcDbSymbolTableRecord
100
AcDbTextStyleTableRecord
2
Standard
3
txt
70
0
71
0
40
0
41
1
42
0
50
0
0
STYLE
5
F2
100
AcDbSymbolTableRecord
100
AcDbTextStyleTableRecord
2
iso_b_vert
3
simplex.shx
70
0
71
0
40
0
41
1
42
0
50
0
0
STYLE
5
F3
100
AcDbSymbolTableRecord
100
AcDbTextStyleTableRecord
2
DWGDirectTextStyle
3
simplex
70
0
71
0
40
0
41
1
42
0
50
0
0
ENDTAB
0
TABLE
2
DIMSTYLE
5
1a6
100
AcDbSymbolTable
100
AcDbDimStyleTable
0
DIMSTYLE
105
27
100
AcDbSymbolTableRecord
100
AcDbDimStyleTableRecord
2
Standard
70
0
3
<>
41
0.18
42
0.0625
44
0.18
140
0.18
147
0.09
73
0
74
0
77
1
271
2
275
0
278
52
280
0
340
11
0
ENDTAB
0
TABLE
2
VIEW
5
1a7
100
AcDbSymbolTable
0
ENDTAB
0
TABLE
2
UCS
5
1a8
100
AcDbSymbolTable
0
ENDTAB
0
TABLE
2
APPID
5
1a9
100
AcDbSymbolTable
0
APPID
5
12
100
AcDbSymbolTableRecord
100
AcDbRegAppTableRecord
2
ACAD
70
0
0
ENDTAB
0
TABLE
2
BLOCK_RECORD
5
1aa
100
AcDbSymbolTable
0
BLOCK_RECORD
5
1F
100
AcDbSymbolTableRecord
100
AcDbBlockTableRecord
2
*Model_Space
340
0
70
0
0
BLOCK_RECORD
5
1B
100
AcDbSymbolTableRecord
100
AcDbBlockTableRecord
2
*Paper_Space
340
0
70
0
0
BLOCK_RECORD
5
23
100
AcDbSymbolTableRecord
100
AcDbBlockTableRecord
2
*Paper_Space0
340
0
70
0
0
BLOCK_RECORD
5
F5
100
AcDbSymbolTableRecord
100
AcDbBlockTableRecord
2
DimnDraft3D1
340
0
70
0
0
BLOCK_RECORD
5
104
100
AcDbSymbolTableRecord
100
AcDbBlockTableRecord
2
_CLOSED
340
0
70
0
0
BLOCK_RECORD
5
10B
100
AcDbSymbolTableRecord
100
AcDbBlockTableRecord
2
DimnDraft3D2
340
0
70
0
0
BLOCK_RECORD
5
11A
100
AcDbSymbolTableRecord
100
AcDbBlockTableRecord
2
DimnDraft3D3
340
0
70
0
0
BLOCK_RECORD
5
128
100
AcDbSymbolTableRecord
100
AcDbBlockTableRecord
2
DimnDraft3D4
340
0
70
0
0
ENDTAB
0
ENDSEC
0
SECTION
2
BLOCKS
0
BLOCK
5
20
100
AcDbEntity
8
0
100
AcDbBlockBegin
2
*Model_Space
70
0
10
0
20
0
30
0
3
*Model_Space
0
ENDBLK
5
21
100
AcDbEntity
8
0
100
AcDbBlockEnd
0
BLOCK
5
1C
100
AcDbEntity
8
0
100
AcDbBlockBegin
2
*Paper_Space
70
0
10
0
20
0
30
0
3
*Paper_Space
0
ENDBLK
5
1D
100
AcDbEntity
8
0
100
AcDbBlockEnd
0
BLOCK
5
24
100
AcDbEntity
8
0
100
AcDbBlockBegin
2
*Paper_Space0
70
0
10
0
20
0
30
0
3
*Paper_Space0
0
ENDBLK
5
25
100
AcDbEntity
8
0
100
AcDbBlockEnd
0
BLOCK
5
101
100
AcDbEntity
8
0
100
AcDbBlockBegin
2
DimnDraft3D1
70
0
10
0
20
0
30
0
3
DimnDraft3D1
0
MTEXT
5
F6
100
AcDbEntity
8
SK2
62
256
6
ByLayer
370
13
48
1
60
0
100
AcDbMText
10
-85.05946
20
-1.063158
30
0
210
0
220
0
230
1
1
\W0.5321;16
40
4.5
41
0
44
1.084337
50
90
71
7
72
5
7
iso_b_vert
0
LINE
5
F8
100
AcDbEntity
8
SK2
62
256
6
ByLayer
370
13
48
1
60
0
100
AcDbLine
10
-75.77196
20
-8.0625
30
0
11
-87.10946
21
-8.0625
31
0
39
0
210
0
220
0
230
1
0
LINE
5
F9
100
AcDbEntity
8
SK2
62
256
6
ByLayer
370
13
48
1
60
0
100
AcDbLine
10
-75.77196
20
7.9375
30
0
11
-87.10946
21
7.9375
31
0
39
0
210
0
220
0
230
1
0
LINE
5
FA
100
AcDbEntity
8
SK2
62
256
6
ByLayer
370
13
48
1
60
0
100
AcDbLine
10
-83.93446
20
-8.0625
30
0
11
-83.93446
21
7.9375
31
0
39
0
210
0
220
0
230
1
0
LINE
5
FB
100
AcDbEntity
8
SK2
62
256
6
ByLayer
370
13
48
1
60
0
100
AcDbLine
10
-83.93446
20
-8.0625
30
0
11
-84.785198
21
-4.887503
31
0
39
0
210
0
220
0
230
1
0
LINE
5
FC
100
AcDbEntity
8
SK2
62
256
6
ByLayer
370
13
48
1
60
0
100
AcDbLine
10
-83.93446
20
-8.0625
30
0
11
-83.083721
21
-4.887497
31
0
39
0
210
0
220
0
230
1
0
LINE
5
FD
100
AcDbEntity
8
SK2
62
256
6
ByLayer
370
13
48
1
60
0
100
AcDbLine
10
-84.785198
20
-4.887503
30
0
11
-83.083721
21
-4.887497
31
0
39
0
210
0
220
0
230
1
0
LINE
5
FE
100
AcDbEntity
8
SK2
62
256
6
ByLayer
370
13
48
1
60
0
100
AcDbLine
10
-83.93446
20
7.9375
30
0
11
-83.083721
21
4.762503
31
0
39
0
210
0
220
0
230
1
0
LINE
5
FF
100
AcDbEntity
8
SK2
62
256
6
ByLayer
370
13
48
1
60
0
100
AcDbLine
10
-83.93446
20
7.9375
30
0
11
-84.785198
21
4.762497
31
0
39
0
210
0
220
0
230
1
0
LINE
5
100
100
AcDbEntity
8
SK2
62
256
6
ByLayer
370
13
48
1
60
0
100
AcDbLine
10
-83.083721
20
4.762503
30
0
11
-84.785198
21
4.762497
31
0
39
0
210
0
220
0
230
1
0
ENDBLK
5
102
100
AcDbEntity
8
0
100
AcDbBlockEnd
0
BLOCK
5
105
100
AcDbEntity
8
0
100
AcDbBlockBegin
2
_CLOSED
70
0
10
0
20
0
30
0
3
_CLOSED
0
LINE
5
107
100
AcDbEntity
8
0
62
256
6
ByLayer
370
-2
48
1
60
0
100
AcDbLine
10
-1
20
0.166667
30
0
11
0
21
0
31
0
39
0
210
0
220
0
230
1
0
LINE
5
108
100
AcDbEntity
8
0
62
256
6
ByLayer
370
-2
48
1
60
0
100
AcDbLine
10
0
20
0
30
0
11
-1
21
-0.166667
31
0
39
0
210
0
220
0
230
1
0
LINE
5
109
100
AcDbEntity
8
0
62
256
6
ByLayer
370
-2
48
1
60
0
100
AcDbLine
10
-1
20
0.166667
30
0
11
-1
21
-0.166667
31
0
39
0
210
0
220
0
230
1
0
LINE
5
10A
100
AcDbEntity
8
0
62
256
6
ByLayer
370
-2
48
1
60
0
100
AcDbLine
10
0
20
0
30
0
11
-1
21
0
31
0
39
0
210
0
220
0
230
1
0
ENDBLK
5
106
100
AcDbEntity
8
0
100
AcDbBlockEnd
0
BLOCK
5
117
100
AcDbEntity
8
0
100
AcDbBlockBegin
2
DimnDraft3D2
70
0
10
0
20
0
30
0
3
DimnDraft3D2
0
MTEXT
5
10C
100
AcDbEntity
8
2
62
256
6
ByLayer
370
13
48
1
60
0
100
AcDbMText
10
42.54054
20
-3.800658
30
0
210
0
220
0
230
1
1
\W0.6740;20
40
4.5
41
0
44
1.084337
50
90
71
7
72
5
7
iso_b_vert
0
LINE
5
10E
100
AcDbEntity
8
2
62
256
6
ByLayer
370
13
48
1
60
0
100
AcDbLine
10
28.75304
20
-12.4125
30
0
11
46.84054
21
-12.4125
31
0
39
0
210
0
220
0
230
1
0
LINE
5
10F
100
AcDbEntity
8
2
62
256
6
ByLayer
370
13
48
1
60
0
100
AcDbLine
10
-1.732638
20
7.9375
30
0
11
46.84054
21
7.9375
31
0
39
0
210
0
220
0
230
1
0
LINE
5
110
100
AcDbEntity
8
2
62
256
6
ByLayer
370
13
48
1
60
0
100
AcDbLine
10
43.66554
20
-12.4125
30
0
11
43.66554
21
7.9375
31
0
39
0
210
0
220
0
230
1
0
LINE
5
111
100
AcDbEntity
8
2
62
256
6
ByLayer
370
13
48
1
60
0
100
AcDbLine
10
43.66554
20
-12.4125
30
0
11
42.814802
21
-9.237503
31
0
39
0
210
0
220
0
230
1
0
LINE
5
112
100
AcDbEntity
8
2
62
256
6
ByLayer
370
13
48
1
60
0
100
AcDbLine
10
43.66554
20
-12.4125
30
0
11
44.516279
21
-9.237497
31
0
39
0
210
0
220
0
230
1
0
LINE
5
113
100
AcDbEntity
8
2
62
256
6
ByLayer
370
13
48
1
60
0
100
AcDbLine
10
42.814802
20
-9.237503
30
0
11
44.516279
21
-9.237497
31
0
39
0
210
0
220
0
230
1
0
LINE
5
114
100
AcDbEntity
8
2
62
256
6
ByLayer
370
13
48
1
60
0
100
AcDbLine
10
43.66554
20
7.9375
30
0
11
44.516279
21
4.762503
31
0
39
0
210
0
220
0
230
1
0
LINE
5
115
100
AcDbEntity
8
2
62
256
6
ByLayer
370
13
48
1
60
0
100
AcDbLine
10
43.66554
20
7.9375
30
0
11
42.814802
21
4.762497
31
0
39
0
210
0
220
0
230
1
0
LINE
5
116
100
AcDbEntity
8
2
62
256
6
ByLayer
370
13
48
1
60
0
100
AcDbLine
10
44.516279
20
4.762503
30
0
11
42.814802
21
4.762497
31
0
39
0
210
0
220
0
230
1
0
ENDBLK
5
118
100
AcDbEntity
8
0
100
AcDbBlockEnd
0
BLOCK
5
125
100
AcDbEntity
8
0
100
AcDbBlockBegin
2
DimnDraft3D3
70
0
10
0
20
0
30
0
3
DimnDraft3D3
0
MTEXT
5
11B
100
AcDbEntity
8
SK2
62
256
6
ByLayer
370
13
48
1
60
0
100
AcDbMText
10
-26.191697
20
-37.7875
30
0
210
0
220
0
230
1
1
\W0.6217;100
40
4.5
41
0
44
1.084337
50
0
71
7
72
5
7
iso_b_vert
0
LINE
5
11C
100
AcDbEntity
8
SK2
62
256
6
ByLayer
370
13
48
1
60
0
100
AcDbLine
10
-74.18446
20
-9.65
30
0
11
-74.18446
21
-42.0875
31
0
39
0
210
0
220
0
230
1
0
LINE
5
11D
100
AcDbEntity
8
SK2
62
256
6
ByLayer
370
13
48
1
60
0
100
AcDbLine
10
27.16554
20
-14
30
0
11
27.16554
21
-42.0875
31
0
39
0
210
0
220
0
230
1
0
LINE
5
11E
100
AcDbEntity
8
SK2
62
256
6
ByLayer
370
13
48
1
60
0
100
AcDbLine
10
-74.18446
20
-38.9125
30
0
11
27.16554
21
-38.9125
31
0
39
0
210
0
220
0
230
1
0
LINE
5
11F
100
AcDbEntity
8
SK2
62
256
6
ByLayer
370
13
48
1
60
0
100
AcDbLine
10
-74.18446
20
-38.9125
30
0
11
-71.009463
21
-38.061761
31
0
39
0
210
0
220
0
230
1
0
LINE
5
120
100
AcDbEntity
8
SK2
62
256
6
ByLayer
370
13
48
1
60
0
100
AcDbLine
10
-74.18446
20
-38.9125
30
0
11
-71.009457
21
-39.763239
31
0
39
0
210
0
220
0
230
1
0
LINE
5
121
100
AcDbEntity
8
SK2
62
256
6
ByLayer
370
13
48
1
60
0
100
AcDbLine
10
-71.009463
20
-38.061761
30
0
11
-71.009457
21
-39.763239
31
0
39
0
210
0
220
0
230
1
0
LINE
5
122
100
AcDbEntity
8
SK2
62
256
6
ByLayer
370
13
48
1
60
0
100
AcDbLine
10
27.16554
20
-38.9125
30
0
11
23.990543
21
-39.763239
31
0
39
0
210
0
220
0
230
1
0
LINE
5
123
100
AcDbEntity
8
SK2
62
256
6
ByLayer
370
13
48
1
60
0
100
AcDbLine
10
27.16554
20
-38.9125
30
0
11
23.990537
21
-38.061761
31
0
39
0
210
0
220
0
230
1
0
LINE
5
124
100
AcDbEntity
8
SK2
62
256
6
ByLayer
370
13
48
1
60
0
100
AcDbLine
10
23.990543
20
-39.763239
30
0
11
23.990537
21
-38.061761
31
0
39
0
210
0
220
0
230
1
0
ENDBLK
5
126
100
AcDbEntity
8
0
100
AcDbBlockEnd
0
BLOCK
5
133
100
AcDbEntity
8
0
100
AcDbBlockBegin
2
DimnDraft3D4
70
0
10
0
20
0
30
0
3
DimnDraft3D4
0
MTEXT
5
129
100
AcDbEntity
8
2
62
256
6
ByLayer
370
13
48
1
60
0
100
AcDbMText
10
8.508756
20
-22.164168
30
0
210
0
220
0
230
1
1
\W0.8292;95%%d0'
40
4.5
41
0
44
1.084337
50
312.5
71
7
72
5
7
iso_b_vert
0
LINE
5
12A
100
AcDbEntity
8
2
62
256
6
ByLayer
370
13
48
1
60
0
100
AcDbLine
10
12.766815
20
-11.225251
30
0
11
2.664737
21
-10.341434
31
0
39
0
210
0
220
0
230
1
0
LINE
5
12B
100
AcDbEntity
8
2
62
256
6
ByLayer
370
13
48
1
60
0
100
AcDbLine
10
27.16554
20
-14
30
0
11
27.16554
21
-37.079368
31
0
39
0
210
0
220
0
230
1
0
ARC
5
12C
100
AcDbEntity
8
2
62
256
6
ByLayer
370
13
48
1
60
0
100
AcDbCircle
39
0
10
27.16554
20
-12.484976
30
0
40
21.4193920057132
210
0
220
0
230
1
100
AcDbArc
50
175
51
270
0
LINE
5
12D
100
AcDbEntity
8
2
62
256
6
ByLayer
370
13
48
1
60
0
100
AcDbLine
10
5.827656
20
-10.618153
30
0
11
6.517759
21
-13.831892
31
0
39
0
210
0
220
0
230
1
0
LINE
5
12E
100
AcDbEntity
8
2
62
256
6
ByLayer
370
13
48
1
60
0
100
AcDbLine
10
5.827656
20
-10.618153
30
0
11
4.818431
21
-13.74639
31
0
39
0
210
0
220
0
230
1
0
LINE
5
12F
100
AcDbEntity
8
2
62
256
6
ByLayer
370
13
48
1
60
0
100
AcDbLine
10
6.517759
20
-13.831892
30
0
11
4.818431
21
-13.74639
31
0
39
0
210
0
220
0
230
1
0
LINE
5
130
100
AcDbEntity
8
2
62
256
6
ByLayer
370
13
48
1
60
0
100
AcDbLine
10
27.16554
20
-33.904368
30
0
11
23.961254
21
-34.637109
31
0
39
0
210
0
220
0
230
1
0
LINE
5
131
100
AcDbEntity
8
2
62
256
6
ByLayer
370
13
48
1
60
0
100
AcDbLine
10
27.16554
20
-33.904368
30
0
11
24.024171
21
-32.936795
31
0
39
0
210
0
220
0
230
1
0
LINE
5
132
100
AcDbEntity
8
2
62
256
6
ByLayer
370
13
48
1
60
0
100
AcDbLine
10
23.961254
20
-34.637109
30
0
11
24.024171
21
-32.936795
31
0
39
0
210
0
220
0
230
1
0
ENDBLK
5
134
100
AcDbEntity
8
0
100
AcDbBlockEnd
0
ENDSEC
0
SECTION
2
ENTITIES
0
ARC
5
AD
100
AcDbEntity
8
1
62
256
6
ByLayer
370
18
48
1
60
0
100
AcDbCircle
39
0
10
0
20
-9.5375
30
0
40
1.60000000000069
210
0
220
0
230
-1
100
AcDbArc
50
90
51
165
0
ELLIPSE
5
AE
100
AcDbEntity
8
1
62
256
6
ByLayer
370
18
48
1
60
0
100
AcDbEllipse
10
15.707625
20
3.359692
30
0
11
-1.85203935927659
21
-1.8520393592766
31
0
210
0
220
0
230
1
40
0.989133
41
2.44346095279205
42
2.85206449192055
0
ELLIPSE
5
AF
100
AcDbEntity
8
1
62
256
6
ByLayer
370
18
48
1
60
0
100
AcDbEllipse
10
15.69185
20
3.375468
30
0
11
1.74598052191904
21
1.74598052191906
31
0
210
0
220
0
230
1
40
0.989133
41
-0.698131700797737
42
-0.167889725067528
0
ELLIPSE
5
B0
100
AcDbEntity
8
1
62
256
6
ByLayer
370
18
48
1
60
0
100
AcDbEllipse
10
15.811063
20
2.53439
30
0
11
-1.79157841689385
21
-1.79157841689387
31
0
210
0
220
0
230
1
40
0.989133
41
-2.4008038471094
42
-0.698131700797738
0
ELLIPSE
5
B1
100
AcDbEntity
8
1
62
256
6
ByLayer
370
18
48
1
60
0
100
AcDbEllipse
10
1.23084
20
-19.699415
30
0
11
-7.21248916810276
21
-7.21248916810281
31
0
210
0
220
0
230
1
40
0.989133
41
-2.44346095279207
42
-2.42003059882821
0
ELLIPSE
5
B2
100
AcDbEntity
8
1
62
256
6
ByLayer
370
18
48
1
60
0
100
AcDbEllipse
10
18.635415
20
1.397684
30
0
11
0.0138248362453631
21
-0.151738984746742
31
0
210
0
220
0
230
-1
40
0.081741
41
1.68018689093804
42
-3.02056656109053
0
ELLIPSE
5
B3
100
AcDbEntity
8
1
62
256
6
ByLayer
370
18
48
1
60
0
100
AcDbEllipse
10
18.155041
20
3.587274
30
0
11
-0.149497441244717
21
-0.0122684579830765
31
0
210
0
220
0
230
1
40
0.112627
41
-3.05797386553977
42
-1.47554201039827
0
ELLIPSE
5
B4
100
AcDbEntity
8
1
62
256
6
ByLayer
370
18
48
1
60
0
100
AcDbEllipse
10
0.948773
20
-19.41735
30
0
11
16.2403922609508
21
-9.26573322496282
31
0
210
0
220
0
230
-1
40
0.495047
41
-1.80563524252776
42
-1.78769526754377
0
ELLIPSE
5
B5
100
AcDbEntity
8
1
62
256
6
ByLayer
370
18
48
1
60
0
100
AcDbEllipse
10
0
20
7.944481
30
0
11
1.59999999999953
21
1.61702248813131E-15
31
0
210
0
220
0
230
-1
40
0.004363
41
0.261799387799255
42
1.5707963267949
0
ELLIPSE
5
B6
100
AcDbEntity
8
1
62
256
6
ByLayer
370
18
48
1
60
0
100
AcDbEllipse
10
16.426354
20
-5.981652
30
0
11
1.83847763108502
21
1.83847763108503
31
0
210
0
220
0
230
1
40
0.989133
41
2.44346095279206
42
2.78479872499147
0
ELLIPSE
5
B7
100
AcDbEntity
8
1
62
256
6
ByLayer
370
18
48
1
60
0
100
AcDbEllipse
10
16.471562
20
2.595755
30
0
11
1.79157841689385
21
1.79157841689387
31
0
210
0
220
0
230
1
40
0.989133
41
-0.698131700797731
42
1.00454044551395
0
ELLIPSE
5
B8
100
AcDbEntity
8
1
62
256
6
ByLayer
370
18
48
1
60
0
100
AcDbEllipse
10
16.196465
20
-3.180337
30
0
11
1.83847763108502
21
1.83847763108503
31
0
210
0
220
0
230
1
40
0.989133
41
2.10212318059254
42
2.44346095279205
0
ELLIPSE
5
B9
100
AcDbEntity
8
1
62
256
6
ByLayer
370
18
48
1
60
0
100
AcDbEllipse
10
7.932929
20
-0.830097
30
0
11
-1.06066017177982
21
-1.06066017177982
31
0
210
0
220
0
230
1
40
0.989133
41
0.134730615694762
42
2.35073148180138
0
ELLIPSE
5
BA
100
AcDbEntity
8
1
62
256
6
ByLayer
370
18
48
1
60
0
100
AcDbEllipse
10
7.932929
20
-0.830097
30
0
11
-1.06066017177982
21
-1.06066017177982
31
0
210
0
220
0
230
1
40
0.989133
41
2.35073148180138
42
2.95440824118918
0
ELLIPSE
5
BB
100
AcDbEntity
8
1
62
256
6
ByLayer
370
18
48
1
60
0
100
AcDbEllipse
10
8.036891
20
-0.934058
30
0
11
1.06066017177982
21
1.06066017177982
31
0
210
0
220
0
230
1
40
0.989133
41
-0.610865238198032
42
-0.118551428463293
0
ELLIPSE
5
BC
100
AcDbEntity
8
1
62
256
6
ByLayer
370
18
48
1
60
0
100
AcDbEllipse
10
8.036891
20
-0.934058
30
0
11
1.06066017177982
21
1.06066017177982
31
0
210
0
220
0
230
1
40
0.989133
41
3.141586997586
42
-2.70526034059121
0
ELLIPSE
5
BD
100
AcDbEntity
8
1
62
256
6
ByLayer
370
18
48
1
60
0
100
AcDbEllipse
10
19.237392
20
-4.484352
30
0
11
1.96222131779266
21
1.96222131779268
31
0
210
0
220
0
230
1
40
0.989133
41
-2.72660739353162
42
-2.36584099144605
0
ELLIPSE
5
BE
100
AcDbEntity
8
1
62
256
6
ByLayer
370
18
48
1
60
0
100
AcDbEllipse
10
19.237392
20
-4.484352
30
0
11
1.96222131779266
21
1.96222131779268
31
0
210
0
220
0
230
1
40
0.989133
41
-0.715665328278528
42
-0.41500626155061
0
ELLIPSE
5
BF
100
AcDbEntity
8
1
62
256
6
ByLayer
370
18
48
1
60
0
100
AcDbEllipse
10
13.789369
20
0.963671
30
0
11
-0.56126600756682
21
-0.561266007566824
31
0
210
0
220
0
230
1
40
0.989133
41
-2.44346095279205
42
-1.76894592413175
0
ELLIPSE
5
C0
100
AcDbEntity
8
1
62
256
6
ByLayer
370
18
48
1
60
0
100
AcDbEllipse
10
19.835172
20
-5.082131
30
0
11
1.82292128189891
21
1.82292128189893
31
0
210
0
220
0
230
1
40
0.989133
41
-3.0038188204214
42
-2.04602580591505
0
ELLIPSE
5
C1
100
AcDbEntity
8
1
62
256
6
ByLayer
370
18
48
1
60
0
100
AcDbEllipse
10
19.835172
20
-5.082131
30
0
11
1.82292128189891
21
1.82292128189893
31
0
210
0
220
0
230
1
40
0.989133
41
-0.728520374746117
42
-0.137802601012944
0
ELLIPSE
5
C2
100
AcDbEntity
8
1
62
256
6
ByLayer
370
18
48
1
60
0
100
AcDbEllipse
10
14.706407
20
-10.210897
30
0
11
-0.56126600756682
21
-0.561266007566824
31
0
210
0
220
0
230
1
40
0.989133
41
-0.334296618414545
42
-1.23103758704661E-06
0
ELLIPSE
5
C3
100
AcDbEntity
8
1
62
256
6
ByLayer
370
18
48
1
60
0
100
AcDbEllipse
10
24.963937
20
0.046634
30
0
11
-0.56126600756682
21
-0.561266007566824
31
0
210
0
220
0
230
1
40
0.989133
41
-3.14159261094364
42
-2.80729722215595
0
ELLIPSE
5
C4
100
AcDbEntity
8
1
62
256
6
ByLayer
370
18
48
1
60
0
100
AcDbEllipse
10
19.564704
20
-5.516606
30
0
11
1.83847763108502
21
1.83847763108503
31
0
210
0
220
0
230
1
40
0.989133
41
2.0140408382861E-05
42
0.523043975281338
0
ELLIPSE
5
C5
100
AcDbEntity
8
1
62
256
6
ByLayer
370
18
48
1
60
0
100
AcDbEllipse
10
19.944499
20
-4.486516
30
0
11
1.83847763108502
21
1.83847763108503
31
0
210
0
220
0
230
1
40
0.989133
41
3.08642387268679
42
-3.14158824403248
0
ELLIPSE
5
C6
100
AcDbEntity
8
1
62
256
6
ByLayer
370
18
48
1
60
0
100
AcDbEllipse
10
20.014724
20
-5.052498
30
0
11
-1.66170093578838
21
-1.66170093578839
31
0
210
0
220
0
230
1
40
0.989133
41
-0.499077008529114
42
-3.06266907693693E-05
0
ELLIPSE
5
C7
100
AcDbEntity
8
1
62
256
6
ByLayer
370
18
48
1
60
0
100
AcDbEllipse
10
19.047662
20
-4.294622
30
0
11
-2.01525432638165
21
-2.01525432638167
31
0
210
0
220
0
230
1
40
0.989133
41
2.45638617854508
42
2.66020221128
0
ELLIPSE
5
C8
100
AcDbEntity
8
1
62
256
6
ByLayer
370
18
48
1
60
0
100
AcDbEllipse
10
19.047662
20
-4.294622
30
0
11
-2.01525432638165
21
-2.01525432638167
31
0
210
0
220
0
230
1
40
0.989133
41
0.481355989815833
42
0.73174782406487
0
ELLIPSE
5
C9
100
AcDbEntity
8
1
62
256
6
ByLayer
370
18
48
1
60
0
100
AcDbEllipse
10
20.330289
20
-5.577249
30
0
11
1.82292128189891
21
1.82292128189893
31
0
210
0
220
0
230
1
40
0.989133
41
0
42
6.28318530717959
0
ELLIPSE
5
CA
100
AcDbEntity
8
1
62
256
6
ByLayer
370
18
48
1
60
0
100
AcDbEllipse
10
15.201524
20
-10.706014
30
0
11
0.56126600756682
21
0.561266007566824
31
0
210
0
220
0
230
1
40
0.989133
41
2.44346095279205
42
-2.44346095279207
0
ELLIPSE
5
CB
100
AcDbEntity
8
1
62
256
6
ByLayer
370
18
48
1
60
0
100
AcDbEllipse
10
26.376091
20
-11.623051
30
0
11
0.56126600756682
21
0.561266007566824
31
0
210
0
220
0
230
1
40
0.989133
41
-2.44346095279205
42
-0.698131700797736
0
ELLIPSE
5
CC
100
AcDbEntity
8
1
62
256
6
ByLayer
370
18
48
1
60
0
100
AcDbEllipse
10
25.459054
20
-0.448484
30
0
11
0.56126600756682
21
0.561266007566824
31
0
210
0
220
0
230
1
40
0.989133
41
-0.698131700797742
42
0.698131700797741
0
ELLIPSE
5
CD
100
AcDbEntity
8
1
62
256
6
ByLayer
370
18
48
1
60
0
100
AcDbEllipse
10
14.284487
20
0.468554
30
0
11
0.56126600756682
21
0.561266007566824
31
0
210
0
220
0
230
1
40
0.989133
41
0.698131700797735
42
2.44346095279206
0
ELLIPSE
5
CE
100
AcDbEntity
8
1
62
256
6
ByLayer
370
18
48
1
60
0
100
AcDbEllipse
10
20.212033
20
-5.458992
30
0
11
-1.66170093578838
21
-1.66170093578839
31
0
210
0
220
0
230
1
40
0.989133
41
1.63703564964509
42
2.37722162994187
0
ELLIPSE
5
CF
100
AcDbEntity
8
1
62
256
6
ByLayer
370
18
48
1
60
0
100
AcDbEllipse
10
20.212033
20
-5.458992
30
0
11
-1.66170093578838
21
-1.66170093578839
31
0
210
0
220
0
230
1
40
0.989133
41
-1.5045570039447
42
-0.764371023647937
0
ELLIPSE
5
D0
100
AcDbEntity
8
1
62
256
6
ByLayer
370
18
48
1
60
0
100
AcDbEllipse
10
20.264014
20
-5.510973
30
0
11
1.30814754519511
21
1.30814754519512
31
0
210
0
220
0
230
1
40
0.989133
41
-1.47777779343826
42
-0.791150234154378
0
ELLIPSE
5
D1
100
AcDbEntity
8
1
62
256
6
ByLayer
370
18
48
1
60
0
100
AcDbEllipse
10
20.264014
20
-5.510973
30
0
11
1.30814754519511
21
1.30814754519512
31
0
210
0
220
0
230
1
40
0.989133
41
1.66381486015153
42
2.35044241943542
0
ELLIPSE
5
D2
100
AcDbEntity
8
1
62
256
6
ByLayer
370
18
48
1
60
0
100
AcDbEllipse
10
20.453911
20
-4.995928
30
0
11
1.48492424049174
21
1.48492424049176
31
0
210
0
220
0
230
1
40
0.989133
41
2.59963457632388
42
-1.72696995032673
0
ELLIPSE
5
D3
100
AcDbEntity
8
1
62
256
6
ByLayer
370
18
48
1
60
0
100
AcDbEllipse
10
20.074116
20
-6.026018
30
0
11
1.48492424049174
21
1.48492424049176
31
0
210
0
220
0
230
1
40
0.989133
41
-0.541958077265915
42
1.41462270326307
0
ELLIPSE
5
D4
100
AcDbEntity
8
1
62
256
6
ByLayer
370
18
48
1
60
0
100
AcDbEllipse
10
20.40193
20
-4.943948
30
0
11
-1.83847763108502
21
-1.83847763108503
31
0
210
0
220
0
230
1
40
0.989133
41
-0.565853713532141
42
1.43851833952929
0
ELLIPSE
5
D5
100
AcDbEntity
8
1
62
256
6
ByLayer
370
18
48
1
60
0
100
AcDbEllipse
10
20.022135
20
-5.974037
30
0
11
-1.83847763108502
21
-1.83847763108503
31
0
210
0
220
0
230
1
40
0.989133
41
2.57573894005766
42
-1.7030743140605
0
ELLIPSE
5
D6
100
AcDbEntity
8
1
62
256
6
ByLayer
370
18
48
1
60
0
100
AcDbEllipse
10
8.452737
20
-1.349905
30
0
11
-1.22474487139158
21
-1.22474487139159
31
0
210
0
220
0
230
1
40
0.989133
41
-0.0872664625997281
42
0.959931088596861
0
ELLIPSE
5
D7
100
AcDbEntity
8
1
62
256
6
ByLayer
370
18
48
1
60
0
100
AcDbEllipse
10
8.036891
20
-0.934058
30
0
11
1.06066017177982
21
1.06066017177982
31
0
210
0
220
0
230
1
40
0.989133
41
-1.65806278939462
42
-0.610865238198032
0
ELLIPSE
5
D8
100
AcDbEntity
8
1
62
256
6
ByLayer
370
18
48
1
60
0
100
AcDbEllipse
10
8.452737
20
-1.349905
30
0
11
-1.22474487139158
21
-1.22474487139159
31
0
210
0
220
0
230
1
40
0.989133
41
-2.18166156499292
42
-1.13446401379633
0
ELLIPSE
5
D9
100
AcDbEntity
8
1
62
256
6
ByLayer
370
18
48
1
60
0
100
AcDbEllipse
10
8.386726
20
-1.283893
30
0
11
-2.82842712474618
21
-2.8284271247462
31
0
210
0
220
0
230
1
40
0.989133
41
0
42
6.28318530717959
0
ELLIPSE
5
DA
100
AcDbEntity
8
1
62
256
6
ByLayer
370
18
48
1
60
0
100
AcDbEllipse
10
8.036891
20
-0.934058
30
0
11
1.06066017177982
21
1.06066017177982
31
0
210
0
220
0
230
1
40
0.989133
41
-2.70526034059121
42
-1.65806278939462
0
ELLIPSE
5
DB
100
AcDbEntity
8
1
62
256
6
ByLayer
370
18
48
1
60
0
100
AcDbEllipse
10
8.452737
20
-1.349905
30
0
11
-1.22474487139158
21
-1.22474487139159
31
0
210
0
220
0
230
1
40
0.989133
41
0.959931088596861
42
2.00712863979347
0
ELLIPSE
5
DC
100
AcDbEntity
8
1
62
256
6
ByLayer
370
18
48
1
60
0
100
AcDbEllipse
10
8.452737
20
-1.349905
30
0
11
-2.24329626331431
21
-2.24329626331433
31
0
210
0
220
0
230
1
40
0.989133
41
0
42
6.28318530717959
0
ELLIPSE
5
DD
100
AcDbEntity
8
1
62
256
6
ByLayer
370
18
48
1
60
0
100
AcDbEllipse
10
8.452737
20
-1.349905
30
0
11
-1.22474487139158
21
-1.22474487139159
31
0
210
0
220
0
230
1
40
0.989133
41
3.05432619099007
42
-2.18166156499292
0
ELLIPSE
5
DE
100
AcDbEntity
8
1
62
256
6
ByLayer
370
18
48
1
60
0
100
AcDbEllipse
10
8.452737
20
-1.349905
30
0
11
-1.22474487139158
21
-1.22474487139159
31
0
210
0
220
0
230
1
40
0.989133
41
2.00712863979347
42
3.05432619099007
0
ELLIPSE
5
DF
100
AcDbEntity
8
1
62
256
6
ByLayer
370
18
48
1
60
0
100
AcDbEllipse
10
8.452737
20
-1.349905
30
0
11
-1.22474487139158
21
-1.22474487139159
31
0
210
0
220
0
230
1
40
0.989133
41
-1.13446401379633
42
-0.0872664625997281
0
POINT
5
6C
100
AcDbEntity
8
80
62
256
6
ByLayer
370
18
48
1
60
0
100
AcDbPoint
10
0
20
0
30
0
39
0
210
0
220
0
230
1
50
360
0
POINT
5
6E
100
AcDbEntity
8
81
62
256
6
ByLayer
370
18
48
1
60
0
100
AcDbPoint
10
25.81554
20
-12.0625
30
0
39
0
210
0
220
0
230
1
50
360
0
POINT
5
70
100
AcDbEntity
8
1
62
256
6
ByLayer
370
18
48
1
60
0
100
AcDbPoint
10
-74.18446
20
7.9375
30
0
39
0
210
0
220
0
230
1
50
360
0
SPLINE
5
E0
100
AcDbEntity
8
1
62
256
6
ByLayer
370
18
48
1
60
0
100
AcDbSpline
70
4
71
2
72
6
73
3
40
0
40
0
40
0
40
1
40
1
40
1
41
1
10
18.5620955003485
20
-6.89550712117151
30
0
41
1
10
18.4593805002227
20
-6.83234082272685
30
0
41
1
10
18.3871336380091
20
-6.73198473444455
30
0
0
SPLINE
5
E1
100
AcDbEntity
8
1
62
256
6
ByLayer
370
18
48
1
60
0
100
AcDbSpline
70
4
71
3
72
18
73
14
40
0
40
0
40
0
40
0
40
0.0975565125669936
40
0.0975565125669936
40
0.278045210053596
40
0.278045210053596
40
0.6390226050268
40
0.6390226050268
40
0.729266953770101
40
0.729266953770101
40
0.819511302513402
40
0.819511302513402
40
1
40
1
40
1
40
1
41
1
10
17.7999499000297
20
-5.83500852681394
30
0
41
1
10
17.8118276277265
20
-5.86053629441525
30
0
41
1
10
17.8240332176296
20
-5.88554898232593
30
0
41
1
10
17.8596107708984
20
-5.95526758341592
30
0
41
1
10
17.8836381417888
20
-5.99856402850199
30
0
41
1
10
17.9558174512646
20
-6.11974757844516
30
0
41
1
10
18.0056177900158
20
-6.19069924010509
30
0
41
1
10
18.0535947880677
20
-6.25394302209915
30
0
41
1
10
18.0624408506817
20
-6.26531594061282
30
0
41
1
10
18.0779143180629
20
-6.28495241627982
30
0
41
1
10
18.0845042564901
20
-6.29316923465783
30
0
41
1
10
18.0990151925513
20
-6.31137288503419
30
0
41
1
10
18.101746259697
20
-6.31512503121491
30
0
41
1
10
18.0947630106036
20
-6.30814178212154
30
0
0
SPLINE
5
E2
100
AcDbEntity
8
1
62
256
6
ByLayer
370
18
48
1
60
0
100
AcDbSpline
70
4
71
3
72
20
73
16
40
0
40
0
40
0
40
0
40
0.171873717170754
40
0.171873717170754
40
0.309487642174563
40
0.309487642174563
40
0.447101567178371
40
0.447101567178371
40
0.722329417185988
40
0.722329417185988
40
0.859943342189797
40
0.859943342189797
40
0.997557267193605
40
0.997557267193605
40
1
40
1
40
1
40
1
41
1
10
21.9405312704928
20
-4.24451802700776
30
0
41
1
10
21.9175812308328
20
-4.17474982758773
30
0
41
1
10
21.8916841408477
20
-4.10577117801225
30
0
41
1
10
21.8394763537929
20
-3.98332018678602
30
0
41
1
10
21.8142802114117
20
-3.92948720140143
30
0
41
1
10
21.7597534905425
20
-3.82317963238916
30
0
41
1
10
21.7303207860312
20
-3.77056365014295
30
0
41
1
10
21.6370435560916
20
-3.6173268831929
30
0
41
1
10
21.5679215912328
20
-3.52055545104517
30
0
41
1
10
21.4537398783321
20
-3.38351526774042
30
0
41
1
10
21.413923581179
20
-3.33919284440395
30
0
41
1
10
21.3306841531121
20
-3.25333310469867
30
0
41
1
10
21.2871917881461
20
-3.21176315181
30
0
41
1
10
21.2418066157585
20
-3.17157830497126
30
0
41
1
10
21.2410146536974
20
-3.17087803657429
30
0
41
1
10
21.2402222939014
20
-3.17017836493523
30
0
0
SPLINE
5
E3
100
AcDbEntity
8
1
62
256
6
ByLayer
370
18
48
1
60
0
100
AcDbSpline
70
4
71
3
72
8
73
4
40
0
40
0
40
0
40
0
40
1
40
1
40
1
40
1
41
1
10
18.0669214566374
20
-6.74285645197631
30
0
41
1
10
18.2157216317999
20
-6.80628022848433
30
0
41
1
10
18.3599956566969
20
-6.86835675396543
30
0
41
1
10
18.4970018768155
20
-6.92826994927029
30
0
0
SPLINE
5
E4
100
AcDbEntity
8
1
62
256
6
ByLayer
370
18
48
1
60
0
100
AcDbSpline
70
4
71
3
72
8
73
4
40
0
40
0
40
0
40
0
40
1
40
1
40
1
40
1
41
1
10
19.0285501045245
20
-7.17892988642575
30
0
41
1
10
18.8962420702414
20
-7.12002931904246
30
0
41
1
10
18.7718412804058
20
-7.04959228804654
30
0
41
1
10
18.6554937611014
20
-6.96863158042009
30
0
0
SPLINE
5
E5
100
AcDbEntity
8
1
62
256
6
ByLayer
370
18
48
1
60
0
100
AcDbSpline
70
4
71
3
72
8
73
4
40
0
40
0
40
0
40
0
40
1
40
1
40
1
40
1
41
1
10
21.6738580868115
20
-6.67780464254847
30
0
41
1
10
21.7701269380904
20
-6.78156730890467
30
0
41
1
10
21.8661535394693
20
-6.88530951687852
30
0
41
1
10
21.9620607293922
20
-6.98904147799456
30
0
0
SPLINE
5
E6
100
AcDbEntity
8
1
62
256
6
ByLayer
370
18
48
1
60
0
100
AcDbSpline
70
4
71
3
72
20
73
16
40
0
40
0
40
0
40
0
40
0.249999999999999
40
0.249999999999999
40
0.499999999999999
40
0.499999999999999
40
0.624999999999999
40
0.624999999999999
40
0.75
40
0.75
40
0.8125
40
0.8125
40
0.875
40
0.875
40
1
40
1
40
1
40
1
41
1
10
18.6554937611018
20
-6.96863158042035
30
0
41
1
10
18.5685538287962
20
-6.90813421457585
30
0
41
1
10
18.4881353981871
20
-6.84284130920474
30
0
41
1
10
18.3404737212811
20
-6.70476835674364
30
0
41
1
10
18.2731895782643
20
-6.63189128664305
30
0
41
1
10
18.1833870368975
20
-6.51963323861091
30
0
41
1
10
18.1554282449995
20
-6.48184285311604
30
0
41
1
10
18.1047914177035
20
-6.40801877961144
30
0
41
1
10
18.0818986485176
20
-6.3716345839764
30
0
41
1
10
18.0529368930078
20
-6.321673198474
30
0
41
1
10
18.044152523555
20
-6.30575921458194
30
0
41
1
10
18.028671326676
20
-6.2762746462756
30
0
41
1
10
18.0219825237523
20
-6.26270227404609
30
0
41
1
10
18.0066079506841
20
-6.22905125795532
30
0
41
1
10
18.0026022450431
20
-6.21598101656042
30
0
41
1
10
18.0085446295817
20
-6.22192340109899
30
0
0
SPLINE
5
E7
100
AcDbEntity
8
1
62
256
6
ByLayer
370
18
48
1
60
0
100
AcDbSpline
70
4
71
3
72
16
73
12
40
0
40
0
40
0
40
0
40
0.249999999999999
40
0.249999999999999
40
0.499999999999999
40
0.499999999999999
40
0.749999999999998
40
0.749999999999998
40
0.874999999999999
40
0.874999999999999
40
1
40
1
40
1
40
1
41
1
10
18.4970018768149
20
-6.92826994926972
30
0
41
1
10
18.5502580911338
20
-6.95852415879048
30
0
41
1
10
18.6034290076284
20
-6.98649524027309
30
0
41
1
10
18.7082715988472
20
-7.03816136140671
30
0
41
1
10
18.7599587985696
20
-7.06182379029352
30
0
41
1
10
18.8566612941982
20
-7.10411300444457
30
0
41
1
10
18.9025710449611
20
-7.1231087776041
30
0
41
1
10
18.9602895198966
20
-7.1473544998295
30
0
41
1
10
18.9776550432252
20
-7.15473494313653
30
0
41
1
10
19.0074670101316
20
-7.16807660059123
30
0
41
1
10
19.0197754929858
20
-7.17399461349206
30
0
41
1
10
19.0285501045245
20
-7.17892988642581
30
0
0
SPLINE
5
E8
100
AcDbEntity
8
1
62
256
6
ByLayer
370
18
48
1
60
0
100
AcDbSpline
70
4
71
3
72
8
73
4
40
0
40
0
40
0
40
0
40
1
40
1
40
1
40
1
41
1
10
18.4241538051217
20
-5.51044161886932
30
0
41
1
10
18.2409872075546
20
-5.51382511770373
30
0
41
1
10
18.0579792504736
20
-5.51733216652474
30
0
41
1
10
17.875049695489
20
-5.52090002733107
30
0
0
SPLINE
5
E9
100
AcDbEntity
8
1
62
256
6
ByLayer
370
18
48
1
60
0
100
AcDbSpline
70
4
71
3
72
8
73
4
40
0
40
0
40
0
40
0
40
1
40
1
40
1
40
1
41
1
10
18.4620046451816
20
-3.92894327803404
30
0
41
1
10
18.5925877147449
20
-4.0673511187905
30
0
41
1
10
18.7232738547281
20
-4.20575286536859
30
0
41
1
10
18.8541689286933
20
-4.34414175441106
30
0
0
SPLINE
5
EA
100
AcDbEntity
8
1
62
256
6
ByLayer
370
18
48
1
60
0
100
AcDbSpline
70
4
71
3
72
8
73
4
40
0
40
0
40
0
40
0
40
1
40
1
40
1
40
1
41
1
10
22.5490156790849
20
-5.39708472869754
30
0
41
1
10
22.4007620037407
20
-5.43532846914428
30
0
41
1
10
22.2524135852639
20
-5.47349505656953
30
0
41
1
10
22.1038732103831
20
-5.51150477809023
30
0
0
SPLINE
5
EB
100
AcDbEntity
8
1
62
256
6
ByLayer
370
18
48
1
60
0
100
AcDbSpline
70
4
71
3
72
14
73
10
40
0
40
0
40
0
40
0
40
0.5
40
0.5
40
0.625
40
0.625
40
0.75
40
0.75
40
1
40
1
40
1
40
1
41
1
10
8.16287240918359
20
0.344929786142444
30
0
41
1
10
7.93792936729656
20
0.171441095711828
30
0
41
1
10
7.71280854893288
20
-0.007841036377954
30
0
41
1
10
7.43101603591728
20
-0.244701715772294
30
0
41
1
10
7.37472386457938
20
-0.292626323997126
30
0
41
1
10
7.26399732764671
20
-0.388051912056739
30
0
41
1
10
7.20931744652574
20
-0.435756933684132
30
0
41
1
10
7.04708014845912
20
-0.578851499865124
30
0
41
1
10
6.94131805382492
20
-0.674220625592483
30
0
41
1
10
6.83720450239801
20
-0.769571001863454
30
0
0
SPLINE
5
EC
100
AcDbEntity
8
1
62
256
6
ByLayer
370
18
48
1
60
0
100
AcDbSpline
70
4
71
3
72
14
73
10
40
0
40
0
40
0
40
0
40
0.25
40
0.25
40
0.5
40
0.5
40
0.75
40
0.75
40
1
40
1
40
1
40
1
41
1
10
9.77840537035533
20
-0.235404077783045
30
0
41
1
10
9.64363155440475
20
-0.184298375488197
30
0
41
1
10
9.50784774298526
20
-0.133279844341075
30
0
41
1
10
9.23323642034634
20
-0.0315054790717397
30
0
41
1
10
9.09349633193054
20
0.0195537689771754
30
0
41
1
10
8.82041160855354
20
0.117653578755267
30
0
41
1
10
8.68606272865352
20
0.165077031911409
30
0
41
1
10
8.42110958999498
20
0.257147327277238
30
0
41
1
10
8.29005972537922
20
0.301950851284687
30
0
41
1
10
8.16287240918356
20
0.344929786141989
30
0
0
SPLINE
5
ED
100
AcDbEntity
8
1
62
256
6
ByLayer
370
18
48
1
60
0
100
AcDbSpline
70
4
71
3
72
14
73
10
40
0
40
0
40
0
40
0
40
0.5
40
0.5
40
0.625
40
0.625
40
0.75
40
0.75
40
1
40
1
40
1
40
1
41
1
10
10.0682704247416
20
-1.93023872971361
30
0
41
1
10
10.0124536919093
20
-1.64501799223274
30
0
41
1
10
9.9589938453843
20
-1.3587161082875
30
0
41
1
10
9.89735924901228
20
-0.998457909145372
30
0
41
1
10
9.885305018178
20
-0.926399053568503
30
0
41
1
10
9.86208593904976
20
-0.784484300365904
30
0
41
1
10
9.85086640332855
20
-0.714314874862112
30
0
41
1
10
9.81823638060771
20
-0.505884716951783
30
0
41
1
10
9.79785047008804
20
-0.369694005588571
30
0
41
1
10
9.77840537035516
20
-0.235404077782732
30
0
0
SPLINE
5
EE
100
AcDbEntity
8
1
62
256
6
ByLayer
370
18
48
1
60
0
100
AcDbSpline
70
4
71
3
72
14
73
10
40
0
40
0
40
0
40
0
40
0.5
40
0.5
40
0.625
40
0.625
40
0.75
40
0.75
40
1
40
1
40
1
40
1
41
1
10
8.74260251795604
20
-3.04473951771894
30
0
41
1
10
8.95057066102595
20
-2.85427592847123
30
0
41
1
10
9.16484898254134
20
-2.66415129953316
30
0
41
1
10
9.44659282944824
20
-2.42724195403008
30
0
41
1
10
9.50353614081266
20
-2.37996848583177
30
0
41
1
10
9.6168017045911
20
-2.28708192461795
30
0
41
1
10
9.6733669025522
20
-2.24126221983073
30
0
41
1
10
9.84288425260982
20
-2.10544770564067
30
0
41
1
10
9.95565885542203
20
-2.01709108809138
30
0
41
1
10
10.0682704247418
20
-1.9302387297133
30
0
0
SPLINE
5
EF
100
AcDbEntity
8
1
62
256
6
ByLayer
370
18
48
1
60
0
100
AcDbSpline
70
4
71
3
72
14
73
10
40
0
40
0
40
0
40
0
40
0.25
40
0.25
40
0.5
40
0.5
40
0.75
40
0.75
40
1
40
1
40
1
40
1
41
1
10
7.12706955678479
20
-2.46440565379393
30
0
41
1
10
7.25425687298042
20
-2.50738458865123
30
0
41
1
10
7.38530673759621
20
-2.55218811265868
30
0
41
1
10
7.65025987625472
20
-2.64425840802451
30
0
41
1
10
7.78460875615477
20
-2.69168186118065
30
0
41
1
10
8.05769347953171
20
-2.78978167095875
30
0
41
1
10
8.19743356794754
20
-2.84084091900766
30
0
41
1
10
8.47204489058649
20
-2.942615284277
30
0
41
1
10
8.60782870200595
20
-2.99363381542415
30
0
41
1
10
8.7426025179565
20
-3.04473951771897
30
0
0
SPLINE
5
F0
100
AcDbEntity
8
1
62
256
6
ByLayer
370
18
48
1
60
0
100
AcDbSpline
70
4
71
3
72
14
73
10
40
0
40
0
40
0
40
0
40
0.5
40
0.5
40
0.625
40
0.625
40
0.75
40
0.75
40
1
40
1
40
1
40
1
41
1
10
6.83720450239801
20
-0.769571001862886
30
0
41
1
10
6.87604633641322
20
-1.03781684052666
30
0
41
1
10
6.9186636860899
20
-1.31327622762362
30
0
41
1
10
6.98024961635323
20
-1.673485760657
30
0
41
1
10
6.99295498721401
20
-1.74619575626042
30
0
41
1
10
7.01871309318804
20
-1.89064953630879
30
0
41
1
10
7.03181794574939
20
-1.96270427865275
30
0
41
1
10
7.07172802046119
20
-2.17841448855401
30
0
41
1
10
7.09912643915891
20
-2.32161770809529
30
0
41
1
10
7.12706955678468
20
-2.46440565379399
30
0
0
LINE
5
72
100
AcDbEntity
8
1
62
256
6
ByLayer
370
18
48
1
60
0
100
AcDbLine
10
26.02032
20
0.112782
30
0
11
25.525203
21
0.6079
31
0
39
0
210
0
220
0
230
1
0
LINE
5
73
100
AcDbEntity
8
1
62
256
6
ByLayer
370
18
48
1
60
0
100
AcDbLine
10
14.145141
20
-10.772163
30
0
11
14.640258
21
-11.26728
31
0
39
0
210
0
220
0
230
1
0
LINE
5
74
100
AcDbEntity
8
1
62
256
6
ByLayer
370
18
48
1
60
0
100
AcDbLine
10
21.860613
20
-4.13556
30
0
11
21.403182
21
-3.678128
31
0
39
0
210
0
220
0
230
1
0
LINE
5
75
100
AcDbEntity
8
1
62
256
6
ByLayer
370
18
48
1
60
0
100
AcDbLine
10
18.353023
20
-6.714199
30
0
11
18.365683
21
-6.726859
31
0
39
0
210
0
220
0
230
1
0
LINE
5
76
100
AcDbEntity
8
1
62
256
6
ByLayer
370
18
48
1
60
0
100
AcDbLine
10
18.106021
20
-6.324994
30
0
11
18.563452
21
-6.782425
31
0
39
0
210
0
220
0
230
1
0
LINE
5
77
100
AcDbEntity
8
1
62
256
6
ByLayer
370
18
48
1
60
0
100
AcDbLine
10
21.34675
20
-3.270307
30
0
11
21.250606
21
-3.174164
31
0
39
0
210
0
220
0
230
1
0
LINE
5
78
100
AcDbEntity
8
1
62
256
6
ByLayer
370
18
48
1
60
0
100
AcDbLine
10
5.517448
20
-4.07147
30
0
11
5.558299
21
-4.11232
31
0
39
0
210
0
220
0
230
1
0
LINE
5
79
100
AcDbEntity
8
1
62
256
6
ByLayer
370
18
48
1
60
0
100
AcDbLine
10
11.215153
20
1.544534
30
0
11
11.174303
21
1.585384
31
0
39
0
210
0
220
0
230
1
0
LINE
5
7A
100
AcDbEntity
8
1
62
256
6
ByLayer
370
18
48
1
60
0
100
AcDbLine
10
24.920866
20
5.524798
30
0
11
25.341782
21
0.395721
31
0
39
0
210
0
220
0
230
1
0
LINE
5
7B
100
AcDbEntity
8
1
62
256
6
ByLayer
370
18
48
1
60
0
100
AcDbLine
10
20.883335
20
0.76158
30
0
11
19.140383
21
0.912288
31
0
39
0
210
0
220
0
230
1
0
LINE
5
7C
100
AcDbEntity
8
1
62
256
6
ByLayer
370
18
48
1
60
0
100
AcDbLine
10
18.621577
20
1.413126
30
0
11
18.625973
21
1.359561
31
0
39
0
210
0
220
0
230
1
0
LINE
5
7D
100
AcDbEntity
8
1
62
256
6
ByLayer
370
18
48
1
60
0
100
AcDbLine
10
18.303901
20
3.600905
30
0
11
18.486897
21
1.371007
31
0
39
0
210
0
220
0
230
1
0
LINE
5
7E
100
AcDbEntity
8
1
62
256
6
ByLayer
370
18
48
1
60
0
100
AcDbLine
10
13.311638
20
2.827989
30
0
11
13.408248
21
1.650755
31
0
39
0
210
0
220
0
230
1
0
LINE
5
7F
100
AcDbEntity
8
1
62
256
6
ByLayer
370
18
48
1
60
0
100
AcDbLine
10
18.741714
20
1.402738
30
0
11
18.621577
21
1.413126
31
0
39
0
210
0
220
0
230
1
0
LINE
5
80
100
AcDbEntity
8
1
62
256
6
ByLayer
370
18
48
1
60
0
100
AcDbLine
10
18.32149
20
1.384577
30
0
11
18.139447
21
3.602868
31
0
39
0
210
0
220
0
230
1
0
LINE
5
81
100
AcDbEntity
8
1
62
256
6
ByLayer
370
18
48
1
60
0
100
AcDbLine
10
1.545481
20
7.942674
30
0
11
1.545481
21
-9.12339
31
0
39
0
210
0
220
0
230
1
0
LINE
5
82
100
AcDbEntity
8
1
62
256
6
ByLayer
370
18
48
1
60
0
100
AcDbLine
10
24.920866
20
5.524798
30
0
11
23.062746
21
7.382917
31
0
39
0
210
0
220
0
230
1
0
LINE
5
83
100
AcDbEntity
8
1
62
256
6
ByLayer
370
18
48
1
60
0
100
AcDbLine
10
13.619201
20
-3.419784
30
0
11
13.84909
21
-6.221099
31
0
39
0
210
0
220
0
230
1
0
LINE
5
84
100
AcDbEntity
8
1
62
256
6
ByLayer
370
18
48
1
60
0
100
AcDbLine
10
14.068511
20
-7.069194
30
0
11
14.357342
21
-10.588743
31
0
39
0
210
0
220
0
230
1
0
LINE
5
85
100
AcDbEntity
8
1
62
256
6
ByLayer
370
18
48
1
60
0
100
AcDbLine
10
14.357342
20
-10.588743
30
0
11
2.17021
21
-9.58861
31
0
39
0
210
0
220
0
230
1
0
LINE
5
86
100
AcDbEntity
8
1
62
256
6
ByLayer
370
18
48
1
60
0
100
AcDbLine
10
0
20
-7.9375
30
0
11
0
21
7.9375
31
0
39
0
210
0
220
0
230
1
0
LINE
5
87
100
AcDbEntity
8
1
62
256
6
ByLayer
370
18
48
1
60
0
100
AcDbLine
10
1.545481
20
7.942674
30
0
11
2.413432
21
7.956808
31
0
39
0
210
0
220
0
230
1
0
LINE
5
88
100
AcDbEntity
8
1
62
256
6
ByLayer
370
18
48
1
60
0
100
AcDbLine
10
24.920866
20
5.524798
30
0
11
14.537459
21
7.951246
31
0
39
0
210
0
220
0
230
1
0
LINE
5
89
100
AcDbEntity
8
1
62
256
6
ByLayer
370
18
48
1
60
0
100
AcDbLine
10
1.9333
20
-9.571965
30
0
11
2.413432
21
7.956808
31
0
39
0
210
0
220
0
230
1
0
LINE
5
8A
100
AcDbEntity
8
1
62
256
6
ByLayer
370
18
48
1
60
0
100
AcDbLine
10
18.623189
20
1.548449
30
0
11
19.140383
21
0.912288
31
0
39
0
210
0
220
0
230
1
0
LINE
5
8B
100
AcDbEntity
8
1
62
256
6
ByLayer
370
18
48
1
60
0
100
AcDbLine
10
21.073655
20
7.868232
30
0
11
23.062746
21
7.382917
31
0
39
0
210
0
220
0
230
1
0
LINE
5
8C
100
AcDbEntity
8
1
62
256
6
ByLayer
370
18
48
1
60
0
100
AcDbLine
10
13.299545
20
2.301051
30
0
11
13.697157
21
-2.54406
31
0
39
0
210
0
220
0
230
1
0
LINE
5
8D
100
AcDbEntity
8
1
62
256
6
ByLayer
370
18
48
1
60
0
100
AcDbLine
10
18.983081
20
2.829094
30
0
11
18.303901
21
3.600905
31
0
39
0
210
0
220
0
230
1
0
LINE
5
8E
100
AcDbEntity
8
1
62
256
6
ByLayer
370
18
48
1
60
0
100
AcDbLine
10
21.073655
20
7.868232
30
0
11
14.537459
21
7.951246
31
0
39
0
210
0
220
0
230
1
0
LINE
5
8F
100
AcDbEntity
8
1
62
256
6
ByLayer
370
18
48
1
60
0
100
AcDbLine
10
1.545481
20
-9.12339
30
0
11
1.630923
21
-9.442263
31
0
39
0
210
0
220
0
230
1
0
LINE
5
90
100
AcDbEntity
8
1
62
256
6
ByLayer
370
18
48
1
60
0
100
AcDbLine
10
14.537459
20
7.951246
30
0
11
2.413432
21
7.956808
31
0
39
0
210
0
220
0
230
1
0
LINE
5
91
100
AcDbEntity
8
1
62
256
6
ByLayer
370
18
48
1
60
0
100
AcDbLine
10
19.140383
20
0.912288
30
0
11
18.983081
21
2.829094
31
0
39
0
210
0
220
0
230
1
0
LINE
5
92
100
AcDbEntity
8
SK1
62
256
6
ByLayer
370
18
48
1
60
0
100
AcDbLine
10
-74.18446
20
7.9375
30
0
11
-74.18446
21
-7.9375
31
0
39
0
210
0
220
0
230
1
0
LINE
5
94
100
AcDbEntity
8
SK1
62
256
6
ByLayer
370
18
48
1
60
0
100
AcDbLine
10
-74.18446
20
-7.9375
30
0
11
0
21
-7.9375
31
0
39
0
210
0
220
0
230
1
0
LINE
5
95
100
AcDbEntity
8
SK1
62
256
6
ByLayer
370
18
48
1
60
0
100
AcDbLine
10
-74.18446
20
7.9375
30
0
11
0
21
7.9375
31
0
39
0
210
0
220
0
230
1
0
LINE
5
96
100
AcDbEntity
8
SK1
62
256
6
ByLayer
370
18
48
1
60
0
100
AcDbLine
10
0
20
-7.9375
30
0
11
0
21
7.9375
31
0
39
0
210
0
220
0
230
1
0
LINE
5
97
100
AcDbEntity
8
1
62
256
6
ByLayer
370
18
48
1
60
0
100
AcDbLine
10
7.074163
20
-2.178935
30
0
11
7.518989
21
-2.338726
31
0
39
0
210
0
220
0
230
1
0
LINE
5
98
100
AcDbEntity
8
1
62
256
6
ByLayer
370
18
48
1
60
0
100
AcDbLine
10
9.507491
20
-0.666975
30
0
11
9.410199
21
-0.098106
31
0
39
0
210
0
220
0
230
1
0
LINE
5
99
100
AcDbEntity
8
1
62
256
6
ByLayer
370
18
48
1
60
0
100
AcDbLine
10
13.497678
20
0.395453
30
0
11
13.452189
21
0.440942
31
0
39
0
210
0
220
0
230
1
0
LINE
5
9A
100
AcDbEntity
8
1
62
256
6
ByLayer
370
18
48
1
60
0
100
AcDbLine
10
25.532155
20
0.338325
30
0
11
25.329891
21
0.540589
31
0
39
0
210
0
220
0
230
1
0
LINE
5
9B
100
AcDbEntity
8
1
62
256
6
ByLayer
370
18
48
1
60
0
100
AcDbLine
10
13.86247
20
1.75048
30
0
11
18.78766
21
1.346296
31
0
39
0
210
0
220
0
230
1
0
LINE
5
9C
100
AcDbEntity
8
1
62
256
6
ByLayer
370
18
48
1
60
0
100
AcDbLine
10
14.212452
20
-10.576851
30
0
11
14.414715
21
-10.779114
31
0
39
0
210
0
220
0
230
1
0
LINE
5
9D
100
AcDbEntity
8
1
62
256
6
ByLayer
370
18
48
1
60
0
100
AcDbLine
10
18.462005
20
-3.928943
30
0
11
18.420472
21
-3.887411
31
0
39
0
210
0
220
0
230
1
0
LINE
5
9E
100
AcDbEntity
8
1
62
256
6
ByLayer
370
18
48
1
60
0
100
AcDbLine
10
17.773037
20
-5.418888
30
0
11
17.87505
21
-5.5209
31
0
39
0
210
0
220
0
230
1
0
LINE
5
9F
100
AcDbEntity
8
80
62
256
6
ByLayer
370
18
48
1
60
0
100
AcDbLine
10
0
20
0
30
0
11
-5
21
0
31
0
39
0
210
0
220
0
230
1
0
LINE
5
A0
100
AcDbEntity
8
81
62
256
6
ByLayer
370
18
48
1
60
0
100
AcDbLine
10
25.81554
20
-12.0625
30
0
11
35.81554
21
-12.0625
31
0
39
0
210
0
220
0
230
1
0
LINE
5
A1
100
AcDbEntity
8
1
62
256
6
ByLayer
370
18
48
1
60
0
100
AcDbLine
10
26.302991
20
-12.40986
30
0
11
15.128423
21
-11.492823
31
0
39
0
210
0
220
0
230
1
0
LINE
5
A2
100
AcDbEntity
8
1
62
256
6
ByLayer
370
18
48
1
60
0
100
AcDbLine
10
13.86247
20
1.75048
30
0
11
14.357587
21
1.255363
31
0
39
0
210
0
220
0
230
1
0
LINE
5
A3
100
AcDbEntity
8
1
62
256
6
ByLayer
370
18
48
1
60
0
100
AcDbLine
10
26.245863
20
-0.375383
30
0
11
27.1629
21
-11.549951
31
0
39
0
210
0
220
0
230
1
0
LINE
5
A4
100
AcDbEntity
8
1
62
256
6
ByLayer
370
18
48
1
60
0
100
AcDbLine
10
14.357587
20
1.255363
30
0
11
25.532155
21
0.338325
31
0
39
0
210
0
220
0
230
1
0
LINE
5
A5
100
AcDbEntity
8
1
62
256
6
ByLayer
370
18
48
1
60
0
100
AcDbLine
10
14.414715
20
-10.779114
30
0
11
13.497678
21
0.395453
31
0
39
0
210
0
220
0
230
1
0
LINE
5
A6
100
AcDbEntity
8
1
62
256
6
ByLayer
370
18
48
1
60
0
100
AcDbLine
10
18.094763
20
-6.308142
30
0
11
18.008545
21
-6.221923
31
0
39
0
210
0
220
0
230
1
0
LINE
5
A7
100
AcDbEntity
8
1
62
256
6
ByLayer
370
18
48
1
60
0
100
AcDbLine
10
8.98959
20
-2.071643
30
0
11
9.652424
21
-1.514392
31
0
39
0
210
0
220
0
230
1
0
LINE
5
A8
100
AcDbEntity
8
1
62
256
6
ByLayer
370
18
48
1
60
0
100
AcDbLine
10
8.326756
20
-2.628893
30
0
11
8.742603
21
-3.04474
31
0
39
0
210
0
220
0
230
1
0
LINE
5
A9
100
AcDbEntity
8
1
62
256
6
ByLayer
370
18
48
1
60
0
100
AcDbLine
10
9.652424
20
-1.514392
30
0
11
9.507491
21
-0.666975
31
0
39
0
210
0
220
0
230
1
0
LINE
5
AA
100
AcDbEntity
8
1
62
256
6
ByLayer
370
18
48
1
60
0
100
AcDbLine
10
8.326756
20
-2.628893
30
0
11
8.98959
21
-2.071643
31
0
39
0
210
0
220
0
230
1
0
LINE
5
AB
100
AcDbEntity
8
1
62
256
6
ByLayer
370
18
48
1
60
0
100
AcDbLine
10
7.518989
20
-2.338726
30
0
11
8.326756
21
-2.628893
31
0
39
0
210
0
220
0
230
1
0
LINE
5
AC
100
AcDbEntity
8
1
62
256
6
ByLayer
370
18
48
1
60
0
100
AcDbLine
10
9.652424
20
-1.514392
30
0
11
10.06827
21
-1.930239
31
0
39
0
210
0
220
0
230
1
0
MTEXT
5
F1
100
AcDbEntity
8
SK6
62
256
6
ByLayer
370
13
48
1
60
0
100
AcDbMText
10
-55.934924
20
16.923222
30
0
210
0
220
0
230
1
1
\W0.7143;PCLNL 1616H 12-M
40
3.5
41
0
44
1.084337
50
0
71
7
72
5
7
iso_b_vert
0
DIMENSION
5
103
100
AcDbEntity
8
SK2
62
256
6
ByLayer
370
13
48
1
60
0
100
AcDbDimension
2
DimnDraft3D1
10
-83.93446
20
7.9375
30
0
11
-83.93446
21
-0.0625
31
0
70
32
71
5
72
1
41
1
210
0
220
0
230
1
3
Standard
100
AcDbAlignedDimension
13
-75.77196
23
-8.0625
33
0
14
-75.77196
24
7.9375
34
0
50
90
100
AcDbRotatedDimension
1001
ACAD
1000
DSTYLE
1002
{
1070
    74
1070
     0
1070
   279
1070
     0
1070
   172
1070
     1
1070
   173
1070
     1
1070
   340
1005
F2
1070
   271
1070
     1
1070
   272
1070
     2
1070
    77
1070
     1
1070
    73
1070
     0
1070
   171
1070
     3
1070
   274
1070
     4
1070
   177
1070
   150
1070
   176
1070
     9
1070
   178
1070
    43
1070
    78
1070
     8
1070
    48
1040
-0.005
1070
    41
1041
3.175
1070
   147
1041
2.25
1070
    42
1041
1.5875
1070
    44
1041
3.175
1070
   140
1041
4.5
1070
   343
1005
104
1070
   344
1005
104
1002
}
0
DIMENSION
5
119
100
AcDbEntity
8
2
62
256
6
ByLayer
370
13
48
1
60
0
100
AcDbDimension
2
DimnDraft3D2
10
43.66554
20
7.9375
30
0
11
43.66554
21
-2.2375
31
0
70
32
71
5
72
1
41
1
210
0
220
0
230
1
3
Standard
100
AcDbAlignedDimension
13
28.75304
23
-12.4125
33
0
14
-1.732638
24
7.9375
34
0
50
90
100
AcDbRotatedDimension
1001
ACAD
1000
DSTYLE
1002
{
1070
    74
1070
     0
1070
   279
1070
     0
1070
   172
1070
     1
1070
   173
1070
     1
1070
   340
1005
F2
1070
   271
1070
     1
1070
   272
1070
     2
1070
    77
1070
     1
1070
    73
1070
     0
1070
   171
1070
     3
1070
   274
1070
     4
1070
   177
1070
   150
1070
   176
1070
     9
1070
   178
1070
    43
1070
    78
1070
     8
1070
    48
1040
-0.005
1070
    41
1041
3.175
1070
   147
1041
2.25
1070
    42
1041
1.5875
1070
    44
1041
3.175
1070
   140
1041
4.5
1070
   343
1005
104
1070
   344
1005
104
1002
}
0
DIMENSION
5
127
100
AcDbEntity
8
SK2
62
256
6
ByLayer
370
13
48
1
60
0
100
AcDbDimension
2
DimnDraft3D3
10
27.16554
20
-38.9125
30
0
11
-23.50946
21
-38.9125
31
0
70
32
71
5
72
1
41
1
210
0
220
0
230
1
3
Standard
100
AcDbAlignedDimension
13
-74.18446
23
-9.65
33
0
14
27.16554
24
-14
34
0
50
0
100
AcDbRotatedDimension
1001
ACAD
1000
DSTYLE
1002
{
1070
   279
1070
     0
1070
   172
1070
     1
1070
   173
1070
     1
1070
   340
1005
F2
1070
   271
1070
     1
1070
   272
1070
     2
1070
    77
1070
     1
1070
    73
1070
     0
1070
   171
1070
     3
1070
   274
1070
     4
1070
   177
1070
   150
1070
   176
1070
     9
1070
   178
1070
    43
1070
    78
1070
     8
1070
    48
1040
-0.005
1070
    41
1041
3.175
1070
   147
1041
2.25
1070
    42
1041
1.5875
1070
    44
1041
3.175
1070
   140
1041
4.5
1070
   343
1005
104
1070
   344
1005
104
1002
}
0
DIMENSION
5
135
100
AcDbEntity
8
2
62
256
6
ByLayer
370
13
48
1
60
0
100
AcDbDimension
2
DimnDraft3D4
10
27.16554
20
-10.825
30
0
11
14.691256
21
-23.915552
31
0
70
34
71
5
72
1
41
1
210
0
220
0
230
1
3
Standard
100
AcDb2LineAngularDimension
13
26.30261
23
-12.40948
33
0
14
14.348274
24
-11.363611
34
0
15
27.16554
25
-12.4125
35
0
16
11.373508
26
-26.955708
36
0
40
0
0
ENDSEC
0
SECTION
2
OBJECTS
0
DICTIONARY
5
19f
330
0
100
AcDbDictionary
280
0
281
1
3
ACAD_GROUP
350
1a0
3
ACAD_MLINESTYLE
350
1a1
0
DICTIONARY
5
1a0
330
0
100
AcDbDictionary
280
0
281
1
0
DICTIONARY
5
1a1
330
0
100
AcDbDictionary
280
0
281
1
3
Standard
350
18
0
MLINESTYLE
5
18
330
1a1
100
AcDbMlineStyle
2
Standard
70
0
3

62
256
51
90
52
90
71
2
49
-0.5
62
256
6
ByLayer
49
0.5
62
256
6
ByLayer
0
RASTERVARIABLES
5
18e
330

100
AcDbRasterVariables
90
0
70
1
71
1
72
1
0
ENDSEC
0
EOF
