0
SECTION
2
HEADER
9
$ACADVER
1
AC1015
9
$DWGCODEPAGE
3
ANSI_1252
9
$HANDSEED
5
1a4
9
$ANGBASE
50
0
9
$ANGDIR
70
0
9
$ATTMODE
70
1
9
$AUNITS
70
0
9
$AUPREC
70
0
9
$CECOLOR
62
256
9
$CELTSCALE
40
1
9
$CELTYPE
6
ByLayer
9
$CELWEIGHT
370
18
9
$CLAYER
8
0
9
$CMLJUST
70
0
9
$CMLSCALE
40
1
9
$CMLSTYLE
2
Standard
9
$DIMSTYLE
2
Standard
9
$TEXTSIZE
40
0.2
9
$TEXTSTYLE
7
Standard
9
$LUNITS
70
2
9
$LUPREC
70
4
9
$EXTNAMES
290
1
9
$INSUNITS
70
4
9
$LTSCALE
40
1
9
$LWDISPLAY
290
1
9
$PDMODE
70
0
9
$PDSIZE
40
0
9
$PLINEGEN
70
0
0
ENDSEC
0
SECTION
2
CLASSES
0
CLASS
1
RASTERVARIABLES
2
AcDbRasterVariables
3
ISM
90
0
280
0
281
0
0
ENDSEC
0
SECTION
2
TABLES
0
TABLE
2
VPORT
5
19a
100
AcDbSymbolTable
0
VPORT
5
1
100
AcDbSymbolTableRecord
100
AcDbViewportTableRecord
2
*Active
70
0
10
0
20
0
11
1
21
1
12
-1
22
1
13
0
23
0
14
0.5
24
0.5
15
10
25
10
16
0
26
0
36
1
17
0
27
0
37
0
0
ENDTAB
0
TABLE
2
LTYPE
5
19b
100
AcDbSymbolTable
0
LTYPE
5
14
100
AcDbSymbolTableRecord
100
AcDbLinetypeTableRecord
70
0
2
ByBlock
3

72
65
73
0
40
0
0
LTYPE
5
15
100
AcDbSymbolTableRecord
100
AcDbLinetypeTableRecord
70
0
2
ByLayer
3

72
65
73
0
40
0
0
LTYPE
5
16
100
AcDbSymbolTableRecord
100
AcDbLinetypeTableRecord
70
0
2
CONTINUOUS
3
Solid line
72
65
73
0
40
0
0
LTYPE
5
6A
100
AcDbSymbolTableRecord
100
AcDbLinetypeTableRecord
70
0
2
CENTER
3
____ _ ____ _ ____ _ ____
72
65
73
4
40
47.5
49
22
74
0
49
-8.5
74
0
49
8.5
74
0
49
-8.5
74
0
0
LTYPE
5
6B
100
AcDbSymbolTableRecord
100
AcDbLinetypeTableRecord
70
0
2
DASHED
3
__ __ __ __ __ __ __ __ __
72
65
73
2
40
25.72
49
12.86
74
0
49
-12.86
74
0
0
ENDTAB
0
TABLE
2
LAYER
5
19c
100
AcDbSymbolTable
0
LAYER
5
10
100
AcDbSymbolTableRecord
100
AcDbLayerTableRecord
2
0
70
0
62
7
6
CONTINUOUS
290
1
370
-3
390
0
0
LAYER
5
6D
100
AcDbSymbolTableRecord
100
AcDbLayerTableRecord
2
80
70
0
62
-6
6
CONTINUOUS
290
1
370
-3
390
0
0
LAYER
5
6F
100
AcDbSymbolTableRecord
100
AcDbLayerTableRecord
2
81
70
0
62
-3
6
CONTINUOUS
290
1
370
-3
390
0
0
LAYER
5
71
100
AcDbSymbolTableRecord
100
AcDbLayerTableRecord
2
1
70
0
62
4
6
CONTINUOUS
290
1
370
-3
390
0
0
LAYER
5
106
100
AcDbSymbolTableRecord
100
AcDbLayerTableRecord
2
2
70
0
62
7
6
CONTINUOUS
290
1
370
-3
390
0
0
LAYER
5
187
100
AcDbSymbolTableRecord
100
AcDbLayerTableRecord
2
SK1
70
0
62
4
6
CONTINUOUS
290
1
370
-3
390
0
0
LAYER
5
188
100
AcDbSymbolTableRecord
100
AcDbLayerTableRecord
2
SK6
70
0
62
5
6
CONTINUOUS
290
1
370
-3
390
0
0
LAYER
5
189
100
AcDbSymbolTableRecord
100
AcDbLayerTableRecord
2
SK2
70
0
62
7
6
CONTINUOUS
290
1
370
-3
390
0
0
ENDTAB
0
TABLE
2
STYLE
5
19d
100
AcDbSymbolTable
0
STYLE
5
11
100
AcDbSymbolTableRecord
100
AcDbTextStyleTableRecord
2
Standard
3
txt
70
0
71
0
40
0
41
1
42
0
50
0
0
STYLE
5
EB
100
AcDbSymbolTableRecord
100
AcDbTextStyleTableRecord
2
iso_b_vert
3
simplex.shx
70
0
71
0
40
0
41
1
42
0
50
0
0
STYLE
5
EC
100
AcDbSymbolTableRecord
100
AcDbTextStyleTableRecord
2
DWGDirectTextStyle
3
simplex
70
0
71
0
40
0
41
1
42
0
50
0
0
ENDTAB
0
TABLE
2
DIMSTYLE
5
19e
100
AcDbSymbolTable
100
AcDbDimStyleTable
0
DIMSTYLE
105
27
100
AcDbSymbolTableRecord
100
AcDbDimStyleTableRecord
2
Standard
70
0
3
<>
41
0.18
42
0.0625
44
0.18
140
0.18
147
0.09
73
0
74
0
77
1
271
2
275
0
278
52
280
0
340
11
0
ENDTAB
0
TABLE
2
VIEW
5
19f
100
AcDbSymbolTable
0
ENDTAB
0
TABLE
2
UCS
5
1a0
100
AcDbSymbolTable
0
ENDTAB
0
TABLE
2
APPID
5
1a1
100
AcDbSymbolTable
0
APPID
5
12
100
AcDbSymbolTableRecord
100
AcDbRegAppTableRecord
2
ACAD
70
0
0
ENDTAB
0
TABLE
2
BLOCK_RECORD
5
1a2
100
AcDbSymbolTable
0
BLOCK_RECORD
5
1F
100
AcDbSymbolTableRecord
100
AcDbBlockTableRecord
2
*Model_Space
340
0
70
0
0
BLOCK_RECORD
5
1B
100
AcDbSymbolTableRecord
100
AcDbBlockTableRecord
2
*Paper_Space
340
0
70
0
0
BLOCK_RECORD
5
23
100
AcDbSymbolTableRecord
100
AcDbBlockTableRecord
2
*Paper_Space0
340
0
70
0
0
BLOCK_RECORD
5
EE
100
AcDbSymbolTableRecord
100
AcDbBlockTableRecord
2
DimnDraft3D1
340
0
70
0
0
BLOCK_RECORD
5
FD
100
AcDbSymbolTableRecord
100
AcDbBlockTableRecord
2
_CLOSED
340
0
70
0
0
BLOCK_RECORD
5
104
100
AcDbSymbolTableRecord
100
AcDbBlockTableRecord
2
DimnDraft3D2
340
0
70
0
0
BLOCK_RECORD
5
113
100
AcDbSymbolTableRecord
100
AcDbBlockTableRecord
2
DimnDraft3D3
340
0
70
0
0
BLOCK_RECORD
5
121
100
AcDbSymbolTableRecord
100
AcDbBlockTableRecord
2
DimnDraft3D4
340
0
70
0
0
ENDTAB
0
ENDSEC
0
SECTION
2
BLOCKS
0
BLOCK
5
20
100
AcDbEntity
8
0
100
AcDbBlockBegin
2
*Model_Space
70
0
10
0
20
0
30
0
3
*Model_Space
0
ENDBLK
5
21
100
AcDbEntity
8
0
100
AcDbBlockEnd
0
BLOCK
5
1C
100
AcDbEntity
8
0
100
AcDbBlockBegin
2
*Paper_Space
70
0
10
0
20
0
30
0
3
*Paper_Space
0
ENDBLK
5
1D
100
AcDbEntity
8
0
100
AcDbBlockEnd
0
BLOCK
5
24
100
AcDbEntity
8
0
100
AcDbBlockBegin
2
*Paper_Space0
70
0
10
0
20
0
30
0
3
*Paper_Space0
0
ENDBLK
5
25
100
AcDbEntity
8
0
100
AcDbBlockEnd
0
BLOCK
5
FA
100
AcDbEntity
8
0
100
AcDbBlockBegin
2
DimnDraft3D1
70
0
10
0
20
0
30
0
3
DimnDraft3D1
0
MTEXT
5
EF
100
AcDbEntity
8
SK2
62
256
6
ByLayer
370
13
48
1
60
0
100
AcDbMText
10
-148.644834
20
-1.500658
30
0
210
0
220
0
230
1
1
\W0.6740;25
40
4.5
41
0
44
1.084337
50
90
71
7
72
5
7
iso_b_vert
0
LINE
5
F1
100
AcDbEntity
8
SK2
62
256
6
ByLayer
370
13
48
1
60
0
100
AcDbLine
10
-139.357334
20
12.5625
30
0
11
-150.694834
21
12.5625
31
0
39
0
210
0
220
0
230
1
0
LINE
5
F2
100
AcDbEntity
8
SK2
62
256
6
ByLayer
370
13
48
1
60
0
100
AcDbLine
10
-139.357334
20
-12.4375
30
0
11
-150.694834
21
-12.4375
31
0
39
0
210
0
220
0
230
1
0
LINE
5
F3
100
AcDbEntity
8
SK2
62
256
6
ByLayer
370
13
48
1
60
0
100
AcDbLine
10
-147.519834
20
12.5625
30
0
11
-147.519834
21
-12.4375
31
0
39
0
210
0
220
0
230
1
0
LINE
5
F4
100
AcDbEntity
8
SK2
62
256
6
ByLayer
370
13
48
1
60
0
100
AcDbLine
10
-147.519834
20
12.5625
30
0
11
-146.669095
21
9.387503
31
0
39
0
210
0
220
0
230
1
0
LINE
5
F5
100
AcDbEntity
8
SK2
62
256
6
ByLayer
370
13
48
1
60
0
100
AcDbLine
10
-147.519834
20
12.5625
30
0
11
-148.370573
21
9.387497
31
0
39
0
210
0
220
0
230
1
0
LINE
5
F6
100
AcDbEntity
8
SK2
62
256
6
ByLayer
370
13
48
1
60
0
100
AcDbLine
10
-146.669095
20
9.387503
30
0
11
-148.370573
21
9.387497
31
0
39
0
210
0
220
0
230
1
0
LINE
5
F7
100
AcDbEntity
8
SK2
62
256
6
ByLayer
370
13
48
1
60
0
100
AcDbLine
10
-147.519834
20
-12.4375
30
0
11
-148.370573
21
-9.262503
31
0
39
0
210
0
220
0
230
1
0
LINE
5
F8
100
AcDbEntity
8
SK2
62
256
6
ByLayer
370
13
48
1
60
0
100
AcDbLine
10
-147.519834
20
-12.4375
30
0
11
-146.669095
21
-9.262497
31
0
39
0
210
0
220
0
230
1
0
LINE
5
F9
100
AcDbEntity
8
SK2
62
256
6
ByLayer
370
13
48
1
60
0
100
AcDbLine
10
-148.370573
20
-9.262503
30
0
11
-146.669095
21
-9.262497
31
0
39
0
210
0
220
0
230
1
0
ENDBLK
5
FB
100
AcDbEntity
8
0
100
AcDbBlockEnd
0
BLOCK
5
FE
100
AcDbEntity
8
0
100
AcDbBlockBegin
2
_CLOSED
70
0
10
0
20
0
30
0
3
_CLOSED
0
LINE
5
100
100
AcDbEntity
8
0
62
256
6
ByLayer
370
-2
48
1
60
0
100
AcDbLine
10
-1
20
0.166667
30
0
11
0
21
0
31
0
39
0
210
0
220
0
230
1
0
LINE
5
101
100
AcDbEntity
8
0
62
256
6
ByLayer
370
-2
48
1
60
0
100
AcDbLine
10
0
20
0
30
0
11
-1
21
-0.166667
31
0
39
0
210
0
220
0
230
1
0
LINE
5
102
100
AcDbEntity
8
0
62
256
6
ByLayer
370
-2
48
1
60
0
100
AcDbLine
10
-1
20
0.166667
30
0
11
-1
21
-0.166667
31
0
39
0
210
0
220
0
230
1
0
LINE
5
103
100
AcDbEntity
8
0
62
256
6
ByLayer
370
-2
48
1
60
0
100
AcDbLine
10
0
20
0
30
0
11
-1
21
0
31
0
39
0
210
0
220
0
230
1
0
ENDBLK
5
FF
100
AcDbEntity
8
0
100
AcDbBlockEnd
0
BLOCK
5
110
100
AcDbEntity
8
0
100
AcDbBlockBegin
2
DimnDraft3D2
70
0
10
0
20
0
30
0
3
DimnDraft3D2
0
MTEXT
5
105
100
AcDbEntity
8
2
62
256
6
ByLayer
370
13
48
1
60
0
100
AcDbMText
10
48.955166
20
-2.825658
30
0
210
0
220
0
230
1
1
\W0.6740;22
40
4.5
41
0
44
1.084337
50
90
71
7
72
5
7
iso_b_vert
0
LINE
5
107
100
AcDbEntity
8
2
62
256
6
ByLayer
370
13
48
1
60
0
100
AcDbLine
10
1.5875
20
-12.4375
30
0
11
53.255166
21
-12.4375
31
0
39
0
210
0
220
0
230
1
0
LINE
5
108
100
AcDbEntity
8
2
62
256
6
ByLayer
370
13
48
1
60
0
100
AcDbLine
10
35.167666
20
9.9125
30
0
11
53.255166
21
9.9125
31
0
39
0
210
0
220
0
230
1
0
LINE
5
109
100
AcDbEntity
8
2
62
256
6
ByLayer
370
13
48
1
60
0
100
AcDbLine
10
50.080166
20
-12.4375
30
0
11
50.080166
21
9.9125
31
0
39
0
210
0
220
0
230
1
0
LINE
5
10A
100
AcDbEntity
8
2
62
256
6
ByLayer
370
13
48
1
60
0
100
AcDbLine
10
50.080166
20
-12.4375
30
0
11
49.229427
21
-9.262503
31
0
39
0
210
0
220
0
230
1
0
LINE
5
10B
100
AcDbEntity
8
2
62
256
6
ByLayer
370
13
48
1
60
0
100
AcDbLine
10
50.080166
20
-12.4375
30
0
11
50.930905
21
-9.262497
31
0
39
0
210
0
220
0
230
1
0
LINE
5
10C
100
AcDbEntity
8
2
62
256
6
ByLayer
370
13
48
1
60
0
100
AcDbLine
10
49.229427
20
-9.262503
30
0
11
50.930905
21
-9.262497
31
0
39
0
210
0
220
0
230
1
0
LINE
5
10D
100
AcDbEntity
8
2
62
256
6
ByLayer
370
13
48
1
60
0
100
AcDbLine
10
50.080166
20
9.9125
30
0
11
50.930905
21
6.737503
31
0
39
0
210
0
220
0
230
1
0
LINE
5
10E
100
AcDbEntity
8
2
62
256
6
ByLayer
370
13
48
1
60
0
100
AcDbLine
10
50.080166
20
9.9125
30
0
11
49.229427
21
6.737497
31
0
39
0
210
0
220
0
230
1
0
LINE
5
10F
100
AcDbEntity
8
2
62
256
6
ByLayer
370
13
48
1
60
0
100
AcDbLine
10
50.930905
20
6.737503
30
0
11
49.229427
21
6.737497
31
0
39
0
210
0
220
0
230
1
0
ENDBLK
5
111
100
AcDbEntity
8
0
100
AcDbBlockEnd
0
BLOCK
5
11E
100
AcDbEntity
8
0
100
AcDbBlockBegin
2
DimnDraft3D3
70
0
10
0
20
0
30
0
3
DimnDraft3D3
0
MTEXT
5
114
100
AcDbEntity
8
SK2
62
256
6
ByLayer
370
13
48
1
60
0
100
AcDbMText
10
-54.777071
20
32.30112
30
0
210
0
220
0
230
1
1
\W0.6217;170
40
4.5
41
0
44
1.084337
50
0
71
7
72
5
7
iso_b_vert
0
LINE
5
115
100
AcDbEntity
8
SK2
62
256
6
ByLayer
370
13
48
1
60
0
100
AcDbLine
10
-137.769834
20
14.15
30
0
11
-137.769834
21
34.35112
31
0
39
0
210
0
220
0
230
1
0
LINE
5
116
100
AcDbEntity
8
SK2
62
256
6
ByLayer
370
13
48
1
60
0
100
AcDbLine
10
33.580166
20
11.5
30
0
11
33.580166
21
34.35112
31
0
39
0
210
0
220
0
230
1
0
LINE
5
117
100
AcDbEntity
8
SK2
62
256
6
ByLayer
370
13
48
1
60
0
100
AcDbLine
10
-137.769834
20
31.17612
30
0
11
33.580166
21
31.17612
31
0
39
0
210
0
220
0
230
1
0
LINE
5
118
100
AcDbEntity
8
SK2
62
256
6
ByLayer
370
13
48
1
60
0
100
AcDbLine
10
-137.769834
20
31.17612
30
0
11
-134.594837
21
32.026859
31
0
39
0
210
0
220
0
230
1
0
LINE
5
119
100
AcDbEntity
8
SK2
62
256
6
ByLayer
370
13
48
1
60
0
100
AcDbLine
10
-137.769834
20
31.17612
30
0
11
-134.594831
21
30.325381
31
0
39
0
210
0
220
0
230
1
0
LINE
5
11A
100
AcDbEntity
8
SK2
62
256
6
ByLayer
370
13
48
1
60
0
100
AcDbLine
10
-134.594837
20
32.026859
30
0
11
-134.594831
21
30.325381
31
0
39
0
210
0
220
0
230
1
0
LINE
5
11B
100
AcDbEntity
8
SK2
62
256
6
ByLayer
370
13
48
1
60
0
100
AcDbLine
10
33.580166
20
31.17612
30
0
11
30.405169
21
30.325381
31
0
39
0
210
0
220
0
230
1
0
LINE
5
11C
100
AcDbEntity
8
SK2
62
256
6
ByLayer
370
13
48
1
60
0
100
AcDbLine
10
33.580166
20
31.17612
30
0
11
30.405163
21
32.026859
31
0
39
0
210
0
220
0
230
1
0
LINE
5
11D
100
AcDbEntity
8
SK2
62
256
6
ByLayer
370
13
48
1
60
0
100
AcDbLine
10
30.405169
20
30.325381
30
0
11
30.405163
21
32.026859
31
0
39
0
210
0
220
0
230
1
0
ENDBLK
5
11F
100
AcDbEntity
8
0
100
AcDbBlockEnd
0
BLOCK
5
12B
100
AcDbEntity
8
0
100
AcDbBlockBegin
2
DimnDraft3D4
70
0
10
0
20
0
30
0
3
DimnDraft3D4
0
MTEXT
5
122
100
AcDbEntity
8
2
62
256
6
ByLayer
370
13
48
1
60
0
100
AcDbMText
10
19.00548
20
19.647251
30
0
210
0
220
0
230
1
1
\W0.8292;75%%d0'
40
4.5
41
0
44
1.084337
50
37.5
71
7
72
5
7
iso_b_vert
0
LINE
5
123
100
AcDbEntity
8
2
62
256
6
ByLayer
370
13
48
1
60
0
100
AcDbLine
10
33.580166
20
11.5
30
0
11
33.580166
21
28.500857
31
0
39
0
210
0
220
0
230
1
0
ARC
5
124
100
AcDbEntity
8
2
62
256
6
ByLayer
370
13
48
1
60
0
100
AcDbCircle
39
0
10
33.580166
20
9.635474
30
0
40
15.6903834027804
210
0
220
0
230
1
100
AcDbArc
50
90
51
165
0
LINE
5
125
100
AcDbEntity
8
2
62
256
6
ByLayer
370
13
48
1
60
0
100
AcDbLine
10
33.580166
20
25.325857
30
0
11
30.452077
21
24.316194
31
0
39
0
210
0
220
0
230
1
0
LINE
5
126
100
AcDbEntity
8
2
62
256
6
ByLayer
370
13
48
1
60
0
100
AcDbLine
10
33.580166
20
25.325857
30
0
11
30.366324
21
26.015509
31
0
39
0
210
0
220
0
230
1
0
LINE
5
127
100
AcDbEntity
8
2
62
256
6
ByLayer
370
13
48
1
60
0
100
AcDbLine
10
30.452077
20
24.316194
30
0
11
30.366324
21
26.015509
31
0
39
0
210
0
220
0
230
1
0
LINE
5
128
100
AcDbEntity
8
2
62
256
6
ByLayer
370
13
48
1
60
0
100
AcDbLine
10
18.42442
20
13.696444
30
0
11
18.590068
21
16.979266
31
0
39
0
210
0
220
0
230
1
0
LINE
5
129
100
AcDbEntity
8
2
62
256
6
ByLayer
370
13
48
1
60
0
100
AcDbLine
10
18.42442
20
13.696444
30
0
11
20.20929
21
16.456632
31
0
39
0
210
0
220
0
230
1
0
LINE
5
12A
100
AcDbEntity
8
2
62
256
6
ByLayer
370
13
48
1
60
0
100
AcDbLine
10
18.590068
20
16.979266
30
0
11
20.20929
21
16.456632
31
0
39
0
210
0
220
0
230
1
0
ENDBLK
5
12C
100
AcDbEntity
8
0
100
AcDbBlockEnd
0
ENDSEC
0
SECTION
2
ENTITIES
0
ARC
5
AF
100
AcDbEntity
8
1
62
256
6
ByLayer
370
18
48
1
60
0
100
AcDbCircle
39
0
10
0
20
14.0375
30
0
40
1.59999999999971
210
0
220
0
230
-1
100
AcDbArc
50
195
51
270
0
ELLIPSE
5
B0
100
AcDbEntity
8
1
62
256
6
ByLayer
370
18
48
1
60
0
100
AcDbEllipse
10
19.557642
20
-6.069288
30
0
11
1.81657205017844
21
-3.14639508651878
31
0
210
0
220
0
230
1
40
0.989133
41
0.294958689575392
42
0.965394297118444
0
ELLIPSE
5
B1
100
AcDbEntity
8
1
62
256
6
ByLayer
370
18
48
1
60
0
100
AcDbEllipse
10
19.538321
20
-6.080443
30
0
11
-1.74157712758586
21
3.01650007027872
31
0
210
0
220
0
230
1
40
0.989133
41
-2.93199674000248
42
-2.17619835647135
0
ELLIPSE
5
B2
100
AcDbEntity
8
1
62
256
6
ByLayer
370
18
48
1
60
0
100
AcDbEllipse
10
23.620453
20
-4.562688
30
0
11
0.0130565240668328
21
0.151647006411419
31
0
210
0
220
0
230
-1
40
0.107791
41
3.0449367782334
42
-1.65581667381425
0
ELLIPSE
5
B3
100
AcDbEntity
8
1
62
256
6
ByLayer
370
18
48
1
60
0
100
AcDbEllipse
10
20.959939
20
6.646115
30
0
11
-1.79999999999993
21
3.11769145362402
31
0
210
0
220
0
230
1
40
0.989133
41
0.675707303121318
42
0.96539429711844
0
ELLIPSE
5
B4
100
AcDbEntity
8
1
62
256
6
ByLayer
370
18
48
1
60
0
100
AcDbEllipse
10
20.72931
20
3.645119
30
0
11
-1.79999999999993
21
3.11769145362402
31
0
210
0
220
0
230
1
40
0.989133
41
0.965394297118447
42
1.25508129111557
0
ELLIPSE
5
B5
100
AcDbEntity
8
1
62
256
6
ByLayer
370
18
48
1
60
0
100
AcDbEllipse
10
20.032306
20
-4.926578
30
0
11
1.70578299681741
21
-2.95450281717501
31
0
210
0
220
0
230
1
40
0.989133
41
-2.17619835647134
42
-0.901816618756927
0
ELLIPSE
5
B6
100
AcDbEntity
8
1
62
256
6
ByLayer
370
18
48
1
60
0
100
AcDbEllipse
10
20.887987
20
-5.301213
30
0
11
-1.75578078576768
21
3.04110152790299
31
0
210
0
220
0
230
1
40
0.989133
41
1.96957706400109
42
-2.17619835647135
0
ELLIPSE
5
B7
100
AcDbEntity
8
1
62
256
6
ByLayer
370
18
48
1
60
0
100
AcDbEllipse
10
23.001971
20
-6.369594
30
0
11
0.149558998884138
21
-0.0114937310206278
31
0
210
0
220
0
230
1
40
0.083671
41
-1.69241570090232
42
-0.109983263984045
0
ELLIPSE
5
B8
100
AcDbEntity
8
1
62
256
6
ByLayer
370
18
48
1
60
0
100
AcDbEllipse
10
0
20
-12.444481
30
0
11
1.60000000000123
21
1.61702248813302E-15
31
0
210
0
220
0
230
-1
40
0.004363
41
-1.5707963267949
42
-0.261799387799769
0
ELLIPSE
5
B9
100
AcDbEntity
8
1
62
256
6
ByLayer
370
18
48
1
60
0
100
AcDbEllipse
10
25.128693
20
3.863633
30
0
11
1.49249999999994
21
-2.58508583029658
31
0
210
0
220
0
230
1
40
0.989133
41
-1.36157055104893
42
-1.3269218024427
0
ELLIPSE
5
BA
100
AcDbEntity
8
1
62
256
6
ByLayer
370
18
48
1
60
0
100
AcDbEllipse
10
25.128693
20
3.863633
30
0
11
1.49249999999994
21
-2.58508583029658
31
0
210
0
220
0
230
1
40
0.989133
41
-2.15281028450282
42
-1.78002488350045
0
ELLIPSE
5
BB
100
AcDbEntity
8
1
62
256
6
ByLayer
370
18
48
1
60
0
100
AcDbEllipse
10
24.138055
20
4.031541
30
0
11
1.64999999999994
21
-2.85788383248868
31
0
210
0
220
0
230
1
40
0.989133
41
-0.294874293038773
42
-1.29512401835944E-05
0
ELLIPSE
5
BC
100
AcDbEntity
8
1
62
256
6
ByLayer
370
18
48
1
60
0
100
AcDbEllipse
10
24.591407
20
2.813577
30
0
11
-1.64999999999994
21
2.85788383248868
31
0
210
0
220
0
230
1
40
0.989133
41
-7.07615167062518E-06
42
0.191686381434722
0
ELLIPSE
5
BD
100
AcDbEntity
8
1
62
256
6
ByLayer
370
18
48
1
60
0
100
AcDbEllipse
10
10.722825
20
-1.539156
30
0
11
0.777499999999969
21
-1.34666950288482
31
0
210
0
220
0
230
1
40
0.989133
41
0.230684314828545
42
1.05191600815023
0
ELLIPSE
5
BE
100
AcDbEntity
8
1
62
256
6
ByLayer
370
18
48
1
60
0
100
AcDbEllipse
10
10.722825
20
-1.539156
30
0
11
0.777499999999969
21
-1.34666950288482
31
0
210
0
220
0
230
1
40
0.989133
41
1.05191600815023
42
3.08914076028508
0
ELLIPSE
5
BF
100
AcDbEntity
8
1
62
256
6
ByLayer
370
18
48
1
60
0
100
AcDbEllipse
10
10.850152
20
-1.465644
30
0
11
-0.77749999999997
21
1.34666950288482
31
0
210
0
220
0
230
1
40
0.989133
41
-2.9596872407486
42
-2.48499352167614
0
ELLIPSE
5
C0
100
AcDbEntity
8
1
62
256
6
ByLayer
370
18
48
1
60
0
100
AcDbEllipse
10
17.381951
20
-1.550654
30
0
11
0.595312499999977
21
-1.03111149638086
31
0
210
0
220
0
230
1
40
0.989133
41
-1.02840445531749
42
-0.779934954875889
0
ELLIPSE
5
C1
100
AcDbEntity
8
1
62
256
6
ByLayer
370
18
48
1
60
0
100
AcDbEllipse
10
24.486328
20
3.492763
30
0
11
-1.58749999999994
21
2.74963065701563
31
0
210
0
220
0
230
1
40
0.989133
41
-2.99239366756929
42
-2.45095992867865
0
ELLIPSE
5
C2
100
AcDbEntity
8
1
62
256
6
ByLayer
370
18
48
1
60
0
100
AcDbEllipse
10
24.486328
20
3.492763
30
0
11
-1.58749999999994
21
2.74963065701563
31
0
210
0
220
0
230
1
40
0.989133
41
-0.787584621335255
42
-0.149252413789431
0
ELLIPSE
5
C3
100
AcDbEntity
8
1
62
256
6
ByLayer
370
18
48
1
60
0
100
AcDbEllipse
10
18.428177
20
12.06307
30
0
11
0.595312499999977
21
-1.03111149638086
31
0
210
0
220
0
230
1
40
0.989133
41
-3.14158350403058
42
-3.10073161967104
0
ELLIPSE
5
C4
100
AcDbEntity
8
1
62
256
6
ByLayer
370
18
48
1
60
0
100
AcDbEllipse
10
24.96568
20
4.509371
30
0
11
1.39999999999995
21
-2.42487113059646
31
0
210
0
220
0
230
1
40
0.989133
41
-1.12918298028471
42
0.791043546928976
0
ELLIPSE
5
C5
100
AcDbEntity
8
1
62
256
6
ByLayer
370
18
48
1
60
0
100
AcDbEllipse
10
25.355369
20
3.254651
30
0
11
1.64999999999994
21
-2.85788383248868
31
0
210
0
220
0
230
1
40
0.989133
41
1.99607724120702
42
-2.33421667456274
0
ELLIPSE
5
C6
100
AcDbEntity
8
1
62
256
6
ByLayer
370
18
48
1
60
0
100
AcDbEllipse
10
24.902017
20
4.472615
30
0
11
-1.64999999999994
21
2.85788383248868
31
0
210
0
220
0
230
1
40
0.989133
41
1.99607724120701
42
-2.33421667456275
0
ELLIPSE
5
C7
100
AcDbEntity
8
1
62
256
6
ByLayer
370
18
48
1
60
0
100
AcDbEllipse
10
25.419032
20
3.291407
30
0
11
-1.39999999999995
21
2.42487113059646
31
0
210
0
220
0
230
1
40
0.989133
41
-1.12918298028471
42
0.791043546928963
0
ELLIPSE
5
C8
100
AcDbEntity
8
1
62
256
6
ByLayer
370
18
48
1
60
0
100
AcDbEllipse
10
25.192356
20
3.900389
30
0
11
-1.24249999999995
21
2.15207312840436
31
0
210
0
220
0
230
1
40
0.989133
41
1.00701094194761
42
1.79644227828644
0
ELLIPSE
5
C9
100
AcDbEntity
8
1
62
256
6
ByLayer
370
18
48
1
60
0
100
AcDbEllipse
10
25.192356
20
3.900389
30
0
11
-1.24249999999995
21
2.15207312840436
31
0
210
0
220
0
230
1
40
0.989133
41
-2.13458171164217
42
-1.34515037530335
0
ELLIPSE
5
CA
100
AcDbEntity
8
1
62
256
6
ByLayer
370
18
48
1
60
0
100
AcDbEllipse
10
25.128693
20
3.863633
30
0
11
1.49249999999994
21
-2.58508583029658
31
0
210
0
220
0
230
1
40
0.989133
41
0.988782369086976
42
1.81467085114709
0
ELLIPSE
5
CB
100
AcDbEntity
8
1
62
256
6
ByLayer
370
18
48
1
60
0
100
AcDbEllipse
10
11.35946
20
-1.171595
30
0
11
1.61749999999994
21
-2.80159218124269
31
0
210
0
220
0
230
1
40
0.989133
41
0
42
6.28318530717959
0
ELLIPSE
5
CC
100
AcDbEntity
8
1
62
256
6
ByLayer
370
18
48
1
60
0
100
AcDbEllipse
10
11.332085
20
-1.1874
30
0
11
-0.77749999999997
21
1.34666950288482
31
0
210
0
220
0
230
1
40
0.989133
41
-2.48499352167614
42
-2.04193611646597
0
ELLIPSE
5
CD
100
AcDbEntity
8
1
62
256
6
ByLayer
370
18
48
1
60
0
100
AcDbEllipse
10
11.332085
20
-1.1874
30
0
11
-0.77749999999997
21
1.34666950288482
31
0
210
0
220
0
230
1
40
0.989133
41
2.75099423430684
42
-3.08913366766256
0
ELLIPSE
5
CE
100
AcDbEntity
8
1
62
256
6
ByLayer
370
18
48
1
60
0
100
AcDbEllipse
10
11.332085
20
-1.1874
30
0
11
-0.77749999999997
21
1.34666950288482
31
0
210
0
220
0
230
1
40
0.989133
41
0.656599131913643
42
1.09965653712384
0
ELLIPSE
5
CF
100
AcDbEntity
8
1
62
256
6
ByLayer
370
18
48
1
60
0
100
AcDbEllipse
10
10.850152
20
-1.465644
30
0
11
-0.77749999999997
21
1.34666950288482
31
0
210
0
220
0
230
1
40
0.989133
41
-2.04193611646597
42
-1.43779597047955
0
ELLIPSE
5
D0
100
AcDbEntity
8
1
62
256
6
ByLayer
370
18
48
1
60
0
100
AcDbEllipse
10
11.332085
20
-1.1874
30
0
11
-0.77749999999997
21
1.34666950288482
31
0
210
0
220
0
230
1
40
0.989133
41
-1.43779597047956
42
-0.994738565269372
0
ELLIPSE
5
D1
100
AcDbEntity
8
1
62
256
6
ByLayer
370
18
48
1
60
0
100
AcDbEllipse
10
10.850152
20
-1.465644
30
0
11
-0.77749999999997
21
1.34666950288482
31
0
210
0
220
0
230
1
40
0.989133
41
-0.994738565269379
42
-0.390598419282974
0
ELLIPSE
5
D2
100
AcDbEntity
8
1
62
256
6
ByLayer
370
18
48
1
60
0
100
AcDbEllipse
10
11.332085
20
-1.1874
30
0
11
-0.77749999999997
21
1.34666950288482
31
0
210
0
220
0
230
1
40
0.989133
41
-0.390598419282958
42
0.0524589859272486
0
ELLIPSE
5
D3
100
AcDbEntity
8
1
62
256
6
ByLayer
370
18
48
1
60
0
100
AcDbEllipse
10
11.35946
20
-1.171595
30
0
11
0.963695461813617
21
-1.66916950288482
31
0
210
0
220
0
230
1
40
0.989133
41
0
42
6.28318530717959
0
ELLIPSE
5
D4
100
AcDbEntity
8
1
62
256
6
ByLayer
370
18
48
1
60
0
100
AcDbEllipse
10
11.332085
20
-1.1874
30
0
11
-0.77749999999997
21
1.34666950288482
31
0
210
0
220
0
230
1
40
0.989133
41
1.70379668311024
42
2.14685408832041
0
ELLIPSE
5
D5
100
AcDbEntity
8
1
62
256
6
ByLayer
370
18
48
1
60
0
100
AcDbEllipse
10
18.190477
20
-1.083851
30
0
11
-0.595312499999977
21
1.03111149638086
31
0
210
0
220
0
230
1
40
0.989133
41
0.965394297118462
42
2.36165769871391
0
ELLIPSE
5
D6
100
AcDbEntity
8
1
62
256
6
ByLayer
370
18
48
1
60
0
100
AcDbEllipse
10
25.294855
20
3.959566
30
0
11
-1.58749999999994
21
2.74963065701563
31
0
210
0
220
0
230
1
40
0.989133
41
0
42
6.28318530717959
0
ELLIPSE
5
D7
100
AcDbEntity
8
1
62
256
6
ByLayer
370
18
48
1
60
0
100
AcDbEllipse
10
31.353006
20
-4.61074
30
0
11
-0.595312499999977
21
1.03111149638086
31
0
210
0
220
0
230
1
40
0.989133
41
2.36165769871389
42
-2.17619835647136
0
ELLIPSE
5
D8
100
AcDbEntity
8
1
62
256
6
ByLayer
370
18
48
1
60
0
100
AcDbEllipse
10
32.399232
20
9.002984
30
0
11
-0.595312499999977
21
1.03111149638086
31
0
210
0
220
0
230
1
40
0.989133
41
-2.17619835647136
42
-0.779934954875892
0
ELLIPSE
5
D9
100
AcDbEntity
8
1
62
256
6
ByLayer
370
18
48
1
60
0
100
AcDbEllipse
10
19.236703
20
12.529873
30
0
11
-0.595312499999977
21
1.03111149638086
31
0
210
0
220
0
230
1
40
0.989133
41
-0.779934954875859
42
0.965394297118422
0
POINT
5
6C
100
AcDbEntity
8
80
62
256
6
ByLayer
370
18
48
1
60
0
100
AcDbPoint
10
0
20
0
30
0
39
0
210
0
220
0
230
1
50
360
0
POINT
5
6E
100
AcDbEntity
8
81
62
256
6
ByLayer
370
18
48
1
60
0
100
AcDbPoint
10
32.230166
20
9.5625
30
0
39
0
210
0
220
0
230
1
50
360
0
POINT
5
70
100
AcDbEntity
8
1
62
256
6
ByLayer
370
18
48
1
60
0
100
AcDbPoint
10
-137.769834
20
-12.4375
30
0
39
0
210
0
220
0
230
1
50
360
0
SPLINE
5
DA
100
AcDbEntity
8
1
62
256
6
ByLayer
370
18
48
1
60
0
100
AcDbSpline
70
4
71
3
72
8
73
4
40
0
40
0
40
0
40
0
40
1
40
1
40
1
40
1
41
1
10
26.9890880776478
20
5.57972734998458
30
0
41
1
10
27.0760635831265
20
5.69330461397047
30
0
41
1
10
27.1628936970997
20
5.80687293493438
30
0
41
1
10
27.2496386071293
20
5.9204359387991
30
0
0
SPLINE
5
DB
100
AcDbEntity
8
1
62
256
6
ByLayer
370
18
48
1
60
0
100
AcDbSpline
70
4
71
3
72
8
73
4
40
0
40
0
40
0
40
0
40
1
40
1
40
1
40
1
41
1
10
23.3956248657821
20
2.22105052605801
30
0
41
1
10
23.2662270030597
20
2.08298070269785
30
0
41
1
10
23.1369513469261
20
1.94490643654177
30
0
41
1
10
23.007747347293
20
1.80682966586488
30
0
0
SPLINE
5
DC
100
AcDbEntity
8
1
62
256
6
ByLayer
370
18
48
1
60
0
100
AcDbSpline
70
4
71
3
72
8
73
4
40
0
40
0
40
0
40
0
40
1
40
1
40
1
40
1
41
1
10
27.6555826343974
20
3.78913931106842
30
0
41
1
10
27.7988653154246
20
3.75144308899007
30
0
41
1
10
27.9420333782758
20
3.71365524901265
30
0
41
1
10
28.0851342186986
20
3.67581378323518
30
0
0
SPLINE
5
DD
100
AcDbEntity
8
1
62
256
6
ByLayer
370
18
48
1
60
0
100
AcDbSpline
70
4
71
3
72
8
73
4
40
0
40
0
40
0
40
0
40
1
40
1
40
1
40
1
41
1
10
22.7291303090325
20
4.01163856497419
30
0
41
1
10
22.5434252707615
20
4.02484222767825
30
0
41
1
10
22.3578116657501
20
4.0381241224635
30
0
41
1
10
22.1722517357237
20
4.0514518214288
30
0
0
SPLINE
5
DE
100
AcDbEntity
8
1
62
256
6
ByLayer
370
18
48
1
60
0
100
AcDbSpline
70
4
71
3
72
10
73
6
40
0
40
0
40
0
40
0
40
0.5
40
0.5
40
1
40
1
40
1
40
1
41
1
10
11.5438633644762
20
-2.7254502510286
30
0
41
1
10
11.4613461761197
20
-2.75551911576562
30
0
41
1
10
11.3791734640134
20
-2.78534298221078
30
0
41
1
10
11.2186959757183
20
-2.84338992305783
30
0
41
1
10
11.1399450735394
20
-2.87177643144878
30
0
41
1
10
11.0623237408193
20
-2.89967935833471
30
0
0
SPLINE
5
DF
100
AcDbEntity
8
1
62
256
6
ByLayer
370
18
48
1
60
0
100
AcDbSpline
70
4
71
3
72
10
73
6
40
0
40
0
40
0
40
0
40
0.5
40
0.5
40
1
40
1
40
1
40
1
41
1
10
12.9730369051626
20
-0.580341054537541
30
0
41
1
10
12.9026276797624
20
-0.526045101062607
30
0
41
1
10
12.8315444713999
20
-0.470736669461161
30
0
41
1
10
12.689998056275
20
-0.359339746815266
30
0
41
1
10
12.619476385821
20
-0.303207672383962
30
0
41
1
10
12.5492530112243
20
-0.246561379614462
30
0
0
SPLINE
5
E0
100
AcDbEntity
8
1
62
256
6
ByLayer
370
18
48
1
60
0
100
AcDbSpline
70
4
71
3
72
10
73
6
40
0
40
0
40
0
40
0
40
0.5
40
0.5
40
1
40
1
40
1
40
1
41
1
10
10.004269835391
20
-0.0571375124901294
30
0
41
1
10
9.98682069005059
20
-0.145122819882118
30
0
41
1
10
9.9694793576769
20
-0.234196003043905
30
0
41
1
10
9.93565213728107
20
-0.412194844684961
30
0
41
1
10
9.91915092339121
20
-0.501192812803822
30
0
41
1
10
9.90313876700475
20
-0.590189058175298
30
0
0
SPLINE
5
E1
100
AcDbEntity
8
1
62
256
6
ByLayer
370
18
48
1
60
0
100
AcDbSpline
70
4
71
3
72
10
73
6
40
0
40
0
40
0
40
0
40
0.5
40
0.5
40
1
40
1
40
1
40
1
41
1
10
10.4858094590479
20
0.117091594815975
30
0
41
1
10
10.4032922706914
20
0.087022730078985
30
0
41
1
10
10.321119558585
20
0.0571988636338006
30
0
41
1
10
10.16064207029
20
-0.0008480772132202
30
0
41
1
10
10.0818911681111
20
-0.0292345856042004
30
0
41
1
10
10.004269835391
20
-0.0571375124901294
30
0
0
SPLINE
5
E2
100
AcDbEntity
8
1
62
256
6
ByLayer
370
18
48
1
60
0
100
AcDbSpline
70
4
71
3
72
8
73
4
40
0
40
0
40
0
40
0
40
1
40
1
40
1
40
1
41
1
10
12.8719058367764
20
-1.11339260022274
30
0
41
1
10
12.9044496668878
20
-0.932512610044057
30
0
41
1
10
12.9383367013657
20
-0.755312839004773
30
0
41
1
10
12.9730369051626
20
-0.580341054537541
30
0
0
SPLINE
5
E3
100
AcDbEntity
8
1
62
256
6
ByLayer
370
18
48
1
60
0
100
AcDbSpline
70
4
71
3
72
10
73
6
40
0
40
0
40
0
40
0
40
0.5
40
0.5
40
1
40
1
40
1
40
1
41
1
10
9.72005008241928
20
-1.77776422903739
30
0
41
1
10
9.784013822416
20
-1.83578148524515
30
0
41
1
10
9.84928719120455
20
-1.89444422928852
30
0
41
1
10
9.98105130751316
20
-2.01148896478935
30
0
41
1
10
10.0475930427869
20
-2.06991885586834
30
0
41
1
10
10.1149170839125
20
-2.12823907959779
30
0
0
SPLINE
5
E4
100
AcDbEntity
8
1
62
256
6
ByLayer
370
18
48
1
60
0
100
AcDbSpline
70
4
71
3
72
10
73
6
40
0
40
0
40
0
40
0
40
0.5
40
0.5
40
1
40
1
40
1
40
1
41
1
10
11.6307632467627
20
0.541574074759779
30
0
41
1
10
11.5465026360096
20
0.509886403993505
30
0
41
1
10
11.4617263297259
20
0.478076814687597
30
0
41
1
10
11.2908104204173
20
0.414135331270188
30
0
41
1
10
11.2052116147784
20
0.382207015930788
30
0
41
1
10
11.1203067306607
20
0.35064979181638
30
0
0
SPLINE
5
E5
100
AcDbEntity
8
1
62
256
6
ByLayer
370
18
48
1
60
0
100
AcDbSpline
70
4
71
3
72
8
73
4
40
0
40
0
40
0
40
0
40
1
40
1
40
1
40
1
41
1
10
10.6385398468809
20
-2.56589968341163
30
0
41
1
10
10.7812650062889
20
-2.68103016826564
30
0
41
1
10
10.9223045924362
20
-2.79170383207401
30
0
41
1
10
11.0623237408193
20
-2.89967935833471
30
0
0
SPLINE
5
E6
100
AcDbEntity
8
1
62
256
6
ByLayer
370
18
48
1
60
0
100
AcDbSpline
70
4
71
3
72
8
73
4
40
0
40
0
40
0
40
0
40
1
40
1
40
1
40
1
41
1
10
12.0256302482559
20
0.191099224199377
30
0
41
1
10
11.8887978251941
20
0.30963188196904
30
0
41
1
10
11.7579645950351
20
0.426198188154757
30
0
41
1
10
11.6307632467627
20
0.541574074759779
30
0
0
SPLINE
5
E7
100
AcDbEntity
8
1
62
256
6
ByLayer
370
18
48
1
60
0
100
AcDbSpline
70
4
71
3
72
8
73
4
40
0
40
0
40
0
40
0
40
1
40
1
40
1
40
1
41
1
10
9.79226425836043
20
-1.26140785898951
30
0
41
1
10
9.76561316459504
20
-1.43888567625254
30
0
41
1
10
9.74193248610561
20
-1.61019280491445
30
0
41
1
10
9.72005008241928
20
-1.77776422903739
30
0
0
SPLINE
5
E8
100
AcDbEntity
8
1
62
256
6
ByLayer
370
18
48
1
60
0
100
AcDbSpline
70
4
71
3
72
10
73
6
40
0
40
0
40
0
40
0
40
0.5
40
0.5
40
1
40
1
40
1
40
1
41
1
10
12.6888171521909
20
-2.3009677710848
30
0
41
1
10
12.6998208121278
20
-2.21670376642564
30
0
41
1
10
12.7113523049276
20
-2.13098489570578
30
0
41
1
10
12.735397226507
20
-1.95863386691966
30
0
41
1
10
12.7479185052167
20
-1.87193371544845
30
0
41
1
10
12.7610313281321
20
-1.78461140103693
30
0
0
SPLINE
5
E9
100
AcDbEntity
8
1
62
256
6
ByLayer
370
18
48
1
60
0
100
AcDbSpline
70
4
71
3
72
10
73
6
40
0
40
0
40
0
40
0
40
0.5
40
0.5
40
1
40
1
40
1
40
1
41
1
10
12.6888171521909
20
-2.3009677710848
30
0
41
1
10
12.6045565414378
20
-2.3326554418511
30
0
41
1
10
12.5197802351541
20
-2.36446503115701
30
0
41
1
10
12.3488643258456
20
-2.42840651457442
30
0
41
1
10
12.2632655202066
20
-2.46033482991379
30
0
41
1
10
12.1783606360889
20
-2.49189205402823
30
0
0
LINE
5
72
100
AcDbEntity
8
1
62
256
6
ByLayer
370
18
48
1
60
0
100
AcDbLine
10
18.641391
20
13.560984
30
0
11
17.832864
21
13.094181
31
0
39
0
210
0
220
0
230
1
0
LINE
5
73
100
AcDbEntity
8
1
62
256
6
ByLayer
370
18
48
1
60
0
100
AcDbLine
10
23.705369
20
6.112534
30
0
11
22.941407
21
5.671461
31
0
39
0
210
0
220
0
230
1
0
LINE
5
74
100
AcDbEntity
8
1
62
256
6
ByLayer
370
18
48
1
60
0
100
AcDbLine
10
31.387151
20
-5.965842
30
0
11
31.948319
21
-5.641852
31
0
39
0
210
0
220
0
230
1
0
LINE
5
75
100
AcDbEntity
8
1
62
256
6
ByLayer
370
18
48
1
60
0
100
AcDbLine
10
25.788055
20
1.173658
30
0
11
26.552017
21
1.614731
31
0
39
0
210
0
220
0
230
1
0
LINE
5
76
100
AcDbEntity
8
1
62
256
6
ByLayer
370
18
48
1
60
0
100
AcDbLine
10
24.479539
20
-4.056586
30
0
11
26.039393
21
-4.467261
31
0
39
0
210
0
220
0
230
1
0
LINE
5
77
100
AcDbEntity
8
1
62
256
6
ByLayer
370
18
48
1
60
0
100
AcDbLine
10
31.226733
20
-5.832971
30
0
11
31.393976
21
-5.877002
31
0
39
0
210
0
220
0
230
1
0
LINE
5
78
100
AcDbEntity
8
1
62
256
6
ByLayer
370
18
48
1
60
0
100
AcDbLine
10
23.305648
20
-4.363851
30
0
11
23.150521
21
-6.382392
31
0
39
0
210
0
220
0
230
1
0
LINE
5
79
100
AcDbEntity
8
1
62
256
6
ByLayer
370
18
48
1
60
0
100
AcDbLine
10
23.603057
20
-4.574164
30
0
11
23.612893
21
-4.446174
31
0
39
0
210
0
220
0
230
1
0
LINE
5
7A
100
AcDbEntity
8
1
62
256
6
ByLayer
370
18
48
1
60
0
100
AcDbLine
10
23.603057
20
-4.574164
30
0
11
23.744635
21
-4.611438
31
0
39
0
210
0
220
0
230
1
0
LINE
5
7B
100
AcDbEntity
8
1
62
256
6
ByLayer
370
18
48
1
60
0
100
AcDbLine
10
22.982872
20
-6.380621
30
0
11
23.141245
21
-4.319836
31
0
39
0
210
0
220
0
230
1
0
LINE
5
7C
100
AcDbEntity
8
1
62
256
6
ByLayer
370
18
48
1
60
0
100
AcDbLine
10
16.77895
20
-3.066274
30
0
11
17.488413
21
-2.805121
31
0
39
0
210
0
220
0
230
1
0
LINE
5
7D
100
AcDbEntity
8
1
62
256
6
ByLayer
370
18
48
1
60
0
100
AcDbLine
10
1.545481
20
13.62339
30
0
11
1.545481
21
-12.442674
31
0
39
0
210
0
220
0
230
1
0
LINE
5
7E
100
AcDbEntity
8
1
62
256
6
ByLayer
370
18
48
1
60
0
100
AcDbLine
10
0
20
-12.4375
30
0
11
0
21
12.4375
31
0
39
0
210
0
220
0
230
1
0
LINE
5
7F
100
AcDbEntity
8
1
62
256
6
ByLayer
370
18
48
1
60
0
100
AcDbLine
10
1.545481
20
-12.442674
30
0
11
2.643711
21
-12.460558
31
0
39
0
210
0
220
0
230
1
0
LINE
5
80
100
AcDbEntity
8
1
62
256
6
ByLayer
370
18
48
1
60
0
100
AcDbLine
10
1.545481
20
13.62339
30
0
11
1.55961
21
13.67612
31
0
39
0
210
0
220
0
230
1
0
LINE
5
81
100
AcDbEntity
8
1
62
256
6
ByLayer
370
18
48
1
60
0
100
AcDbLine
10
2.643711
20
-12.460558
30
0
11
2.14058
21
13.67612
31
0
39
0
210
0
220
0
230
1
0
LINE
5
82
100
AcDbEntity
8
1
62
256
6
ByLayer
370
18
48
1
60
0
100
AcDbLine
10
24.479539
20
-4.056586
30
0
11
23.609035
21
-4.713763
31
0
39
0
210
0
220
0
230
1
0
LINE
5
83
100
AcDbEntity
8
1
62
256
6
ByLayer
370
18
48
1
60
0
100
AcDbLine
10
30.889244
20
-12.444688
30
0
11
31.393976
21
-5.877002
31
0
39
0
210
0
220
0
230
1
0
LINE
5
84
100
AcDbEntity
8
1
62
256
6
ByLayer
370
18
48
1
60
0
100
AcDbLine
10
15.526959
20
13.67612
30
0
11
2.14058
21
13.67612
31
0
39
0
210
0
220
0
230
1
0
LINE
5
85
100
AcDbEntity
8
1
62
256
6
ByLayer
370
18
48
1
60
0
100
AcDbLine
10
2.14058
20
13.67612
30
0
11
1.55961
21
13.67612
31
0
39
0
210
0
220
0
230
1
0
LINE
5
86
100
AcDbEntity
8
1
62
256
6
ByLayer
370
18
48
1
60
0
100
AcDbLine
10
18.014366
20
13.009621
30
0
11
17.626695
21
7.965166
31
0
39
0
210
0
220
0
230
1
0
LINE
5
87
100
AcDbEntity
8
1
62
256
6
ByLayer
370
18
48
1
60
0
100
AcDbLine
10
24.360631
20
-5.603839
30
0
11
24.479539
21
-4.056586
31
0
39
0
210
0
220
0
230
1
0
LINE
5
88
100
AcDbEntity
8
1
62
256
6
ByLayer
370
18
48
1
60
0
100
AcDbLine
10
17.239025
20
2.92071
30
0
11
16.658549
21
-4.63257
31
0
39
0
210
0
220
0
230
1
0
LINE
5
89
100
AcDbEntity
8
1
62
256
6
ByLayer
370
18
48
1
60
0
100
AcDbLine
10
18.014366
20
13.009621
30
0
11
15.526959
21
13.67612
31
0
39
0
210
0
220
0
230
1
0
LINE
5
8A
100
AcDbEntity
8
1
62
256
6
ByLayer
370
18
48
1
60
0
100
AcDbLine
10
17.399837
20
6.956363
30
0
11
17.169208
21
3.955367
31
0
39
0
210
0
220
0
230
1
0
LINE
5
8B
100
AcDbEntity
8
1
62
256
6
ByLayer
370
18
48
1
60
0
100
AcDbLine
10
30.889244
20
-12.444688
30
0
11
2.643711
21
-12.460558
31
0
39
0
210
0
220
0
230
1
0
LINE
5
8C
100
AcDbEntity
8
1
62
256
6
ByLayer
370
18
48
1
60
0
100
AcDbLine
10
23.150521
20
-6.382392
30
0
11
24.360631
21
-5.603839
31
0
39
0
210
0
220
0
230
1
0
LINE
5
8D
100
AcDbEntity
8
SK1
62
256
6
ByLayer
370
18
48
1
60
0
100
AcDbLine
10
-137.769834
20
12.4375
30
0
11
-137.769834
21
-12.4375
31
0
39
0
210
0
220
0
230
1
0
LINE
5
8F
100
AcDbEntity
8
SK1
62
256
6
ByLayer
370
18
48
1
60
0
100
AcDbLine
10
-137.769834
20
12.4375
30
0
11
0
21
12.4375
31
0
39
0
210
0
220
0
230
1
0
LINE
5
90
100
AcDbEntity
8
SK1
62
256
6
ByLayer
370
18
48
1
60
0
100
AcDbLine
10
-137.769834
20
-12.4375
30
0
11
0
21
-12.4375
31
0
39
0
210
0
220
0
230
1
0
LINE
5
91
100
AcDbEntity
8
SK1
62
256
6
ByLayer
370
18
48
1
60
0
100
AcDbLine
10
0
20
-12.4375
30
0
11
0
21
12.4375
31
0
39
0
210
0
220
0
230
1
0
LINE
5
92
100
AcDbEntity
8
1
62
256
6
ByLayer
370
18
48
1
60
0
100
AcDbLine
10
23.007747
20
1.80683
30
0
11
23.006495
21
1.806107
31
0
39
0
210
0
220
0
230
1
0
LINE
5
93
100
AcDbEntity
8
1
62
256
6
ByLayer
370
18
48
1
60
0
100
AcDbLine
10
22.172252
20
4.051452
30
0
11
22.146039
21
4.036318
31
0
39
0
210
0
220
0
230
1
0
LINE
5
94
100
AcDbEntity
8
1
62
256
6
ByLayer
370
18
48
1
60
0
100
AcDbLine
10
16.93807
20
-2.646765
30
0
11
16.807403
21
-2.695451
31
0
39
0
210
0
220
0
230
1
0
LINE
5
95
100
AcDbEntity
8
1
62
256
6
ByLayer
370
18
48
1
60
0
100
AcDbLine
10
17.104754
20
-2.702332
30
0
11
16.798388
21
-2.812749
31
0
39
0
210
0
220
0
230
1
0
LINE
5
96
100
AcDbEntity
8
1
62
256
6
ByLayer
370
18
48
1
60
0
100
AcDbLine
10
12.038668
20
-2.572544
30
0
11
12.178361
21
-2.491892
31
0
39
0
210
0
220
0
230
1
0
LINE
5
97
100
AcDbEntity
8
1
62
256
6
ByLayer
370
18
48
1
60
0
100
AcDbLine
10
12.279099
20
-2.062855
30
0
11
12.21019
21
-2.48002
31
0
39
0
210
0
220
0
230
1
0
LINE
5
98
100
AcDbEntity
8
1
62
256
6
ByLayer
370
18
48
1
60
0
100
AcDbLine
10
18.059274
20
12.632481
30
0
11
17.981946
21
12.587836
31
0
39
0
210
0
220
0
230
1
0
LINE
5
99
100
AcDbEntity
8
1
62
256
6
ByLayer
370
18
48
1
60
0
100
AcDbLine
10
16.93572
20
-1.025889
30
0
11
17.013048
21
-0.981243
31
0
39
0
210
0
220
0
230
1
0
LINE
5
9A
100
AcDbEntity
8
1
62
256
6
ByLayer
370
18
48
1
60
0
100
AcDbLine
10
30.994714
20
-5.795038
30
0
11
31.059017
21
-5.757913
31
0
39
0
210
0
220
0
230
1
0
LINE
5
9B
100
AcDbEntity
8
1
62
256
6
ByLayer
370
18
48
1
60
0
100
AcDbLine
10
23.8716
20
-4.515497
30
0
11
17.087962
21
-2.697827
31
0
39
0
210
0
220
0
230
1
0
LINE
5
9C
100
AcDbEntity
8
80
62
256
6
ByLayer
370
18
48
1
60
0
100
AcDbLine
10
0
20
0
30
0
11
-5
21
0
31
0
39
0
210
0
220
0
230
1
0
LINE
5
9D
100
AcDbEntity
8
81
62
256
6
ByLayer
370
18
48
1
60
0
100
AcDbLine
10
32.230166
20
9.5625
30
0
11
42.230166
21
9.5625
31
0
39
0
210
0
220
0
230
1
0
LINE
5
9E
100
AcDbEntity
8
1
62
256
6
ByLayer
370
18
48
1
60
0
100
AcDbLine
10
10.485809
20
0.117092
30
0
11
10.003877
21
-0.161152
31
0
39
0
210
0
220
0
230
1
0
LINE
5
9F
100
AcDbEntity
8
1
62
256
6
ByLayer
370
18
48
1
60
0
100
AcDbLine
10
11.134372
20
0.254983
30
0
11
11.543698
21
-0.087145
31
0
39
0
210
0
220
0
230
1
0
LINE
5
A0
100
AcDbEntity
8
1
62
256
6
ByLayer
370
18
48
1
60
0
100
AcDbLine
10
12.06732
20
-0.524805
30
0
11
12.549253
21
-0.246561
31
0
39
0
210
0
220
0
230
1
0
LINE
5
A1
100
AcDbEntity
8
1
62
256
6
ByLayer
370
18
48
1
60
0
100
AcDbLine
10
12.973037
20
-0.580341
30
0
11
12.476646
21
-0.866933
31
0
39
0
210
0
220
0
230
1
0
LINE
5
A2
100
AcDbEntity
8
1
62
256
6
ByLayer
370
18
48
1
60
0
100
AcDbLine
10
10.638374
20
0.072406
30
0
11
11.134372
21
0.254983
31
0
39
0
210
0
220
0
230
1
0
LINE
5
A3
100
AcDbEntity
8
1
62
256
6
ByLayer
370
18
48
1
60
0
100
AcDbLine
10
12.02563
20
0.191099
30
0
11
11.543698
21
-0.087145
31
0
39
0
210
0
220
0
230
1
0
LINE
5
A4
100
AcDbEntity
8
1
62
256
6
ByLayer
370
18
48
1
60
0
100
AcDbLine
10
12.871906
20
-1.113393
30
0
11
12.389973
21
-1.391637
31
0
39
0
210
0
220
0
230
1
0
LINE
5
A5
100
AcDbEntity
8
1
62
256
6
ByLayer
370
18
48
1
60
0
100
AcDbLine
10
12.476646
20
-0.866933
30
0
11
12.389973
21
-1.391637
31
0
39
0
210
0
220
0
230
1
0
LINE
5
A6
100
AcDbEntity
8
1
62
256
6
ByLayer
370
18
48
1
60
0
100
AcDbLine
10
11.630763
20
0.541574
30
0
11
11.134372
21
0.254983
31
0
39
0
210
0
220
0
230
1
0
LINE
5
A7
100
AcDbEntity
8
1
62
256
6
ByLayer
370
18
48
1
60
0
100
AcDbLine
10
12.279099
20
-2.062855
30
0
11
12.761031
21
-1.784611
31
0
39
0
210
0
220
0
230
1
0
LINE
5
A8
100
AcDbEntity
8
1
62
256
6
ByLayer
370
18
48
1
60
0
100
AcDbLine
10
10.638374
20
0.072406
30
0
11
11.120307
21
0.35065
31
0
39
0
210
0
220
0
230
1
0
LINE
5
A9
100
AcDbEntity
8
1
62
256
6
ByLayer
370
18
48
1
60
0
100
AcDbLine
10
12.06732
20
-0.524805
30
0
11
12.476646
21
-0.866933
31
0
39
0
210
0
220
0
230
1
0
LINE
5
AA
100
AcDbEntity
8
1
62
256
6
ByLayer
370
18
48
1
60
0
100
AcDbLine
10
31.059017
20
-5.757913
30
0
11
17.896489
21
-2.231024
31
0
39
0
210
0
220
0
230
1
0
LINE
5
AB
100
AcDbEntity
8
1
62
256
6
ByLayer
370
18
48
1
60
0
100
AcDbLine
10
33.576662
20
8.900376
30
0
11
32.530436
21
-4.713348
31
0
39
0
210
0
220
0
230
1
0
LINE
5
AC
100
AcDbEntity
8
1
62
256
6
ByLayer
370
18
48
1
60
0
100
AcDbLine
10
17.013048
20
-0.981243
30
0
11
18.059274
21
12.632481
31
0
39
0
210
0
220
0
230
1
0
LINE
5
AD
100
AcDbEntity
8
1
62
256
6
ByLayer
370
18
48
1
60
0
100
AcDbLine
10
17.896489
20
-2.231024
30
0
11
17.087962
21
-2.697827
31
0
39
0
210
0
220
0
230
1
0
LINE
5
AE
100
AcDbEntity
8
1
62
256
6
ByLayer
370
18
48
1
60
0
100
AcDbLine
10
19.530692
20
13.677045
30
0
11
32.693221
21
10.150156
31
0
39
0
210
0
220
0
230
1
0
MTEXT
5
EA
100
AcDbEntity
8
SK6
62
256
6
ByLayer
370
13
48
1
60
0
100
AcDbMText
10
-106.389634
20
-37.499425
30
0
210
0
220
0
230
1
1
\W0.7446;PCBNR 3225P 16
40
3.5
41
0
44
1.084337
50
0
71
7
72
5
7
iso_b_vert
0
DIMENSION
5
FC
100
AcDbEntity
8
SK2
62
256
6
ByLayer
370
13
48
1
60
0
100
AcDbDimension
2
DimnDraft3D1
10
-147.519834
20
-12.4375
30
0
11
-147.519834
21
0.0625
31
0
70
32
71
5
72
1
41
1
210
0
220
0
230
1
3
Standard
100
AcDbAlignedDimension
13
-139.357334
23
12.5625
33
0
14
-139.357334
24
-12.4375
34
0
50
90
100
AcDbRotatedDimension
1001
ACAD
1000
DSTYLE
1002
{
1070
    74
1070
     0
1070
   279
1070
     0
1070
   172
1070
     1
1070
   173
1070
     1
1070
   340
1005
EB
1070
   271
1070
     1
1070
   272
1070
     2
1070
    77
1070
     1
1070
    73
1070
     0
1070
   171
1070
     3
1070
   274
1070
     4
1070
   177
1070
   150
1070
   176
1070
     9
1070
   178
1070
    43
1070
    78
1070
     8
1070
    48
1040
-0.005
1070
    41
1041
3.175
1070
   147
1041
2.25
1070
    42
1041
1.5875
1070
    44
1041
3.175
1070
   140
1041
4.5
1070
   343
1005
FD
1070
   344
1005
FD
1002
}
0
DIMENSION
5
112
100
AcDbEntity
8
2
62
256
6
ByLayer
370
13
48
1
60
0
100
AcDbDimension
2
DimnDraft3D2
10
50.080166
20
9.9125
30
0
11
50.080166
21
-1.2625
31
0
70
32
71
5
72
1
41
1
210
0
220
0
230
1
3
Standard
100
AcDbAlignedDimension
13
1.5875
23
-12.4375
33
0
14
35.167666
24
9.9125
34
0
50
90
100
AcDbRotatedDimension
1001
ACAD
1000
DSTYLE
1002
{
1070
    74
1070
     0
1070
   279
1070
     0
1070
   172
1070
     1
1070
   173
1070
     1
1070
   340
1005
EB
1070
   271
1070
     1
1070
   272
1070
     2
1070
    77
1070
     1
1070
    73
1070
     0
1070
   171
1070
     3
1070
   274
1070
     4
1070
   177
1070
   150
1070
   176
1070
     9
1070
   178
1070
    43
1070
    78
1070
     8
1070
    48
1040
-0.005
1070
    41
1041
3.175
1070
   147
1041
2.25
1070
    42
1041
1.5875
1070
    44
1041
3.175
1070
   140
1041
4.5
1070
   343
1005
FD
1070
   344
1005
FD
1002
}
0
DIMENSION
5
120
100
AcDbEntity
8
SK2
62
256
6
ByLayer
370
13
48
1
60
0
100
AcDbDimension
2
DimnDraft3D3
10
33.580166
20
31.17612
30
0
11
-52.094834
21
31.17612
31
0
70
32
71
5
72
1
41
1
210
0
220
0
230
1
3
Standard
100
AcDbAlignedDimension
13
-137.769834
23
14.15
33
0
14
33.580166
24
11.5
34
0
50
0
100
AcDbRotatedDimension
1001
ACAD
1000
DSTYLE
1002
{
1070
   279
1070
     0
1070
   172
1070
     1
1070
   173
1070
     1
1070
   340
1005
EB
1070
   271
1070
     1
1070
   272
1070
     2
1070
    77
1070
     1
1070
    73
1070
     0
1070
   171
1070
     3
1070
   274
1070
     4
1070
   177
1070
   150
1070
   176
1070
     9
1070
   178
1070
    43
1070
    78
1070
     8
1070
    48
1040
-0.005
1070
    41
1041
3.175
1070
   147
1041
2.25
1070
    42
1041
1.5875
1070
    44
1041
3.175
1070
   140
1041
4.5
1070
   343
1005
FD
1070
   344
1005
FD
1002
}
0
DIMENSION
5
12D
100
AcDbEntity
8
2
62
256
6
ByLayer
370
13
48
1
60
0
100
AcDbDimension
2
DimnDraft3D4
10
16.697698
20
14.159118
30
0
11
21.28904
21
25.653582
31
0
70
34
71
5
72
1
41
1
210
0
220
0
230
1
3
Standard
100
AcDb2LineAngularDimension
13
33.580166
23
9.9125
33
0
14
33.580166
24
7.53125
34
0
15
32.697698
25
9.87193
35
0
16
24.028466
26
22.083492
36
0
40
0
0
ENDSEC
0
SECTION
2
OBJECTS
0
DICTIONARY
5
197
330
0
100
AcDbDictionary
280
0
281
1
3
ACAD_GROUP
350
198
3
ACAD_MLINESTYLE
350
199
0
DICTIONARY
5
198
330
0
100
AcDbDictionary
280
0
281
1
0
DICTIONARY
5
199
330
0
100
AcDbDictionary
280
0
281
1
3
Standard
350
18
0
MLINESTYLE
5
18
330
199
100
AcDbMlineStyle
2
Standard
70
0
3

62
256
51
90
52
90
71
2
49
-0.5
62
256
6
ByLayer
49
0.5
62
256
6
ByLayer
0
RASTERVARIABLES
5
186
330

100
AcDbRasterVariables
90
0
70
1
71
1
72
1
0
ENDSEC
0
EOF
