0
SECTION
2
HEADER
9
$ACADVER
1
AC1015
9
$DWGCODEPAGE
3
ANSI_1252
9
$HANDSEED
5
1b3
9
$ANGBASE
50
0
9
$ANGDIR
70
0
9
$ATTMODE
70
1
9
$AUNITS
70
0
9
$AUPREC
70
0
9
$CECOLOR
62
256
9
$CELTSCALE
40
1
9
$CELTYPE
6
ByLayer
9
$CELWEIGHT
370
18
9
$CLAYER
8
0
9
$CMLJUST
70
0
9
$CMLSCALE
40
1
9
$CMLSTYLE
2
Standard
9
$DIMSTYLE
2
Standard
9
$TEXTSIZE
40
0.2
9
$TEXTSTYLE
7
Standard
9
$LUNITS
70
2
9
$LUPREC
70
4
9
$EXTNAMES
290
1
9
$INSUNITS
70
4
9
$LTSCALE
40
1
9
$LWDISPLAY
290
1
9
$PDMODE
70
0
9
$PDSIZE
40
0
9
$PLINEGEN
70
0
0
ENDSEC
0
SECTION
2
CLASSES
0
CLASS
1
RASTERVARIABLES
2
AcDbRasterVariables
3
ISM
90
0
280
0
281
0
0
ENDSEC
0
SECTION
2
TABLES
0
TABLE
2
VPORT
5
1a9
100
AcDbSymbolTable
0
VPORT
5
1
100
AcDbSymbolTableRecord
100
AcDbViewportTableRecord
2
*Active
70
0
10
0
20
0
11
1
21
1
12
-1
22
1
13
0
23
0
14
0.5
24
0.5
15
10
25
10
16
0
26
0
36
1
17
0
27
0
37
0
0
ENDTAB
0
TABLE
2
LTYPE
5
1aa
100
AcDbSymbolTable
0
LTYPE
5
14
100
AcDbSymbolTableRecord
100
AcDbLinetypeTableRecord
70
0
2
ByBlock
3

72
65
73
0
40
0
0
LTYPE
5
15
100
AcDbSymbolTableRecord
100
AcDbLinetypeTableRecord
70
0
2
ByLayer
3

72
65
73
0
40
0
0
LTYPE
5
16
100
AcDbSymbolTableRecord
100
AcDbLinetypeTableRecord
70
0
2
CONTINUOUS
3
Solid line
72
65
73
0
40
0
0
LTYPE
5
6A
100
AcDbSymbolTableRecord
100
AcDbLinetypeTableRecord
70
0
2
CENTER
3
____ _ ____ _ ____ _ ____
72
65
73
4
40
47.5
49
22
74
0
49
-8.5
74
0
49
8.5
74
0
49
-8.5
74
0
0
LTYPE
5
6B
100
AcDbSymbolTableRecord
100
AcDbLinetypeTableRecord
70
0
2
DASHED
3
__ __ __ __ __ __ __ __ __
72
65
73
2
40
25.72
49
12.86
74
0
49
-12.86
74
0
0
ENDTAB
0
TABLE
2
LAYER
5
1ab
100
AcDbSymbolTable
0
LAYER
5
10
100
AcDbSymbolTableRecord
100
AcDbLayerTableRecord
2
0
70
0
62
7
6
CONTINUOUS
290
1
370
-3
390
0
0
LAYER
5
6D
100
AcDbSymbolTableRecord
100
AcDbLayerTableRecord
2
80
70
0
62
-6
6
CONTINUOUS
290
1
370
-3
390
0
0
LAYER
5
6F
100
AcDbSymbolTableRecord
100
AcDbLayerTableRecord
2
81
70
0
62
-3
6
CONTINUOUS
290
1
370
-3
390
0
0
LAYER
5
71
100
AcDbSymbolTableRecord
100
AcDbLayerTableRecord
2
1
70
0
62
4
6
CONTINUOUS
290
1
370
-3
390
0
0
LAYER
5
114
100
AcDbSymbolTableRecord
100
AcDbLayerTableRecord
2
2
70
0
62
7
6
CONTINUOUS
290
1
370
-3
390
0
0
LAYER
5
196
100
AcDbSymbolTableRecord
100
AcDbLayerTableRecord
2
SK1
70
0
62
4
6
CONTINUOUS
290
1
370
-3
390
0
0
LAYER
5
197
100
AcDbSymbolTableRecord
100
AcDbLayerTableRecord
2
SK6
70
0
62
5
6
CONTINUOUS
290
1
370
-3
390
0
0
LAYER
5
198
100
AcDbSymbolTableRecord
100
AcDbLayerTableRecord
2
SK2
70
0
62
7
6
CONTINUOUS
290
1
370
-3
390
0
0
ENDTAB
0
TABLE
2
STYLE
5
1ac
100
AcDbSymbolTable
0
STYLE
5
11
100
AcDbSymbolTableRecord
100
AcDbTextStyleTableRecord
2
Standard
3
txt
70
0
71
0
40
0
41
1
42
0
50
0
0
STYLE
5
F9
100
AcDbSymbolTableRecord
100
AcDbTextStyleTableRecord
2
iso_b_vert
3
simplex.shx
70
0
71
0
40
0
41
1
42
0
50
0
0
STYLE
5
FA
100
AcDbSymbolTableRecord
100
AcDbTextStyleTableRecord
2
DWGDirectTextStyle
3
simplex
70
0
71
0
40
0
41
1
42
0
50
0
0
ENDTAB
0
TABLE
2
DIMSTYLE
5
1ad
100
AcDbSymbolTable
100
AcDbDimStyleTable
0
DIMSTYLE
105
27
100
AcDbSymbolTableRecord
100
AcDbDimStyleTableRecord
2
Standard
70
0
3
<>
41
0.18
42
0.0625
44
0.18
140
0.18
147
0.09
73
0
74
0
77
1
271
2
275
0
278
52
280
0
340
11
0
ENDTAB
0
TABLE
2
VIEW
5
1ae
100
AcDbSymbolTable
0
ENDTAB
0
TABLE
2
UCS
5
1af
100
AcDbSymbolTable
0
ENDTAB
0
TABLE
2
APPID
5
1b0
100
AcDbSymbolTable
0
APPID
5
12
100
AcDbSymbolTableRecord
100
AcDbRegAppTableRecord
2
ACAD
70
0
0
ENDTAB
0
TABLE
2
BLOCK_RECORD
5
1b1
100
AcDbSymbolTable
0
BLOCK_RECORD
5
1F
100
AcDbSymbolTableRecord
100
AcDbBlockTableRecord
2
*Model_Space
340
0
70
0
0
BLOCK_RECORD
5
1B
100
AcDbSymbolTableRecord
100
AcDbBlockTableRecord
2
*Paper_Space
340
0
70
0
0
BLOCK_RECORD
5
23
100
AcDbSymbolTableRecord
100
AcDbBlockTableRecord
2
*Paper_Space0
340
0
70
0
0
BLOCK_RECORD
5
FC
100
AcDbSymbolTableRecord
100
AcDbBlockTableRecord
2
DimnDraft3D1
340
0
70
0
0
BLOCK_RECORD
5
10B
100
AcDbSymbolTableRecord
100
AcDbBlockTableRecord
2
_CLOSED
340
0
70
0
0
BLOCK_RECORD
5
112
100
AcDbSymbolTableRecord
100
AcDbBlockTableRecord
2
DimnDraft3D2
340
0
70
0
0
BLOCK_RECORD
5
121
100
AcDbSymbolTableRecord
100
AcDbBlockTableRecord
2
DimnDraft3D3
340
0
70
0
0
BLOCK_RECORD
5
12F
100
AcDbSymbolTableRecord
100
AcDbBlockTableRecord
2
DimnDraft3D4
340
0
70
0
0
ENDTAB
0
ENDSEC
0
SECTION
2
BLOCKS
0
BLOCK
5
20
100
AcDbEntity
8
0
100
AcDbBlockBegin
2
*Model_Space
70
0
10
0
20
0
30
0
3
*Model_Space
0
ENDBLK
5
21
100
AcDbEntity
8
0
100
AcDbBlockEnd
0
BLOCK
5
1C
100
AcDbEntity
8
0
100
AcDbBlockBegin
2
*Paper_Space
70
0
10
0
20
0
30
0
3
*Paper_Space
0
ENDBLK
5
1D
100
AcDbEntity
8
0
100
AcDbBlockEnd
0
BLOCK
5
24
100
AcDbEntity
8
0
100
AcDbBlockBegin
2
*Paper_Space0
70
0
10
0
20
0
30
0
3
*Paper_Space0
0
ENDBLK
5
25
100
AcDbEntity
8
0
100
AcDbBlockEnd
0
BLOCK
5
108
100
AcDbEntity
8
0
100
AcDbBlockBegin
2
DimnDraft3D1
70
0
10
0
20
0
30
0
3
DimnDraft3D1
0
MTEXT
5
FD
100
AcDbEntity
8
SK2
62
256
6
ByLayer
370
13
48
1
60
0
100
AcDbMText
10
-144.726888
20
-1.638158
30
0
210
0
220
0
230
1
1
\W0.6740;32
40
4.5
41
0
44
1.084337
50
90
71
7
72
5
7
iso_b_vert
0
LINE
5
FF
100
AcDbEntity
8
SK2
62
256
6
ByLayer
370
13
48
1
60
0
100
AcDbLine
10
-135.439388
20
-16.075
30
0
11
-146.776888
21
-16.075
31
0
39
0
210
0
220
0
230
1
0
LINE
5
100
100
AcDbEntity
8
SK2
62
256
6
ByLayer
370
13
48
1
60
0
100
AcDbLine
10
-135.439388
20
15.925
30
0
11
-146.776888
21
15.925
31
0
39
0
210
0
220
0
230
1
0
LINE
5
101
100
AcDbEntity
8
SK2
62
256
6
ByLayer
370
13
48
1
60
0
100
AcDbLine
10
-143.601888
20
-16.075
30
0
11
-143.601888
21
15.925
31
0
39
0
210
0
220
0
230
1
0
LINE
5
102
100
AcDbEntity
8
SK2
62
256
6
ByLayer
370
13
48
1
60
0
100
AcDbLine
10
-143.601888
20
-16.075
30
0
11
-144.452627
21
-12.900003
31
0
39
0
210
0
220
0
230
1
0
LINE
5
103
100
AcDbEntity
8
SK2
62
256
6
ByLayer
370
13
48
1
60
0
100
AcDbLine
10
-143.601888
20
-16.075
30
0
11
-142.75115
21
-12.899997
31
0
39
0
210
0
220
0
230
1
0
LINE
5
104
100
AcDbEntity
8
SK2
62
256
6
ByLayer
370
13
48
1
60
0
100
AcDbLine
10
-144.452627
20
-12.900003
30
0
11
-142.75115
21
-12.899997
31
0
39
0
210
0
220
0
230
1
0
LINE
5
105
100
AcDbEntity
8
SK2
62
256
6
ByLayer
370
13
48
1
60
0
100
AcDbLine
10
-143.601888
20
15.925
30
0
11
-142.75115
21
12.750003
31
0
39
0
210
0
220
0
230
1
0
LINE
5
106
100
AcDbEntity
8
SK2
62
256
6
ByLayer
370
13
48
1
60
0
100
AcDbLine
10
-143.601888
20
15.925
30
0
11
-144.452627
21
12.749997
31
0
39
0
210
0
220
0
230
1
0
LINE
5
107
100
AcDbEntity
8
SK2
62
256
6
ByLayer
370
13
48
1
60
0
100
AcDbLine
10
-142.75115
20
12.750003
30
0
11
-144.452627
21
12.749997
31
0
39
0
210
0
220
0
230
1
0
ENDBLK
5
109
100
AcDbEntity
8
0
100
AcDbBlockEnd
0
BLOCK
5
10C
100
AcDbEntity
8
0
100
AcDbBlockBegin
2
_CLOSED
70
0
10
0
20
0
30
0
3
_CLOSED
0
LINE
5
10E
100
AcDbEntity
8
0
62
256
6
ByLayer
370
-2
48
1
60
0
100
AcDbLine
10
-1
20
0.166667
30
0
11
0
21
0
31
0
39
0
210
0
220
0
230
1
0
LINE
5
10F
100
AcDbEntity
8
0
62
256
6
ByLayer
370
-2
48
1
60
0
100
AcDbLine
10
0
20
0
30
0
11
-1
21
-0.166667
31
0
39
0
210
0
220
0
230
1
0
LINE
5
110
100
AcDbEntity
8
0
62
256
6
ByLayer
370
-2
48
1
60
0
100
AcDbLine
10
-1
20
0.166667
30
0
11
-1
21
-0.166667
31
0
39
0
210
0
220
0
230
1
0
LINE
5
111
100
AcDbEntity
8
0
62
256
6
ByLayer
370
-2
48
1
60
0
100
AcDbLine
10
0
20
0
30
0
11
-1
21
0
31
0
39
0
210
0
220
0
230
1
0
ENDBLK
5
10D
100
AcDbEntity
8
0
100
AcDbBlockEnd
0
BLOCK
5
11E
100
AcDbEntity
8
0
100
AcDbBlockBegin
2
DimnDraft3D2
70
0
10
0
20
0
30
0
3
DimnDraft3D2
0
MTEXT
5
113
100
AcDbEntity
8
2
62
256
6
ByLayer
370
13
48
1
60
0
100
AcDbMText
10
52.873112
20
0.686842
30
0
210
0
220
0
230
1
1
\W0.6740;27
40
4.5
41
0
44
1.084337
50
90
71
7
72
5
7
iso_b_vert
0
LINE
5
115
100
AcDbEntity
8
2
62
256
6
ByLayer
370
13
48
1
60
0
100
AcDbLine
10
39.085612
20
-11.425
30
0
11
57.173112
21
-11.425
31
0
39
0
210
0
220
0
230
1
0
LINE
5
116
100
AcDbEntity
8
2
62
256
6
ByLayer
370
13
48
1
60
0
100
AcDbLine
10
1.5875
20
15.925
30
0
11
57.173112
21
15.925
31
0
39
0
210
0
220
0
230
1
0
LINE
5
117
100
AcDbEntity
8
2
62
256
6
ByLayer
370
13
48
1
60
0
100
AcDbLine
10
53.998112
20
-11.425
30
0
11
53.998112
21
15.925
31
0
39
0
210
0
220
0
230
1
0
LINE
5
118
100
AcDbEntity
8
2
62
256
6
ByLayer
370
13
48
1
60
0
100
AcDbLine
10
53.998112
20
-11.425
30
0
11
53.147373
21
-8.250003
31
0
39
0
210
0
220
0
230
1
0
LINE
5
119
100
AcDbEntity
8
2
62
256
6
ByLayer
370
13
48
1
60
0
100
AcDbLine
10
53.998112
20
-11.425
30
0
11
54.84885
21
-8.249997
31
0
39
0
210
0
220
0
230
1
0
LINE
5
11A
100
AcDbEntity
8
2
62
256
6
ByLayer
370
13
48
1
60
0
100
AcDbLine
10
53.147373
20
-8.250003
30
0
11
54.84885
21
-8.249997
31
0
39
0
210
0
220
0
230
1
0
LINE
5
11B
100
AcDbEntity
8
2
62
256
6
ByLayer
370
13
48
1
60
0
100
AcDbLine
10
53.998112
20
15.925
30
0
11
54.84885
21
12.750003
31
0
39
0
210
0
220
0
230
1
0
LINE
5
11C
100
AcDbEntity
8
2
62
256
6
ByLayer
370
13
48
1
60
0
100
AcDbLine
10
53.998112
20
15.925
30
0
11
53.147373
21
12.749997
31
0
39
0
210
0
220
0
230
1
0
LINE
5
11D
100
AcDbEntity
8
2
62
256
6
ByLayer
370
13
48
1
60
0
100
AcDbLine
10
54.84885
20
12.750003
30
0
11
53.147373
21
12.749997
31
0
39
0
210
0
220
0
230
1
0
ENDBLK
5
11F
100
AcDbEntity
8
0
100
AcDbBlockEnd
0
BLOCK
5
12C
100
AcDbEntity
8
0
100
AcDbBlockBegin
2
DimnDraft3D3
70
0
10
0
20
0
30
0
3
DimnDraft3D3
0
MTEXT
5
122
100
AcDbEntity
8
SK2
62
256
6
ByLayer
370
13
48
1
60
0
100
AcDbMText
10
-50.859125
20
-42.919015
30
0
210
0
220
0
230
1
1
\W0.6217;170
40
4.5
41
0
44
1.084337
50
0
71
7
72
5
7
iso_b_vert
0
LINE
5
123
100
AcDbEntity
8
SK2
62
256
6
ByLayer
370
13
48
1
60
0
100
AcDbLine
10
-133.851888
20
-17.6625
30
0
11
-133.851888
21
-47.219015
31
0
39
0
210
0
220
0
230
1
0
LINE
5
124
100
AcDbEntity
8
SK2
62
256
6
ByLayer
370
13
48
1
60
0
100
AcDbLine
10
37.498112
20
-13.0125
30
0
11
37.498112
21
-47.219015
31
0
39
0
210
0
220
0
230
1
0
LINE
5
125
100
AcDbEntity
8
SK2
62
256
6
ByLayer
370
13
48
1
60
0
100
AcDbLine
10
-133.851888
20
-44.044015
30
0
11
37.498112
21
-44.044015
31
0
39
0
210
0
220
0
230
1
0
LINE
5
126
100
AcDbEntity
8
SK2
62
256
6
ByLayer
370
13
48
1
60
0
100
AcDbLine
10
-133.851888
20
-44.044015
30
0
11
-130.676892
21
-43.193276
31
0
39
0
210
0
220
0
230
1
0
LINE
5
127
100
AcDbEntity
8
SK2
62
256
6
ByLayer
370
13
48
1
60
0
100
AcDbLine
10
-133.851888
20
-44.044015
30
0
11
-130.676885
21
-44.894753
31
0
39
0
210
0
220
0
230
1
0
LINE
5
128
100
AcDbEntity
8
SK2
62
256
6
ByLayer
370
13
48
1
60
0
100
AcDbLine
10
-130.676892
20
-43.193276
30
0
11
-130.676885
21
-44.894753
31
0
39
0
210
0
220
0
230
1
0
LINE
5
129
100
AcDbEntity
8
SK2
62
256
6
ByLayer
370
13
48
1
60
0
100
AcDbLine
10
37.498112
20
-44.044015
30
0
11
34.323115
21
-44.894753
31
0
39
0
210
0
220
0
230
1
0
LINE
5
12A
100
AcDbEntity
8
SK2
62
256
6
ByLayer
370
13
48
1
60
0
100
AcDbLine
10
37.498112
20
-44.044015
30
0
11
34.323108
21
-43.193276
31
0
39
0
210
0
220
0
230
1
0
LINE
5
12B
100
AcDbEntity
8
SK2
62
256
6
ByLayer
370
13
48
1
60
0
100
AcDbLine
10
34.323115
20
-44.894753
30
0
11
34.323108
21
-43.193276
31
0
39
0
210
0
220
0
230
1
0
ENDBLK
5
12D
100
AcDbEntity
8
0
100
AcDbBlockEnd
0
BLOCK
5
13A
100
AcDbEntity
8
0
100
AcDbBlockBegin
2
DimnDraft3D4
70
0
10
0
20
0
30
0
3
DimnDraft3D4
0
MTEXT
5
130
100
AcDbEntity
8
2
62
256
6
ByLayer
370
13
48
1
60
0
100
AcDbMText
10
13.717772
20
-33.156792
30
0
210
0
220
0
230
1
1
\W0.8292;75%%d0'
40
4.5
41
0
44
1.084337
50
322.5
71
7
72
5
7
iso_b_vert
0
LINE
5
131
100
AcDbEntity
8
2
62
256
6
ByLayer
370
13
48
1
60
0
100
AcDbLine
10
16.729645
20
-16.712868
30
0
11
2.495546
21
-20.526883
31
0
39
0
210
0
220
0
230
1
0
LINE
5
132
100
AcDbEntity
8
2
62
256
6
ByLayer
370
13
48
1
60
0
100
AcDbLine
10
37.498112
20
-13.0125
30
0
11
37.498112
21
-47.385297
31
0
39
0
210
0
220
0
230
1
0
ARC
5
133
100
AcDbEntity
8
2
62
256
6
ByLayer
370
13
48
1
60
0
100
AcDbCircle
39
0
10
37.498112
20
-11.147974
30
0
40
33.0623228600072
210
0
220
0
230
1
100
AcDbArc
50
195
51
270
0
LINE
5
134
100
AcDbEntity
8
2
62
256
6
ByLayer
370
13
48
1
60
0
100
AcDbLine
10
5.56236
20
-19.705133
30
0
11
7.273669
21
-22.511515
31
0
39
0
210
0
220
0
230
1
0
LINE
5
135
100
AcDbEntity
8
2
62
256
6
ByLayer
370
13
48
1
60
0
100
AcDbLine
10
5.56236
20
-19.705133
30
0
11
5.641206
21
-22.991192
31
0
39
0
210
0
220
0
230
1
0
LINE
5
136
100
AcDbEntity
8
2
62
256
6
ByLayer
370
13
48
1
60
0
100
AcDbLine
10
7.273669
20
-22.511515
30
0
11
5.641206
21
-22.991192
31
0
39
0
210
0
220
0
230
1
0
LINE
5
137
100
AcDbEntity
8
2
62
256
6
ByLayer
370
13
48
1
60
0
100
AcDbLine
10
37.498112
20
-44.210297
30
0
11
34.303622
21
-44.984632
31
0
39
0
210
0
220
0
230
1
0
LINE
5
138
100
AcDbEntity
8
2
62
256
6
ByLayer
370
13
48
1
60
0
100
AcDbLine
10
37.498112
20
-44.210297
30
0
11
34.344429
21
-43.283644
31
0
39
0
210
0
220
0
230
1
0
LINE
5
139
100
AcDbEntity
8
2
62
256
6
ByLayer
370
13
48
1
60
0
100
AcDbLine
10
34.303622
20
-44.984632
30
0
11
34.344429
21
-43.283644
31
0
39
0
210
0
220
0
230
1
0
ENDBLK
5
13B
100
AcDbEntity
8
0
100
AcDbBlockEnd
0
ENDSEC
0
SECTION
2
ENTITIES
0
ARC
5
B4
100
AcDbEntity
8
1
62
256
6
ByLayer
370
18
48
1
60
0
100
AcDbCircle
39
0
10
0
20
-17.525
30
0
40
1.60000000000105
210
0
220
0
230
-1
100
AcDbArc
50
90
51
165
0
ELLIPSE
5
B5
100
AcDbEntity
8
1
62
256
6
ByLayer
370
18
48
1
60
0
100
AcDbEllipse
10
24.213143
20
5.41629
30
0
11
0.0130565240673607
21
-0.15164700641435
31
0
210
0
220
0
230
-1
40
0.107791
41
1.65581667383268
42
-3.04493677823817
0
ELLIPSE
5
B6
100
AcDbEntity
8
1
62
256
6
ByLayer
370
18
48
1
60
0
100
AcDbEllipse
10
23.703334
20
5.809122
30
0
11
0.149558998884138
21
0.0114937310206279
31
0
210
0
220
0
230
1
40
0.083671
41
0.109983263984399
42
1.69241570090229
0
ELLIPSE
5
B7
100
AcDbEntity
8
1
62
256
6
ByLayer
370
18
48
1
60
0
100
AcDbEllipse
10
21.589349
20
4.74074
30
0
11
-1.75578078576777
21
-3.04110152790293
31
0
210
0
220
0
230
1
40
0.989133
41
2.17619835647138
42
-1.96957706400109
0
ELLIPSE
5
B8
100
AcDbEntity
8
1
62
256
6
ByLayer
370
18
48
1
60
0
100
AcDbEllipse
10
21.32536
20
-4.130652
30
0
11
1.75000000000001
21
3.03108891324551
31
0
210
0
220
0
230
1
40
0.989133
41
1.8823725142139
42
2.17619835647139
0
ELLIPSE
5
B9
100
AcDbEntity
8
1
62
256
6
ByLayer
370
18
48
1
60
0
100
AcDbEllipse
10
0
20
15.931981
30
0
11
1.60000000000047
21
1.61702248813226E-15
31
0
210
0
220
0
230
-1
40
0.004363
41
0.261799387799888
42
1.57079632720767
0
ELLIPSE
5
BA
100
AcDbEntity
8
1
62
256
6
ByLayer
370
18
48
1
60
0
100
AcDbEllipse
10
21.604753
20
-7.766176
30
0
11
1.75000000000001
21
3.0310889132455
31
0
210
0
220
0
230
1
40
0.989133
41
2.17619835647137
42
2.47002419872871
0
ELLIPSE
5
BB
100
AcDbEntity
8
1
62
256
6
ByLayer
370
18
48
1
60
0
100
AcDbEllipse
10
20.259005
20
5.508815
30
0
11
-1.81657205017853
21
-3.14639508651872
31
0
210
0
220
0
230
1
40
0.989133
41
2.17619835647138
42
2.84666510094267
0
ELLIPSE
5
BC
100
AcDbEntity
8
1
62
256
6
ByLayer
370
18
48
1
60
0
100
AcDbEllipse
10
10.568835
20
3.730339
30
0
11
-2.25000000000003
21
-3.89711431702996
31
0
210
0
220
0
230
1
40
0.989133
41
0
42
6.28318530717959
0
ELLIPSE
5
BD
100
AcDbEntity
8
1
62
256
6
ByLayer
370
18
48
1
60
0
100
AcDbEllipse
10
20.733668
20
4.366106
30
0
11
-1.7057829968175
21
-2.95450281717496
31
0
210
0
220
0
230
1
40
0.989133
41
-2.23977603483288
42
-0.965394297118417
0
ELLIPSE
5
BE
100
AcDbEntity
8
1
62
256
6
ByLayer
370
18
48
1
60
0
100
AcDbEllipse
10
20.239683
20
5.519971
30
0
11
1.74157712758594
21
3.01650007027867
31
0
210
0
220
0
230
1
40
0.989133
41
-0.965394297118415
42
-0.209587790462685
0
ELLIPSE
5
BF
100
AcDbEntity
8
1
62
256
6
ByLayer
370
18
48
1
60
0
100
AcDbEllipse
10
17.95666
20
2.411527
30
0
11
-0.595312500000007
21
-1.03111149638084
31
0
210
0
220
0
230
1
40
0.989133
41
-2.36165769871388
42
-2.1292449866626
0
ELLIPSE
5
C0
100
AcDbEntity
8
1
62
256
6
ByLayer
370
18
48
1
60
0
100
AcDbEllipse
10
26.732656
20
-3.818577
30
0
11
1.98125000000002
21
3.43162566249583
31
0
210
0
220
0
230
1
40
0.989133
41
-3.01060075989643
42
-2.25760030497099
0
ELLIPSE
5
C1
100
AcDbEntity
8
1
62
256
6
ByLayer
370
18
48
1
60
0
100
AcDbEllipse
10
26.732656
20
-3.818577
30
0
11
1.98125000000002
21
3.43162566249583
31
0
210
0
220
0
230
1
40
0.989133
41
-0.819732500366453
42
-0.131036521803993
0
ELLIPSE
5
C2
100
AcDbEntity
8
1
62
256
6
ByLayer
370
18
48
1
60
0
100
AcDbEllipse
10
9.806051
20
4.170732
30
0
11
-1.03500000000001
21
-1.79267258583378
31
0
210
0
220
0
230
1
40
0.989133
41
0.139533014117931
42
2.08967647829596
0
ELLIPSE
5
C3
100
AcDbEntity
8
1
62
256
6
ByLayer
370
18
48
1
60
0
100
AcDbEllipse
10
9.806051
20
4.170732
30
0
11
-1.03500000000001
21
-1.79267258583378
31
0
210
0
220
0
230
1
40
0.989133
41
2.08967647829596
42
2.9360409645862
0
ELLIPSE
5
C4
100
AcDbEntity
8
1
62
256
6
ByLayer
370
18
48
1
60
0
100
AcDbEllipse
10
9.958843
20
4.082517
30
0
11
1.03500000000001
21
1.79267258583378
31
0
210
0
220
0
230
1
40
0.989133
41
-0.744053017938461
42
-0.161735169510504
0
ELLIPSE
5
C5
100
AcDbEntity
8
1
62
256
6
ByLayer
370
18
48
1
60
0
100
AcDbEllipse
10
26.298493
20
-4.3735
30
0
11
-2.00000000000002
21
-3.46410161513774
31
0
210
0
220
0
230
1
40
0.989133
41
3.1415702812515
42
-2.74002437904008
0
ELLIPSE
5
C6
100
AcDbEntity
8
1
62
256
6
ByLayer
370
18
48
1
60
0
100
AcDbEllipse
10
26.898158
20
-3.108542
30
0
11
2.00000000000002
21
3.46410161513774
31
0
210
0
220
0
230
1
40
0.989133
41
2.79720181428906
42
-3.14158104775275
0
ELLIPSE
5
C7
100
AcDbEntity
8
1
62
256
6
ByLayer
370
18
48
1
60
0
100
AcDbEllipse
10
26.681623
20
-3.75609
30
0
11
1.87500000000002
21
3.24759526419163
31
0
210
0
220
0
230
1
40
0.989133
41
3.03539844963543
42
3.14156246526562
0
ELLIPSE
5
C8
100
AcDbEntity
8
1
62
256
6
ByLayer
370
18
48
1
60
0
100
AcDbEllipse
10
25.032204
20
-2.836821
30
0
11
-2.12500000000002
21
-3.68060796608384
31
0
210
0
220
0
230
1
40
0.989133
41
2.62914402656435
42
2.68662537383587
0
ELLIPSE
5
C9
100
AcDbEntity
8
1
62
256
6
ByLayer
370
18
48
1
60
0
100
AcDbEllipse
10
25.032204
20
-2.836821
30
0
11
-2.12500000000002
21
-3.68060796608384
31
0
210
0
220
0
230
1
40
0.989133
41
0.454965461614023
42
0.495020808691875
0
ELLIPSE
5
CA
100
AcDbEntity
8
1
62
256
6
ByLayer
370
18
48
1
60
0
100
AcDbEllipse
10
25.325692
20
-3.006266
30
0
11
2.08000000000002
21
3.60266567974325
31
0
210
0
220
0
230
1
40
0.989133
41
-2.74593520803725
42
-2.65885949850809
0
ELLIPSE
5
CB
100
AcDbEntity
8
1
62
256
6
ByLayer
370
18
48
1
60
0
100
AcDbEllipse
10
25.325692
20
-3.006266
30
0
11
2.08000000000002
21
3.60266567974325
31
0
210
0
220
0
230
1
40
0.989133
41
-0.487143221308456
42
-0.395677102388874
0
ELLIPSE
5
CC
100
AcDbEntity
8
1
62
256
6
ByLayer
370
18
48
1
60
0
100
AcDbEllipse
10
27.362288
20
-4.182095
30
0
11
-1.87500000000002
21
-3.24759526419163
31
0
210
0
220
0
230
1
40
0.989133
41
-1.76832578408292
42
-1.20966036135052
0
ELLIPSE
5
CD
100
AcDbEntity
8
1
62
256
6
ByLayer
370
18
48
1
60
0
100
AcDbEllipse
10
27.66212
20
-3.549616
30
0
11
-2.00000000000002
21
-3.46410161513774
31
0
210
0
220
0
230
1
40
0.989133
41
-1.04063981260976
42
1.20424632076607
0
ELLIPSE
5
CE
100
AcDbEntity
8
1
62
256
6
ByLayer
370
18
48
1
60
0
100
AcDbEllipse
10
27.725784
20
-3.586372
30
0
11
1.75000000000002
21
3.03108891324552
31
0
210
0
220
0
230
1
40
0.989133
41
2.1130902905199
42
-1.9494837823636
0
ELLIPSE
5
CF
100
AcDbEntity
8
1
62
256
6
ByLayer
370
18
48
1
60
0
100
AcDbEllipse
10
27.062455
20
-4.814574
30
0
11
-2.00000000000002
21
-3.46410161513774
31
0
210
0
220
0
230
1
40
0.989133
41
2.10095284098009
42
-1.93734633282368
0
ELLIPSE
5
D0
100
AcDbEntity
8
1
62
256
6
ByLayer
370
18
48
1
60
0
100
AcDbEllipse
10
27.425951
20
-4.218851
30
0
11
1.62500000000001
21
2.81458256229941
31
0
210
0
220
0
230
1
40
0.989133
41
-1.7553170649424
42
-1.22266908049103
0
ELLIPSE
5
D1
100
AcDbEntity
8
1
62
256
6
ByLayer
370
18
48
1
60
0
100
AcDbEllipse
10
27.362288
20
-4.182095
30
0
11
-1.87500000000002
21
-3.24759526419162
31
0
210
0
220
0
230
1
40
0.989133
41
1.37326686950682
42
1.93193229223933
0
ELLIPSE
5
D2
100
AcDbEntity
8
1
62
256
6
ByLayer
370
18
48
1
60
0
100
AcDbEllipse
10
27.425951
20
-4.218851
30
0
11
1.62500000000002
21
2.81458256229942
31
0
210
0
220
0
230
1
40
0.989133
41
1.38627558864744
42
1.9189235730987
0
ELLIPSE
5
D3
100
AcDbEntity
8
1
62
256
6
ByLayer
370
18
48
1
60
0
100
AcDbEllipse
10
27.126118
20
-4.85133
30
0
11
1.75000000000002
21
3.03108891324553
31
0
210
0
220
0
230
1
40
0.989133
41
-1.02850236306984
42
1.19210887122624
0
ELLIPSE
5
D4
100
AcDbEntity
8
1
62
256
6
ByLayer
370
18
48
1
60
0
100
AcDbEllipse
10
10.55728
20
3.73701
30
0
11
-1.22119546181367
21
-2.11517258583378
31
0
210
0
220
0
230
1
40
0.989133
41
0
42
6.28318530717959
0
ELLIPSE
5
D5
100
AcDbEntity
8
1
62
256
6
ByLayer
370
18
48
1
60
0
100
AcDbEllipse
10
10.529905
20
3.752815
30
0
11
1.03500000000001
21
1.79267258583378
31
0
210
0
220
0
230
1
40
0.989133
41
0.907659526094823
42
1.35034208445472
0
ELLIPSE
5
D6
100
AcDbEntity
8
1
62
256
6
ByLayer
370
18
48
1
60
0
100
AcDbEllipse
10
10.529905
20
3.752815
30
0
11
1.03500000000001
21
1.79267258583378
31
0
210
0
220
0
230
1
40
0.989133
41
-1.18673557629836
42
-0.744053017938457
0
ELLIPSE
5
D7
100
AcDbEntity
8
1
62
256
6
ByLayer
370
18
48
1
60
0
100
AcDbEllipse
10
9.958843
20
4.082517
30
0
11
1.03500000000001
21
1.79267258583378
31
0
210
0
220
0
230
1
40
0.989133
41
-2.83844812033168
42
-2.23393312749496
0
ELLIPSE
5
D8
100
AcDbEntity
8
1
62
256
6
ByLayer
370
18
48
1
60
0
100
AcDbEllipse
10
10.55728
20
3.73701
30
0
11
-2.11750000000002
21
-3.66761758502708
31
0
210
0
220
0
230
1
40
0.989133
41
0
42
6.28318530717959
0
ELLIPSE
5
D9
100
AcDbEntity
8
1
62
256
6
ByLayer
370
18
48
1
60
0
100
AcDbEllipse
10
10.529905
20
3.752815
30
0
11
1.03500000000001
21
1.79267258583378
31
0
210
0
220
0
230
1
40
0.989133
41
-0.139538025101789
42
0.303144533258127
0
ELLIPSE
5
DA
100
AcDbEntity
8
1
62
256
6
ByLayer
370
18
48
1
60
0
100
AcDbEllipse
10
10.529905
20
3.752815
30
0
11
1.03500000000001
21
1.79267258583378
31
0
210
0
220
0
230
1
40
0.989133
41
1.95485707729141
42
2.39753963565132
0
ELLIPSE
5
DB
100
AcDbEntity
8
1
62
256
6
ByLayer
370
18
48
1
60
0
100
AcDbEllipse
10
10.529905
20
3.752815
30
0
11
1.03500000000001
21
1.79267258583378
31
0
210
0
220
0
230
1
40
0.989133
41
-2.23393312749496
42
-1.79125056913508
0
ELLIPSE
5
DC
100
AcDbEntity
8
1
62
256
6
ByLayer
370
18
48
1
60
0
100
AcDbEllipse
10
10.529905
20
3.752815
30
0
11
1.03500000000001
21
1.79267258583378
31
0
210
0
220
0
230
1
40
0.989133
41
3.00205462848802
42
-2.83844812033166
0
ELLIPSE
5
DD
100
AcDbEntity
8
1
62
256
6
ByLayer
370
18
48
1
60
0
100
AcDbEllipse
10
9.958843
20
4.082517
30
0
11
1.03500000000001
21
1.79267258583378
31
0
210
0
220
0
230
1
40
0.989133
41
-1.79125056913508
42
-1.18673557629836
0
ELLIPSE
5
DE
100
AcDbEntity
8
1
62
256
6
ByLayer
370
18
48
1
60
0
100
AcDbEllipse
10
18.765187
20
1.944724
30
0
11
0.595312500000006
21
1.03111149638084
31
0
210
0
220
0
230
1
40
0.989133
41
0.779934954875889
42
2.17619835647137
0
ELLIPSE
5
DF
100
AcDbEntity
8
1
62
256
6
ByLayer
370
18
48
1
60
0
100
AcDbEllipse
10
27.541182
20
-4.28538
30
0
11
1.98125000000002
21
3.43162566249583
31
0
210
0
220
0
230
1
40
0.989133
41
0
42
6.28318530717959
0
ELLIPSE
5
E0
100
AcDbEntity
8
1
62
256
6
ByLayer
370
18
48
1
60
0
100
AcDbEllipse
10
20.057583
20
-14.872229
30
0
11
0.595312500000006
21
1.03111149638084
31
0
210
0
220
0
230
1
40
0.989133
41
2.17619835647141
42
-2.36165769871391
0
ELLIPSE
5
E1
100
AcDbEntity
8
1
62
256
6
ByLayer
370
18
48
1
60
0
100
AcDbEllipse
10
36.317177
20
-10.515484
30
0
11
0.595312500000006
21
1.03111149638084
31
0
210
0
220
0
230
1
40
0.989133
41
-2.3616576987139
42
-0.965394297118422
0
ELLIPSE
5
E2
100
AcDbEntity
8
1
62
256
6
ByLayer
370
18
48
1
60
0
100
AcDbEllipse
10
35.024781
20
6.301469
30
0
11
0.595312500000006
21
1.03111149638084
31
0
210
0
220
0
230
1
40
0.989133
41
-0.965394297118421
42
0.77993495487589
0
POINT
5
6C
100
AcDbEntity
8
80
62
256
6
ByLayer
370
18
48
1
60
0
100
AcDbPoint
10
0
20
0
30
0
39
0
210
0
220
0
230
1
50
360
0
POINT
5
6E
100
AcDbEntity
8
81
62
256
6
ByLayer
370
18
48
1
60
0
100
AcDbPoint
10
36.148112
20
-11.075
30
0
39
0
210
0
220
0
230
1
50
360
0
POINT
5
70
100
AcDbEntity
8
1
62
256
6
ByLayer
370
18
48
1
60
0
100
AcDbPoint
10
-133.851888
20
15.925
30
0
39
0
210
0
220
0
230
1
50
360
0
SPLINE
5
E3
100
AcDbEntity
8
1
62
256
6
ByLayer
370
18
48
1
60
0
100
AcDbSpline
70
4
71
3
72
18
73
14
40
0
40
0
40
0
40
0
40
0.230607917601333
40
0.230607917601333
40
0.376193630274874
40
0.376193630274874
40
0.521779342948414
40
0.521779342948414
40
0.812950768295496
40
0.812950768295496
40
0.958536480969037
40
0.958536480969037
40
1
40
1
40
1
40
1
41
1
10
28.3118756873735
20
-0.40020164600719
30
0
41
1
10
28.4541747275939
20
-0.482287093717758
30
0
41
1
10
28.590607293834
20
-0.57366563998275
30
0
41
1
10
28.8036986470827
20
-0.737782440782411
30
0
41
1
10
28.8838384830031
20
-0.804991209712227
30
0
41
1
10
29.0393548912988
20
-0.947006942841199
30
0
41
1
10
29.1141701084247
20
-1.02134535783131
30
0
41
1
10
29.3275941353589
20
-1.25166675820969
30
0
41
1
10
29.456307877124
20
-1.4158626584304
30
0
41
1
10
29.629480005052
20
-1.67784281030583
30
0
41
1
10
29.6838715981965
20
-1.76779683295291
30
0
41
1
10
29.7494003098185
20
-1.88681448625098
30
0
41
1
10
29.7636101477556
20
-1.91334370817677
30
0
41
1
10
29.7774995152227
20
-1.94000068898848
30
0
0
SPLINE
5
E4
100
AcDbEntity
8
1
62
256
6
ByLayer
370
18
48
1
60
0
100
AcDbSpline
70
4
71
3
72
14
73
10
40
0
40
0
40
0
40
0
40
0.389445983279491
40
0.389445983279491
40
0.584168974919236
40
0.584168974919236
40
0.778891966558982
40
0.778891966558982
40
1
40
1
40
1
40
1
41
1
10
24.989554470585
20
-7.10663038441632
30
0
41
1
10
25.1815095981703
20
-7.18640859296377
30
0
41
1
10
25.3789817853766
20
-7.24961132007354
30
0
41
1
10
25.683418608819
20
-7.31982718523429
30
0
41
1
10
25.7862764772016
20
-7.33911361888038
30
0
41
1
10
25.9948370289484
20
-7.36923589329908
30
0
41
1
10
26.0998209402117
20
-7.37993524632705
30
0
41
1
10
26.3230458244519
20
-7.39347731135507
30
0
41
1
10
26.4416123296394
20
-7.39515383734198
30
0
41
1
10
26.5600572298825
20
-7.39137512243892
30
0
0
SPLINE
5
E5
100
AcDbEntity
8
1
62
256
6
ByLayer
370
18
48
1
60
0
100
AcDbSpline
70
4
71
3
72
8
73
4
40
0
40
0
40
0
40
0
40
1
40
1
40
1
40
1
41
1
10
24.3821093974582
20
-6.69876434595612
30
0
41
1
10
24.567583317873
20
-6.85379929068105
30
0
41
1
10
24.7701498416456
20
-6.99029824563507
30
0
41
1
10
24.989554470585
20
-7.10663038441632
30
0
0
SPLINE
5
E6
100
AcDbEntity
8
1
62
256
6
ByLayer
370
18
48
1
60
0
100
AcDbSpline
70
4
71
3
72
8
73
4
40
0
40
0
40
0
40
0
40
1
40
1
40
1
40
1
41
1
10
18.5685735086895
20
3.80245682695636
30
0
41
1
10
18.3573189005019
20
3.84988590781359
30
0
41
1
10
18.1460594480816
20
3.89720228388199
30
0
41
1
10
17.9347960646384
20
3.94442720169053
30
0
0
SPLINE
5
E7
100
AcDbEntity
8
1
62
256
6
ByLayer
370
18
48
1
60
0
100
AcDbSpline
70
4
71
3
72
8
73
4
40
0
40
0
40
0
40
0
40
1
40
1
40
1
40
1
41
1
10
17.9347960646384
20
3.94442720169053
30
0
41
1
10
17.8776521737399
20
3.82500149826839
30
0
41
1
10
17.8205330072366
20
3.70556256761913
30
0
41
1
10
17.7634389846684
20
3.58611018529436
30
0
0
SPLINE
5
E8
100
AcDbEntity
8
1
62
256
6
ByLayer
370
18
48
1
60
0
100
AcDbSpline
70
4
71
3
72
8
73
4
40
0
40
0
40
0
40
0
40
1
40
1
40
1
40
1
41
1
10
24.5804134850995
20
-1.72620302760191
30
0
41
1
10
24.7160142162931
20
-1.85826017686867
30
0
41
1
10
24.8516567130845
20
-1.99032155682528
30
0
41
1
10
24.9873628582252
20
-2.12238933695207
30
0
0
SPLINE
5
E9
100
AcDbEntity
8
1
62
256
6
ByLayer
370
18
48
1
60
0
100
AcDbSpline
70
4
71
3
72
8
73
4
40
0
40
0
40
0
40
0
40
1
40
1
40
1
40
1
41
1
10
29.864539242233
20
-6.31531308013004
30
0
41
1
10
29.9578161022462
20
-6.422884301067
30
0
41
1
10
30.0510145736692
20
-6.53044061155171
30
0
41
1
10
30.1441616263511
20
-6.63798711810161
30
0
0
SPLINE
5
EA
100
AcDbEntity
8
1
62
256
6
ByLayer
370
18
48
1
60
0
100
AcDbSpline
70
4
71
3
72
8
73
4
40
0
40
0
40
0
40
0
40
1
40
1
40
1
40
1
41
1
10
24.2546086910169
20
-3.66809057405385
30
0
41
1
10
24.0679262788559
20
-3.64355419057065
30
0
41
1
10
23.8812898055196
20
-3.61906156444368
30
0
41
1
10
23.6946835001024
20
-3.59459763361843
30
0
0
SPLINE
5
EB
100
AcDbEntity
8
1
62
256
6
ByLayer
370
18
48
1
60
0
100
AcDbSpline
70
4
71
3
72
8
73
4
40
0
40
0
40
0
40
0
40
1
40
1
40
1
40
1
41
1
10
31.0298916113483
20
-4.76959251208476
30
0
41
1
10
30.8857389844429
20
-4.76963922397638
30
0
41
1
10
30.741546536475
20
-4.76965166732134
30
0
41
1
10
30.5972934094414
20
-4.76961184302797
30
0
0
SPLINE
5
EC
100
AcDbEntity
8
1
62
256
6
ByLayer
370
18
48
1
60
0
100
AcDbSpline
70
4
71
3
72
10
73
6
40
0
40
0
40
0
40
0
40
0.5
40
0.5
40
1
40
1
40
1
40
1
41
1
10
12.4572495596839
20
5.07419332333779
30
0
41
1
10
12.3489690355076
20
5.12573959869289
30
0
41
1
10
12.2400439521767
20
5.17754441289273
30
0
41
1
10
12.0204898041229
20
5.28183752453435
30
0
41
1
10
11.910508781934
20
5.33401711397266
30
0
41
1
10
11.801470557631
20
5.38567402298364
30
0
0
SPLINE
5
ED
100
AcDbEntity
8
1
62
256
6
ByLayer
370
18
48
1
60
0
100
AcDbSpline
70
4
71
3
72
8
73
4
40
0
40
0
40
0
40
0
40
1
40
1
40
1
40
1
41
1
10
12.0338554297738
20
2.36183008830821
30
0
41
1
10
12.236609419787
20
2.49841836120564
30
0
41
1
10
12.4367485801471
20
2.62951302726174
30
0
41
1
10
12.6353059039262
20
2.75728434556052
30
0
0
SPLINE
5
EE
100
AcDbEntity
8
1
62
256
6
ByLayer
370
18
48
1
60
0
100
AcDbSpline
70
4
71
3
72
8
73
4
40
0
40
0
40
0
40
0
40
1
40
1
40
1
40
1
41
1
10
8.56748593844463
20
3.12725493927891
30
0
41
1
10
8.58996195071848
20
2.88355756429601
30
0
41
1
10
8.61480064290231
20
2.64486634219139
30
0
41
1
10
8.64106863412536
20
2.4092035834299
30
0
0
SPLINE
5
EF
100
AcDbEntity
8
1
62
256
6
ByLayer
370
18
48
1
60
0
100
AcDbSpline
70
4
71
3
72
10
73
6
40
0
40
0
40
0
40
0
40
0.5
40
0.5
40
1
40
1
40
1
40
1
41
1
10
10.7272154411469
20
1.42478947560656
30
0
41
1
10
10.8184730378807
20
1.49399369206426
30
0
41
1
10
10.9115686903063
20
1.56394155910994
30
0
41
1
10
11.0994400378481
20
1.70344969024228
30
0
41
1
10
11.1942691739255
20
1.7730526715994
30
0
41
1
10
11.2901575797391
20
1.84247653076059
30
0
0
SPLINE
5
F0
100
AcDbEntity
8
1
62
256
6
ByLayer
370
18
48
1
60
0
100
AcDbSpline
70
4
71
3
72
10
73
6
40
0
40
0
40
0
40
0
40
0.5
40
0.5
40
1
40
1
40
1
40
1
41
1
10
10.9883734191551
20
5.76935952941702
30
0
41
1
10
10.8825762219991
20
5.81907827586934
30
0
41
1
10
10.7772210201351
20
5.86850902496985
30
0
41
1
10
10.5714962152069
20
5.96489887271574
30
0
41
1
10
10.4705661207086
20
6.0121219819309
30
0
41
1
10
10.3711027526623
20
6.05860743116114
30
0
0
SPLINE
5
F1
100
AcDbEntity
8
1
62
256
6
ByLayer
370
18
48
1
60
0
100
AcDbSpline
70
4
71
3
72
8
73
4
40
0
40
0
40
0
40
0
40
1
40
1
40
1
40
1
41
1
10
9.02595442847519
20
5.14379961636121
30
0
41
1
10
8.83104378715223
20
5.00268298398615
30
0
41
1
10
8.64449791296431
20
4.86374023049939
30
0
41
1
10
8.46301228988301
20
4.72611256120717
30
0
0
SPLINE
5
F2
100
AcDbEntity
8
1
62
256
6
ByLayer
370
18
48
1
60
0
100
AcDbSpline
70
4
71
3
72
10
73
6
40
0
40
0
40
0
40
0
40
0.5
40
0.5
40
1
40
1
40
1
40
1
41
1
10
10.3711027526624
20
6.05860743116114
30
0
41
1
10
10.2712608815855
20
5.99435934780615
30
0
41
1
10
10.1704274556922
20
5.92887888635505
30
0
41
1
10
9.9695276187245
20
5.79689275709987
30
0
41
1
10
9.86939930485363
20
5.7303492574683
30
0
41
1
10
9.76965227850997
20
5.66315317390885
30
0
0
SPLINE
5
F3
100
AcDbEntity
8
1
62
256
6
ByLayer
370
18
48
1
60
0
100
AcDbSpline
70
4
71
3
72
10
73
6
40
0
40
0
40
0
40
0
40
0.5
40
0.5
40
1
40
1
40
1
40
1
41
1
10
10.7272154411469
20
1.42478947560656
30
0
41
1
10
10.6189349169706
20
1.47633575096168
30
0
41
1
10
10.5100098336397
20
1.52814056516152
30
0
41
1
10
10.2904556855859
20
1.63243367680315
30
0
41
1
10
10.180474663397
20
1.68461326624146
30
0
41
1
10
10.0714364390939
20
1.73627017525243
30
0
0
SPLINE
5
F4
100
AcDbEntity
8
1
62
256
6
ByLayer
370
18
48
1
60
0
100
AcDbSpline
70
4
71
3
72
8
73
4
40
0
40
0
40
0
40
0
40
1
40
1
40
1
40
1
41
1
10
12.4923239198045
20
4.3783747653905
30
0
41
1
10
12.4776912562207
20
4.61754378089577
30
0
41
1
10
12.4664458502091
20
4.84838691556973
30
0
41
1
10
12.4572495596839
20
5.07419332333779
30
0
0
SPLINE
5
F5
100
AcDbEntity
8
1
62
256
6
ByLayer
370
18
48
1
60
0
100
AcDbSpline
70
4
71
3
72
10
73
6
40
0
40
0
40
0
40
0
40
0.5
40
0.5
40
1
40
1
40
1
40
1
41
1
10
9.2583393006181
20
2.11995568168578
30
0
41
1
10
9.15254210346205
20
2.16967442813811
30
0
41
1
10
9.04718690159808
20
2.21910517723859
30
0
41
1
10
8.84146209666989
20
2.3154950249845
30
0
41
1
10
8.74053200217168
20
2.36271813419964
30
0
41
1
10
8.6410686341253
20
2.4092035834299
30
0
0
SPLINE
5
F6
100
AcDbEntity
8
1
62
256
6
ByLayer
370
18
48
1
60
0
100
AcDbSpline
70
4
71
3
72
10
73
6
40
0
40
0
40
0
40
0
40
0.5
40
0.5
40
1
40
1
40
1
40
1
41
1
10
12.6353059039262
20
2.75728434556052
30
0
41
1
10
12.6220973989805
20
2.87578418394494
30
0
41
1
10
12.6091801197828
20
2.99575759336875
30
0
41
1
10
12.5845264898544
20
3.23555233203149
30
0
41
1
10
12.5727805264676
20
3.35544613237701
30
0
41
1
10
12.5617232082455
20
3.47533570140956
30
0
0
SPLINE
5
F7
100
AcDbEntity
8
1
62
256
6
ByLayer
370
18
48
1
60
0
100
AcDbSpline
70
4
71
3
72
10
73
6
40
0
40
0
40
0
40
0
40
0.5
40
0.5
40
1
40
1
40
1
40
1
41
1
10
8.46301228988301
20
4.72611256120717
30
0
41
1
10
8.46763652048566
20
4.6125688559255
30
0
41
1
10
8.4728160262157
20
4.49706285209621
30
0
41
1
10
8.48444116671823
20
4.26479011531069
30
0
41
1
10
8.49088795231154
20
4.14795579669067
30
0
41
1
10
8.49808665000353
20
4.03029400325991
30
0
0
LINE
5
72
100
AcDbEntity
8
1
62
256
6
ByLayer
370
18
48
1
60
0
100
AcDbLine
10
24.898158
20
-6.572644
30
0
11
25.66212
21
-7.013718
31
0
39
0
210
0
220
0
230
1
0
LINE
5
73
100
AcDbEntity
8
1
62
256
6
ByLayer
370
18
48
1
60
0
100
AcDbLine
10
24.806623
20
-7.003685
30
0
11
24.878039
21
-7.044917
31
0
39
0
210
0
220
0
230
1
0
LINE
5
74
100
AcDbEntity
8
1
62
256
6
ByLayer
370
18
48
1
60
0
100
AcDbLine
10
29.062455
20
-1.350472
30
0
11
28.298493
21
-0.909399
31
0
39
0
210
0
220
0
230
1
0
LINE
5
75
100
AcDbEntity
8
1
62
256
6
ByLayer
370
18
48
1
60
0
100
AcDbLine
10
35.620093
20
7.332581
30
0
11
35.198245
21
7.576135
31
0
39
0
210
0
220
0
230
1
0
LINE
5
76
100
AcDbEntity
8
1
62
256
6
ByLayer
370
18
48
1
60
0
100
AcDbLine
10
18.81833
20
-15.531561
30
0
11
19.462271
21
-15.903341
31
0
39
0
210
0
220
0
230
1
0
LINE
5
77
100
AcDbEntity
8
1
62
256
6
ByLayer
370
18
48
1
60
0
100
AcDbLine
10
11.307721
20
-17.544015
30
0
11
2.225871
21
-17.544015
31
0
39
0
210
0
220
0
230
1
0
LINE
5
78
100
AcDbEntity
8
1
62
256
6
ByLayer
370
18
48
1
60
0
100
AcDbLine
10
34.592043
20
15.933931
30
0
11
35.23363
21
7.585456
31
0
39
0
210
0
220
0
230
1
0
LINE
5
79
100
AcDbEntity
8
1
62
256
6
ByLayer
370
18
48
1
60
0
100
AcDbLine
10
2.225871
20
-17.544015
30
0
11
2.870664
21
15.951754
31
0
39
0
210
0
220
0
230
1
0
LINE
5
7A
100
AcDbEntity
8
1
62
256
6
ByLayer
370
18
48
1
60
0
100
AcDbLine
10
23.733028
20
5.185249
30
0
11
23.684235
21
5.820149
31
0
39
0
210
0
220
0
230
1
0
LINE
5
7B
100
AcDbEntity
8
1
62
256
6
ByLayer
370
18
48
1
60
0
100
AcDbLine
10
24.337428
20
5.465066
30
0
11
24.195747
21
5.427765
31
0
39
0
210
0
220
0
230
1
0
LINE
5
7C
100
AcDbEntity
8
1
62
256
6
ByLayer
370
18
48
1
60
0
100
AcDbLine
10
23.874481
20
5.527862
30
0
11
23.897426
21
5.2293
31
0
39
0
210
0
220
0
230
1
0
LINE
5
7D
100
AcDbEntity
8
1
62
256
6
ByLayer
370
18
48
1
60
0
100
AcDbLine
10
24.204673
20
5.311625
30
0
11
24.195747
21
5.427765
31
0
39
0
210
0
220
0
230
1
0
LINE
5
7E
100
AcDbEntity
8
1
62
256
6
ByLayer
370
18
48
1
60
0
100
AcDbLine
10
17.359912
20
4.072098
30
0
11
17.52008
21
1.987949
31
0
39
0
210
0
220
0
230
1
0
LINE
5
7F
100
AcDbEntity
8
1
62
256
6
ByLayer
370
18
48
1
60
0
100
AcDbLine
10
2.225871
20
-17.544015
30
0
11
1.661537
21
-17.544015
31
0
39
0
210
0
220
0
230
1
0
LINE
5
80
100
AcDbEntity
8
1
62
256
6
ByLayer
370
18
48
1
60
0
100
AcDbLine
10
25.025126
20
4.945747
30
0
11
24.201725
21
5.567365
31
0
39
0
210
0
220
0
230
1
0
LINE
5
81
100
AcDbEntity
8
1
62
256
6
ByLayer
370
18
48
1
60
0
100
AcDbLine
10
23.851884
20
5.821919
30
0
11
25.061994
21
5.043367
31
0
39
0
210
0
220
0
230
1
0
LINE
5
82
100
AcDbEntity
8
1
62
256
6
ByLayer
370
18
48
1
60
0
100
AcDbLine
10
1.545481
20
15.930174
30
0
11
1.545481
21
-17.11089
31
0
39
0
210
0
220
0
230
1
0
LINE
5
83
100
AcDbEntity
8
1
62
256
6
ByLayer
370
18
48
1
60
0
100
AcDbLine
10
25.061994
20
5.043367
30
0
11
25.071867
21
4.914895
31
0
39
0
210
0
220
0
230
1
0
LINE
5
84
100
AcDbEntity
8
1
62
256
6
ByLayer
370
18
48
1
60
0
100
AcDbLine
10
0
20
-15.925
30
0
11
0
21
15.925
31
0
39
0
210
0
220
0
230
1
0
LINE
5
85
100
AcDbEntity
8
1
62
256
6
ByLayer
370
18
48
1
60
0
100
AcDbLine
10
24.177529
20
5.304354
30
0
11
23.874481
21
5.527862
31
0
39
0
210
0
220
0
230
1
0
LINE
5
86
100
AcDbEntity
8
1
62
256
6
ByLayer
370
18
48
1
60
0
100
AcDbLine
10
1.545481
20
15.930174
30
0
11
2.870664
21
15.951754
31
0
39
0
210
0
220
0
230
1
0
LINE
5
87
100
AcDbEntity
8
1
62
256
6
ByLayer
370
18
48
1
60
0
100
AcDbLine
10
17.456846
20
5.183223
30
0
11
19.727266
21
4.111854
31
0
39
0
210
0
220
0
230
1
0
LINE
5
88
100
AcDbEntity
8
1
62
256
6
ByLayer
370
18
48
1
60
0
100
AcDbLine
10
1.545481
20
-17.11089
30
0
11
1.661537
21
-17.544015
31
0
39
0
210
0
220
0
230
1
0
LINE
5
89
100
AcDbEntity
8
1
62
256
6
ByLayer
370
18
48
1
60
0
100
AcDbLine
10
17.864149
20
-4.432281
30
0
11
18.143542
21
-8.067806
31
0
39
0
210
0
220
0
230
1
0
LINE
5
8A
100
AcDbEntity
8
1
62
256
6
ByLayer
370
18
48
1
60
0
100
AcDbLine
10
34.592043
20
15.933931
30
0
11
2.870664
21
15.951754
31
0
39
0
210
0
220
0
230
1
0
LINE
5
8B
100
AcDbEntity
8
1
62
256
6
ByLayer
370
18
48
1
60
0
100
AcDbLine
10
18.865497
20
-15.518915
30
0
11
11.307721
21
-17.544015
31
0
39
0
210
0
220
0
230
1
0
LINE
5
8C
100
AcDbEntity
8
1
62
256
6
ByLayer
370
18
48
1
60
0
100
AcDbLine
10
23.851884
20
5.821919
30
0
11
23.874482
21
5.527863
31
0
39
0
210
0
220
0
230
1
0
LINE
5
8D
100
AcDbEntity
8
1
62
256
6
ByLayer
370
18
48
1
60
0
100
AcDbLine
10
35.23363
20
7.585456
30
0
11
35.005793
21
7.525472
31
0
39
0
210
0
220
0
230
1
0
LINE
5
8E
100
AcDbEntity
8
1
62
256
6
ByLayer
370
18
48
1
60
0
100
AcDbLine
10
18.829118
20
-15.045543
30
0
11
18.865497
21
-15.518915
31
0
39
0
210
0
220
0
230
1
0
LINE
5
8F
100
AcDbEntity
8
SK1
62
256
6
ByLayer
370
18
48
1
60
0
100
AcDbLine
10
-133.851888
20
-15.925
30
0
11
0
21
-15.925
31
0
39
0
210
0
220
0
230
1
0
LINE
5
91
100
AcDbEntity
8
SK1
62
256
6
ByLayer
370
18
48
1
60
0
100
AcDbLine
10
-133.851888
20
15.925
30
0
11
0
21
15.925
31
0
39
0
210
0
220
0
230
1
0
LINE
5
92
100
AcDbEntity
8
SK1
62
256
6
ByLayer
370
18
48
1
60
0
100
AcDbLine
10
0
20
-15.925
30
0
11
0
21
15.925
31
0
39
0
210
0
220
0
230
1
0
LINE
5
93
100
AcDbEntity
8
SK1
62
256
6
ByLayer
370
18
48
1
60
0
100
AcDbLine
10
-133.851888
20
15.925
30
0
11
-133.851888
21
-15.925
31
0
39
0
210
0
220
0
230
1
0
LINE
5
94
100
AcDbEntity
8
1
62
256
6
ByLayer
370
18
48
1
60
0
100
AcDbLine
10
17.587757
20
1.842116
30
0
11
17.523454
21
1.879242
31
0
39
0
210
0
220
0
230
1
0
LINE
5
95
100
AcDbEntity
8
1
62
256
6
ByLayer
370
18
48
1
60
0
100
AcDbLine
10
18.81585
20
-14.937712
30
0
11
18.880153
21
-14.974837
31
0
39
0
210
0
220
0
230
1
0
LINE
5
96
100
AcDbEntity
8
1
62
256
6
ByLayer
370
18
48
1
60
0
100
AcDbLine
10
34.730792
20
7.448642
30
0
11
34.666489
21
7.485767
31
0
39
0
210
0
220
0
230
1
0
LINE
5
97
100
AcDbEntity
8
1
62
256
6
ByLayer
370
18
48
1
60
0
100
AcDbLine
10
17.662671
20
3.5587
30
0
11
24.452576
21
5.378049
31
0
39
0
210
0
220
0
230
1
0
LINE
5
98
100
AcDbEntity
8
1
62
256
6
ByLayer
370
18
48
1
60
0
100
AcDbLine
10
11.308225
20
5.670449
30
0
11
11.801471
21
5.385674
31
0
39
0
210
0
220
0
230
1
0
LINE
5
99
100
AcDbEntity
8
1
62
256
6
ByLayer
370
18
48
1
60
0
100
AcDbLine
10
11.87175
20
5.352338
30
0
11
11.921262
21
4.708077
31
0
39
0
210
0
220
0
230
1
0
LINE
5
9A
100
AcDbEntity
8
1
62
256
6
ByLayer
370
18
48
1
60
0
100
AcDbLine
10
24.580413
20
-1.726203
30
0
11
24.573866
21
-1.722423
31
0
39
0
210
0
220
0
230
1
0
LINE
5
9B
100
AcDbEntity
8
1
62
256
6
ByLayer
370
18
48
1
60
0
100
AcDbLine
10
23.679735
20
-3.585967
30
0
11
23.694684
21
-3.594598
31
0
39
0
210
0
220
0
230
1
0
LINE
5
9C
100
AcDbEntity
8
1
62
256
6
ByLayer
370
18
48
1
60
0
100
AcDbLine
10
19.223523
20
3.976993
30
0
11
17.388491
21
4.847354
31
0
39
0
210
0
220
0
230
1
0
LINE
5
9D
100
AcDbEntity
8
1
62
256
6
ByLayer
370
18
48
1
60
0
100
AcDbLine
10
19.337595
20
4.007542
30
0
11
17.399757
21
4.91631
31
0
39
0
210
0
220
0
230
1
0
LINE
5
9E
100
AcDbEntity
8
1
62
256
6
ByLayer
370
18
48
1
60
0
100
AcDbLine
10
17.941635
20
3.972514
30
0
11
17.357936
21
4.099024
31
0
39
0
210
0
220
0
230
1
0
LINE
5
9F
100
AcDbEntity
8
1
62
256
6
ByLayer
370
18
48
1
60
0
100
AcDbLine
10
17.941635
20
3.972514
30
0
11
17.757491
21
3.584073
31
0
39
0
210
0
220
0
230
1
0
LINE
5
A0
100
AcDbEntity
8
80
62
256
6
ByLayer
370
18
48
1
60
0
100
AcDbLine
10
0
20
0
30
0
11
-5
21
0
31
0
39
0
210
0
220
0
230
1
0
LINE
5
A1
100
AcDbEntity
8
81
62
256
6
ByLayer
370
18
48
1
60
0
100
AcDbLine
10
36.148112
20
-11.075
30
0
11
46.148112
21
-11.075
31
0
39
0
210
0
220
0
230
1
0
LINE
5
A2
100
AcDbEntity
8
1
62
256
6
ByLayer
370
18
48
1
60
0
100
AcDbLine
10
17.934796
20
3.944427
30
0
11
17.941635
21
3.972514
31
0
39
0
210
0
220
0
230
1
0
LINE
5
A3
100
AcDbEntity
8
1
62
256
6
ByLayer
370
18
48
1
60
0
100
AcDbLine
10
9.500375
20
2.065973
30
0
11
10.071436
21
1.73627
31
0
39
0
210
0
220
0
230
1
0
LINE
5
A4
100
AcDbEntity
8
1
62
256
6
ByLayer
370
18
48
1
60
0
100
AcDbLine
10
12.033855
20
2.36183
30
0
11
11.462794
21
2.691533
31
0
39
0
210
0
220
0
230
1
0
LINE
5
A5
100
AcDbEntity
8
1
62
256
6
ByLayer
370
18
48
1
60
0
100
AcDbLine
10
10.719096
20
2.172179
30
0
11
10.1369
21
1.765608
31
0
39
0
210
0
220
0
230
1
0
LINE
5
A6
100
AcDbEntity
8
1
62
256
6
ByLayer
370
18
48
1
60
0
100
AcDbLine
10
12.04499
20
3.098103
30
0
11
11.462794
21
2.691533
31
0
39
0
210
0
220
0
230
1
0
LINE
5
A7
100
AcDbEntity
8
1
62
256
6
ByLayer
370
18
48
1
60
0
100
AcDbLine
10
10.727215
20
1.424789
30
0
11
10.1369
21
1.765608
31
0
39
0
210
0
220
0
230
1
0
LINE
5
A8
100
AcDbEntity
8
1
62
256
6
ByLayer
370
18
48
1
60
0
100
AcDbLine
10
9.500375
20
2.065973
30
0
11
10.1369
21
1.765608
31
0
39
0
210
0
220
0
230
1
0
LINE
5
A9
100
AcDbEntity
8
1
62
256
6
ByLayer
370
18
48
1
60
0
100
AcDbLine
10
10.719096
20
2.172179
30
0
11
11.290158
21
1.842477
31
0
39
0
210
0
220
0
230
1
0
LINE
5
AA
100
AcDbEntity
8
1
62
256
6
ByLayer
370
18
48
1
60
0
100
AcDbLine
10
9.258339
20
2.119956
30
0
11
8.687278
21
2.449658
31
0
39
0
210
0
220
0
230
1
0
LINE
5
AB
100
AcDbEntity
8
1
62
256
6
ByLayer
370
18
48
1
60
0
100
AcDbLine
10
11.990662
20
3.805038
30
0
11
12.04499
21
3.098103
31
0
39
0
210
0
220
0
230
1
0
LINE
5
AC
100
AcDbEntity
8
1
62
256
6
ByLayer
370
18
48
1
60
0
100
AcDbLine
10
12.635306
20
2.757284
30
0
11
12.04499
21
3.098103
31
0
39
0
210
0
220
0
230
1
0
LINE
5
AD
100
AcDbEntity
8
1
62
256
6
ByLayer
370
18
48
1
60
0
100
AcDbLine
10
11.990662
20
3.805038
30
0
11
12.561723
21
3.475336
31
0
39
0
210
0
220
0
230
1
0
LINE
5
AE
100
AcDbEntity
8
1
62
256
6
ByLayer
370
18
48
1
60
0
100
AcDbLine
10
12.492324
20
4.378375
30
0
11
11.921262
21
4.708077
31
0
39
0
210
0
220
0
230
1
0
LINE
5
AF
100
AcDbEntity
8
1
62
256
6
ByLayer
370
18
48
1
60
0
100
AcDbLine
10
18.880153
20
-14.974837
30
0
11
17.587757
21
1.842116
31
0
39
0
210
0
220
0
230
1
0
LINE
5
B0
100
AcDbEntity
8
1
62
256
6
ByLayer
370
18
48
1
60
0
100
AcDbLine
10
36.611166
20
-11.662656
30
0
11
20.351572
21
-16.019401
31
0
39
0
210
0
220
0
230
1
0
LINE
5
B1
100
AcDbEntity
8
1
62
256
6
ByLayer
370
18
48
1
60
0
100
AcDbLine
10
18.471198
20
3.091897
30
0
11
34.730792
21
7.448642
31
0
39
0
210
0
220
0
230
1
0
LINE
5
B2
100
AcDbEntity
8
1
62
256
6
ByLayer
370
18
48
1
60
0
100
AcDbLine
10
17.662671
20
3.5587
30
0
11
18.471198
21
3.091897
31
0
39
0
210
0
220
0
230
1
0
LINE
5
B3
100
AcDbEntity
8
1
62
256
6
ByLayer
370
18
48
1
60
0
100
AcDbLine
10
36.202211
20
6.404077
30
0
11
37.494607
21
-10.412876
31
0
39
0
210
0
220
0
230
1
0
MTEXT
5
F8
100
AcDbEntity
8
SK6
62
256
6
ByLayer
370
13
48
1
60
0
100
AcDbMText
10
-103.935686
20
24.910722
30
0
210
0
220
0
230
1
1
\W0.7497;PCBNL 3232P 19
40
3.5
41
0
44
1.084337
50
0
71
7
72
5
7
iso_b_vert
0
DIMENSION
5
10A
100
AcDbEntity
8
SK2
62
256
6
ByLayer
370
13
48
1
60
0
100
AcDbDimension
2
DimnDraft3D1
10
-143.601888
20
15.925
30
0
11
-143.601888
21
-0.075
31
0
70
32
71
5
72
1
41
1
210
0
220
0
230
1
3
Standard
100
AcDbAlignedDimension
13
-135.439388
23
-16.075
33
0
14
-135.439388
24
15.925
34
0
50
90
100
AcDbRotatedDimension
1001
ACAD
1000
DSTYLE
1002
{
1070
    74
1070
     0
1070
   279
1070
     0
1070
   172
1070
     1
1070
   173
1070
     1
1070
   340
1005
F9
1070
   271
1070
     1
1070
   272
1070
     2
1070
    77
1070
     1
1070
    73
1070
     0
1070
   171
1070
     3
1070
   274
1070
     4
1070
   177
1070
   150
1070
   176
1070
     9
1070
   178
1070
    43
1070
    78
1070
     8
1070
    48
1040
-0.005
1070
    41
1041
3.175
1070
   147
1041
2.25
1070
    42
1041
1.5875
1070
    44
1041
3.175
1070
   140
1041
4.5
1070
   343
1005
10B
1070
   344
1005
10B
1002
}
0
DIMENSION
5
120
100
AcDbEntity
8
2
62
256
6
ByLayer
370
13
48
1
60
0
100
AcDbDimension
2
DimnDraft3D2
10
53.998112
20
15.925
30
0
11
53.998112
21
2.25
31
0
70
32
71
5
72
1
41
1
210
0
220
0
230
1
3
Standard
100
AcDbAlignedDimension
13
39.085612
23
-11.425
33
0
14
1.5875
24
15.925
34
0
50
90
100
AcDbRotatedDimension
1001
ACAD
1000
DSTYLE
1002
{
1070
    74
1070
     0
1070
   279
1070
     0
1070
   172
1070
     1
1070
   173
1070
     1
1070
   340
1005
F9
1070
   271
1070
     1
1070
   272
1070
     2
1070
    77
1070
     1
1070
    73
1070
     0
1070
   171
1070
     3
1070
   274
1070
     4
1070
   177
1070
   150
1070
   176
1070
     9
1070
   178
1070
    43
1070
    78
1070
     8
1070
    48
1040
-0.005
1070
    41
1041
3.175
1070
   147
1041
2.25
1070
    42
1041
1.5875
1070
    44
1041
3.175
1070
   140
1041
4.5
1070
   343
1005
10B
1070
   344
1005
10B
1002
}
0
DIMENSION
5
12E
100
AcDbEntity
8
SK2
62
256
6
ByLayer
370
13
48
1
60
0
100
AcDbDimension
2
DimnDraft3D3
10
37.498112
20
-44.044015
30
0
11
-48.176888
21
-44.044015
31
0
70
32
71
5
72
1
41
1
210
0
220
0
230
1
3
Standard
100
AcDbAlignedDimension
13
-133.851888
23
-17.6625
33
0
14
37.498112
24
-13.0125
34
0
50
0
100
AcDbRotatedDimension
1001
ACAD
1000
DSTYLE
1002
{
1070
   279
1070
     0
1070
   172
1070
     1
1070
   173
1070
     1
1070
   340
1005
F9
1070
   271
1070
     1
1070
   272
1070
     2
1070
    77
1070
     1
1070
    73
1070
     0
1070
   171
1070
     3
1070
   274
1070
     4
1070
   177
1070
   150
1070
   176
1070
     9
1070
   178
1070
    43
1070
    78
1070
     8
1070
    48
1040
-0.005
1070
    41
1041
3.175
1070
   147
1041
2.25
1070
    42
1041
1.5875
1070
    44
1041
3.175
1070
   140
1041
4.5
1070
   343
1005
10B
1070
   344
1005
10B
1002
}
0
DIMENSION
5
13C
100
AcDbEntity
8
2
62
256
6
ByLayer
370
13
48
1
60
0
100
AcDbDimension
2
DimnDraft3D4
10
37.498112
20
-9.04375
30
0
11
20.110471
21
-33.807988
31
0
70
34
71
5
72
1
41
1
210
0
220
0
230
1
3
Standard
100
AcDb2LineAngularDimension
13
36.615643
23
-11.38443
33
0
14
18.263052
24
-16.301992
34
0
15
37.498112
25
-11.425
35
0
16
17.371045
26
-37.378078
36
0
40
0
0
ENDSEC
0
SECTION
2
OBJECTS
0
DICTIONARY
5
1a6
330
0
100
AcDbDictionary
280
0
281
1
3
ACAD_GROUP
350
1a7
3
ACAD_MLINESTYLE
350
1a8
0
DICTIONARY
5
1a7
330
0
100
AcDbDictionary
280
0
281
1
0
DICTIONARY
5
1a8
330
0
100
AcDbDictionary
280
0
281
1
3
Standard
350
18
0
MLINESTYLE
5
18
330
1a8
100
AcDbMlineStyle
2
Standard
70
0
3

62
256
51
90
52
90
71
2
49
-0.5
62
256
6
ByLayer
49
0.5
62
256
6
ByLayer
0
RASTERVARIABLES
5
195
330

100
AcDbRasterVariables
90
0
70
1
71
1
72
1
0
ENDSEC
0
EOF
