0
SECTION
2
HEADER
9
$ACADVER
1
AC1015
9
$DWGCODEPAGE
3
ANSI_1252
9
$HANDSEED
5
444
9
$ANGBASE
50
0
9
$ANGDIR
70
0
9
$ATTMODE
70
1
9
$AUNITS
70
0
9
$AUPREC
70
0
9
$CECOLOR
62
256
9
$CELTSCALE
40
1
9
$CELTYPE
6
ByLayer
9
$CELWEIGHT
370
18
9
$CLAYER
8
0
9
$CMLJUST
70
0
9
$CMLSCALE
40
1
9
$CMLSTYLE
2
Standard
9
$DIMSTYLE
2
Standard
9
$TEXTSIZE
40
0.2
9
$TEXTSTYLE
7
Standard
9
$LUNITS
70
2
9
$LUPREC
70
4
9
$EXTNAMES
290
1
9
$INSUNITS
70
4
9
$LTSCALE
40
1
9
$LWDISPLAY
290
1
9
$PDMODE
70
0
9
$PDSIZE
40
0
9
$PLINEGEN
70
0
0
ENDSEC
0
SECTION
2
CLASSES
0
CLASS
1
RASTERVARIABLES
2
AcDbRasterVariables
3
ISM
90
0
280
0
281
0
0
ENDSEC
0
SECTION
2
TABLES
0
TABLE
2
VPORT
5
43a
100
AcDbSymbolTable
0
VPORT
5
1
100
AcDbSymbolTableRecord
100
AcDbViewportTableRecord
2
*Active
70
0
10
0
20
0
11
1
21
1
12
-1
22
1
13
0
23
0
14
0.5
24
0.5
15
10
25
10
16
0
26
0
36
1
17
0
27
0
37
0
0
ENDTAB
0
TABLE
2
LTYPE
5
43b
100
AcDbSymbolTable
0
LTYPE
5
14
100
AcDbSymbolTableRecord
100
AcDbLinetypeTableRecord
70
0
2
ByBlock
3

72
65
73
0
40
0
0
LTYPE
5
15
100
AcDbSymbolTableRecord
100
AcDbLinetypeTableRecord
70
0
2
ByLayer
3

72
65
73
0
40
0
0
LTYPE
5
16
100
AcDbSymbolTableRecord
100
AcDbLinetypeTableRecord
70
0
2
CONTINUOUS
3
Solid line
72
65
73
0
40
0
0
LTYPE
5
6A
100
AcDbSymbolTableRecord
100
AcDbLinetypeTableRecord
70
0
2
CENTER
3
____ _ ____ _ ____ _ ____
72
65
73
4
40
47.5
49
22
74
0
49
-8.5
74
0
49
8.5
74
0
49
-8.5
74
0
0
LTYPE
5
6B
100
AcDbSymbolTableRecord
100
AcDbLinetypeTableRecord
70
0
2
DASHED
3
__ __ __ __ __ __ __ __ __
72
65
73
2
40
25.72
49
12.86
74
0
49
-12.86
74
0
0
ENDTAB
0
TABLE
2
LAYER
5
43c
100
AcDbSymbolTable
0
LAYER
5
10
100
AcDbSymbolTableRecord
100
AcDbLayerTableRecord
2
0
70
0
62
7
6
CONTINUOUS
290
1
370
-3
390
0
0
LAYER
5
6D
100
AcDbSymbolTableRecord
100
AcDbLayerTableRecord
2
81
70
0
62
-3
6
CONTINUOUS
290
1
370
-3
390
0
0
LAYER
5
6F
100
AcDbSymbolTableRecord
100
AcDbLayerTableRecord
2
80
70
0
62
-6
6
CONTINUOUS
290
1
370
-3
390
0
0
LAYER
5
72
100
AcDbSymbolTableRecord
100
AcDbLayerTableRecord
2
1
70
0
62
4
6
CONTINUOUS
290
1
370
-3
390
0
0
LAYER
5
8D
100
AcDbSymbolTableRecord
100
AcDbLayerTableRecord
2
4
70
0
62
-2
6
CENTER
290
1
370
-3
390
0
0
LAYER
5
398
100
AcDbSymbolTableRecord
100
AcDbLayerTableRecord
2
2
70
0
62
7
6
CONTINUOUS
290
1
370
-3
390
0
0
LAYER
5
427
100
AcDbSymbolTableRecord
100
AcDbLayerTableRecord
2
SK4
70
0
62
2
6
CENTER
290
1
370
-3
390
0
0
LAYER
5
428
100
AcDbSymbolTableRecord
100
AcDbLayerTableRecord
2
SK6
70
0
62
5
6
CONTINUOUS
290
1
370
-3
390
0
0
LAYER
5
429
100
AcDbSymbolTableRecord
100
AcDbLayerTableRecord
2
SK2
70
0
62
7
6
CONTINUOUS
290
1
370
-3
390
0
0
ENDTAB
0
TABLE
2
STYLE
5
43d
100
AcDbSymbolTable
0
STYLE
5
11
100
AcDbSymbolTableRecord
100
AcDbTextStyleTableRecord
2
Standard
3
txt
70
0
71
0
40
0
41
1
42
0
50
0
0
STYLE
5
393
100
AcDbSymbolTableRecord
100
AcDbTextStyleTableRecord
2
iso_b_vert
3
simplex.shx
70
0
71
0
40
0
41
1
42
0
50
0
0
STYLE
5
394
100
AcDbSymbolTableRecord
100
AcDbTextStyleTableRecord
2
DWGDirectTextStyle
3
simplex
70
0
71
0
40
0
41
1
42
0
50
0
0
ENDTAB
0
TABLE
2
DIMSTYLE
5
43e
100
AcDbSymbolTable
100
AcDbDimStyleTable
0
DIMSTYLE
105
27
100
AcDbSymbolTableRecord
100
AcDbDimStyleTableRecord
2
Standard
70
0
3
<>
41
0.18
42
0.0625
44
0.18
140
0.18
147
0.09
73
0
74
0
77
1
271
2
275
0
278
52
280
0
340
11
0
ENDTAB
0
TABLE
2
VIEW
5
43f
100
AcDbSymbolTable
0
ENDTAB
0
TABLE
2
UCS
5
440
100
AcDbSymbolTable
0
ENDTAB
0
TABLE
2
APPID
5
441
100
AcDbSymbolTable
0
APPID
5
12
100
AcDbSymbolTableRecord
100
AcDbRegAppTableRecord
2
ACAD
70
0
0
ENDTAB
0
TABLE
2
BLOCK_RECORD
5
442
100
AcDbSymbolTable
0
BLOCK_RECORD
5
1F
100
AcDbSymbolTableRecord
100
AcDbBlockTableRecord
2
*Model_Space
340
0
70
0
0
BLOCK_RECORD
5
1B
100
AcDbSymbolTableRecord
100
AcDbBlockTableRecord
2
*Paper_Space
340
0
70
0
0
BLOCK_RECORD
5
23
100
AcDbSymbolTableRecord
100
AcDbBlockTableRecord
2
*Paper_Space0
340
0
70
0
0
BLOCK_RECORD
5
396
100
AcDbSymbolTableRecord
100
AcDbBlockTableRecord
2
DimnDraft3D1
340
0
70
0
0
BLOCK_RECORD
5
3A2
100
AcDbSymbolTableRecord
100
AcDbBlockTableRecord
2
DimnDraft3D2
340
0
70
0
0
BLOCK_RECORD
5
3AE
100
AcDbSymbolTableRecord
100
AcDbBlockTableRecord
2
DimnDraft3D3
340
0
70
0
0
BLOCK_RECORD
5
3B9
100
AcDbSymbolTableRecord
100
AcDbBlockTableRecord
2
DimnDraft3D4
340
0
70
0
0
BLOCK_RECORD
5
3C3
100
AcDbSymbolTableRecord
100
AcDbBlockTableRecord
2
DimnDraft3D5
340
0
70
0
0
ENDTAB
0
ENDSEC
0
SECTION
2
BLOCKS
0
BLOCK
5
20
100
AcDbEntity
8
0
100
AcDbBlockBegin
2
*Model_Space
70
0
10
0
20
0
30
0
3
*Model_Space
0
ENDBLK
5
21
100
AcDbEntity
8
0
100
AcDbBlockEnd
0
BLOCK
5
1C
100
AcDbEntity
8
0
100
AcDbBlockBegin
2
*Paper_Space
70
0
10
0
20
0
30
0
3
*Paper_Space
0
ENDBLK
5
1D
100
AcDbEntity
8
0
100
AcDbBlockEnd
0
BLOCK
5
24
100
AcDbEntity
8
0
100
AcDbBlockBegin
2
*Paper_Space0
70
0
10
0
20
0
30
0
3
*Paper_Space0
0
ENDBLK
5
25
100
AcDbEntity
8
0
100
AcDbBlockEnd
0
BLOCK
5
39F
100
AcDbEntity
8
0
100
AcDbBlockBegin
2
DimnDraft3D1
70
0
10
0
20
0
30
0
3
DimnDraft3D1
0
MTEXT
5
397
100
AcDbEntity
8
2
62
256
6
ByLayer
370
13
48
1
60
0
100
AcDbMText
10
45.35
20
2.615789
30
0
210
0
220
0
230
1
1
\W0.6217;102
40
4
41
0
44
1.084337
50
90
71
7
72
5
7
iso_b_vert
0
MTEXT
5
399
100
AcDbEntity
8
2
62
256
6
ByLayer
370
13
48
1
60
0
100
AcDbMText
10
45.35
20
-5.352961
30
0
210
0
220
0
230
1
1
%%c
40
4
41
0
44
1.084337
50
90
71
7
72
5
7
iso_b_vert
0
LINE
5
39A
100
AcDbEntity
8
2
62
256
6
ByLayer
370
13
48
1
60
0
100
AcDbLine
10
15.5875
20
51
30
0
11
49.35
21
51
31
0
39
0
210
0
220
0
230
1
0
LINE
5
39B
100
AcDbEntity
8
2
62
256
6
ByLayer
370
13
48
1
60
0
100
AcDbLine
10
15.5875
20
-51
30
0
11
49.35
21
-51
31
0
39
0
210
0
220
0
230
1
0
LINE
5
39C
100
AcDbEntity
8
2
62
256
6
ByLayer
370
13
48
1
60
0
100
AcDbLine
10
47.35
20
51
30
0
11
47.35
21
-51
31
0
39
0
210
0
220
0
230
1
0
SOLID
5
39D
100
AcDbEntity
8
2
62
256
6
ByLayer
370
13
48
1
60
0
100
AcDbTrace
10
47.35
20
51
30
0
11
47.810784
21
47.500002
31
0
12
46.889216
22
47.499998
32
0
13
47.35
23
51
33
0
39
0
210
0
220
0
230
1
0
SOLID
5
39E
100
AcDbEntity
8
2
62
256
6
ByLayer
370
13
48
1
60
0
100
AcDbTrace
10
47.35
20
-51
30
0
11
46.889216
21
-47.500002
31
0
12
47.810784
22
-47.499998
32
0
13
47.35
23
-51
33
0
39
0
210
0
220
0
230
1
0
ENDBLK
5
3A0
100
AcDbEntity
8
0
100
AcDbBlockEnd
0
BLOCK
5
3AB
100
AcDbEntity
8
0
100
AcDbBlockBegin
2
DimnDraft3D2
70
0
10
0
20
0
30
0
3
DimnDraft3D2
0
MTEXT
5
3A3
100
AcDbEntity
8
SK2
62
256
6
ByLayer
370
13
48
1
60
0
100
AcDbMText
10
-16.35
20
1.305263
30
0
210
0
220
0
230
1
1
\W0.7346;32.0
40
4
41
0
44
1.084337
50
90
71
7
72
5
7
iso_b_vert
0
MTEXT
5
3A5
100
AcDbEntity
8
SK2
62
256
6
ByLayer
370
13
48
1
60
0
100
AcDbMText
10
-16.35
20
-6.663487
30
0
210
0
220
0
230
1
1
%%c
40
4
41
0
44
1.084337
50
90
71
7
72
5
7
iso_b_vert
0
LINE
5
3A6
100
AcDbEntity
8
SK2
62
256
6
ByLayer
370
13
48
1
60
0
100
AcDbLine
10
-1.5875
20
16
30
0
11
-16.35
21
16
31
0
39
0
210
0
220
0
230
1
0
LINE
5
3A7
100
AcDbEntity
8
SK2
62
256
6
ByLayer
370
13
48
1
60
0
100
AcDbLine
10
-1.5875
20
-16
30
0
11
-16.35
21
-16
31
0
39
0
210
0
220
0
230
1
0
LINE
5
3A8
100
AcDbEntity
8
SK2
62
256
6
ByLayer
370
13
48
1
60
0
100
AcDbLine
10
-14.35
20
16
30
0
11
-14.35
21
-16
31
0
39
0
210
0
220
0
230
1
0
SOLID
5
3A9
100
AcDbEntity
8
SK2
62
256
6
ByLayer
370
13
48
1
60
0
100
AcDbTrace
10
-14.35
20
16
30
0
11
-13.889216
21
12.500002
31
0
12
-14.810784
22
12.499998
32
0
13
-14.35
23
16
33
0
39
0
210
0
220
0
230
1
0
SOLID
5
3AA
100
AcDbEntity
8
SK2
62
256
6
ByLayer
370
13
48
1
60
0
100
AcDbTrace
10
-14.35
20
-16
30
0
11
-14.810784
21
-12.500002
31
0
12
-13.889216
22
-12.499998
32
0
13
-14.35
23
-16
33
0
39
0
210
0
220
0
230
1
0
ENDBLK
5
3AC
100
AcDbEntity
8
0
100
AcDbBlockEnd
0
BLOCK
5
3B6
100
AcDbEntity
8
0
100
AcDbBlockBegin
2
DimnDraft3D3
70
0
10
0
20
0
30
0
3
DimnDraft3D3
0
MTEXT
5
3AF
100
AcDbEntity
8
SK2
62
256
6
ByLayer
370
13
48
1
60
0
100
AcDbMText
10
-31.35
20
3.4
30
0
210
0
220
0
230
1
1
\W0.7361;47
40
4
41
0
44
1.084337
50
90
71
7
72
5
7
iso_b_vert
0
MTEXT
5
3B0
100
AcDbEntity
8
SK2
62
256
6
ByLayer
370
13
48
1
60
0
100
AcDbMText
10
-31.35
20
-4.56875
30
0
210
0
220
0
230
1
1
%%c
40
4
41
0
44
1.084337
50
90
71
7
72
5
7
iso_b_vert
0
LINE
5
3B1
100
AcDbEntity
8
SK2
62
256
6
ByLayer
370
13
48
1
60
0
100
AcDbLine
10
-1.5875
20
23.5
30
0
11
-31.35
21
23.5
31
0
39
0
210
0
220
0
230
1
0
LINE
5
3B2
100
AcDbEntity
8
SK2
62
256
6
ByLayer
370
13
48
1
60
0
100
AcDbLine
10
-1.5875
20
-23.5
30
0
11
-31.35
21
-23.5
31
0
39
0
210
0
220
0
230
1
0
LINE
5
3B3
100
AcDbEntity
8
SK2
62
256
6
ByLayer
370
13
48
1
60
0
100
AcDbLine
10
-29.35
20
23.5
30
0
11
-29.35
21
-23.5
31
0
39
0
210
0
220
0
230
1
0
SOLID
5
3B4
100
AcDbEntity
8
SK2
62
256
6
ByLayer
370
13
48
1
60
0
100
AcDbTrace
10
-29.35
20
23.5
30
0
11
-28.889216
21
20.000002
31
0
12
-29.810784
22
19.999998
32
0
13
-29.35
23
23.5
33
0
39
0
210
0
220
0
230
1
0
SOLID
5
3B5
100
AcDbEntity
8
SK2
62
256
6
ByLayer
370
13
48
1
60
0
100
AcDbTrace
10
-29.35
20
-23.5
30
0
11
-29.810784
21
-20.000002
31
0
12
-28.889216
22
-19.999998
32
0
13
-29.35
23
-23.5
33
0
39
0
210
0
220
0
230
1
0
ENDBLK
5
3B7
100
AcDbEntity
8
0
100
AcDbBlockEnd
0
BLOCK
5
3C0
100
AcDbEntity
8
0
100
AcDbBlockBegin
2
DimnDraft3D4
70
0
10
0
20
0
30
0
3
DimnDraft3D4
0
MTEXT
5
3BA
100
AcDbEntity
8
SK2
62
256
6
ByLayer
370
13
48
1
60
0
100
AcDbMText
10
-10.389474
20
55
30
0
210
0
220
0
230
1
1
\W0.6563;12.0
40
4
41
0
44
1.084337
50
0
71
7
72
5
7
iso_b_vert
0
LINE
5
3BB
100
AcDbEntity
8
SK2
62
256
6
ByLayer
370
13
48
1
60
0
100
AcDbLine
10
14
20
52.5875
30
0
11
14
21
56
31
0
39
0
210
0
220
0
230
1
0
LINE
5
3BC
100
AcDbEntity
8
SK2
62
256
6
ByLayer
370
13
48
1
60
0
100
AcDbLine
10
2
20
52.5875
30
0
11
2
21
56
31
0
39
0
210
0
220
0
230
1
0
LINE
5
3BD
100
AcDbEntity
8
SK2
62
256
6
ByLayer
370
13
48
1
60
0
100
AcDbLine
10
14
20
54
30
0
11
-11.389474
21
54
31
0
39
0
210
0
220
0
230
1
0
SOLID
5
3BE
100
AcDbEntity
8
SK2
62
256
6
ByLayer
370
13
48
1
60
0
100
AcDbTrace
10
14
20
54
30
0
11
10.500002
21
53.539216
31
0
12
10.499998
22
54.460784
32
0
13
14
23
54
33
0
39
0
210
0
220
0
230
1
0
SOLID
5
3BF
100
AcDbEntity
8
SK2
62
256
6
ByLayer
370
13
48
1
60
0
100
AcDbTrace
10
2
20
54
30
0
11
5.499998
21
54.460784
31
0
12
5.500002
22
53.539216
32
0
13
2
23
54
33
0
39
0
210
0
220
0
230
1
0
ENDBLK
5
3C1
100
AcDbEntity
8
0
100
AcDbBlockEnd
0
BLOCK
5
3CB
100
AcDbEntity
8
0
100
AcDbBlockBegin
2
DimnDraft3D5
70
0
10
0
20
0
30
0
3
DimnDraft3D5
0
MTEXT
5
3C4
100
AcDbEntity
8
SK2
62
256
6
ByLayer
370
13
48
1
60
0
100
AcDbMText
10
-21
20
-64
30
0
210
0
220
0
230
1
1
\W0.5321;16
40
4
41
0
44
1.084337
50
0
71
7
72
5
7
iso_b_vert
0
MTEXT
5
3C5
100
AcDbEntity
8
SK2
62
256
6
ByLayer
370
13
48
1
60
0
100
AcDbMText
10
-13.846053
20
-63.625
30
0
210
0
220
0
230
1
1
\W0.8221;\W0.4110;%%p\W0.8221;0.05
40
3.5
41
0
44
1.084337
50
0
71
7
72
5
7
iso_b_vert
0
LINE
5
3C6
100
AcDbEntity
8
SK2
62
256
6
ByLayer
370
13
48
1
60
0
100
AcDbLine
10
0
20
-25.0875
30
0
11
0
21
-67
31
0
39
0
210
0
220
0
230
1
0
LINE
5
3C7
100
AcDbEntity
8
SK2
62
256
6
ByLayer
370
13
48
1
60
0
100
AcDbLine
10
16
20
-25.0875
30
0
11
16
21
-67
31
0
39
0
210
0
220
0
230
1
0
LINE
5
3C8
100
AcDbEntity
8
SK2
62
256
6
ByLayer
370
13
48
1
60
0
100
AcDbLine
10
16
20
-65
30
0
11
-22
21
-65
31
0
39
0
210
0
220
0
230
1
0
SOLID
5
3C9
100
AcDbEntity
8
SK2
62
256
6
ByLayer
370
13
48
1
60
0
100
AcDbTrace
10
0
20
-65
30
0
11
3.499998
21
-64.539216
31
0
12
3.500002
22
-65.460784
32
0
13
0
23
-65
33
0
39
0
210
0
220
0
230
1
0
SOLID
5
3CA
100
AcDbEntity
8
SK2
62
256
6
ByLayer
370
13
48
1
60
0
100
AcDbTrace
10
16
20
-65
30
0
11
12.500002
21
-65.460784
31
0
12
12.499998
22
-64.539216
32
0
13
16
23
-65
33
0
39
0
210
0
220
0
230
1
0
ENDBLK
5
3CC
100
AcDbEntity
8
0
100
AcDbBlockEnd
0
ENDSEC
0
SECTION
2
ENTITIES
0
ARC
5
1D5
100
AcDbEntity
8
1
62
256
6
ByLayer
370
18
48
1
60
0
100
AcDbCircle
39
0
10
-14.3
20
24.3
30
0
40
0.8
210
0
220
0
230
-1
100
AcDbArc
50
270
51
0
0
ARC
5
1D6
100
AcDbEntity
8
1
62
256
6
ByLayer
370
18
48
1
60
0
100
AcDbCircle
39
0
10
-14.3
20
-24.3
30
0
40
0.8
210
0
220
0
230
-1
100
AcDbArc
50
0
51
90
0
ARC
5
1D7
100
AcDbEntity
8
1
62
256
6
ByLayer
370
18
48
1
60
0
100
AcDbCircle
39
0
10
-1.7
20
-24.3
30
0
40
0.8
210
0
220
0
230
-1
100
AcDbArc
50
90
51
180
0
ARC
5
1D8
100
AcDbEntity
8
1
62
256
6
ByLayer
370
18
48
1
60
0
100
AcDbCircle
39
0
10
-1.7
20
24.3
30
0
40
0.8
210
0
220
0
230
-1
100
AcDbArc
50
180
51
270
0
ARC
5
1D9
100
AcDbEntity
8
1
62
256
6
ByLayer
370
18
48
1
60
0
100
AcDbCircle
39
0
10
8
20
6.461559
30
0
40
7
210
0
220
0
230
1
100
AcDbArc
50
284.219543
51
285.630051
0
ARC
5
1DA
100
AcDbEntity
8
1
62
256
6
ByLayer
370
18
48
1
60
0
100
AcDbCircle
39
0
10
8
20
6.461559
30
0
40
7
210
0
220
0
230
1
100
AcDbArc
50
254.369949
51
255.780457
0
ELLIPSE
5
1DB
100
AcDbEntity
8
1
62
256
6
ByLayer
370
18
48
1
60
0
100
AcDbEllipse
10
7.5
20
-15.901258
30
0
11
-6.12279862286161E-16
21
9.99961923070291
31
0
210
0
220
0
230
-1
40
0.500019
41
3.14159265358979
42
-2.7904017916008
0
ELLIPSE
5
1DC
100
AcDbEntity
8
1
62
256
6
ByLayer
370
18
48
1
60
0
100
AcDbEllipse
10
8.5
20
-15.901258
30
0
11
-6.12279862282481E-16
21
9.99961923064282
31
0
210
0
220
0
230
-1
40
0.500019
41
2.79040179159973
42
3.14159265358979
0
ELLIPSE
5
1DD
100
AcDbEntity
8
1
62
256
6
ByLayer
370
18
48
1
60
0
100
AcDbEllipse
10
7.5
20
-22.913421
30
0
11
5
21
0
31
0
210
0
220
0
230
1
40
0.492424
41
3.14159265358979
42
-3.12860934805679
0
ELLIPSE
5
1DE
100
AcDbEntity
8
1
62
256
6
ByLayer
370
18
48
1
60
0
100
AcDbEllipse
10
7.5
20
-22.685009
30
0
11
-6.12279862826933E-16
21
9.99961923953468
31
0
210
0
220
0
230
-1
40
0.500019
41
-1.68157791961206
42
-1.60976989531596
0
ELLIPSE
5
1DF
100
AcDbEntity
8
1
62
256
6
ByLayer
370
18
48
1
60
0
100
AcDbEllipse
10
7.5
20
-24.79551
30
0
11
-3.10767352261594E-16
21
5.07538363314207
31
0
210
0
220
0
230
-1
40
0.985147
41
-1.4005299665888
42
-1.32736283785066
0
ELLIPSE
5
1E0
100
AcDbEntity
8
1
62
256
6
ByLayer
370
18
48
1
60
0
100
AcDbEllipse
10
7.5
20
-22.913421
30
0
11
5
21
0
31
0
210
0
220
0
230
1
40
0.492424
41
-2.87129628206368
42
-2.82326050439134
0
ELLIPSE
5
1E1
100
AcDbEntity
8
1
62
256
6
ByLayer
370
18
48
1
60
0
100
AcDbEllipse
10
7.5
20
-20.423759
30
0
11
9.690858401299E-09
21
-9.99961920674352
31
0
210
0
220
0
230
-1
40
0.500019
41
1.14773353743531
42
1.2249811563627
0
ELLIPSE
5
1E2
100
AcDbEntity
8
1
62
256
6
ByLayer
370
18
48
1
60
0
100
AcDbEllipse
10
7.5
20
-27.05676
30
0
11
-3.10767352149287E-16
21
5.0753836313079
31
0
210
0
220
0
230
-1
40
0.985147
41
-1.08213437460469
42
-0.999127483974544
0
ELLIPSE
5
1E3
100
AcDbEntity
8
1
62
256
6
ByLayer
370
18
48
1
60
0
100
AcDbEllipse
10
7.5
20
-22.913421
30
0
11
-5
21
6.12303176911189E-16
31
0
210
0
220
0
230
1
40
0.492424
41
0.60287995656861
42
0.659830501638971
0
ELLIPSE
5
1E4
100
AcDbEntity
8
1
62
256
6
ByLayer
370
18
48
1
60
0
100
AcDbEllipse
10
7.5
20
-18.162508
30
0
11
-6.12279862119475E-16
21
9.99961922798063
31
0
210
0
220
0
230
-1
40
0.500019
41
-2.36108316978841
42
-2.26394666187499
0
ELLIPSE
5
1E5
100
AcDbEntity
8
1
62
256
6
ByLayer
370
18
48
1
60
0
100
AcDbEllipse
10
7.5
20
-29.31801
30
0
11
-3.10767351937487E-16
21
5.07538362784882
31
0
210
0
220
0
230
-1
40
0.985147
41
-0.692824778693965
42
-0.571600350338641
0
ELLIPSE
5
1E6
100
AcDbEntity
8
1
62
256
6
ByLayer
370
18
48
1
60
0
100
AcDbEllipse
10
7.5
20
-22.913421
30
0
11
-5
21
6.12303176911189E-16
31
0
210
0
220
0
230
1
40
0.492424
41
1.04918428166409
42
1.15053644700383
0
ELLIPSE
5
1E7
100
AcDbEntity
8
1
62
256
6
ByLayer
370
18
48
1
60
0
100
AcDbEllipse
10
7.5
20
-28.410896
30
0
11
4.99999999999985
21
5.05319527541166E-15
31
0
210
0
220
0
230
-1
40
0.661604
41
1.5707963267949
42
3.14159265358979
0
ELLIPSE
5
1E8
100
AcDbEntity
8
1
62
256
6
ByLayer
370
18
48
1
60
0
100
AcDbEllipse
10
8.5
20
-22.913421
30
0
11
-5
21
6.12303176911189E-16
31
0
210
0
220
0
230
1
40
0.492424
41
1.99105620658596
42
2.09240837192571
0
ELLIPSE
5
1E9
100
AcDbEntity
8
1
62
256
6
ByLayer
370
18
48
1
60
0
100
AcDbEllipse
10
8.5
20
-29.31801
30
0
11
-3.10767352165699E-16
21
5.07538363157593
31
0
210
0
220
0
230
-1
40
0.985147
41
0.571600350286036
42
0.692824778567186
0
ELLIPSE
5
1EA
100
AcDbEntity
8
1
62
256
6
ByLayer
370
18
48
1
60
0
100
AcDbEllipse
10
8.5
20
-18.162508
30
0
11
6.62578260298824E-09
21
-9.99961924515454
31
0
210
0
220
0
230
-1
40
0.500019
41
-0.877645990836164
42
-0.78050948304643
0
ELLIPSE
5
1EB
100
AcDbEntity
8
1
62
256
6
ByLayer
370
18
48
1
60
0
100
AcDbEllipse
10
8.5
20
-22.913421
30
0
11
-5
21
6.12303176911189E-16
31
0
210
0
220
0
230
1
40
0.492424
41
2.48176215195082
42
2.53871269702118
0
ELLIPSE
5
1EC
100
AcDbEntity
8
1
62
256
6
ByLayer
370
18
48
1
60
0
100
AcDbEllipse
10
8.5
20
-27.05676
30
0
11
2.87588196457212E-07
21
-5.07538361724292
31
0
210
0
220
0
230
-1
40
0.985147
41
-2.14246511311075
42
-2.05945822228839
0
ELLIPSE
5
1ED
100
AcDbEntity
8
1
62
256
6
ByLayer
370
18
48
1
60
0
100
AcDbEllipse
10
8.5
20
-20.423759
30
0
11
-6.12279861779622E-16
21
9.99961922243023
31
0
210
0
220
0
230
-1
40
0.500019
41
1.91661149871077
42
1.9938591175467
0
ELLIPSE
5
1EE
100
AcDbEntity
8
1
62
256
6
ByLayer
370
18
48
1
60
0
100
AcDbEllipse
10
8.5
20
-22.913421
30
0
11
5
21
0
31
0
210
0
220
0
230
1
40
0.492424
41
-0.318332149198459
42
-0.270296371526118
0
ELLIPSE
5
1EF
100
AcDbEntity
8
1
62
256
6
ByLayer
370
18
48
1
60
0
100
AcDbEllipse
10
8.5
20
-24.79551
30
0
11
-3.107673522282E-16
21
5.07538363259669
31
0
210
0
220
0
230
-1
40
0.985147
41
1.32736283782762
42
1.40052996657392
0
ELLIPSE
5
1F0
100
AcDbEntity
8
1
62
256
6
ByLayer
370
18
48
1
60
0
100
AcDbEllipse
10
8.5
20
-22.685009
30
0
11
-6.1227986338921E-16
21
9.99961924871767
31
0
210
0
220
0
230
-1
40
0.500019
41
1.60976989528084
42
1.68157791951059
0
ELLIPSE
5
1F1
100
AcDbEntity
8
1
62
256
6
ByLayer
370
18
48
1
60
0
100
AcDbEllipse
10
8.5
20
-22.913421
30
0
11
5
21
0
31
0
210
0
220
0
230
1
40
0.492424
41
-0.012983305532999
42
-4.32884710590934E-15
0
ELLIPSE
5
1F2
100
AcDbEntity
8
1
62
256
6
ByLayer
370
18
48
1
60
0
100
AcDbEllipse
10
8.5
20
-28.410896
30
0
11
4.99999999999989
21
5.0531952754117E-15
31
0
210
0
220
0
230
-1
40
0.661604
41
0
42
1.5707963267949
0
ELLIPSE
5
1F3
100
AcDbEntity
8
1
62
256
6
ByLayer
370
18
48
1
60
0
100
AcDbEllipse
10
8.5
20
-40.598383
30
0
11
-4.36725515958227E-16
21
7.13250449166903
31
0
210
0
220
0
230
-1
40
0.701016
41
2.79040179160289
42
3.14159265358979
0
ELLIPSE
5
1F4
100
AcDbEntity
8
1
62
256
6
ByLayer
370
18
48
1
60
0
100
AcDbEllipse
10
8.5
20
-42.751433
30
0
11
-5
21
6.12303176911189E-16
31
0
210
0
220
0
230
1
40
0.96363
41
1.99105620658596
42
2.09240837192571
0
ELLIPSE
5
1F5
100
AcDbEntity
8
1
62
256
6
ByLayer
370
18
48
1
60
0
100
AcDbEllipse
10
8.5
20
-44.71793
30
0
11
5.00000000360983
21
-1.70865260784297E-09
31
0
210
0
220
0
230
-1
40
0.50076
41
0.877971547774789
42
0.999195976029841
0
ELLIPSE
5
1F6
100
AcDbEntity
8
1
62
256
6
ByLayer
370
18
48
1
60
0
100
AcDbEllipse
10
8.5
20
-41.292688
30
0
11
1.46677170881863E-08
21
-7.13250450708082
31
0
210
0
220
0
230
-1
40
0.701016
41
-0.877645989452633
42
-0.780509481711427
0
ELLIPSE
5
1F7
100
AcDbEntity
8
1
62
256
6
ByLayer
370
18
48
1
60
0
100
AcDbEllipse
10
8.5
20
-42.751433
30
0
11
-5
21
6.12303176911189E-16
31
0
210
0
220
0
230
1
40
0.96363
41
2.48176215195082
42
2.53871269702118
0
ELLIPSE
5
1F8
100
AcDbEntity
8
1
62
256
6
ByLayer
370
18
48
1
60
0
100
AcDbEllipse
10
8.5
20
-44.023624
30
0
11
4.99999997193065
21
9.36925038012884E-09
31
0
210
0
220
0
230
-1
40
0.50076
41
0.488661954459986
42
0.571668845388553
0
ELLIPSE
5
1F9
100
AcDbEntity
8
1
62
256
6
ByLayer
370
18
48
1
60
0
100
AcDbEllipse
10
8.5
20
-41.986994
30
0
11
-4.36725515808977E-16
21
7.13250448923151
31
0
210
0
220
0
230
-1
40
0.701016
41
1.91661149859533
42
1.99385911738857
0
ELLIPSE
5
1FA
100
AcDbEntity
8
1
62
256
6
ByLayer
370
18
48
1
60
0
100
AcDbEllipse
10
8.5
20
-42.751433
30
0
11
5
21
0
31
0
210
0
220
0
230
1
40
0.96363
41
-0.31833214919846
42
-0.270296371526119
0
ELLIPSE
5
1FB
100
AcDbEntity
8
1
62
256
6
ByLayer
370
18
48
1
60
0
100
AcDbEllipse
10
8.5
20
-43.329318
30
0
11
4.99999999924562
21
5.05319527464941E-15
31
0
210
0
220
0
230
-1
40
0.50076
41
0.170266360323828
42
0.243433489120977
0
ELLIPSE
5
1FC
100
AcDbEntity
8
1
62
256
6
ByLayer
370
18
48
1
60
0
100
AcDbEllipse
10
8.5
20
-42.6813
30
0
11
-4.36725516886481E-16
21
7.13250450682907
31
0
210
0
220
0
230
-1
40
0.701016
41
1.609769895268
42
1.6815779194735
0
ELLIPSE
5
1FD
100
AcDbEntity
8
1
62
256
6
ByLayer
370
18
48
1
60
0
100
AcDbEllipse
10
8.5
20
-42.751433
30
0
11
5
21
0
31
0
210
0
220
0
230
1
40
0.96363
41
-0.0129833055329999
42
-2.94944215418823E-15
0
ELLIPSE
5
1FE
100
AcDbEntity
8
1
62
256
6
ByLayer
370
18
48
1
60
0
100
AcDbEllipse
10
8.5
20
-44.439405
30
0
11
-3.10920307045044E-16
21
5.07788165682083
31
0
210
0
220
0
230
-1
40
0.984663
41
1.5707963267949
42
3.14159265358979
0
ELLIPSE
5
1FF
100
AcDbEntity
8
1
62
256
6
ByLayer
370
18
48
1
60
0
100
AcDbEllipse
10
7.5
20
-42.751433
30
0
11
5
21
0
31
0
210
0
220
0
230
1
40
0.96363
41
3.14159265358979
42
-3.12860934805679
0
ELLIPSE
5
200
100
AcDbEntity
8
1
62
256
6
ByLayer
370
18
48
1
60
0
100
AcDbEllipse
10
7.5
20
-42.6813
30
0
11
-4.36725516392863E-16
21
7.13250449876741
31
0
210
0
220
0
230
-1
40
0.701016
41
-1.68157791959838
42
-1.60976989531123
0
ELLIPSE
5
201
100
AcDbEntity
8
1
62
256
6
ByLayer
370
18
48
1
60
0
100
AcDbEllipse
10
7.5
20
-43.329318
30
0
11
4.99999998232833
21
-2.39689095333335E-09
31
0
210
0
220
0
230
-1
40
0.50076
41
2.89815916381704
42
2.97132629274022
0
ELLIPSE
5
202
100
AcDbEntity
8
1
62
256
6
ByLayer
370
18
48
1
60
0
100
AcDbEllipse
10
7.5
20
-42.751433
30
0
11
5
21
0
31
0
210
0
220
0
230
1
40
0.96363
41
-2.87129628206367
42
-2.82326050439133
0
ELLIPSE
5
203
100
AcDbEntity
8
1
62
256
6
ByLayer
370
18
48
1
60
0
100
AcDbEllipse
10
7.5
20
-41.986994
30
0
11
-4.36725515689694E-16
21
7.13250448728341
31
0
210
0
220
0
230
-1
40
0.701016
41
-1.99385911747609
42
-1.91661149865938
0
ELLIPSE
5
204
100
AcDbEntity
8
1
62
256
6
ByLayer
370
18
48
1
60
0
100
AcDbEllipse
10
7.5
20
-44.023624
30
0
11
4.99999996594587
21
-1.13643842989062E-08
31
0
210
0
220
0
230
-1
40
0.50076
41
2.56992380767309
42
2.65293069865858
0
ELLIPSE
5
205
100
AcDbEntity
8
1
62
256
6
ByLayer
370
18
48
1
60
0
100
AcDbEllipse
10
7.5
20
-42.751433
30
0
11
-5
21
6.12303176911189E-16
31
0
210
0
220
0
230
1
40
0.96363
41
0.60287995656861
42
0.659830501638972
0
ELLIPSE
5
206
100
AcDbEntity
8
1
62
256
6
ByLayer
370
18
48
1
60
0
100
AcDbEllipse
10
7.5
20
-41.292688
30
0
11
6.41905949457372E-09
21
-7.13250448477681
31
0
210
0
220
0
230
-1
40
0.701016
41
0.780509484744724
42
0.877645992695037
0
ELLIPSE
5
207
100
AcDbEntity
8
1
62
256
6
ByLayer
370
18
48
1
60
0
100
AcDbEllipse
10
7.5
20
-44.71793
30
0
11
5.00000000447368
21
2.11752010728116E-09
31
0
210
0
220
0
230
-1
40
0.50076
41
2.14239667766924
42
2.2636211059087
0
ELLIPSE
5
208
100
AcDbEntity
8
1
62
256
6
ByLayer
370
18
48
1
60
0
100
AcDbEllipse
10
7.5
20
-42.751433
30
0
11
-5
21
6.12303176911189E-16
31
0
210
0
220
0
230
1
40
0.96363
41
1.04918428166409
42
1.15053644700383
0
ELLIPSE
5
209
100
AcDbEntity
8
1
62
256
6
ByLayer
370
18
48
1
60
0
100
AcDbEllipse
10
7.5
20
-40.598383
30
0
11
-4.36725515960001E-16
21
7.132504491698
31
0
210
0
220
0
230
-1
40
0.701016
41
3.14159265358979
42
-2.79040179160362
0
ELLIPSE
5
20A
100
AcDbEntity
8
1
62
256
6
ByLayer
370
18
48
1
60
0
100
AcDbEllipse
10
7.5
20
-44.439405
30
0
11
-3.10920307045044E-16
21
5.07788165682083
31
0
210
0
220
0
230
-1
40
0.984663
41
3.14159265358979
42
-1.5707963267949
0
ELLIPSE
5
20B
100
AcDbEntity
8
1
62
256
6
ByLayer
370
18
48
1
60
0
100
AcDbEllipse
10
9.899971
20
42.811741
30
0
11
3.76563540363961
21
-10.3643777158811
31
0
210
0
220
0
230
-1
40
0.081011
41
-0.829262957230422
42
-0.465927098571531
0
ELLIPSE
5
20C
100
AcDbEntity
8
1
62
256
6
ByLayer
370
18
48
1
60
0
100
AcDbEllipse
10
8
20
31.482563
30
0
11
6
21
0
31
0
210
0
220
0
230
1
40
0.760406
41
0
42
3.14159261883238
0
ELLIPSE
5
20D
100
AcDbEntity
8
1
62
256
6
ByLayer
370
18
48
1
60
0
100
AcDbEllipse
10
8
20
31.482563
30
0
11
6
21
0
31
0
210
0
220
0
230
1
40
0.760406
41
-3.1415926188324
42
-2.00885211609874
0
ELLIPSE
5
20E
100
AcDbEntity
8
1
62
256
6
ByLayer
370
18
48
1
60
0
100
AcDbEllipse
10
8
20
31.482563
30
0
11
6
21
0
31
0
210
0
220
0
230
1
40
0.760406
41
-1.13264237876705
42
0
0
ELLIPSE
5
20F
100
AcDbEntity
8
1
62
256
6
ByLayer
370
18
48
1
60
0
100
AcDbEllipse
10
9.899971
20
16.919788
30
0
11
3.85760881018454
21
-15.4285627354446
31
0
210
0
220
0
230
-1
40
0.004019
41
-0.625951391350908
42
0.0316131458198028
0
ELLIPSE
5
210
100
AcDbEntity
8
1
62
256
6
ByLayer
370
18
48
1
60
0
100
AcDbEllipse
10
8
20
4.274572
30
0
11
5.41554549010217
21
0
31
0
210
0
220
0
230
1
40
0.078459
41
0.363061901175135
42
0.422336262222312
0
ELLIPSE
5
211
100
AcDbEntity
8
1
62
256
6
ByLayer
370
18
48
1
60
0
100
AcDbEllipse
10
8
20
44.991941
30
0
11
6.29999999988959
21
6.3670260469073E-15
31
0
210
0
220
0
230
-1
40
0.981666
41
2.5864352853392
42
2.63214880477902
0
ELLIPSE
5
212
100
AcDbEntity
8
1
62
256
6
ByLayer
370
18
48
1
60
0
100
AcDbEllipse
10
8
20
44.991941
30
0
11
6.30000000000593
21
6.36702604702488E-15
31
0
210
0
220
0
230
-1
40
0.981666
41
0.509443848812072
42
0.555057960133388
0
ELLIPSE
5
213
100
AcDbEntity
8
1
62
256
6
ByLayer
370
18
48
1
60
0
100
AcDbEllipse
10
6.100029
20
16.919788
30
0
11
3.8576088101844
21
15.428562735444
31
0
210
0
220
0
230
-1
40
0.004019
41
3.10997950776971
42
-2.51564126223886
0
ELLIPSE
5
214
100
AcDbEntity
8
1
62
256
6
ByLayer
370
18
48
1
60
0
100
AcDbEllipse
10
9.899971
20
-42.811741
30
0
11
3.76563540363938
21
10.3643777158806
31
0
210
0
220
0
230
-1
40
0.081011
41
0.396591526659581
42
0.587217082970836
0
ELLIPSE
5
215
100
AcDbEntity
8
1
62
256
6
ByLayer
370
18
48
1
60
0
100
AcDbEllipse
10
8
20
-31.482563
30
0
11
-6
21
7.34763812293426E-16
31
0
210
0
220
0
230
1
40
0.760406
41
-0.322798706413528
42
0
0
ELLIPSE
5
216
100
AcDbEntity
8
1
62
256
6
ByLayer
370
18
48
1
60
0
100
AcDbEllipse
10
8
20
-31.482563
30
0
11
-6
21
7.34763812293426E-16
31
0
210
0
220
0
230
1
40
0.760406
41
3.0628565074469
42
-2.81889207572117
0
ELLIPSE
5
217
100
AcDbEntity
8
1
62
256
6
ByLayer
370
18
48
1
60
0
100
AcDbEllipse
10
8
20
-31.482563
30
0
11
-6
21
7.34763812293426E-16
31
0
210
0
220
0
230
1
40
0.760406
41
0
42
0.0788343715810721
0
ELLIPSE
5
218
100
AcDbEntity
8
1
62
256
6
ByLayer
370
18
48
1
60
0
100
AcDbEllipse
10
8
20
4.274572
30
0
11
5.41554549010217
21
0
31
0
210
0
220
0
230
1
40
0.078459
41
2.71925639136748
42
2.77853075241466
0
ELLIPSE
5
219
100
AcDbEntity
8
1
62
256
6
ByLayer
370
18
48
1
60
0
100
AcDbEllipse
10
6.656518
20
17.025197
30
0
11
2.82051351548791
21
15.2076231688362
31
0
210
0
220
0
230
-1
40
0.148859
41
2.4918661418735
42
-2.57155976581451
0
ELLIPSE
5
21A
100
AcDbEntity
8
1
62
256
6
ByLayer
370
18
48
1
60
0
100
AcDbEllipse
10
8
20
4.274572
30
0
11
5.41554549010217
21
0
31
0
210
0
220
0
230
1
40
0.078459
41
1.93385822797003
42
1.99313258901721
0
ELLIPSE
5
21B
100
AcDbEntity
8
1
62
256
6
ByLayer
370
18
48
1
60
0
100
AcDbEllipse
10
8
20
17.068858
30
0
11
-9.26023900955423E-16
21
15.1236174475988
31
0
210
0
220
0
230
-1
40
0.222026
41
2.53171295384399
42
-2.53171295384399
0
ELLIPSE
5
21C
100
AcDbEntity
8
1
62
256
6
ByLayer
370
18
48
1
60
0
100
AcDbEllipse
10
8
20
4.274572
30
0
11
5.41554549010217
21
0
31
0
210
0
220
0
230
1
40
0.078459
41
1.14846006457258
42
1.20773442561976
0
ELLIPSE
5
21D
100
AcDbEntity
8
1
62
256
6
ByLayer
370
18
48
1
60
0
100
AcDbEllipse
10
9.343482
20
17.025197
30
0
11
2.82051351548763
21
-15.2076231688348
31
0
210
0
220
0
230
-1
40
0.148859
41
-0.570032887775315
42
0.649726511716322
0
ELLIPSE
5
21E
100
AcDbEntity
8
1
62
256
6
ByLayer
370
18
48
1
60
0
100
AcDbEllipse
10
8
20
-0.470755
30
0
11
6
21
0
31
0
210
0
220
0
230
1
40
0.078459
41
0
42
6.28318530717959
0
ELLIPSE
5
21F
100
AcDbEntity
8
1
62
256
6
ByLayer
370
18
48
1
60
0
100
AcDbEllipse
10
8
20
-0.470755
30
0
11
-3.08111510185448
21
3.77315313058908E-16
31
0
210
0
220
0
230
1
40
0.078459
41
0
42
6.28318530717959
0
ELLIPSE
5
220
100
AcDbEntity
8
1
62
256
6
ByLayer
370
18
48
1
60
0
100
AcDbEllipse
10
8
20
31.09783
30
0
11
-0.686
21
8.40079958722151E-17
31
0
210
0
220
0
230
1
40
0.760406
41
-1.449182285578
42
-0.779534991873655
0
ELLIPSE
5
221
100
AcDbEntity
8
1
62
256
6
ByLayer
370
18
48
1
60
0
100
AcDbEllipse
10
6.100029
20
42.811741
30
0
11
3.7656354036391
21
10.3643777158798
31
0
210
0
220
0
230
-1
40
0.081011
41
-2.67566555501823
42
-2.31232969635932
0
ELLIPSE
5
222
100
AcDbEntity
8
1
62
256
6
ByLayer
370
18
48
1
60
0
100
AcDbEllipse
10
8
20
34.573936
30
0
11
5.41554549010217
21
0
31
0
210
0
220
0
230
1
40
0.760406
41
2.71925639136748
42
2.77853075241466
0
ELLIPSE
5
223
100
AcDbEntity
8
1
62
256
6
ByLayer
370
18
48
1
60
0
100
AcDbEllipse
10
6.656518
20
43.833333
30
0
11
3.30172296909145
21
8.15506361439274
31
0
210
0
220
0
230
-1
40
0.180996
41
2.23592897857145
42
-2.82749692911664
0
ELLIPSE
5
224
100
AcDbEntity
8
1
62
256
6
ByLayer
370
18
48
1
60
0
100
AcDbEllipse
10
8
20
34.573936
30
0
11
5.41554549010217
21
0
31
0
210
0
220
0
230
1
40
0.760406
41
1.93385822797003
42
1.99313258901721
0
ELLIPSE
5
225
100
AcDbEntity
8
1
62
256
6
ByLayer
370
18
48
1
60
0
100
AcDbEllipse
10
8
20
44.256491
30
0
11
-4.35705507529389E-16
21
7.11584593970816
31
0
210
0
220
0
230
-1
40
0.471882
41
2.531712953844
42
-2.531712953844
0
ELLIPSE
5
226
100
AcDbEntity
8
1
62
256
6
ByLayer
370
18
48
1
60
0
100
AcDbEllipse
10
8
20
34.573936
30
0
11
5.41554549010217
21
0
31
0
210
0
220
0
230
1
40
0.760406
41
1.14846006457258
42
1.20773442561976
0
ELLIPSE
5
227
100
AcDbEntity
8
1
62
256
6
ByLayer
370
18
48
1
60
0
100
AcDbEllipse
10
9.343482
20
43.833333
30
0
11
3.30172296909029
21
-8.15506361438946
31
0
210
0
220
0
230
-1
40
0.180996
41
-0.314095724473212
42
0.905663675018543
0
ELLIPSE
5
228
100
AcDbEntity
8
1
62
256
6
ByLayer
370
13
48
1
60
0
100
AcDbEllipse
10
8
20
32.166044
30
0
11
-3.00752396831598
21
3.68303296087284E-16
31
0
210
0
220
0
230
1
40
0.760406
41
2.21933887646752
42
3.0749320950394
0
ELLIPSE
5
229
100
AcDbEntity
8
1
62
256
6
ByLayer
370
13
48
1
60
0
100
AcDbEllipse
10
8
20
32.166044
30
0
11
-3.00752396831598
21
3.68303296087284E-16
31
0
210
0
220
0
230
1
40
0.760406
41
0.0665624795807899
42
0.922155577056615
0
ELLIPSE
5
22A
100
AcDbEntity
8
1
62
256
6
ByLayer
370
18
48
1
60
0
100
AcDbEllipse
10
8
20
34.573936
30
0
11
5.41554549010217
21
0
31
0
210
0
220
0
230
1
40
0.760406
41
0.363061901175135
42
0.422336262222316
0
ELLIPSE
5
22B
100
AcDbEntity
8
1
62
256
6
ByLayer
370
13
48
1
60
0
100
AcDbEllipse
10
8
20
32.284633
30
0
11
2.92865569377185
21
0
31
0
210
0
220
0
230
1
40
0.760406
41
-3.10978409119941
42
-2.55931801618827
0
ELLIPSE
5
22C
100
AcDbEntity
8
1
62
256
6
ByLayer
370
13
48
1
60
0
100
AcDbEllipse
10
8
20
32.284633
30
0
11
2.92865569377185
21
0
31
0
210
0
220
0
230
1
40
0.760406
41
-0.582176546037878
42
-0.0317105557534272
0
ELLIPSE
5
22D
100
AcDbEntity
8
1
62
256
6
ByLayer
370
18
48
1
60
0
100
AcDbEllipse
10
8
20
32.14831
30
0
11
-6
21
7.34763812293426E-16
31
0
210
0
220
0
230
1
40
0.649448
41
0
42
0.0788343500142836
0
ELLIPSE
5
22E
100
AcDbEntity
8
1
62
256
6
ByLayer
370
18
48
1
60
0
100
AcDbEllipse
10
8
20
32.14831
30
0
11
-6
21
7.34763812293426E-16
31
0
210
0
220
0
230
1
40
0.649448
41
3.06285651828576
42
-2.82694239033664
0
ELLIPSE
5
22F
100
AcDbEntity
8
1
62
256
6
ByLayer
370
18
48
1
60
0
100
AcDbEllipse
10
8
20
32.14831
30
0
11
-6
21
7.34763812293426E-16
31
0
210
0
220
0
230
1
40
0.649448
41
-0.314748380494684
42
0
0
ELLIPSE
5
230
100
AcDbEntity
8
1
62
256
6
ByLayer
370
18
48
1
60
0
100
AcDbEllipse
10
8
20
31.482563
30
0
11
-3.08111510185448
21
3.77315313058908E-16
31
0
210
0
220
0
230
1
40
0.760406
41
0
42
6.28318530717959
0
ELLIPSE
5
231
100
AcDbEntity
8
1
62
256
6
ByLayer
370
18
48
1
60
0
100
AcDbEllipse
10
8.695593
20
31.620597
30
0
11
-0.292
21
3.57585055316134E-17
31
0
210
0
220
0
230
1
40
0.760406
41
0.779534991873668
42
2.65919368888495
0
ELLIPSE
5
232
100
AcDbEntity
8
1
62
256
6
ByLayer
370
18
48
1
60
0
100
AcDbEllipse
10
6.100029
20
18.883547
30
0
11
3.80489024544608
21
-11.9651929436505
31
0
210
0
220
0
230
-1
40
0.053371
41
2.60747398770035
42
2.78733137455223
0
ELLIPSE
5
233
100
AcDbEntity
8
1
62
256
6
ByLayer
370
18
48
1
60
0
100
AcDbEllipse
10
8
20
23.478017
30
0
11
-2.25
21
2.75536429610035E-16
31
0
210
0
220
0
230
1
40
0.878817
41
0
42
6.28318530717959
0
ELLIPSE
5
234
100
AcDbEntity
8
1
62
256
6
ByLayer
370
18
48
1
60
0
100
AcDbEllipse
10
8
20
23.120148
30
0
11
-3
21
3.67381906146713E-16
31
0
210
0
220
0
230
1
40
0.878817
41
-3.06963056787276
42
-1.57079636851984
0
ELLIPSE
5
235
100
AcDbEntity
8
1
62
256
6
ByLayer
370
18
48
1
60
0
100
AcDbEllipse
10
8
20
23.120148
30
0
11
-3
21
3.67381906146713E-16
31
0
210
0
220
0
230
1
40
0.878817
41
0
42
6.28318530717959
0
ELLIPSE
5
236
100
AcDbEntity
8
1
62
256
6
ByLayer
370
18
48
1
60
0
100
AcDbEllipse
10
8
20
23.120148
30
0
11
-3
21
3.67381906146713E-16
31
0
210
0
220
0
230
1
40
0.878817
41
-1.57079636851983
42
-0.0806997746975138
0
ELLIPSE
5
237
100
AcDbEntity
8
1
62
256
6
ByLayer
370
18
48
1
60
0
100
AcDbEllipse
10
8
20
32.514624
30
0
11
-2.625
21
3.21459167878374E-16
31
0
210
0
220
0
230
1
40
0.760406
41
-0.112017468135903
42
0
0
ELLIPSE
5
238
100
AcDbEntity
8
1
62
256
6
ByLayer
370
18
48
1
60
0
100
AcDbEllipse
10
8
20
32.514624
30
0
11
-2.625
21
3.21459167878374E-16
31
0
210
0
220
0
230
1
40
0.760406
41
3.14159250047762
42
-3.02947709085335
0
ELLIPSE
5
239
100
AcDbEntity
8
1
62
256
6
ByLayer
370
18
48
1
60
0
100
AcDbEllipse
10
8
20
44.993822
30
0
11
-6
21
7.34763812293426E-16
31
0
210
0
220
0
230
1
40
0.996917
41
0
42
0.513748546710935
0
ELLIPSE
5
23A
100
AcDbEntity
8
1
62
256
6
ByLayer
370
18
48
1
60
0
100
AcDbEllipse
10
8
20
44.993822
30
0
11
-6
21
7.34763812293426E-16
31
0
210
0
220
0
230
1
40
0.996917
41
2.6291203735102
42
0
0
ELLIPSE
5
23B
100
AcDbEntity
8
1
62
256
6
ByLayer
370
18
48
1
60
0
100
AcDbEllipse
10
8
20
44.911252
30
0
11
3.00752396831598
21
0
31
0
210
0
220
0
230
1
40
0.996917
41
-0.235717587917756
42
0
0
ELLIPSE
5
23C
100
AcDbEntity
8
1
62
256
6
ByLayer
370
18
48
1
60
0
100
AcDbEllipse
10
8
20
44.911252
30
0
11
3.00752396831598
21
0
31
0
210
0
220
0
230
1
40
0.996917
41
1.83940248191527
42
-2.90312604422736
0
ELLIPSE
5
23D
100
AcDbEntity
8
1
62
256
6
ByLayer
370
13
48
1
60
0
100
AcDbEllipse
10
8
20
44.911252
30
0
11
3.00752396831598
21
0
31
0
210
0
220
0
230
1
40
0.996917
41
1.12606456840353
42
1.83940248191527
0
ELLIPSE
5
23E
100
AcDbEntity
8
1
62
256
6
ByLayer
370
18
48
1
60
0
100
AcDbEllipse
10
8
20
44.911252
30
0
11
3.00752396831598
21
0
31
0
210
0
220
0
230
1
40
0.996917
41
0
42
1.12606445577106
0
ELLIPSE
5
23F
100
AcDbEntity
8
1
62
256
6
ByLayer
370
18
48
1
60
0
100
AcDbEllipse
10
8
20
-0.282202
30
0
11
-1.8
21
2.20429143688028E-16
31
0
210
0
220
0
230
1
40
0.078459
41
0
42
-3.08641944489986
0
ELLIPSE
5
240
100
AcDbEntity
8
1
62
256
6
ByLayer
370
18
48
1
60
0
100
AcDbEllipse
10
8
20
-0.282202
30
0
11
-1.6765
21
2.05305255218322E-16
31
0
210
0
220
0
230
1
40
0.078459
41
-0.112846319489151
42
-2.95414594989098E-15
0
ELLIPSE
5
241
100
AcDbEntity
8
1
62
256
6
ByLayer
370
18
48
1
60
0
100
AcDbEllipse
10
8
20
-0.282202
30
0
11
-1.6765
21
2.05305255218322E-16
31
0
210
0
220
0
230
1
40
0.078459
41
0
42
1.04440700351526
0
ELLIPSE
5
242
100
AcDbEntity
8
1
62
256
6
ByLayer
370
18
48
1
60
0
100
AcDbEllipse
10
8
20
-0.282202
30
0
11
-1.6765
21
2.05305255218322E-16
31
0
210
0
220
0
230
1
40
0.078459
41
1.04440700351526
42
2.09718565007454
0
ELLIPSE
5
243
100
AcDbEntity
8
1
62
256
6
ByLayer
370
18
48
1
60
0
100
AcDbEllipse
10
8
20
-0.282202
30
0
11
-1.6765
21
2.05305255218322E-16
31
0
210
0
220
0
230
1
40
0.078459
41
3.14159265358979
42
-3.02874633410068
0
ELLIPSE
5
244
100
AcDbEntity
8
1
62
256
6
ByLayer
370
18
48
1
60
0
100
AcDbEllipse
10
8
20
-0.282202
30
0
11
-1.6765
21
2.05305255218322E-16
31
0
210
0
220
0
230
1
40
0.078459
41
2.09718565007454
42
3.14159265358979
0
ELLIPSE
5
245
100
AcDbEntity
8
1
62
256
6
ByLayer
370
18
48
1
60
0
100
AcDbEllipse
10
8
20
-5.977393
30
0
11
2.25
21
0
31
0
210
0
220
0
230
1
40
0.95882
41
0
42
6.28318530717959
0
ELLIPSE
5
246
100
AcDbEntity
8
1
62
256
6
ByLayer
370
18
48
1
60
0
100
AcDbEllipse
10
8
20
-5.764381
30
0
11
3
21
0
31
0
210
0
220
0
230
1
40
0.95882
41
-3.10497353052002
42
-0.027881531673432
0
ELLIPSE
5
247
100
AcDbEntity
8
1
62
256
6
ByLayer
370
18
48
1
60
0
100
AcDbEllipse
10
8
20
44.978983
30
0
11
1.6765
21
0
31
0
210
0
220
0
230
1
40
0.996917
41
-0.223144198951256
42
0
0
ELLIPSE
5
248
100
AcDbEntity
8
1
62
256
6
ByLayer
370
18
48
1
60
0
100
AcDbEllipse
10
8
20
44.978983
30
0
11
1.6765
21
0
31
0
210
0
220
0
230
1
40
0.996917
41
3.14159265358979
42
-2.92484540298011
0
ELLIPSE
5
249
100
AcDbEntity
8
1
62
256
6
ByLayer
370
18
48
1
60
0
100
AcDbEllipse
10
8
20
44.978983
30
0
11
1.8
21
0
31
0
210
0
220
0
230
1
40
0.996917
41
-0.221973124139382
42
0
0
ELLIPSE
5
24A
100
AcDbEntity
8
1
62
256
6
ByLayer
370
18
48
1
60
0
100
AcDbEllipse
10
8
20
44.978983
30
0
11
1.8
21
0
31
0
210
0
220
0
230
1
40
0.996917
41
0
42
-2.92472457917169
0
ELLIPSE
5
24B
100
AcDbEntity
8
1
62
256
6
ByLayer
370
18
48
1
60
0
100
AcDbEllipse
10
8
20
44.978983
30
0
11
1.6765
21
0
31
0
210
0
220
0
230
1
40
0.996917
41
1.04440700351526
42
2.09718565007454
0
ELLIPSE
5
24C
100
AcDbEntity
8
1
62
256
6
ByLayer
370
18
48
1
60
0
100
AcDbEllipse
10
8
20
44.978983
30
0
11
1.6765
21
0
31
0
210
0
220
0
230
1
40
0.996917
41
2.09718565007454
42
3.14159265358979
0
ELLIPSE
5
24D
100
AcDbEntity
8
1
62
256
6
ByLayer
370
18
48
1
60
0
100
AcDbEllipse
10
8
20
44.978983
30
0
11
1.6765
21
0
31
0
210
0
220
0
230
1
40
0.996917
41
0
42
1.04440700351526
0
ELLIPSE
5
24E
100
AcDbEntity
8
1
62
256
6
ByLayer
370
18
48
1
60
0
100
AcDbEllipse
10
8
20
44.957372
30
0
11
2.625
21
0
31
0
210
0
220
0
230
1
40
0.996917
41
-0.233459487084436
42
0
0
ELLIPSE
5
24F
100
AcDbEntity
8
1
62
256
6
ByLayer
370
18
48
1
60
0
100
AcDbEllipse
10
8
20
44.957372
30
0
11
2.625
21
0
31
0
210
0
220
0
230
1
40
0.996917
41
0
42
-2.91147081213647
0
ELLIPSE
5
250
100
AcDbEntity
8
1
62
256
6
ByLayer
370
18
48
1
60
0
100
AcDbEllipse
10
9.3845
20
44.867178
30
0
11
0.292
21
0
31
0
210
0
220
0
230
1
40
0.996917
41
0.170989349019946
42
1.30619414537843
0
ELLIPSE
5
251
100
AcDbEntity
8
1
62
256
6
ByLayer
370
18
48
1
60
0
100
AcDbEllipse
10
6.6155
20
44.867178
30
0
11
0.292
21
0
31
0
210
0
220
0
230
1
40
0.996917
41
1.83539850821137
42
2.96072447085367
0
ELLIPSE
5
252
100
AcDbEntity
8
1
62
256
6
ByLayer
370
18
48
1
60
0
100
AcDbEllipse
10
9.899971
20
18.883547
30
0
11
3.80489024544613
21
11.9651929436507
31
0
210
0
220
0
230
-1
40
0.053371
41
0.354261215208086
42
0.534118622122278
0
ELLIPSE
5
253
100
AcDbEntity
8
1
62
256
6
ByLayer
370
18
48
1
60
0
100
AcDbEllipse
10
8
20
44.86914
30
0
11
2.625
21
0
31
0
210
0
220
0
230
1
40
0.996917
41
-0.200865404055813
42
0
0
ELLIPSE
5
254
100
AcDbEntity
8
1
62
256
6
ByLayer
370
18
48
1
60
0
100
AcDbEllipse
10
8
20
44.86914
30
0
11
2.625
21
0
31
0
210
0
220
0
230
1
40
0.996917
41
3.14159255382815
42
-2.94337786509465
0
ELLIPSE
5
255
100
AcDbEntity
8
1
62
256
6
ByLayer
370
18
48
1
60
0
100
AcDbEllipse
10
9.640272
20
45.808231
30
0
11
0.686
21
0
31
0
210
0
220
0
230
1
40
0.996917
41
-2.61938915183216
42
-1.83539850821137
0
ELLIPSE
5
256
100
AcDbEntity
8
1
62
256
6
ByLayer
370
18
48
1
60
0
100
AcDbEllipse
10
9.640272
20
45.808231
30
0
11
0.686
21
0
31
0
210
0
220
0
230
1
40
0.996917
41
-3.14158758833452
42
-2.61938915183216
0
ELLIPSE
5
257
100
AcDbEntity
8
1
62
256
6
ByLayer
370
18
48
1
60
0
100
AcDbEllipse
10
8
20
44.957692
30
0
11
-1.2065
21
1.4774875658867E-16
31
0
210
0
220
0
230
1
40
0.996917
41
-1.6398289602068
42
-1.501763693383
0
ELLIPSE
5
258
100
AcDbEntity
8
1
62
256
6
ByLayer
370
18
48
1
60
0
100
AcDbEllipse
10
6.359728
20
45.808231
30
0
11
0.686
21
0
31
0
210
0
220
0
230
1
40
0.996917
41
-0.52220350175764
42
-5.06525527698685E-06
0
ELLIPSE
5
259
100
AcDbEntity
8
1
62
256
6
ByLayer
370
18
48
1
60
0
100
AcDbEllipse
10
6.359728
20
45.808231
30
0
11
0.686
21
0
31
0
210
0
220
0
230
1
40
0.996917
41
-1.30619414537843
42
-0.52220350175764
0
ELLIPSE
5
25A
100
AcDbEntity
8
1
62
256
6
ByLayer
370
18
48
1
60
0
100
AcDbEllipse
10
7.304407
20
46.060564
30
0
11
0.292
21
0
31
0
210
0
220
0
230
1
40
0.996917
41
0.779534991873659
42
2.95519529453886
0
ELLIPSE
5
25B
100
AcDbEntity
8
1
62
256
6
ByLayer
370
18
48
1
60
0
100
AcDbEllipse
10
8.695593
20
46.060564
30
0
11
0.292
21
0
31
0
210
0
220
0
230
1
40
0.996917
41
0.145851150212047
42
2.36205766171613
0
ELLIPSE
5
25C
100
AcDbEntity
8
1
62
256
6
ByLayer
370
18
48
1
60
0
100
AcDbEllipse
10
8
20
46.745929
30
0
11
0.686
21
0
31
0
210
0
220
0
230
1
40
0.996917
41
-2.36205766171614
42
-1.69241036801179
0
ELLIPSE
5
25D
100
AcDbEntity
8
1
62
256
6
ByLayer
370
18
48
1
60
0
100
AcDbEllipse
10
8
20
46.745929
30
0
11
0.686
21
0
31
0
210
0
220
0
230
1
40
0.996917
41
-1.449182285578
42
-0.779534991873643
0
ELLIPSE
5
25E
100
AcDbEntity
8
1
62
256
6
ByLayer
370
18
48
1
60
0
100
AcDbEllipse
10
8
20
44.867178
30
0
11
-1.2065
21
1.4774875658867E-16
31
0
210
0
220
0
230
1
40
0.996917
41
-1.6398289602068
42
-1.501763693383
0
ELLIPSE
5
25F
100
AcDbEntity
8
1
62
256
6
ByLayer
370
18
48
1
60
0
100
AcDbEllipse
10
8
20
44.867178
30
0
11
-1.2065
21
1.4774875658867E-16
31
0
210
0
220
0
230
1
40
0.996917
41
-0.52220350175763
42
0.149122100692256
0
ELLIPSE
5
260
100
AcDbEntity
8
1
62
256
6
ByLayer
370
18
48
1
60
0
100
AcDbEllipse
10
8
20
44.867178
30
0
11
-1.2065
21
1.4774875658867E-16
31
0
210
0
220
0
230
1
40
0.996917
41
-1.501763693383
42
-0.52220350175763
0
ELLIPSE
5
261
100
AcDbEntity
8
1
62
256
6
ByLayer
370
18
48
1
60
0
100
AcDbEllipse
10
9.899971
20
-43.625157
30
0
11
3.3804733703625
21
-2.67709028340555
31
0
210
0
220
0
230
-1
40
0.694562
41
-0.870709899013205
42
0.107003453611121
0
ELLIPSE
5
262
100
AcDbEntity
8
1
62
256
6
ByLayer
370
18
48
1
60
0
100
AcDbEllipse
10
8
20
-44.620357
30
0
11
5.41554549010217
21
0
31
0
210
0
220
0
230
1
40
0.996917
41
-1.20773442561976
42
-1.14846006457258
0
ELLIPSE
5
263
100
AcDbEntity
8
1
62
256
6
ByLayer
370
18
48
1
60
0
100
AcDbEllipse
10
8
20
-44.993822
30
0
11
6
21
0
31
0
210
0
220
0
230
1
40
0.996917
41
2.72896414195019
42
0
0
ELLIPSE
5
264
100
AcDbEntity
8
1
62
256
6
ByLayer
370
18
48
1
60
0
100
AcDbEllipse
10
8
20
-44.993822
30
0
11
6
21
0
31
0
210
0
220
0
230
1
40
0.996917
41
0
42
0.411155982306543
0
ELLIPSE
5
265
100
AcDbEntity
8
1
62
256
6
ByLayer
370
18
48
1
60
0
100
AcDbEllipse
10
8
20
-44.620357
30
0
11
5.41554549010217
21
0
31
0
210
0
220
0
230
1
40
0.996917
41
-1.99313258901721
42
-1.93385822797003
0
ELLIPSE
5
266
100
AcDbEntity
8
1
62
256
6
ByLayer
370
18
48
1
60
0
100
AcDbEllipse
10
8
20
-44.620357
30
0
11
5.41554549010217
21
0
31
0
210
0
220
0
230
1
40
0.996917
41
-2.77853075241466
42
-2.71925639136748
0
ELLIPSE
5
267
100
AcDbEntity
8
1
62
256
6
ByLayer
370
18
48
1
60
0
100
AcDbEllipse
10
8
20
44.867178
30
0
11
-1.2065
21
1.4774875658867E-16
31
0
210
0
220
0
230
1
40
0.996917
41
2.98922330508397
42
-2.61938915183216
0
ELLIPSE
5
268
100
AcDbEntity
8
1
62
256
6
ByLayer
370
18
48
1
60
0
100
AcDbEllipse
10
8
20
44.867178
30
0
11
-1.2065
21
1.4774875658867E-16
31
0
210
0
220
0
230
1
40
0.996917
41
-2.61938915183216
42
-1.6398289602068
0
ELLIPSE
5
269
100
AcDbEntity
8
1
62
256
6
ByLayer
370
18
48
1
60
0
100
AcDbEllipse
10
6.100029
20
-43.625157
30
0
11
3.38047337036263
21
2.67709028340555
31
0
210
0
220
0
230
-1
40
0.694562
41
3.03458919997866
42
-2.27088275457661
0
ELLIPSE
5
26A
100
AcDbEntity
8
1
62
256
6
ByLayer
370
18
48
1
60
0
100
AcDbEllipse
10
6.656518
20
-44.964498
30
0
11
2.12682272694003
21
4.36406207805076
31
0
210
0
220
0
230
-1
40
0.670288
41
2.75766151207364
42
-2.30576439561447
0
ELLIPSE
5
26B
100
AcDbEntity
8
1
62
256
6
ByLayer
370
18
48
1
60
0
100
AcDbEllipse
10
8
20
-45.519271
30
0
11
-3.09843263006712E-16
21
5.06029161190606
31
0
210
0
220
0
230
-1
40
0.663567
41
2.53171295384396
42
-2.53171295384397
0
ELLIPSE
5
26C
100
AcDbEntity
8
1
62
256
6
ByLayer
370
18
48
1
60
0
100
AcDbEllipse
10
9.343482
20
-44.964498
30
0
11
2.12682272694033
21
-4.36406207805094
31
0
210
0
220
0
230
-1
40
0.670288
41
-0.83582825797527
42
0.383931141516165
0
ELLIPSE
5
26D
100
AcDbEntity
8
1
62
256
6
ByLayer
370
18
48
1
60
0
100
AcDbEllipse
10
8
20
-44.620357
30
0
11
5.41554549010217
21
0
31
0
210
0
220
0
230
1
40
0.996917
41
-0.422336262222315
42
-0.363061901175135
0
ELLIPSE
5
26E
100
AcDbEntity
8
1
62
256
6
ByLayer
370
18
48
1
60
0
100
AcDbEllipse
10
8.5
20
4.260331
30
0
11
5.00000000000002
21
5.05319527541184E-15
31
0
210
0
220
0
230
-1
40
0.079928
41
-0.421243546302513
42
-2.22244625087609E-15
0
ELLIPSE
5
26F
100
AcDbEntity
8
1
62
256
6
ByLayer
370
18
48
1
60
0
100
AcDbEllipse
10
8.5
20
4.260331
30
0
11
5.00000000000002
21
5.05319527541184E-15
31
0
210
0
220
0
230
-1
40
0.079928
41
-1.08392313324361
42
-0.505403764984314
0
ELLIPSE
5
270
100
AcDbEntity
8
1
62
256
6
ByLayer
370
18
48
1
60
0
100
AcDbEllipse
10
7.5
20
10.346961
30
0
11
5
21
0
31
0
210
0
220
0
230
1
40
0.267238
41
3.12860934805679
42
3.14159265358979
0
ELLIPSE
5
271
100
AcDbEntity
8
1
62
256
6
ByLayer
370
18
48
1
60
0
100
AcDbEllipse
10
7.5
20
10.599852
30
0
11
-4.29168969568125E-16
21
7.00909264807511
31
0
210
0
220
0
230
-1
40
0.713359
41
-1.68157791963026
42
-1.60976989532225
0
ELLIPSE
5
272
100
AcDbEntity
8
1
62
256
6
ByLayer
370
18
48
1
60
0
100
AcDbEllipse
10
7.5
20
8.263173
30
0
11
-5.92799876058575E-16
21
9.68147640600202
31
0
210
0
220
0
230
-1
40
0.51645
41
-1.400529966518
42
-1.32736283774431
0
ELLIPSE
5
273
100
AcDbEntity
8
1
62
256
6
ByLayer
370
18
48
1
60
0
100
AcDbEllipse
10
7.5
20
10.346961
30
0
11
5
21
0
31
0
210
0
220
0
230
1
40
0.267238
41
2.82326050439133
42
2.87129628206367
0
ELLIPSE
5
274
100
AcDbEntity
8
1
62
256
6
ByLayer
370
18
48
1
60
0
100
AcDbEllipse
10
7.5
20
13.103438
30
0
11
8.55428859935889E-09
21
-7.00909263336018
31
0
210
0
220
0
230
-1
40
0.713359
41
1.14773353755468
42
1.22498115641305
0
ELLIPSE
5
275
100
AcDbEntity
8
1
62
256
6
ByLayer
370
18
48
1
60
0
100
AcDbEllipse
10
7.5
20
5.759587
30
0
11
-5.92799875554773E-16
21
9.68147639777403
31
0
210
0
220
0
230
-1
40
0.51645
41
-1.08213437442177
42
-0.999127483701231
0
ELLIPSE
5
276
100
AcDbEntity
8
1
62
256
6
ByLayer
370
18
48
1
60
0
100
AcDbEllipse
10
7.5
20
10.346961
30
0
11
-5
21
6.12303176911189E-16
31
0
210
0
220
0
230
1
40
0.267238
41
-0.659830501638975
42
-0.602879956568608
0
ELLIPSE
5
277
100
AcDbEntity
8
1
62
256
6
ByLayer
370
18
48
1
60
0
100
AcDbEllipse
10
7.5
20
15.607023
30
0
11
-4.29168969398361E-16
21
7.00909264530257
31
0
210
0
220
0
230
-1
40
0.713359
41
-2.36108316973037
42
-2.26394666187719
0
ELLIPSE
5
278
100
AcDbEntity
8
1
62
256
6
ByLayer
370
18
48
1
60
0
100
AcDbEllipse
10
7.5
20
3.256002
30
0
11
-5.92799876075729E-16
21
9.68147640628217
31
0
210
0
220
0
230
-1
40
0.51645
41
-0.692824778587795
42
-0.571600350293232
0
ELLIPSE
5
279
100
AcDbEntity
8
1
62
256
6
ByLayer
370
18
48
1
60
0
100
AcDbEllipse
10
7.5
20
10.346961
30
0
11
-5
21
6.12303176911189E-16
31
0
210
0
220
0
230
1
40
0.267238
41
-1.15053644700383
42
-1.04918428166409
0
ELLIPSE
5
27A
100
AcDbEntity
8
1
62
256
6
ByLayer
370
18
48
1
60
0
100
AcDbEllipse
10
8.5
20
18.110608
30
0
11
-4.29168969255083E-16
21
7.00909264296259
31
0
210
0
220
0
230
-1
40
0.713359
41
2.79040179159879
42
3.14159265358979
0
ELLIPSE
5
27B
100
AcDbEntity
8
1
62
256
6
ByLayer
370
18
48
1
60
0
100
AcDbEllipse
10
8.5
20
10.346961
30
0
11
-5
21
6.12303176911189E-16
31
0
210
0
220
0
230
1
40
0.267238
41
-2.09240837192571
42
-1.99105620658596
0
ELLIPSE
5
27C
100
AcDbEntity
8
1
62
256
6
ByLayer
370
18
48
1
60
0
100
AcDbEllipse
10
8.5
20
3.256002
30
0
11
-5.9279987614996E-16
21
9.68147640749449
31
0
210
0
220
0
230
-1
40
0.51645
41
0.571600350286514
42
0.692824778568084
0
ELLIPSE
5
27D
100
AcDbEntity
8
1
62
256
6
ByLayer
370
18
48
1
60
0
100
AcDbEllipse
10
8.5
20
15.607023
30
0
11
-4.29168969476272E-16
21
7.00909264657499
31
0
210
0
220
0
230
-1
40
0.713359
41
2.2639466618789
42
2.36108316971379
0
ELLIPSE
5
27E
100
AcDbEntity
8
1
62
256
6
ByLayer
370
18
48
1
60
0
100
AcDbEllipse
10
8.5
20
10.346961
30
0
11
-5
21
6.12303176911189E-16
31
0
210
0
220
0
230
1
40
0.267238
41
-2.53871269702119
42
-2.48176215195082
0
ELLIPSE
5
27F
100
AcDbEntity
8
1
62
256
6
ByLayer
370
18
48
1
60
0
100
AcDbEllipse
10
8.5
20
5.759587
30
0
11
7.02297233287966E-09
21
-9.68147638946919
31
0
210
0
220
0
230
-1
40
0.51645
41
-2.1424651688594
42
-2.05945827810037
0
ELLIPSE
5
280
100
AcDbEntity
8
1
62
256
6
ByLayer
370
18
48
1
60
0
100
AcDbEllipse
10
8.5
20
13.103438
30
0
11
7.06035211035787E-09
21
7.00909263502316
31
0
210
0
220
0
230
-1
40
0.713359
41
1.91661149741196
42
1.99385911625435
0
ELLIPSE
5
281
100
AcDbEntity
8
1
62
256
6
ByLayer
370
18
48
1
60
0
100
AcDbEllipse
10
8.5
20
10.346961
30
0
11
5
21
0
31
0
210
0
220
0
230
1
40
0.267238
41
0.27029637152612
42
0.318332149198458
0
ELLIPSE
5
282
100
AcDbEntity
8
1
62
256
6
ByLayer
370
18
48
1
60
0
100
AcDbEllipse
10
8.5
20
8.263173
30
0
11
-5.92799875694515E-16
21
9.68147640005627
31
0
210
0
220
0
230
-1
40
0.51645
41
1.327362837605
42
1.40052996642541
0
ELLIPSE
5
283
100
AcDbEntity
8
1
62
256
6
ByLayer
370
18
48
1
60
0
100
AcDbEllipse
10
7.5
20
4.260331
30
0
11
5.00000000000008
21
5.0531952754119E-15
31
0
210
0
220
0
230
-1
40
0.079928
41
-2.63618899896215
42
-2.05766958137428
0
ELLIPSE
5
284
100
AcDbEntity
8
1
62
256
6
ByLayer
370
18
48
1
60
0
100
AcDbEllipse
10
7.5
20
4.260331
30
0
11
5.00000000000008
21
5.0531952754119E-15
31
0
210
0
220
0
230
-1
40
0.079928
41
3.14159265358979
42
-2.7203491072873
0
ELLIPSE
5
285
100
AcDbEntity
8
1
62
256
6
ByLayer
370
18
48
1
60
0
100
AcDbEllipse
10
8.5
20
10.599852
30
0
11
-4.2916897000128E-16
21
7.00909265514931
31
0
210
0
220
0
230
-1
40
0.713359
41
1.60976989528364
42
1.68157791951875
0
ELLIPSE
5
286
100
AcDbEntity
8
1
62
256
6
ByLayer
370
18
48
1
60
0
100
AcDbEllipse
10
8.5
20
10.346961
30
0
11
5
21
0
31
0
210
0
220
0
230
1
40
0.267238
41
0
42
0.0129833055330001
0
ELLIPSE
5
287
100
AcDbEntity
8
1
62
256
6
ByLayer
370
18
48
1
60
0
100
AcDbEllipse
10
7.5
20
18.110608
30
0
11
-4.29168969256685E-16
21
7.00909264298875
31
0
210
0
220
0
230
-1
40
0.713359
41
3.14159265358979
42
-2.79040179159946
0
ELLIPSE
5
288
100
AcDbEntity
8
1
62
256
6
ByLayer
370
18
48
1
60
0
100
AcDbEllipse
10
8
20
4.274572
30
0
11
5.76079980713245
21
0
31
0
210
0
220
0
230
1
40
0.078459
41
-0.465144003462521
42
-0.302050416277237
0
ELLIPSE
5
289
100
AcDbEntity
8
1
62
256
6
ByLayer
370
18
48
1
60
0
100
AcDbEllipse
10
8
20
4.274572
30
0
11
5.76079980713245
21
0
31
0
210
0
220
0
230
1
40
0.078459
41
-2.83954223731291
42
-2.67644865012751
0
ELLIPSE
5
28A
100
AcDbEntity
8
1
62
256
6
ByLayer
370
13
48
1
60
0
100
AcDbEllipse
10
8
20
44.896925
30
0
11
-2.92865569377185
21
3.58645037075109E-16
31
0
210
0
220
0
230
1
40
0.996917
41
0
42
0.229925469076799
0
ELLIPSE
5
28B
100
AcDbEntity
8
1
62
256
6
ByLayer
370
13
48
1
60
0
100
AcDbEllipse
10
8
20
44.896925
30
0
11
-2.92865569377185
21
3.58645037075109E-16
31
0
210
0
220
0
230
1
40
0.996917
41
2.91657608857441
42
0
0
ELLIPSE
5
28C
100
AcDbEntity
8
1
62
256
6
ByLayer
370
18
48
1
60
0
100
AcDbEllipse
10
8
20
44.993822
30
0
11
3.08111510185448
21
0
31
0
210
0
220
0
230
1
40
0.996917
41
-0.267427939475708
42
0
0
ELLIPSE
5
28D
100
AcDbEntity
8
1
62
256
6
ByLayer
370
18
48
1
60
0
100
AcDbEllipse
10
8
20
44.993822
30
0
11
3.08111510185448
21
0
31
0
210
0
220
0
230
1
40
0.996917
41
0
42
-2.87396838618781
0
ELLIPSE
5
28E
100
AcDbEntity
8
1
62
256
6
ByLayer
370
18
48
1
60
0
100
AcDbEllipse
10
2.61018
20
10.343274
30
0
11
0.0627868663794115
21
-0.169907208520756
31
0
210
0
220
0
230
-1
40
0.089447
41
1.8569109173554
42
-2.33187928743098
0
ELLIPSE
5
28F
100
AcDbEntity
8
1
62
256
6
ByLayer
370
18
48
1
60
0
100
AcDbEllipse
10
13.38982
20
10.343274
30
0
11
0.0627868663794652
21
0.169907208520899
31
0
210
0
220
0
230
-1
40
0.089447
41
-0.8097133661587
42
1.28468173623379
0
ELLIPSE
5
290
100
AcDbEntity
8
1
62
256
6
ByLayer
370
18
48
1
60
0
100
AcDbEllipse
10
6.656518
20
-19.756069
30
0
11
2.53436669215309
21
13.6173653448639
31
0
210
0
220
0
230
-1
40
0.189473
41
2.60987596761316
42
-2.45354994007478
0
ELLIPSE
5
291
100
AcDbEntity
8
1
62
256
6
ByLayer
370
18
48
1
60
0
100
AcDbEllipse
10
9.899971
20
-18.883547
30
0
11
3.80489024544709
21
-11.9651929436535
31
0
210
0
220
0
230
-1
40
0.053371
41
-0.567090150072672
42
0.44359479751312
0
ELLIPSE
5
292
100
AcDbEntity
8
1
62
256
6
ByLayer
370
18
48
1
60
0
100
AcDbEllipse
10
8
20
-28.528778
30
0
11
5.41554549010217
21
0
31
0
210
0
220
0
230
1
40
0.649448
41
-1.20773442561976
42
-1.14846006457258
0
ELLIPSE
5
293
100
AcDbEntity
8
1
62
256
6
ByLayer
370
18
48
1
60
0
100
AcDbEllipse
10
8
20
-32.14831
30
0
11
6
21
0
31
0
210
0
220
0
230
1
40
0.649448
41
3.0365457041449
42
0
0
ELLIPSE
5
294
100
AcDbEntity
8
1
62
256
6
ByLayer
370
18
48
1
60
0
100
AcDbEllipse
10
8
20
-32.14831
30
0
11
6
21
0
31
0
210
0
220
0
230
1
40
0.649448
41
0
42
0.105145099330203
0
ELLIPSE
5
295
100
AcDbEntity
8
1
62
256
6
ByLayer
370
18
48
1
60
0
100
AcDbEllipse
10
8
20
-28.528778
30
0
11
5.41554549010217
21
0
31
0
210
0
220
0
230
1
40
0.649448
41
-1.99313258901721
42
-1.93385822797003
0
ELLIPSE
5
296
100
AcDbEntity
8
1
62
256
6
ByLayer
370
18
48
1
60
0
100
AcDbEllipse
10
8
20
-28.528778
30
0
11
5.41554549010217
21
0
31
0
210
0
220
0
230
1
40
0.649448
41
-2.77853075241466
42
-2.71925639136748
0
ELLIPSE
5
297
100
AcDbEntity
8
1
62
256
6
ByLayer
370
18
48
1
60
0
100
AcDbEllipse
10
6.100029
20
-42.811741
30
0
11
3.76563540363853
21
-10.3643777158783
31
0
210
0
220
0
230
-1
40
0.081011
41
2.55437572995987
42
2.74500135297341
0
ELLIPSE
5
298
100
AcDbEntity
8
1
62
256
6
ByLayer
370
18
48
1
60
0
100
AcDbEllipse
10
6.100029
20
-18.883547
30
0
11
3.80489024544624
21
11.965192943651
31
0
210
0
220
0
230
-1
40
0.053371
41
2.69799785607663
42
-2.57450250351706
0
ELLIPSE
5
299
100
AcDbEntity
8
1
62
256
6
ByLayer
370
18
48
1
60
0
100
AcDbEllipse
10
8
20
-20.117479
30
0
11
-8.73890052283444E-16
21
14.272178966829
31
0
210
0
220
0
230
-1
40
0.235272
41
2.53171295384399
42
-2.531712953844
0
ELLIPSE
5
29A
100
AcDbEntity
8
1
62
256
6
ByLayer
370
18
48
1
60
0
100
AcDbEllipse
10
9.343482
20
-19.756069
30
0
11
2.53436669215316
21
-13.6173653448642
31
0
210
0
220
0
230
-1
40
0.189473
41
-0.688042713515009
42
0.53171668597663
0
ELLIPSE
5
29B
100
AcDbEntity
8
1
62
256
6
ByLayer
370
18
48
1
60
0
100
AcDbEllipse
10
8
20
-28.528778
30
0
11
5.41554549010217
21
0
31
0
210
0
220
0
230
1
40
0.649448
41
-0.422336262222318
42
-0.363061901175136
0
ELLIPSE
5
29C
100
AcDbEntity
8
1
62
256
6
ByLayer
370
18
48
1
60
0
100
AcDbEllipse
10
8.5
20
41.513526
30
0
11
5.00000000273917
21
5.05319527818013E-15
31
0
210
0
220
0
230
-1
40
0.017453
41
-1.5707963267949
42
-1.21960546499984
0
ELLIPSE
5
29D
100
AcDbEntity
8
1
62
256
6
ByLayer
370
18
48
1
60
0
100
AcDbEllipse
10
8.5
20
37.546234
30
0
11
-5
21
6.12303176911189E-16
31
0
210
0
220
0
230
1
40
0.870356
41
-2.09240837192571
42
-1.99105620658596
0
ELLIPSE
5
29E
100
AcDbEntity
8
1
62
256
6
ByLayer
370
18
48
1
60
0
100
AcDbEllipse
10
8.5
20
33.922692
30
0
11
-5.27578272119207E-16
21
8.61629160215396
31
0
210
0
220
0
230
-1
40
0.580296
41
0.571600350332037
42
0.692824778678972
0
ELLIPSE
5
29F
100
AcDbEntity
8
1
62
256
6
ByLayer
370
18
48
1
60
0
100
AcDbEllipse
10
8.500001
20
40.234172
30
0
11
4.99999928141433
21
-8.05630718315318E-09
31
0
210
0
220
0
230
-1
40
0.017453
41
-0.790286894303058
42
-0.693150377411054
0
ELLIPSE
5
2A0
100
AcDbEntity
8
1
62
256
6
ByLayer
370
18
48
1
60
0
100
AcDbEllipse
10
8.5
20
37.546234
30
0
11
-5
21
6.12303176911189E-16
31
0
210
0
220
0
230
1
40
0.870356
41
-2.53871269702118
42
-2.48176215195082
0
ELLIPSE
5
2A1
100
AcDbEntity
8
1
62
256
6
ByLayer
370
18
48
1
60
0
100
AcDbEllipse
10
8.5
20
35.202046
30
0
11
-5.27578272445875E-16
21
8.61629160748904
31
0
210
0
220
0
230
-1
40
0.580296
41
0.999127483990075
42
1.08213437461773
0
ELLIPSE
5
2A2
100
AcDbEntity
8
1
62
256
6
ByLayer
370
18
48
1
60
0
100
AcDbEllipse
10
8.5
20
38.954818
30
0
11
4.9999997401556
21
-1.68849975051694E-09
31
0
210
0
220
0
230
-1
40
0.017453
41
-0.423062801299396
42
-0.345815180376195
0
ELLIPSE
5
2A3
100
AcDbEntity
8
1
62
256
6
ByLayer
370
18
48
1
60
0
100
AcDbEllipse
10
8.5
20
37.546234
30
0
11
5
21
0
31
0
210
0
220
0
230
1
40
0.870356
41
0.270296371526119
42
0.318332149198458
0
ELLIPSE
5
2A4
100
AcDbEntity
8
1
62
256
6
ByLayer
370
18
48
1
60
0
100
AcDbEllipse
10
8.5
20
36.4814
30
0
11
-5.27578272021529E-16
21
8.61629160055871
31
0
210
0
220
0
230
-1
40
0.580296
41
1.32736283759042
42
1.40052996641563
0
ELLIPSE
5
2A5
100
AcDbEntity
8
1
62
256
6
ByLayer
370
18
48
1
60
0
100
AcDbEllipse
10
8.499999
20
37.675464
30
0
11
5.00000051077734
21
6.60778778709638E-10
31
0
210
0
220
0
230
-1
40
0.017453
41
-0.110781587251319
42
-0.0389735665689962
0
ELLIPSE
5
2A6
100
AcDbEntity
8
1
62
256
6
ByLayer
370
18
48
1
60
0
100
AcDbEllipse
10
8.5
20
37.546234
30
0
11
5
21
0
31
0
210
0
220
0
230
1
40
0.870356
41
0
42
0.0129833055330006
0
ELLIPSE
5
2A7
100
AcDbEntity
8
1
62
256
6
ByLayer
370
18
48
1
60
0
100
AcDbEllipse
10
7.5
20
34.435913
30
0
11
4.99999999999983
21
5.05319527541164E-15
31
0
210
0
220
0
230
-1
40
0.774638
41
-2.63618901960483
42
-2.05766971035217
0
ELLIPSE
5
2A8
100
AcDbEntity
8
1
62
256
6
ByLayer
370
18
48
1
60
0
100
AcDbEllipse
10
7.5
20
34.435913
30
0
11
4.99999999999983
21
5.05319527541164E-15
31
0
210
0
220
0
230
-1
40
0.774638
41
3.14159265358979
42
-2.72449714088054
0
ELLIPSE
5
2A9
100
AcDbEntity
8
1
62
256
6
ByLayer
370
18
48
1
60
0
100
AcDbEllipse
10
7.5
20
37.546234
30
0
11
5
21
0
31
0
210
0
220
0
230
1
40
0.870356
41
3.12860934805679
42
3.14159265358979
0
ELLIPSE
5
2AA
100
AcDbEntity
8
1
62
256
6
ByLayer
370
18
48
1
60
0
100
AcDbEllipse
10
7.5
20
37.675464
30
0
11
5.00000049942578
21
-6.46833150020857E-10
31
0
210
0
220
0
230
-1
40
0.017453
41
-3.1026190869766
42
-3.03081106621259
0
ELLIPSE
5
2AB
100
AcDbEntity
8
1
62
256
6
ByLayer
370
18
48
1
60
0
100
AcDbEllipse
10
7.5
20
36.4814
30
0
11
-5.27578272026882E-16
21
8.61629160064614
31
0
210
0
220
0
230
-1
40
0.580296
41
-1.4005299664157
42
-1.32736283759124
0
ELLIPSE
5
2AC
100
AcDbEntity
8
1
62
256
6
ByLayer
370
18
48
1
60
0
100
AcDbEllipse
10
7.5
20
37.546234
30
0
11
5
21
0
31
0
210
0
220
0
230
1
40
0.870356
41
2.82326050439133
42
2.87129628206367
0
ELLIPSE
5
2AD
100
AcDbEntity
8
1
62
256
6
ByLayer
370
18
48
1
60
0
100
AcDbEllipse
10
7.5
20
38.954818
30
0
11
4.99999972911643
21
1.76060107115436E-09
31
0
210
0
220
0
230
-1
40
0.017453
41
-2.79577747284619
42
-2.71852985183129
0
ELLIPSE
5
2AE
100
AcDbEntity
8
1
62
256
6
ByLayer
370
18
48
1
60
0
100
AcDbEllipse
10
7.5
20
35.202046
30
0
11
8.52579353909261E-09
21
8.61629159039556
31
0
210
0
220
0
230
-1
40
0.580296
41
-1.08213437573764
42
-0.999127484968368
0
ELLIPSE
5
2AF
100
AcDbEntity
8
1
62
256
6
ByLayer
370
18
48
1
60
0
100
AcDbEllipse
10
7.5
20
37.546234
30
0
11
-5
21
6.12303176911189E-16
31
0
210
0
220
0
230
1
40
0.870356
41
-0.659830501638973
42
-0.60287995656861
0
ELLIPSE
5
2B0
100
AcDbEntity
8
1
62
256
6
ByLayer
370
18
48
1
60
0
100
AcDbEllipse
10
7.499999
20
40.234172
30
0
11
4.99999927996019
21
8.07276856960906E-09
31
0
210
0
220
0
230
-1
40
0.017453
41
-2.44844227609436
42
-2.351305759184
0
ELLIPSE
5
2B1
100
AcDbEntity
8
1
62
256
6
ByLayer
370
18
48
1
60
0
100
AcDbEllipse
10
7.5
20
33.922692
30
0
11
-5.27578272200291E-16
21
8.61629160347822
31
0
210
0
220
0
230
-1
40
0.580296
41
-0.692824778652229
42
-0.571600350320779
0
ELLIPSE
5
2B2
100
AcDbEntity
8
1
62
256
6
ByLayer
370
18
48
1
60
0
100
AcDbEllipse
10
7.5
20
37.546234
30
0
11
-5
21
6.12303176911189E-16
31
0
210
0
220
0
230
1
40
0.870356
41
-1.15053644700383
42
-1.04918428166409
0
ELLIPSE
5
2B3
100
AcDbEntity
8
1
62
256
6
ByLayer
370
18
48
1
60
0
100
AcDbEllipse
10
8.5
20
34.435913
30
0
11
4.99999999999985
21
5.05319527541166E-15
31
0
210
0
220
0
230
-1
40
0.774638
41
-0.41709551270926
42
0
0
ELLIPSE
5
2B4
100
AcDbEntity
8
1
62
256
6
ByLayer
370
18
48
1
60
0
100
AcDbEllipse
10
8.5
20
34.435913
30
0
11
4.99999999999985
21
5.05319527541166E-15
31
0
210
0
220
0
230
-1
40
0.774638
41
-1.08392316540067
42
-0.505403888759525
0
ELLIPSE
5
2B5
100
AcDbEntity
8
1
62
256
6
ByLayer
370
18
48
1
60
0
100
AcDbEllipse
10
8
20
31.813781
30
0
11
-6.3
21
7.71502002908098E-16
31
0
210
0
220
0
230
1
40
0.760406
41
2.35646258739545
42
2.6321488047778
0
ELLIPSE
5
2B6
100
AcDbEntity
8
1
62
256
6
ByLayer
370
18
48
1
60
0
100
AcDbEllipse
10
8
20
31.813781
30
0
11
-6.3
21
7.71502002908098E-16
31
0
210
0
220
0
230
1
40
0.760406
41
0.509443848811797
42
0.785130066194161
0
ELLIPSE
5
2B7
100
AcDbEntity
8
1
62
256
6
ByLayer
370
18
48
1
60
0
100
AcDbEllipse
10
7.5
20
41.513526
30
0
11
5.00000000273571
21
5.05319527817663E-15
31
0
210
0
220
0
230
-1
40
0.017453
41
-1.92198718859019
42
-1.5707963267949
0
ELLIPSE
5
2B8
100
AcDbEntity
8
1
62
256
6
ByLayer
370
18
48
1
60
0
100
AcDbEllipse
10
8
20
31.784281
30
0
11
-2.625
21
3.21459167878374E-16
31
0
210
0
220
0
230
1
40
0.760406
41
0
42
6.28318530717959
0
ELLIPSE
5
2B9
100
AcDbEntity
8
1
62
256
6
ByLayer
370
18
48
1
60
0
100
AcDbEllipse
10
8
20
31.605397
30
0
11
-1.8
21
2.20429143688028E-16
31
0
210
0
220
0
230
1
40
0.760406
41
0
42
6.28318530717959
0
ELLIPSE
5
2BA
100
AcDbEntity
8
1
62
256
6
ByLayer
370
18
48
1
60
0
100
AcDbEllipse
10
8
20
31.605397
30
0
11
-1.6765
21
2.05305255218322E-16
31
0
210
0
220
0
230
1
40
0.760406
41
-2.09718565007453
42
-1.04440700351526
0
ELLIPSE
5
2BB
100
AcDbEntity
8
1
62
256
6
ByLayer
370
18
48
1
60
0
100
AcDbEllipse
10
8
20
31.605397
30
0
11
-1.6765
21
2.05305255218322E-16
31
0
210
0
220
0
230
1
40
0.760406
41
-1.04440700351526
42
0
0
ELLIPSE
5
2BC
100
AcDbEntity
8
1
62
256
6
ByLayer
370
18
48
1
60
0
100
AcDbEllipse
10
8
20
31.605397
30
0
11
-1.6765
21
2.05305255218322E-16
31
0
210
0
220
0
230
1
40
0.760406
41
0
42
1.04440700351526
0
ELLIPSE
5
2BD
100
AcDbEntity
8
1
62
256
6
ByLayer
370
18
48
1
60
0
100
AcDbEllipse
10
8
20
31.605397
30
0
11
-1.6765
21
2.05305255218322E-16
31
0
210
0
220
0
230
1
40
0.760406
41
1.04440700351526
42
2.09718565007454
0
ELLIPSE
5
2BE
100
AcDbEntity
8
1
62
256
6
ByLayer
370
18
48
1
60
0
100
AcDbEllipse
10
8
20
31.605397
30
0
11
-1.6765
21
2.05305255218322E-16
31
0
210
0
220
0
230
1
40
0.760406
41
2.09718565007454
42
3.14159265358979
0
ELLIPSE
5
2BF
100
AcDbEntity
8
1
62
256
6
ByLayer
370
18
48
1
60
0
100
AcDbEllipse
10
8
20
31.605397
30
0
11
-1.6765
21
2.05305255218322E-16
31
0
210
0
220
0
230
1
40
0.760406
41
3.14159265358979
42
-2.09718565007453
0
ELLIPSE
5
2C0
100
AcDbEntity
8
1
62
256
6
ByLayer
370
18
48
1
60
0
100
AcDbEllipse
10
8
20
31.781628
30
0
11
1.2065
21
0
31
0
210
0
220
0
230
1
40
0.760406
41
1.501763693383
42
1.6398289602068
0
ELLIPSE
5
2C1
100
AcDbEntity
8
1
62
256
6
ByLayer
370
18
48
1
60
0
100
AcDbEllipse
10
6.359728
20
31.813066
30
0
11
-0.686
21
8.40079958722151E-17
31
0
210
0
220
0
230
1
40
0.760406
41
-2.61938915183217
42
-2.43544557892113
0
ELLIPSE
5
2C2
100
AcDbEntity
8
1
62
256
6
ByLayer
370
18
48
1
60
0
100
AcDbEllipse
10
6.359728
20
31.813066
30
0
11
-0.686
21
8.40079958722151E-17
31
0
210
0
220
0
230
1
40
0.760406
41
-3.1415885960852
42
-2.61938915183217
0
ELLIPSE
5
2C3
100
AcDbEntity
8
1
62
256
6
ByLayer
370
18
48
1
60
0
100
AcDbEllipse
10
9.640272
20
31.813066
30
0
11
-0.686
21
8.40079958722151E-17
31
0
210
0
220
0
230
1
40
0.760406
41
-0.522203501757634
42
-4.05750461461809E-06
0
ELLIPSE
5
2C4
100
AcDbEntity
8
1
62
256
6
ByLayer
370
18
48
1
60
0
100
AcDbEllipse
10
9.640272
20
31.813066
30
0
11
-0.686
21
8.40079958722151E-17
31
0
210
0
220
0
230
1
40
0.760406
41
-0.709026574949644
42
-0.522203501757634
0
ELLIPSE
5
2C5
100
AcDbEntity
8
1
62
256
6
ByLayer
370
18
48
1
60
0
100
AcDbEllipse
10
8
20
32.53086
30
0
11
1.2065
21
0
31
0
210
0
220
0
230
1
40
0.760406
41
-1.6398289602068
42
-1.501763693383
0
ELLIPSE
5
2C6
100
AcDbEntity
8
1
62
256
6
ByLayer
370
18
48
1
60
0
100
AcDbEllipse
10
8
20
32.53086
30
0
11
1.2065
21
0
31
0
210
0
220
0
230
1
40
0.760406
41
-2.61938915183216
42
-1.6398289602068
0
ELLIPSE
5
2C7
100
AcDbEntity
8
1
62
256
6
ByLayer
370
18
48
1
60
0
100
AcDbEllipse
10
8
20
32.53086
30
0
11
1.2065
21
0
31
0
210
0
220
0
230
1
40
0.760406
41
-2.74153557733863
42
-2.61938915183216
0
ELLIPSE
5
2C8
100
AcDbEntity
8
1
62
256
6
ByLayer
370
18
48
1
60
0
100
AcDbEllipse
10
8
20
32.53086
30
0
11
1.2065
21
0
31
0
210
0
220
0
230
1
40
0.760406
41
-0.522203501757624
42
-0.396842348696834
0
ELLIPSE
5
2C9
100
AcDbEntity
8
1
62
256
6
ByLayer
370
18
48
1
60
0
100
AcDbEllipse
10
8
20
32.53086
30
0
11
1.2065
21
0
31
0
210
0
220
0
230
1
40
0.760406
41
-1.501763693383
42
-0.522203501757624
0
ELLIPSE
5
2CA
100
AcDbEntity
8
1
62
256
6
ByLayer
370
18
48
1
60
0
100
AcDbEllipse
10
7.304407
20
31.620597
30
0
11
-0.292
21
3.57585055316134E-17
31
0
210
0
220
0
230
1
40
0.760406
41
0.482398964704847
42
2.36205766171613
0
ELLIPSE
5
2CB
100
AcDbEntity
8
1
62
256
6
ByLayer
370
18
48
1
60
0
100
AcDbEllipse
10
8
20
31.781628
30
0
11
1.2065
21
0
31
0
210
0
220
0
230
1
40
0.760406
41
-1.6398289602068
42
-1.501763693383
0
ELLIPSE
5
2CC
100
AcDbEntity
8
1
62
256
6
ByLayer
370
18
48
1
60
0
100
AcDbEllipse
10
8
20
31.09783
30
0
11
-0.686
21
8.40079958722151E-17
31
0
210
0
220
0
230
1
40
0.760406
41
-2.36205766171614
42
-1.6924103680118
0
POINT
5
6C
100
AcDbEntity
8
81
62
256
6
ByLayer
370
18
48
1
60
0
100
AcDbPoint
10
14
20
51
30
0
39
0
210
0
220
0
230
1
50
360
0
POINT
5
6E
100
AcDbEntity
8
80
62
256
6
ByLayer
370
18
48
1
60
0
100
AcDbPoint
10
0
20
0
30
0
39
0
210
0
220
0
230
1
50
360
0
SPLINE
5
2CD
100
AcDbEntity
8
1
62
256
6
ByLayer
370
18
48
1
60
0
100
AcDbSpline
70
2053
71
3
72
127
73
123
40
0
40
0
40
0
40
0
40
0.0312500000000004
40
0.0312500000000004
40
0.0468750000000004
40
0.0468750000000004
40
0.0625000000000004
40
0.0625000000000004
40
0.09375
40
0.09375
40
0.1015625
40
0.1015625
40
0.109375000000001
40
0.109375000000001
40
0.125000000000001
40
0.125000000000001
40
0.156250000000002
40
0.156250000000002
40
0.164062500000002
40
0.164062500000002
40
0.171875000000002
40
0.171875000000002
40
0.187500000000003
40
0.203125000000003
40
0.203125000000003
40
0.210937500000003
40
0.210937500000003
40
0.218750000000002
40
0.218750000000002
40
0.250000000000001
40
0.250000000000001
40
0.265625000000001
40
0.265625000000001
40
0.2734375
40
0.2734375
40
0.28125
40
0.28125
40
0.312499999999998
40
0.312499999999998
40
0.320312499999998
40
0.320312499999998
40
0.328124999999997
40
0.328124999999997
40
0.343749999999997
40
0.343749999999997
40
0.374999999999996
40
0.374999999999996
40
0.406249999999995
40
0.406249999999995
40
0.421874999999994
40
0.421874999999994
40
0.429687499999994
40
0.429687499999994
40
0.437499999999994
40
0.437499999999994
40
0.468749999999993
40
0.468749999999993
40
0.476562499999993
40
0.476562499999993
40
0.484374999999993
40
0.484374999999993
40
0.499999999999993
40
0.499999999999993
40
0.531249999999993
40
0.531249999999993
40
0.539062499999993
40
0.539062499999993
40
0.546874999999993
40
0.546874999999993
40
0.562499999999993
40
0.578124999999993
40
0.578124999999993
40
0.585937499999993
40
0.585937499999993
40
0.593749999999993
40
0.593749999999993
40
0.624999999999993
40
0.624999999999993
40
0.640624999999993
40
0.640624999999993
40
0.648437499999993
40
0.648437499999993
40
0.656249999999994
40
0.656249999999994
40
0.687499999999994
40
0.687499999999994
40
0.703124999999995
40
0.703124999999995
40
0.718749999999995
40
0.718749999999995
40
0.749999999999996
40
0.749999999999996
40
0.781249999999996
40
0.781249999999996
40
0.796874999999997
40
0.796874999999997
40
0.804687499999997
40
0.804687499999997
40
0.812499999999997
40
0.812499999999997
40
0.843749999999999
40
0.843749999999999
40
0.851562499999999
40
0.851562499999999
40
0.859374999999999
40
0.859374999999999
40
0.874999999999999
40
0.874999999999999
40
0.90625
40
0.90625
40
0.9140625
40
0.9140625
40
0.921875
40
0.921875
40
0.9375
40
0.953125
40
0.953125
40
0.9609375
40
0.9609375
40
0.96875
40
0.96875
40
1
40
1
40
1
40
1
41
1
10
10.2295085345386
20
25.3222669060436
30
0
41
1
10
10.3627385096378
20
25.1936888346075
30
0
41
1
10
10.4791944212897
20
25.0565467747839
30
0
41
1
10
10.6297421709249
20
24.8390373745229
30
0
41
1
10
10.6758721144299
20
24.764552002093
30
0
41
1
10
10.7598404682979
20
24.6116043829267
30
0
41
1
10
10.7977025784842
20
24.5329425797405
30
0
41
1
10
10.8962695170376
20
24.2962505666335
30
0
41
1
10
10.9431005860815
20
24.1359073445855
30
0
41
1
10
10.9782909090087
20
23.9325615939258
30
0
41
1
10
10.9841510810829
20
23.8917445910246
30
0
41
1
10
10.9934792173407
20
23.8098135166956
30
0
41
1
10
10.9969507689103
20
23.7685844562982
30
0
41
1
10
11.0036506815575
20
23.6455468883822
30
0
41
1
10
11.003216163749
20
23.5643069303934
30
0
41
1
10
10.9876874951752
20
23.3228680284928
30
0
41
1
10
10.9585031141205
20
23.1649386885171
30
0
41
1
10
10.8979821021155
20
22.9712507370491
30
0
41
1
10
10.8846359736775
20
22.9326410180486
30
0
41
1
10
10.8557931541586
20
22.8566090410739
30
0
41
1
10
10.840270865357
20
22.8190912894585
30
0
41
1
10
10.7904606167525
20
22.7079938768983
30
0
41
1
10
10.7154134620507
20
22.5637400512429
30
0
41
1
10
10.6233377479761
20
22.4269806316152
30
0
41
1
10
10.5477958518466
20
22.3271969175164
30
0
41
1
10
10.5215324110404
20
22.294400724567
30
0
41
1
10
10.4667984633657
20
22.2297435135466
30
0
41
1
10
10.4383262921291
20
22.1978932483059
30
0
41
1
10
10.2919944125425
20
22.0426817151548
30
0
41
1
10
10.1611695019259
20
21.9298957574953
30
0
41
1
10
9.94459685633842
20
21.7768511317242
30
0
41
1
10
9.86899226066231
20
21.7285451970689
30
0
41
1
10
9.75027114721775
20
21.6602140772111
30
0
41
1
10
9.70984492706702
20
21.6381545915635
30
0
41
1
10
9.62811469303051
20
21.595892468292
30
0
41
1
10
9.58670258979123
20
21.5756260945282
30
0
41
1
10
9.37694230947432
20
21.4785272171761
30
0
41
1
10
9.20057258708886
20
21.4142649857985
30
0
41
1
10
8.96918289387645
20
21.3505784452112
30
0
41
1
10
8.92235366929833
20
21.3386812784115
30
0
41
1
10
8.82756642703089
20
21.3165975451746
30
0
41
1
10
8.77969918983831
20
21.3064383561482
30
0
41
1
10
8.636031536171
20
21.2788575225887
30
0
41
1
10
8.53966061395033
20
21.2642036457663
30
0
41
1
10
8.24880697963209
20
21.2311384602253
30
0
41
1
10
8.05260019412509
20
21.2235068151391
30
0
41
1
10
7.65537329709451
20
21.2382425063312
30
0
41
1
10
7.46077856056496
20
21.2604056188943
30
0
41
1
10
7.17562671152723
20
21.3149493532432
30
0
41
1
10
7.08165021139672
20
21.3367113929926
30
0
41
1
10
6.94232583174318
20
21.3748764822292
30
0
41
1
10
6.89604364141826
20
21.3885576213756
30
0
41
1
10
6.80461297843556
20
21.4176261304873
30
0
41
1
10
6.75955969745922
20
21.4329772103898
30
0
41
1
10
6.53752864172156
20
21.5137531842693
30
0
41
1
10
6.37016392204674
20
21.5911170033203
30
0
41
1
10
6.17355640536221
20
21.7040031223108
30
0
41
1
10
6.13487058524743
20
21.7273970778447
30
0
41
1
10
6.05878809514837
20
21.7758562995361
30
0
41
1
10
6.02131908012888
20
21.8009779063107
30
0
41
1
10
5.91199213734092
20
21.8781161885086
30
0
41
1
10
5.84288210657667
20
21.9320880036397
30
0
41
1
10
5.64652137565275
20
22.1015753940928
30
0
41
1
10
5.53013297169389
20
22.2245888888949
30
0
41
1
10
5.40326488746348
20
22.3917621583842
30
0
41
1
10
5.37882703574525
20
22.4258928085995
30
0
41
1
10
5.33236425999257
20
22.4947776723482
30
0
41
1
10
5.3102675758272
20
22.5296223492167
30
0
41
1
10
5.24732641040231
20
22.6353596486809
30
0
41
1
10
5.17232006960802
20
22.7795475900244
30
0
41
1
10
5.11495796004107
20
22.9302267093737
30
0
41
1
10
5.07867844716264
20
23.0457608479828
30
0
41
1
10
5.06771098171754
20
23.0846936567027
30
0
41
1
10
5.0480742648968
20
23.1634254192174
30
0
41
1
10
5.03941469223008
20
23.2032234359796
30
0
41
1
10
5.0023574030086
20
23.4021649742609
30
0
41
1
10
4.99202723434234
20
23.5629378803744
30
0
41
1
10
5.00502959398432
20
23.8065377781457
30
0
41
1
10
5.01414689572573
20
23.8881449212995
30
0
41
1
10
5.03525434339355
20
24.0111718769239
30
0
41
1
10
5.04353154694871
20
24.0522373098552
30
0
41
1
10
5.06238017031967
20
24.1336445775674
30
0
41
1
10
5.07296963990166
20
24.1741005197727
30
0
41
1
10
5.13165527238488
20
24.3751471399988
30
0
41
1
10
5.196802936506
20
24.5320838144708
30
0
41
1
10
5.32214040395081
20
24.7611966323691
30
0
41
1
10
5.36884458558376
20
24.8368789191747
30
0
41
1
10
5.46984348928561
20
24.9830315376723
30
0
41
1
10
5.52421713530799
20
25.053748949191
30
0
41
1
10
5.69870575820437
20
25.2588538218535
30
0
41
1
10
5.8302214771868
20
25.3863842734801
30
0
41
1
10
6.12407124732226
20
25.6207653550764
30
0
41
1
10
6.28175757619368
20
25.723946715137
30
0
41
1
10
6.53380890591006
20
25.8580192316558
30
0
41
1
10
6.62043226785204
20
25.8992358590571
30
0
41
1
10
6.75437236917213
20
25.9556665691594
30
0
41
1
10
6.79980537978491
20
25.9736185501188
30
0
41
1
10
6.89144560541058
20
26.0074549008595
30
0
41
1
10
6.93755887845975
20
26.0233115808202
30
0
41
1
10
7.16956271670597
20
26.0973721192975
30
0
41
1
10
7.3597246630336
20
26.1400479352717
30
0
41
1
10
7.60309799429746
20
26.1725783124785
30
0
41
1
10
7.65205876122434
20
26.1780348968425
30
0
41
1
10
7.75056228245251
20
26.1868105329883
30
0
41
1
10
7.80024302598974
20
26.1901331184992
30
0
41
1
10
7.94880862346889
20
26.1967674337824
30
0
41
1
10
8.04735778651519
20
26.1967947131334
30
0
41
1
10
8.34156528085072
20
26.1840780499574
30
0
41
1
10
8.53579736629462
20
26.1586494093187
30
0
41
1
10
8.77613884802764
20
26.1052129643135
30
0
41
1
10
8.82417103584817
20
26.0934050089892
30
0
41
1
10
8.91896035715263
20
26.0678520926836
30
0
41
1
10
8.96583108894771
20
26.0540860909471
30
0
41
1
10
9.10489910727648
20
26.0098811258049
30
0
41
1
10
9.28621247515855
20
25.9432026860787
30
0
41
1
10
9.45941401567075
20
25.8613723816342
30
0
41
1
10
9.58622547224297
20
25.7942822896754
30
0
41
1
10
9.6279800878126
20
25.7709644070952
30
0
41
1
10
9.71043791279311
20
25.722393171221
30
0
41
1
10
9.7511300231148
20
25.6971384122492
30
0
41
1
10
9.95003387944126
20
25.5672229412677
30
0
41
1
10
10.0962785594394
20
25.4508449774796
30
0
41
1
10
10.2295085345386
20
25.3222669060436
30
0
0
SPLINE
5
2CE
100
AcDbEntity
8
1
62
256
6
ByLayer
370
18
48
1
60
0
100
AcDbSpline
70
4
71
3
72
14
73
10
40
0
40
0
40
0
40
0
40
0.25
40
0.25
40
0.5
40
0.5
40
0.75
40
0.75
40
1
40
1
40
1
40
1
41
1
10
2.50042140963643
20
-22.9453869367674
30
0
41
1
10
2.50059315633763
20
-22.951900483705
30
0
41
1
10
2.50081354412606
20
-22.9597661064001
30
0
41
1
10
2.50133845997118
20
-22.9781210229427
30
0
41
1
10
2.50164304192759
20
-22.988614970047
30
0
41
1
10
2.50227534457918
20
-23.011089222656
30
0
41
1
10
2.50261168978625
20
-23.0233979589477
30
0
41
1
10
2.50324214479213
20
-23.0485199763908
30
0
41
1
10
2.50353900214867
20
-23.0614057094431
30
0
41
1
10
2.50379686697715
20
-23.0746313108336
30
0
0
SPLINE
5
2CF
100
AcDbEntity
8
1
62
256
6
ByLayer
370
18
48
1
60
0
100
AcDbSpline
70
4
71
3
72
22
73
18
40
0
40
0
40
0
40
0
40
0.125
40
0.125
40
0.25
40
0.25
40
0.375
40
0.375
40
0.5
40
0.5
40
0.625
40
0.625
40
0.75
40
0.75
40
0.875
40
0.875
40
1
40
1
40
1
40
1
41
1
10
2.53065003787179
20
-23.7905183848046
30
0
41
1
10
2.5314875861385
20
-23.8055766158702
30
0
41
1
10
2.53251189791655
20
-23.8202691255546
30
0
41
1
10
2.53497159681825
20
-23.8489444422476
30
0
41
1
10
2.53640842605012
20
-23.8628382948189
30
0
41
1
10
2.53958716902764
20
-23.8882940161893
30
0
41
1
10
2.54137441192643
20
-23.9001973945062
30
0
41
1
10
2.54515470141649
20
-23.9208598591185
30
0
41
1
10
2.5471783013017
20
-23.9298280980357
30
0
41
1
10
2.55137782829843
20
-23.9444100615112
30
0
41
1
10
2.55350902562907
20
-23.9499099489924
30
0
41
1
10
2.55782123341675
20
-23.9573362049972
30
0
41
1
10
2.55995869522309
20
-23.9591468853855
30
0
41
1
10
2.56401952167579
20
-23.9589120829459
30
0
41
1
10
2.56597909113719
20
-23.9568235315996
30
0
41
1
10
2.56945417094278
20
-23.9489544573085
30
0
41
1
10
2.57100991017762
20
-23.9431382764786
30
0
41
1
10
2.57230165757864
20
-23.9355118310449
30
0
0
SPLINE
5
2D0
100
AcDbEntity
8
1
62
256
6
ByLayer
370
18
48
1
60
0
100
AcDbSpline
70
4
71
3
72
14
73
10
40
0
40
0
40
0
40
0
40
0.25
40
0.25
40
0.5
40
0.5
40
0.75
40
0.75
40
1
40
1
40
1
40
1
41
1
10
2.64741949197003
20
-23.5721578420505
30
0
41
1
10
2.6490892308546
20
-23.5653333909003
30
0
41
1
10
2.65111063335826
20
-23.5602219387804
30
0
41
1
10
2.65586147807699
20
-23.5532448135786
30
0
41
1
10
2.6585891745824
20
-23.5514588640667
30
0
41
1
10
2.66448677889963
20
-23.5513482678221
30
0
41
1
10
2.66773819057715
20
-23.5530368735326
30
0
41
1
10
2.67444621304514
20
-23.5595955549397
30
0
41
1
10
2.67792602250972
20
-23.5644243206046
30
0
41
1
10
2.68154098781389
20
-23.5708488617257
30
0
0
SPLINE
5
2D1
100
AcDbEntity
8
1
62
256
6
ByLayer
370
18
48
1
60
0
100
AcDbSpline
70
4
71
3
72
14
73
10
40
0
40
0
40
0
40
0
40
0.25
40
0.25
40
0.5
40
0.5
40
0.75
40
0.75
40
1
40
1
40
1
40
1
41
1
10
2.79600274202358
20
-23.8132666509889
30
0
41
1
10
2.79356180840898
20
-23.7997174624155
30
0
41
1
10
2.79065013375049
20
-23.7866022323009
30
0
41
1
10
2.78399849986408
20
-23.7611665087465
30
0
41
1
10
2.78026267666559
20
-23.7489312744615
30
0
41
1
10
2.77242358376787
20
-23.7265946390103
30
0
41
1
10
2.76821619675013
20
-23.716206057687
30
0
41
1
10
2.75977481608243
20
-23.6981968273291
30
0
41
1
10
2.75551067166549
20
-23.690454262975
30
0
41
1
10
2.75120626163363
20
-23.6840222769226
30
0
0
SPLINE
5
2D2
100
AcDbEntity
8
1
62
256
6
ByLayer
370
18
48
1
60
0
100
AcDbSpline
70
4
71
3
72
22
73
18
40
0
40
0
40
0
40
0
40
0.125
40
0.125
40
0.25
40
0.25
40
0.375
40
0.375
40
0.5
40
0.5
40
0.625
40
0.625
40
0.75
40
0.75
40
0.875
40
0.875
40
1
40
1
40
1
40
1
41
1
10
3.08519105759126
20
-24.6741471712002
30
0
41
1
10
3.08102508536581
20
-24.682100932585
30
0
41
1
10
3.07607703226472
20
-24.687903717051
30
0
41
1
10
3.06486792318043
20
-24.695724643948
30
0
41
1
10
3.05861617465854
20
-24.6976535168441
30
0
41
1
10
3.04556628873672
20
-24.6976866918632
30
0
41
1
10
3.03861087382052
20
-24.6957848377108
30
0
41
1
10
3.02463704943608
20
-24.6885032913766
30
0
41
1
10
3.01754067303591
20
-24.6831280088414
30
0
41
1
10
3.00333053778445
20
-24.6689824816286
30
0
41
1
10
2.99641768684734
20
-24.6604268693737
30
0
41
1
10
2.98296287368868
20
-24.6403445847673
30
0
41
1
10
2.9763903092595
20
-24.6286991272437
30
0
41
1
10
2.96434488257927
20
-24.6034954262608
30
0
41
1
10
2.9587228348671
20
-24.5896686907844
30
0
41
1
10
2.94868995617435
20
-24.5602269051615
30
0
41
1
10
2.94438337550304
20
-24.5449765085913
30
0
41
1
10
2.94082112633936
20
-24.5291537249598
30
0
0
SPLINE
5
2D3
100
AcDbEntity
8
1
62
256
6
ByLayer
370
18
48
1
60
0
100
AcDbSpline
70
4
71
3
72
14
73
10
40
0
40
0
40
0
40
0
40
0.25
40
0.25
40
0.5
40
0.5
40
0.75
40
0.75
40
1
40
1
40
1
40
1
41
1
10
3.3814697568439
20
-24.3094842018809
30
0
41
1
10
3.37290144151291
20
-24.3033549087113
30
0
41
1
10
3.36454508029021
20
-24.2986459434555
30
0
41
1
10
3.34824416312546
20
-24.2920728488753
30
0
41
1
10
3.340198840776
20
-24.2902096332219
30
0
41
1
10
3.32512811965944
20
-24.289888475838
30
0
41
1
10
3.31811718084299
20
-24.291373969523
30
0
41
1
10
3.30526947291673
20
-24.2982128248551
30
0
41
1
10
3.29964816996545
20
-24.3034650066993
30
0
41
1
10
3.29500378950354
20
-24.3107931822057
30
0
0
SPLINE
5
2D4
100
AcDbEntity
8
1
62
256
6
ByLayer
370
18
48
1
60
0
100
AcDbSpline
70
4
71
3
72
14
73
10
40
0
40
0
40
0
40
0
40
0.25
40
0.25
40
0.5
40
0.5
40
0.75
40
0.75
40
1
40
1
40
1
40
1
41
1
10
3.5495192877483
20
-24.4226576170778
30
0
41
1
10
3.55924693853478
20
-24.4288317837367
30
0
41
1
10
3.56888145130603
20
-24.4362331097293
30
0
41
1
10
3.58796021072652
20
-24.4534381823263
30
0
41
1
10
3.59750840255162
20
-24.4633749848173
30
0
41
1
10
3.61565255454519
20
-24.4852198990679
30
0
41
1
10
3.62428801755703
20
-24.4971189701879
30
0
41
1
10
3.64044359359684
20
-24.5233113353868
30
0
41
1
10
3.64770518176806
20
-24.5371901757193
30
0
41
1
10
3.65381557128734
20
-24.5519019911441
30
0
0
SPLINE
5
2D5
100
AcDbEntity
8
1
62
256
6
ByLayer
370
18
48
1
60
0
100
AcDbSpline
70
4
71
3
72
22
73
18
40
0
40
0
40
0
40
0
40
0.125
40
0.125
40
0.25
40
0.25
40
0.375
40
0.375
40
0.5
40
0.5
40
0.625
40
0.625
40
0.75
40
0.75
40
0.875
40
0.875
40
1
40
1
40
1
40
1
41
1
10
3.9817923657119
20
-25.267789065115
30
0
41
1
10
3.99102165064909
20
-25.286067339489
30
0
41
1
10
4.00197772386554
20
-25.3026790046058
30
0
41
1
10
4.02641475755394
20
-25.3335089672842
30
0
41
1
10
4.03968842849702
20
-25.3473723036726
30
0
41
1
10
4.06714678623695
20
-25.3719223041824
30
0
41
1
10
4.08161231453317
20
-25.3828374619114
30
0
41
1
10
4.11082832210241
20
-25.4015444548447
30
0
41
1
10
4.12556512023627
20
-25.4093662031053
30
0
41
1
10
4.15529064044154
20
-25.4222115492969
30
0
41
1
10
4.17041696891999
20
-25.4272601765215
30
0
41
1
10
4.20016429324846
20
-25.4341844441411
30
0
41
1
10
4.21475581603187
20
-25.4360908287401
30
0
41
1
10
4.24327508068802
20
-25.436486605714
30
0
41
1
10
4.25737947127493
20
-25.4349467159814
30
0
41
1
10
4.28370522683031
20
-25.4274808936602
30
0
41
1
10
4.29586653599949
20
-25.4216866116897
30
0
41
1
10
4.30643380496952
20
-25.4127825113554
30
0
0
SPLINE
5
2D6
100
AcDbEntity
8
1
62
256
6
ByLayer
370
18
48
1
60
0
100
AcDbSpline
70
4
71
3
72
12
73
8
40
0
40
0
40
0
40
0
40
0.249999999999998
40
0.249999999999998
40
0.499999999999996
40
0.499999999999996
40
1
40
1
40
1
40
1
41
1
10
4.79510653191926
20
-25.0494285223609
30
0
41
1
10
4.80893548647504
20
-25.040399231542
30
0
41
1
10
4.82482185648553
20
-25.0352666089358
30
0
41
1
10
4.85889519674618
20
-25.0290899258847
30
0
41
1
10
4.87686050785845
20
-25.0282377932974
30
0
41
1
10
4.93157494977942
20
-25.0301062537211
30
0
41
1
10
4.96995353723395
20
-25.0371804865448
30
0
41
1
10
5.00860772348773
20
-25.0481195420362
30
0
0
SPLINE
5
2D7
100
AcDbEntity
8
1
62
256
6
ByLayer
370
18
48
1
60
0
100
AcDbSpline
70
4
71
3
72
12
73
8
40
0
40
0
40
0
40
0
40
0.249999999999998
40
0.249999999999998
40
0.499999999999997
40
0.499999999999997
40
1
40
1
40
1
40
1
41
1
10
5.77991886345626
20
-25.2905373312993
30
0
41
1
10
5.75563271466086
20
-25.2727421574658
30
0
41
1
10
5.72981735985559
20
-25.2583565431663
30
0
41
1
10
5.67706344234017
20
-25.2322040862937
30
0
41
1
10
5.64996612421663
20
-25.2206178833545
30
0
41
1
10
5.56888760333675
20
-25.1895368398704
30
0
41
1
10
5.51455885804518
20
-25.1732964858186
30
0
41
1
10
5.46001133674781
20
-25.1612929572331
30
0
0
SPLINE
5
2D8
100
AcDbEntity
8
1
62
256
6
ByLayer
370
18
48
1
60
0
100
AcDbSpline
70
4
71
3
72
12
73
8
40
0
40
0
40
0
40
0
40
0.5
40
0.5
40
0.75
40
0.75
40
1
40
1
40
1
40
1
41
1
10
10.5399886632516
20
-25.1612929572331
30
0
41
1
10
10.4852759894192
20
-25.1733328286831
30
0
41
1
10
10.4310556593393
20
-25.1895779802566
30
0
41
1
10
10.3505414468796
20
-25.2204136996314
30
0
41
1
10
10.3238440800493
20
-25.2317953958479
30
0
41
1
10
10.2709667032166
20
-25.257927938815
30
0
41
1
10
10.2444875486577
20
-25.272654037003
30
0
41
1
10
10.2200811365431
20
-25.2905373312993
30
0
0
SPLINE
5
2D9
100
AcDbEntity
8
1
62
256
6
ByLayer
370
18
48
1
60
0
100
AcDbSpline
70
4
71
3
72
12
73
8
40
0
40
0
40
0
40
0
40
0.500000000000008
40
0.500000000000008
40
0.750000000000004
40
0.750000000000004
40
1
40
1
40
1
40
1
41
1
10
10.9913922765117
20
-25.0481195420362
30
0
41
1
10
11.0300399508742
20
-25.0371823293966
30
0
41
1
10
11.0678191085201
20
-25.0301686217202
30
0
41
1
10
11.1228783302601
20
-25.0282261928301
30
0
41
1
10
11.1409348008864
20
-25.0290833183944
30
0
41
1
10
11.1748446563162
20
-25.0351823028512
30
0
41
1
10
11.1910998894384
20
-25.0404223294136
30
0
41
1
10
11.2048934680801
20
-25.0494285223609
30
0
0
SPLINE
5
2DA
100
AcDbEntity
8
1
62
256
6
ByLayer
370
18
48
1
60
0
100
AcDbSpline
70
4
71
3
72
22
73
18
40
0
40
0
40
0
40
0
40
0.125
40
0.125
40
0.25
40
0.25
40
0.375
40
0.375
40
0.5
40
0.5
40
0.625
40
0.625
40
0.75
40
0.75
40
0.875
40
0.875
40
1
40
1
40
1
40
1
41
1
10
11.6935661950299
20
-25.4127825113554
30
0
41
1
10
11.7041387776904
20
-25.4216910890654
30
0
41
1
10
11.7162612822365
20
-25.4274563579467
30
0
41
1
10
11.7424127418999
20
-25.4349026887547
30
0
41
1
10
11.7565721301923
20
-25.4364807447757
30
0
41
1
10
11.7852014705636
20
-25.4360993484658
30
0
41
1
10
11.7998298590229
20
-25.4341866205225
30
0
41
1
10
11.829612868924
20
-25.4272524153175
30
0
41
1
10
11.844725410133
20
-25.4222067113146
30
0
41
1
10
11.8744822634732
20
-25.4093436246309
30
0
41
1
10
11.8892501751519
20
-25.4015035872388
30
0
41
1
10
11.9185608260623
20
-25.3827171249554
30
0
41
1
10
11.9329420074569
20
-25.3718514216731
30
0
41
1
10
11.9603982544492
20
-25.3472862412925
30
0
41
1
10
11.9737602057587
20
-25.3333037359377
30
0
41
1
10
11.998045260353
20
-25.3026343768764
30
0
41
1
10
12.0089726049717
20
-25.2860787160289
30
0
41
1
10
12.0182076342875
20
-25.267789065115
30
0
0
SPLINE
5
2DB
100
AcDbEntity
8
1
62
256
6
ByLayer
370
18
48
1
60
0
100
AcDbSpline
70
4
71
3
72
14
73
10
40
0
40
0
40
0
40
0
40
0.25
40
0.25
40
0.5
40
0.5
40
0.75
40
0.75
40
1
40
1
40
1
40
1
41
1
10
12.346184428712
20
-24.5519019911441
30
0
41
1
10
12.3522968117876
20
-24.5371853758891
30
0
41
1
10
12.3594921336738
20
-24.5234396327957
30
0
41
1
10
12.3755055054056
20
-24.4974300318223
30
0
41
1
10
12.384289398256
20
-24.4852956783071
30
0
41
1
10
12.4024459621288
20
-24.4634240691932
30
0
41
1
10
12.4119924483369
20
-24.4534834553694
30
0
41
1
10
12.431109639395
20
-24.4362385702815
30
0
41
1
10
12.440753788318
20
-24.4288313224008
30
0
41
1
10
12.4504807122511
20
-24.4226576170778
30
0
0
SPLINE
5
2DC
100
AcDbEntity
8
1
62
256
6
ByLayer
370
18
48
1
60
0
100
AcDbSpline
70
4
71
3
72
14
73
10
40
0
40
0
40
0
40
0
40
0.25
40
0.25
40
0.5
40
0.5
40
0.75
40
0.75
40
1
40
1
40
1
40
1
41
1
10
12.7049962104958
20
-24.3107931822057
30
0
41
1
10
12.7003527042077
20
-24.3034663860218
30
0
41
1
10
12.6947863359955
20
-24.2982692376232
30
0
41
1
10
12.6820510183839
20
-24.2914372619155
30
0
41
1
10
12.6749248234527
20
-24.2898972021162
30
0
41
1
10
12.6598812515676
20
-24.2901981586981
30
0
41
1
10
12.6518190804067
20
-24.2920515040008
30
0
41
1
10
12.6354659782442
20
-24.2986373460062
30
0
41
1
10
12.6270965517442
20
-24.3033563442224
30
0
41
1
10
12.6185302431555
20
-24.3094842018809
30
0
0
SPLINE
5
2DD
100
AcDbEntity
8
1
62
256
6
ByLayer
370
18
48
1
60
0
100
AcDbSpline
70
4
71
3
72
22
73
18
40
0
40
0
40
0
40
0
40
0.125
40
0.125
40
0.25
40
0.25
40
0.375
40
0.375
40
0.5
40
0.5
40
0.625
40
0.625
40
0.75
40
0.75
40
0.875
40
0.875
40
1
40
1
40
1
40
1
41
1
10
13.05917887366
20
-24.5291537249598
30
0
41
1
10
13.0556176030089
20
-24.544972162238
30
0
41
1
10
13.0513202106442
20
-24.5601844974345
30
0
41
1
10
13.0413380873528
20
-24.5895023963835
30
0
41
1
10
13.0356764772017
20
-24.6034518120254
30
0
41
1
10
13.0235788820008
20
-24.6287625115174
30
0
41
1
10
13.0170063802161
20
-24.6403963469365
30
0
41
1
10
13.0035466677868
20
-24.6604741722393
30
0
41
1
10
12.996529674874
20
-24.6691397414298
30
0
41
1
10
12.9823693578004
20
-24.6831991646984
30
0
41
1
10
12.9753221761505
20
-24.6885345308824
30
0
41
1
10
12.961305744294
20
-24.6958182052527
30
0
41
1
10
12.954386582496
20
-24.6976902748311
30
0
41
1
10
12.9413922746649
20
-24.6976498245088
30
0
41
1
10
12.9351441043893
20
-24.6957308554008
30
0
41
1
10
12.9239261922743
20
-24.6879081444835
30
0
41
1
10
12.9189758332654
20
-24.6821026864563
30
0
41
1
10
12.9148089424081
20
-24.6741471712002
30
0
0
SPLINE
5
2DE
100
AcDbEntity
8
1
62
256
6
ByLayer
370
18
48
1
60
0
100
AcDbSpline
70
4
71
3
72
14
73
10
40
0
40
0
40
0
40
0
40
0.25
40
0.25
40
0.5
40
0.5
40
0.75
40
0.75
40
1
40
1
40
1
40
1
41
1
10
13.2487937383657
20
-23.6840222769226
30
0
41
1
10
13.244489601877
20
-23.6904538542254
30
0
41
1
10
13.2402206009173
20
-23.698203530253
30
0
41
1
10
13.2317601906731
20
-23.7162595187668
30
0
41
1
10
13.2275605631079
20
-23.7266378315056
30
0
41
1
10
13.2197382577272
20
-23.74893059503
30
0
41
1
10
13.2160050025992
20
-23.7611539076015
30
0
41
1
10
13.2093502751835
20
-23.7865998767966
30
0
41
1
10
13.2064381207919
20
-23.7997178554052
30
0
41
1
10
13.2039972579758
20
-23.8132666509889
30
0
0
SPLINE
5
2DF
100
AcDbEntity
8
1
62
256
6
ByLayer
370
18
48
1
60
0
100
AcDbSpline
70
4
71
3
72
14
73
10
40
0
40
0
40
0
40
0
40
0.25
40
0.25
40
0.5
40
0.5
40
0.75
40
0.75
40
1
40
1
40
1
40
1
41
1
10
13.3184590121855
20
-23.5708488617257
30
0
41
1
10
13.3220737810994
20
-23.5644246696307
30
0
41
1
10
13.3255601404763
20
-23.5595841116162
30
0
41
1
10
13.3322916845217
20
-23.5530129230217
30
0
41
1
10
13.3355319237361
20
-23.5513436500758
30
0
41
1
10
13.3414180149896
20
-23.5514639892638
30
0
41
1
10
13.3441508523321
20
-23.5532586186916
30
0
41
1
10
13.3488911419235
20
-23.5602288622126
30
0
41
1
10
13.3509108350403
20
-23.5653336602244
30
0
41
1
10
13.3525805080293
20
-23.5721578420505
30
0
0
SPLINE
5
2E0
100
AcDbEntity
8
1
62
256
6
ByLayer
370
18
48
1
60
0
100
AcDbSpline
70
4
71
3
72
22
73
18
40
0
40
0
40
0
40
0
40
0.125
40
0.125
40
0.25
40
0.25
40
0.375
40
0.375
40
0.5
40
0.5
40
0.625
40
0.625
40
0.75
40
0.75
40
0.875
40
0.875
40
1
40
1
40
1
40
1
41
1
10
13.4276983424207
20
-23.9355118310449
30
0
41
1
10
13.4289901997354
20
-23.9431389254065
30
0
41
1
10
13.4305254590739
20
-23.9488958438955
30
0
41
1
10
13.4340130840207
20
-23.9568181993018
30
0
41
1
10
13.4359648979459
20
-23.9589000119092
30
0
41
1
10
13.4400216511577
20
-23.9591568225628
30
0
41
1
10
13.442182674466
20
-23.9573237633404
30
0
41
1
10
13.4464671135589
20
-23.9499567259879
30
0
41
1
10
13.448622010736
20
-23.94441177217
30
0
41
1
10
13.452825618844
20
-23.9298133333895
30
0
41
1
10
13.4548235599971
20
-23.9209706927807
30
0
41
1
10
13.4586256978819
20
-23.9002047350128
30
0
41
1
10
13.4603971566178
20
-23.8884055844657
30
0
41
1
10
13.4635789554571
20
-23.8629531751851
30
0
41
1
10
13.4650227384033
20
-23.8489960838886
30
0
41
1
10
13.4674747829172
20
-23.820438688774
30
0
41
1
10
13.4685123626312
20
-23.8055775369256
30
0
41
1
10
13.4693499621276
20
-23.7905183848046
30
0
0
SPLINE
5
2E1
100
AcDbEntity
8
1
62
256
6
ByLayer
370
18
48
1
60
0
100
AcDbSpline
70
4
71
3
72
14
73
10
40
0
40
0
40
0
40
0
40
0.25
40
0.25
40
0.5
40
0.5
40
0.75
40
0.75
40
1
40
1
40
1
40
1
41
1
10
13.4962031330222
20
-23.0746313108336
30
0
41
1
10
13.496460997324
20
-23.0614057364575
30
0
41
1
10
13.4967585085041
20
-23.0484889308182
30
0
41
1
10
13.4973920597705
20
-23.0232535970294
30
0
41
1
10
13.4977269681813
20
-23.0110053830454
30
0
41
1
10
13.4983591256675
20
-22.9885395737134
30
0
41
1
10
13.4986647587768
20
-22.9780090903258
30
0
41
1
10
13.4991868773968
20
-22.9597507440237
30
0
41
1
10
13.4994068435486
20
-22.9519004879966
30
0
41
1
10
13.4995785903629
20
-22.9453869367674
30
0
0
SPLINE
5
2E2
100
AcDbEntity
8
1
62
256
6
ByLayer
370
18
48
1
60
0
100
AcDbSpline
70
4
71
3
72
12
73
8
40
0
40
0
40
0
40
0
40
0.500000000000007
40
0.500000000000007
40
0.750000000000004
40
0.750000000000004
40
1
40
1
40
1
40
1
41
1
10
10.5399886632516
20
-47.1503234576901
30
0
41
1
10
10.4852759894192
20
-47.1738844481098
30
0
41
1
10
10.4310556593393
20
-47.1975996191591
30
0
41
1
10
10.3505414468796
20
-47.2335673215981
30
0
41
1
10
10.3238440800493
20
-47.2456278872464
30
0
41
1
10
10.2709667032166
20
-47.2702011293155
30
0
41
1
10
10.2444875486577
20
-47.2827898503577
30
0
41
1
10
10.2200811365431
20
-47.2955456037469
30
0
0
SPLINE
5
2E3
100
AcDbEntity
8
1
62
256
6
ByLayer
370
18
48
1
60
0
100
AcDbSpline
70
4
71
3
72
12
73
8
40
0
40
0
40
0
40
0
40
0.499999999999984
40
0.499999999999984
40
0.749999999999992
40
0.749999999999992
40
1
40
1
40
1
40
1
41
1
10
10.9913922765117
20
-46.9288528413077
30
0
41
1
10
11.0300399508742
20
-46.9074496591155
30
0
41
1
10
11.0678191085201
20
-46.887096120426
30
0
41
1
10
11.1228783302601
20
-46.8592027012466
30
0
41
1
10
11.1409348008864
20
-46.8503781970734
30
0
41
1
10
11.1748446563162
20
-46.8349609431786
30
0
41
1
10
11.1910998894384
20
-46.8281594076859
30
0
41
1
10
11.2048934680801
20
-46.8237164516627
30
0
0
SPLINE
5
2E4
100
AcDbEntity
8
1
62
256
6
ByLayer
370
18
48
1
60
0
100
AcDbSpline
70
4
71
3
72
22
73
18
40
0
40
0
40
0
40
0
40
0.125
40
0.125
40
0.25
40
0.25
40
0.375
40
0.375
40
0.5
40
0.5
40
0.625
40
0.625
40
0.75
40
0.75
40
0.875
40
0.875
40
1
40
1
40
1
40
1
41
1
10
11.6935661950299
20
-46.6444658178645
30
0
41
1
10
11.7041387776904
20
-46.6400710176171
30
0
41
1
10
11.7162612822365
20
-46.633604629138
30
0
41
1
10
11.7424127418999
20
-46.6179168879414
30
0
41
1
10
11.7565721301923
20
-46.6085716642373
30
0
41
1
10
11.7852014705636
20
-46.5883369045702
30
0
41
1
10
11.7998298590229
20
-46.5773547688178
30
0
41
1
10
11.829612868924
20
-46.5537995061391
30
0
41
1
10
11.844725410133
20
-46.5412467238849
30
0
41
1
10
11.8744822634732
20
-46.5153642762475
30
0
41
1
10
11.8892501751519
20
-46.5019392154025
30
0
41
1
10
11.9185608260623
20
-46.474038893131
30
0
41
1
10
11.9329420074569
20
-46.4597081548159
30
0
41
1
10
11.9603982544492
20
-46.4309402059914
30
0
41
1
10
11.9737602057587
20
-46.4161918134653
30
0
41
1
10
11.998045260353
20
-46.3875875161443
30
0
41
1
10
12.0089726049717
20
-46.3737717425348
30
0
41
1
10
12.0182076342875
20
-46.3607261440692
30
0
0
SPLINE
5
2E5
100
AcDbEntity
8
1
62
256
6
ByLayer
370
18
48
1
60
0
100
AcDbSpline
70
4
71
3
72
14
73
10
40
0
40
0
40
0
40
0
40
0.25
40
0.25
40
0.5
40
0.5
40
0.75
40
0.75
40
1
40
1
40
1
40
1
41
1
10
12.346184428712
20
-45.850099923934
30
0
41
1
10
12.3522968117876
20
-45.8396028917984
30
0
41
1
10
12.3594921336738
20
-45.8283097289259
30
0
41
1
10
12.3755055054056
20
-45.8044461406772
30
0
41
1
10
12.384289398256
20
-45.7919474619565
30
0
41
1
10
12.4024459621287
20
-45.766925090427
30
0
41
1
10
12.4119924483369
20
-45.754163417588
30
0
41
1
10
12.431109639395
20
-45.7292325892945
30
0
41
1
10
12.440753788318
20
-45.716959186933
30
0
41
1
10
12.4504807122511
20
-45.7048777778772
30
0
0
SPLINE
5
2E6
100
AcDbEntity
8
1
62
256
6
ByLayer
370
18
48
1
60
0
100
AcDbSpline
70
4
71
3
72
14
73
10
40
0
40
0
40
0
40
0
40
0.25
40
0.25
40
0.5
40
0.5
40
0.75
40
0.75
40
1
40
1
40
1
40
1
41
1
10
12.7049962104958
20
-45.3782707718498
30
0
41
1
10
12.7003527042077
20
-45.3818852439609
30
0
41
1
10
12.6947863359955
20
-45.387286195028
30
0
41
1
10
12.6820510183839
20
-45.4010579139819
30
0
41
1
10
12.6749248234527
20
-45.4094022129938
30
0
41
1
10
12.6598812515676
20
-45.4279305108071
30
0
41
1
10
12.6518190804066
20
-45.4382949053149
30
0
41
1
10
12.6354659782442
20
-45.4599906396822
30
0
41
1
10
12.6270965517442
20
-45.4714154723654
30
0
41
1
10
12.6185302431555
20
-45.4834071614948
30
0
0
SPLINE
5
2E7
100
AcDbEntity
8
1
62
256
6
ByLayer
370
18
48
1
60
0
100
AcDbSpline
70
4
71
3
72
22
73
18
40
0
40
0
40
0
40
0
40
0.125
40
0.125
40
0.25
40
0.25
40
0.375
40
0.375
40
0.5
40
0.5
40
0.625
40
0.625
40
0.75
40
0.75
40
0.875
40
0.875
40
1
40
1
40
1
40
1
41
1
10
13.05917887366
20
-44.9152804642563
30
0
41
1
10
13.0556176030089
20
-44.9265634013695
30
0
41
1
10
13.0513202106442
20
-44.9389448182837
30
0
41
1
10
13.0413380873528
20
-44.9656634557711
30
0
41
1
10
13.0356764772017
20
-44.9799079742365
30
0
41
1
10
13.0235788820008
20
-45.0087071577722
30
0
41
1
10
13.0170063802161
20
-45.0235811221092
30
0
41
1
10
13.0035466677868
20
-45.0525995456471
30
0
41
1
10
12.996529674874
20
-45.0670342328425
30
0
41
1
10
12.9823693578004
20
-45.0948157781063
30
0
41
1
10
12.9753221761505
20
-45.1079884839334
30
0
41
1
10
12.961305744294
20
-45.132902934923
30
0
41
1
10
12.954386582496
20
-45.1445365824267
30
0
41
1
10
12.9413922746649
20
-45.1650837749644
30
0
41
1
10
12.9351441043893
20
-45.1742691693051
30
0
41
1
10
12.9239261922743
20
-45.189273238722
30
0
41
1
10
12.9189758332654
20
-45.1950955047875
30
0
41
1
10
12.9148089424081
20
-45.1990201380515
30
0
0
SPLINE
5
2E8
100
AcDbEntity
8
1
62
256
6
ByLayer
370
18
48
1
60
0
100
AcDbSpline
70
4
71
3
72
14
73
10
40
0
40
0
40
0
40
0
40
0.25
40
0.25
40
0.5
40
0.5
40
0.75
40
0.75
40
1
40
1
40
1
40
1
41
1
10
13.2487937383657
20
-44.2594320980643
30
0
41
1
10
13.244489601877
20
-44.2720181403525
30
0
41
1
10
13.2402206009173
20
-44.2847751298004
30
0
41
1
10
13.2317601906731
20
-44.3106235483208
30
0
41
1
10
13.2275605631079
20
-44.3237520409614
30
0
41
1
10
13.2197382577272
20
-44.3489097672644
30
0
41
1
10
13.2160050025992
20
-44.3612941277406
30
0
41
1
10
13.2093502751835
20
-44.3843593694913
30
0
41
1
10
13.2064381207919
20
-44.394990191608
30
0
41
1
10
13.2039972579758
20
-44.404654244121
30
0
0
SPLINE
5
2E9
100
AcDbEntity
8
1
62
256
6
ByLayer
370
18
48
1
60
0
100
AcDbSpline
70
4
71
3
72
14
73
10
40
0
40
0
40
0
40
0
40
0.25
40
0.25
40
0.5
40
0.5
40
0.75
40
0.75
40
1
40
1
40
1
40
1
41
1
10
13.3184590121855
20
-44.0379614816819
30
0
41
1
10
13.3220737810994
20
-44.0253898916086
30
0
41
1
10
13.3255601404763
20
-44.0135138987668
30
0
41
1
10
13.3322916845217
20
-43.9911301273651
30
0
41
1
10
13.3355319237361
20
-43.9806506337182
30
0
41
1
10
13.3414180149896
20
-43.9623331953062
30
0
41
1
10
13.3441508523321
20
-43.9542267991565
30
0
41
1
10
13.3488911419235
20
-43.9411839875666
30
0
41
1
10
13.3509108350403
20
-43.9361916132656
30
0
41
1
10
13.3525805080293
20
-43.9328250920369
30
0
0
SPLINE
5
2EA
100
AcDbEntity
8
1
62
256
6
ByLayer
370
18
48
1
60
0
100
AcDbSpline
70
4
71
3
72
22
73
18
40
0
40
0
40
0
40
0
40
0.125
40
0.125
40
0.25
40
0.25
40
0.375
40
0.375
40
0.5
40
0.5
40
0.625
40
0.625
40
0.75
40
0.75
40
0.875
40
0.875
40
1
40
1
40
1
40
1
41
1
10
13.4276983424207
20
-43.7535744582386
30
0
41
1
10
13.4289901997354
20
-43.749811842333
30
0
41
1
10
13.4305254590739
20
-43.7442439756418
30
0
41
1
10
13.4340130840207
20
-43.7296373556321
30
0
41
1
10
13.4359648979459
20
-43.7205673554603
30
0
41
1
10
13.4400216511577
20
-43.6999138564871
30
0
41
1
10
13.442182674466
20
-43.6880365807294
30
0
41
1
10
13.4464671135589
20
-43.6626448142266
30
0
41
1
10
13.448622010736
20
-43.648963351826
30
0
41
1
10
13.452825618844
20
-43.6203356370266
30
0
41
1
10
13.4548235599971
20
-43.6057526178387
30
0
41
1
10
13.4586256978819
20
-43.5760509658003
30
0
41
1
10
13.4603971566178
20
-43.5611626245882
30
0
41
1
10
13.4635789554571
20
-43.5325034670068
30
0
41
1
10
13.4650227384033
20
-43.5184184240295
30
0
41
1
10
13.4674747829172
20
-43.4925917742767
30
0
41
1
10
13.4685123626312
20
-43.4805761404555
30
0
41
1
10
13.4693499621276
20
-43.4698347844434
30
0
0
SPLINE
5
2EB
100
AcDbEntity
8
1
62
256
6
ByLayer
370
18
48
1
60
0
100
AcDbSpline
70
4
71
3
72
14
73
10
40
0
40
0
40
0
40
0
40
0.25
40
0.25
40
0.5
40
0.5
40
0.75
40
0.75
40
1
40
1
40
1
40
1
41
1
10
13.4962031330222
20
-42.9592085643081
30
0
41
1
10
13.496460997324
20
-42.9497750582449
30
0
41
1
10
13.4967585085041
20
-42.939346043736
30
0
41
1
10
13.4973920597705
20
-42.9165555918947
30
0
41
1
10
13.4977269681813
20
-42.9042121659823
30
0
41
1
10
13.4983591256675
20
-42.8789628951315
30
0
41
1
10
13.4986647587768
20
-42.8656926579458
30
0
41
1
10
13.4991868773968
20
-42.8396259169894
30
0
41
1
10
13.4994068435486
20
-42.826732876446
30
0
41
1
10
13.4995785903629
20
-42.8139864182514
30
0
0
SPLINE
5
2EC
100
AcDbEntity
8
1
62
256
6
ByLayer
370
18
48
1
60
0
100
AcDbSpline
70
4
71
3
72
14
73
10
40
0
40
0
40
0
40
0
40
0.25
40
0.25
40
0.5
40
0.5
40
0.75
40
0.75
40
1
40
1
40
1
40
1
41
1
10
2.50042140963643
20
-42.8139864182514
30
0
41
1
10
2.50059315633763
20
-42.8267328680478
30
0
41
1
10
2.50081354412606
20
-42.8396558277475
30
0
41
1
10
2.50133845997118
20
-42.8658444258269
30
0
41
1
10
2.50164304192759
20
-42.8790542025286
30
0
41
1
10
2.50227534457918
20
-42.9042997767709
30
0
41
1
10
2.50261168978625
20
-42.9166917489781
30
0
41
1
10
2.50324214479213
20
-42.9393682595782
30
0
41
1
10
2.50353900214867
20
-42.9497750389762
30
0
41
1
10
2.50379686697715
20
-42.9592085643081
30
0
0
SPLINE
5
2ED
100
AcDbEntity
8
1
62
256
6
ByLayer
370
18
48
1
60
0
100
AcDbSpline
70
4
71
3
72
22
73
18
40
0
40
0
40
0
40
0
40
0.125
40
0.125
40
0.25
40
0.25
40
0.375
40
0.375
40
0.5
40
0.5
40
0.625
40
0.625
40
0.75
40
0.75
40
0.875
40
0.875
40
1
40
1
40
1
40
1
41
1
10
2.53065003787179
20
-43.4698347844434
30
0
41
1
10
2.5314875861385
20
-43.4805754834872
30
0
41
1
10
2.53251189791655
20
-43.4924458324159
30
0
41
1
10
2.53497159681825
20
-43.5183643702402
30
0
41
1
10
2.53640842605012
20
-43.5323835601741
30
0
41
1
10
2.53958716902764
20
-43.5610276362086
30
0
41
1
10
2.54137441192643
20
-43.5760479132467
30
0
41
1
10
2.54515470141649
20
-43.6055866877732
30
0
41
1
10
2.5471783013017
20
-43.6203629209381
30
0
41
1
10
2.55137782829843
20
-43.6489616684369
30
0
41
1
10
2.55350902562907
20
-43.6625005747052
30
0
41
1
10
2.55782123341675
20
-43.6880625559888
30
0
41
1
10
2.55995869522309
20
-43.6998088552613
30
0
41
1
10
2.56401952167579
20
-43.7204929327777
30
0
41
1
10
2.56597909113719
20
-43.7295998583682
30
0
41
1
10
2.56945417094278
20
-43.7441633511735
30
0
41
1
10
2.57100991017762
20
-43.7498121624636
30
0
41
1
10
2.57230165757864
20
-43.7535744582386
30
0
0
SPLINE
5
2EE
100
AcDbEntity
8
1
62
256
6
ByLayer
370
18
48
1
60
0
100
AcDbSpline
70
4
71
3
72
14
73
10
40
0
40
0
40
0
40
0
40
0.25
40
0.25
40
0.5
40
0.5
40
0.75
40
0.75
40
1
40
1
40
1
40
1
41
1
10
2.64741949197003
20
-43.9328250920369
30
0
41
1
10
2.6490892308546
20
-43.9361917461292
30
0
41
1
10
2.65111063335826
20
-43.9411877308156
30
0
41
1
10
2.65586147807699
20
-43.9542618708304
30
0
41
1
10
2.6585891745824
20
-43.9623544267999
30
0
41
1
10
2.66448677889963
20
-43.980709983465
30
0
41
1
10
2.66773819057715
20
-43.9912284320067
30
0
41
1
10
2.67444621304514
20
-44.0135360673714
30
0
41
1
10
2.67792602250972
20
-44.0253892085947
30
0
41
1
10
2.68154098781389
20
-44.0379614816819
30
0
0
SPLINE
5
2EF
100
AcDbEntity
8
1
62
256
6
ByLayer
370
18
48
1
60
0
100
AcDbSpline
70
4
71
3
72
14
73
10
40
0
40
0
40
0
40
0
40
0.25
40
0.25
40
0.5
40
0.5
40
0.75
40
0.75
40
1
40
1
40
1
40
1
41
1
10
2.79600274202358
20
-44.404654244121
30
0
41
1
10
2.79356180840898
20
-44.3949899112972
30
0
41
1
10
2.79065013375049
20
-44.3843610016414
30
0
41
1
10
2.78399849986408
20
-44.3613060525985
30
0
41
1
10
2.78026267666559
20
-44.3489122980815
30
0
41
1
10
2.77242358376787
20
-44.3237015301378
30
0
41
1
10
2.76821619675013
20
-44.3105507575518
30
0
41
1
10
2.75977481608243
20
-44.2847617790412
30
0
41
1
10
2.75551067166549
20
-44.2720189402401
30
0
41
1
10
2.75120626163363
20
-44.2594320980643
30
0
0
SPLINE
5
2F0
100
AcDbEntity
8
1
62
256
6
ByLayer
370
18
48
1
60
0
100
AcDbSpline
70
4
71
3
72
22
73
18
40
0
40
0
40
0
40
0
40
0.125
40
0.125
40
0.25
40
0.25
40
0.375
40
0.375
40
0.5
40
0.5
40
0.625
40
0.625
40
0.75
40
0.75
40
0.875
40
0.875
40
1
40
1
40
1
40
1
41
1
10
3.08519105759126
20
-45.1990201380515
30
0
41
1
10
3.08102508536581
20
-45.1950963700113
30
0
41
1
10
3.07607703226472
20
-45.1892768129499
30
0
41
1
10
3.06486792318043
20
-45.1742859939223
30
0
41
1
10
3.05861617465854
20
-45.1650984920331
30
0
41
1
10
3.04556628873672
20
-45.144460699631
30
0
41
1
10
3.03861087382052
20
-45.1327585575156
30
0
41
1
10
3.02463704943608
20
-45.1079121371358
30
0
41
1
10
3.01754067303591
20
-45.0946463869106
30
0
41
1
10
3.00333053778445
20
-45.0667527418684
30
0
41
1
10
2.99641768684734
20
-45.0525249484458
30
0
41
1
10
2.98296287368868
20
-45.0235125717164
30
0
41
1
10
2.9763903092595
20
-45.0086342060397
30
0
41
1
10
2.96434488257927
20
-44.979958431749
30
0
41
1
10
2.9587228348671
20
-44.9658222399233
30
0
41
1
10
2.94868995617435
20
-44.9389762842672
30
0
41
1
10
2.94438337550304
20
-44.926566501526
30
0
41
1
10
2.94082112633936
20
-44.9152804642563
30
0
0
SPLINE
5
2F1
100
AcDbEntity
8
1
62
256
6
ByLayer
370
18
48
1
60
0
100
AcDbSpline
70
4
71
3
72
14
73
10
40
0
40
0
40
0
40
0
40
0.25
40
0.25
40
0.5
40
0.5
40
0.75
40
0.75
40
1
40
1
40
1
40
1
41
1
10
3.3814697568439
20
-45.4834071614948
30
0
41
1
10
3.37290144151291
20
-45.471412663194
30
0
41
1
10
3.36454508029021
20
-45.4600063021297
30
0
41
1
10
3.34824416312546
20
-45.4383778242631
30
0
41
1
10
3.340198840776
20
-45.4280317022514
30
0
41
1
10
3.32512811965944
20
-45.409464896016
30
0
41
1
10
3.31811718084299
20
-45.4012473491325
30
0
41
1
10
3.30526947291673
20
-45.3873391283994
30
0
41
1
10
3.29964816996545
20
-45.3818859244115
30
0
41
1
10
3.29500378950354
20
-45.3782707718498
30
0
0
SPLINE
5
2F2
100
AcDbEntity
8
1
62
256
6
ByLayer
370
18
48
1
60
0
100
AcDbSpline
70
4
71
3
72
14
73
10
40
0
40
0
40
0
40
0
40
0.25
40
0.25
40
0.5
40
0.5
40
0.75
40
0.75
40
1
40
1
40
1
40
1
41
1
10
3.5495192877483
20
-45.7048777778772
30
0
41
1
10
3.55924693853478
20
-45.7169600897275
30
0
41
1
10
3.56888145130603
20
-45.729221578772
30
0
41
1
10
3.58796021072652
20
-45.7541010736778
30
0
41
1
10
3.59750840255162
20
-45.7668636960957
30
0
41
1
10
3.61565255454519
20
-45.7918659753162
30
0
41
1
10
3.62428801755703
20
-45.804145202227
30
0
41
1
10
3.64044359359684
20
-45.8282073007009
30
0
41
1
10
3.64770518176806
20
-45.8396063154099
30
0
41
1
10
3.65381557128734
20
-45.850099923934
30
0
0
SPLINE
5
2F3
100
AcDbEntity
8
1
62
256
6
ByLayer
370
18
48
1
60
0
100
AcDbSpline
70
4
71
3
72
22
73
18
40
0
40
0
40
0
40
0
40
0.125
40
0.125
40
0.25
40
0.25
40
0.375
40
0.375
40
0.5
40
0.5
40
0.625
40
0.625
40
0.75
40
0.75
40
0.875
40
0.875
40
1
40
1
40
1
40
1
41
1
10
3.9817923657119
20
-46.3607261440692
30
0
41
1
10
3.99102165064909
20
-46.3737636279037
30
0
41
1
10
4.00197772386554
20
-46.3876199096502
30
0
41
1
10
4.02641475755394
20
-46.4163925303536
30
0
41
1
10
4.03968842849702
20
-46.4310341552921
30
0
41
1
10
4.06714678623695
20
-46.4597980453842
30
0
41
1
10
4.08161231453317
20
-46.4742073344489
30
0
41
1
10
4.11082832210241
20
-46.5020102725623
30
0
41
1
10
4.12556512023627
20
-46.5154063223377
30
0
41
1
10
4.15529064044154
20
-46.5412598510237
30
0
41
1
10
4.17041696891999
20
-46.5538234238307
30
0
41
1
10
4.20016429324846
20
-46.5773498245554
30
0
41
1
10
4.21475581603187
20
-46.5883037489093
30
0
41
1
10
4.24327508068802
20
-46.6084666215731
30
0
41
1
10
4.25737947127493
20
-46.6177870102644
30
0
41
1
10
4.28370522683031
20
-46.6335897213455
30
0
41
1
10
4.29586653599949
20
-46.6400732264064
30
0
41
1
10
4.30643380496952
20
-46.6444658178645
30
0
0
SPLINE
5
2F4
100
AcDbEntity
8
1
62
256
6
ByLayer
370
18
48
1
60
0
100
AcDbSpline
70
4
71
3
72
12
73
8
40
0
40
0
40
0
40
0
40
0.250000000000008
40
0.250000000000008
40
0.500000000000016
40
0.500000000000016
40
1
40
1
40
1
40
1
41
1
10
4.79510653191926
20
-46.8237164516627
30
0
41
1
10
4.80893548647504
20
-46.8281708023815
30
0
41
1
10
4.82482185648553
20
-46.8348156355199
30
0
41
1
10
4.85889519674618
20
-46.8502946836862
30
0
41
1
10
4.8768605078584
20
-46.8590749750061
30
0
41
1
10
4.93157494977942
20
-46.8867801251998
30
0
41
1
10
4.96995353723395
20
-46.9074460528132
30
0
41
1
10
5.00860772348773
20
-46.9288528413077
30
0
0
SPLINE
5
2F5
100
AcDbEntity
8
1
62
256
6
ByLayer
370
18
48
1
60
0
100
AcDbSpline
70
4
71
3
72
12
73
8
40
0
40
0
40
0
40
0
40
0.250000000000002
40
0.250000000000002
40
0.500000000000003
40
0.500000000000003
40
1
40
1
40
1
40
1
41
1
10
5.77991886345626
20
-47.2955456037469
30
0
41
1
10
5.75563271466086
20
-47.2828527047106
30
0
41
1
10
5.72981735985559
20
-47.2705735912146
30
0
41
1
10
5.67706344234017
20
-47.2460417959564
30
0
41
1
10
5.64996612421663
20
-47.2337953003072
30
0
41
1
10
5.56888760333675
20
-47.1975718267904
30
0
41
1
10
5.51455885804518
20
-47.1738133282573
30
0
41
1
10
5.46001133674781
20
-47.1503234576901
30
0
0
SPLINE
5
2F6
100
AcDbEntity
8
1
62
256
6
ByLayer
370
18
48
1
60
0
100
AcDbSpline
70
4
71
3
72
18
73
14
40
0
40
0
40
0
40
0
40
0.250000000000007
40
0.250000000000007
40
0.500000000000014
40
0.500000000000014
40
0.62500000000001
40
0.62500000000001
40
0.750000000000007
40
0.750000000000007
40
0.875000000000003
40
0.875000000000003
40
1
40
1
40
1
40
1
41
1
10
7.51208902263602
20
30.610934424164
30
0
41
1
10
7.49094269486551
20
30.5844824222322
30
0
41
1
10
7.46669304370187
20
30.5612860089875
30
0
41
1
10
7.41144896891484
20
30.521959732844
30
0
41
1
10
7.38151315316981
20
30.5066247483239
30
0
41
1
10
7.33348760938935
20
30.4911160654316
30
0
41
1
10
7.31731830050228
20
30.4873267045755
30
0
41
1
10
7.28466223207335
20
30.4825437146372
30
0
41
1
10
7.26801446884326
20
30.4815592719243
30
0
41
1
10
7.23523379087106
20
30.4826238968222
30
0
41
1
10
7.21917357001104
20
30.4846362443471
30
0
41
1
10
7.1877271065552
20
30.4916530874199
30
0
41
1
10
7.1722245367157
20
30.4967358409688
30
0
41
1
10
7.1577016963397
20
30.5031528222877
30
0
0
SPLINE
5
2F7
100
AcDbEntity
8
1
62
256
6
ByLayer
370
18
48
1
60
0
100
AcDbSpline
70
4
71
3
72
20
73
16
40
0
40
0
40
0
40
0
40
0.125000000000006
40
0.125000000000006
40
0.250000000000011
40
0.250000000000011
40
0.375000000000017
40
0.375000000000017
40
0.500000000000023
40
0.500000000000023
40
0.625000000000029
40
0.625000000000029
40
0.750000000000034
40
0.750000000000034
40
1
40
1
40
1
40
1
41
1
10
7.1577016963397
20
-0.39593193064627
30
0
41
1
10
7.14326640574211
20
-0.395273814531493
30
0
41
1
10
7.12965638008927
20
-0.393849414847296
30
0
41
1
10
7.10408311738342
20
-0.389463248869049
30
0
41
1
10
7.09212597589317
20
-0.386473502145009
30
0
41
1
10
7.0708989628713
20
-0.379222191709118
30
0
41
1
10
7.0614700651102
20
-0.374940229112326
30
0
41
1
10
7.04490725866873
20
-0.365071718204092
30
0
41
1
10
7.03776615580142
20
-0.359437823564804
30
0
41
1
10
7.02629335338389
20
-0.347330103322463
30
0
41
1
10
7.02186231658044
20
-0.340811345707493
30
0
41
1
10
7.01545137622645
20
-0.326858407699774
30
0
41
1
10
7.01347086240872
20
-0.319353230429954
30
0
41
1
10
7.01127180558916
20
-0.295948371103862
30
0
41
1
10
7.01461524268905
20
-0.279313750784354
30
0
41
1
10
7.02235553229121
20
-0.261586006473067
30
0
0
SPLINE
5
2F8
100
AcDbEntity
8
1
62
256
6
ByLayer
370
18
48
1
60
0
100
AcDbSpline
70
4
71
3
72
18
73
14
40
0
40
0
40
0
40
0
40
0.25
40
0.25
40
0.5
40
0.5
40
0.625
40
0.625
40
0.75
40
0.75
40
0.875
40
0.875
40
1
40
1
40
1
40
1
41
1
10
8.97764446770879
20
-0.261586006473124
30
0
41
1
10
8.9853658331719
20
-0.279270408439857
30
0
41
1
10
8.98873195972516
20
-0.295909148331759
30
0
41
1
10
8.98579228341077
20
-0.327194817191582
30
0
41
1
10
8.97951693558309
20
-0.341219366677421
30
0
41
1
10
8.96212398547959
20
-0.359543145334101
30
0
41
1
10
8.95511564830315
20
-0.365051387191045
30
0
41
1
10
8.93863037462825
20
-0.374887017448714
30
0
41
1
10
8.92905129875913
20
-0.379247089646185
30
0
41
1
10
8.90768817620614
20
-0.386528994572529
30
0
41
1
10
8.89599827530486
20
-0.389441722518541
30
0
41
1
10
8.87057829912135
20
-0.393816637052737
30
0
41
1
10
8.85669598284875
20
-0.395275529264893
30
0
41
1
10
8.8422983036603
20
-0.395931930646327
30
0
0
SPLINE
5
2F9
100
AcDbEntity
8
1
62
256
6
ByLayer
370
18
48
1
60
0
100
AcDbSpline
70
4
71
3
72
18
73
14
40
0
40
0
40
0
40
0
40
0.250000000000003
40
0.250000000000003
40
0.500000000000006
40
0.500000000000006
40
0.625000000000004
40
0.625000000000004
40
0.750000000000003
40
0.750000000000003
40
0.875000000000002
40
0.875000000000002
40
1
40
1
40
1
40
1
41
1
10
7.51208902263602
20
-0.28188608238446
30
0
41
1
10
7.49094269486551
20
-0.299195196988649
30
0
41
1
10
7.46669304370187
20
-0.315116690075797
30
0
41
1
10
7.41144896891484
20
-0.344221058489666
30
0
41
1
10
7.38151315316981
20
-0.356825412216324
30
0
41
1
10
7.33348760938935
20
-0.372459290938082
30
0
41
1
10
7.31731830050228
20
-0.377000704210218
30
0
41
1
10
7.28466223207335
20
-0.384758742922998
30
0
41
1
10
7.26801446884332
20
-0.38799751338172
30
0
41
1
10
7.23523379087106
20
-0.392922942748555
30
0
41
1
10
7.21917357001104
20
-0.394615495172445
30
0
41
1
10
7.1877271065552
20
-0.396460089606194
30
0
41
1
10
7.1722245367157
20
-0.396594038223498
30
0
41
1
10
7.1577016963397
20
-0.39593193064627
30
0
0
SPLINE
5
2FA
100
AcDbEntity
8
1
62
256
6
ByLayer
370
18
48
1
60
0
100
AcDbSpline
70
4
71
3
72
20
73
16
40
0
40
0
40
0
40
0
40
0.125000000000003
40
0.125000000000003
40
0.250000000000005
40
0.250000000000005
40
0.375000000000007
40
0.375000000000007
40
0.50000000000001
40
0.50000000000001
40
0.625000000000013
40
0.625000000000013
40
0.750000000000015
40
0.750000000000015
40
1
40
1
40
1
40
1
41
1
10
8.8422983036603
20
-0.395931930646327
30
0
41
1
10
8.82771524172102
20
-0.396596783771372
30
0
41
1
10
8.81253023609281
20
-0.396468756503737
30
0
41
1
10
8.78096568148339
20
-0.394630011536947
30
0
41
1
10
8.76450412592919
20
-0.392889081478358
30
0
41
1
10
8.73187022856621
20
-0.387974606728505
30
0
41
1
10
8.71551856232213
20
-0.384798001051593
30
0
41
1
10
8.6827555756077
20
-0.377021919064589
30
0
41
1
10
8.66623650306843
20
-0.372373511812043
30
0
41
1
10
8.63450163409266
20
-0.362034681433613
30
0
41
1
10
8.61912187095766
20
-0.356314181306288
30
0
41
1
10
8.58929006139067
20
-0.343796584104439
30
0
41
1
10
8.57471969114698
20
-0.336933860442571
30
0
41
1
10
8.53337855809679
20
-0.315155211884473
30
0
41
1
10
8.50910882705313
20
-0.299237369738648
30
0
41
1
10
8.48791097736392
20
-0.28188608238446
30
0
0
SPLINE
5
2FB
100
AcDbEntity
8
1
62
256
6
ByLayer
370
18
48
1
60
0
100
AcDbSpline
70
4
71
3
72
8
73
4
40
0
40
0
40
0
40
0
40
1
40
1
40
1
40
1
41
1
10
8.41509796092555
20
-0.228809713335977
30
0
41
1
10
8.44100405703449
20
-0.245591635219512
30
0
41
1
10
8.46524397210669
20
-0.263332232468315
30
0
41
1
10
8.48791097736392
20
-0.28188608238446
30
0
0
SPLINE
5
2FC
100
AcDbEntity
8
1
62
256
6
ByLayer
370
18
48
1
60
0
100
AcDbSpline
70
4
71
3
72
8
73
4
40
0
40
0
40
0
40
0
40
1
40
1
40
1
40
1
41
1
10
7.51208902263602
20
-0.28188608238446
30
0
41
1
10
7.53357048969178
20
-0.264302642878135
30
0
41
1
10
7.55671051438554
20
-0.247273197492461
30
0
41
1
10
7.58128596774969
20
-0.231167170125957
30
0
0
SPLINE
5
2FD
100
AcDbEntity
8
1
62
256
6
ByLayer
370
18
48
1
60
0
100
AcDbSpline
70
4
71
3
72
18
73
14
40
0
40
0
40
0
40
0
40
0.25
40
0.25
40
0.5
40
0.5
40
0.625
40
0.625
40
0.75
40
0.75
40
0.875
40
0.875
40
1
40
1
40
1
40
1
41
1
10
6.53913460781467
20
44.6894664054434
30
0
41
1
10
6.51033993181238
20
44.6984582157443
30
0
41
1
10
6.4828389622395
20
44.7116301478534
30
0
41
1
10
6.43096506392965
20
44.7471649241437
30
0
41
1
10
6.40761353253362
20
44.768861621003
30
0
41
1
10
6.37752711961656
20
44.8074871719801
30
0
41
1
10
6.36854749280423
20
44.8211081068298
30
0
41
1
10
6.35274770564484
20
44.8498745585877
30
0
41
1
10
6.34587645585526
20
44.8651788089223
30
0
41
1
10
6.33482534799981
20
44.8966036269014
30
0
41
1
10
6.33063212657879
20
44.912663409463
30
0
41
1
10
6.32495823776861
20
44.9454892704332
30
0
41
1
10
6.32349999999997
20
44.9623962720291
30
0
41
1
10
6.32349999999997
20
44.9789826409934
30
0
0
SPLINE
5
2FE
100
AcDbEntity
8
1
62
256
6
ByLayer
370
18
48
1
60
0
100
AcDbSpline
70
4
71
3
72
8
73
4
40
0
40
0
40
0
40
0
40
1
40
1
40
1
40
1
41
1
10
9.3953018697776
20
44.6654700630975
30
0
41
1
10
9.41684591405311
20
44.6745564251946
30
0
41
1
10
9.43869677736672
20
44.6825437375492
30
0
41
1
10
9.46086539218533
20
44.6894664054433
30
0
0
SPLINE
5
2FF
100
AcDbEntity
8
1
62
256
6
ByLayer
370
18
48
1
60
0
100
AcDbSpline
70
4
71
3
72
20
73
16
40
0
40
0
40
0
40
0
40
0.125
40
0.125
40
0.25
40
0.25
40
0.375
40
0.375
40
0.5
40
0.5
40
0.625
40
0.625
40
0.75
40
0.75
40
1
40
1
40
1
40
1
41
1
10
9.67649999999998
20
44.9789826409934
30
0
41
1
10
9.67649999999998
20
44.9623387057055
30
0
41
1
10
9.67507857416098
20
44.9457697746956
30
0
41
1
10
9.66939976358935
20
44.9127811865433
30
0
41
1
10
9.66509301651109
20
44.8963380896316
30
0
41
1
10
9.65407072019275
20
44.8650624090257
30
0
41
1
10
9.64733179050023
20
44.8500320558231
30
0
41
1
10
9.63148228304556
20
44.8211496472267
30
0
41
1
10
9.6222918281768
20
44.8072398944049
30
0
41
1
10
9.60238144332794
20
44.7817083751492
30
0
41
1
10
9.59159043758757
20
44.7699282274207
30
0
41
1
10
9.56845262973923
20
44.7482231164308
30
0
41
1
10
9.55598778837498
20
44.7382243286243
30
0
41
1
10
9.51719666794799
20
44.711660586725
30
0
41
1
10
9.48973205603198
20
44.6984806956305
30
0
41
1
10
9.46086539218533
20
44.6894664054433
30
0
0
SPLINE
5
300
100
AcDbEntity
8
1
62
256
6
ByLayer
370
18
48
1
60
0
100
AcDbSpline
70
4
71
3
72
18
73
14
40
0
40
0
40
0
40
0
40
0.25
40
0.25
40
0.5
40
0.5
40
0.625
40
0.625
40
0.75
40
0.75
40
0.875
40
0.875
40
1
40
1
40
1
40
1
41
1
10
9.46086539218533
20
45.251403608338
30
0
41
1
10
9.48966006818762
20
45.2448393703287
30
0
41
1
10
9.5171610377605
20
45.2339207482537
30
0
41
1
10
9.56903493607035
20
45.2025503228019
30
0
41
1
10
9.59238646746638
20
45.1826827027597
30
0
41
1
10
9.62247288038344
20
45.146382711001
30
0
41
1
10
9.63145250719572
20
45.1334498168884
30
0
41
1
10
9.6472522943551
20
45.1058877057365
30
0
41
1
10
9.65412354414474
20
45.0911035757327
30
0
41
1
10
9.66517465200013
20
45.0605125215732
30
0
41
1
10
9.66936787342115
20
45.0447674748409
30
0
41
1
10
9.67504176223139
20
45.0123670199623
30
0
41
1
10
9.67649999999998
20
44.9955690099576
30
0
41
1
10
9.67649999999998
20
44.9789826409934
30
0
0
SPLINE
5
301
100
AcDbEntity
8
1
62
256
6
ByLayer
370
18
48
1
60
0
100
AcDbSpline
70
4
71
3
72
20
73
16
40
0
40
0
40
0
40
0
40
0.125000000000001
40
0.125000000000001
40
0.250000000000001
40
0.250000000000001
40
0.375000000000002
40
0.375000000000002
40
0.500000000000002
40
0.500000000000002
40
0.625000000000003
40
0.625000000000003
40
0.750000000000004
40
0.750000000000004
40
1
40
1
40
1
40
1
41
1
10
6.32349999999997
20
44.9789826409934
30
0
41
1
10
6.32349999999997
20
44.9956265762813
30
0
41
1
10
6.32492142583897
20
45.0120892720757
30
0
41
1
10
6.33060023641065
20
45.0446520923569
30
0
41
1
10
6.33490698348891
20
45.0607719136751
30
0
41
1
10
6.34592927980719
20
45.0912159761759
30
0
41
1
10
6.35266820949977
20
45.1057362511716
30
0
41
1
10
6.36851771695439
20
45.1334105629751
30
0
41
1
10
6.3777081718232
20
45.1466160372029
30
0
41
1
10
6.39761855667206
20
45.1706084765101
30
0
41
1
10
6.40840956241243
20
45.181548478529
30
0
41
1
10
6.43154737026077
20
45.2014338397303
30
0
41
1
10
6.44401221162497
20
45.2104435387116
30
0
41
1
10
6.48280333205196
20
45.2338931219067
30
0
41
1
10
6.51026794396802
20
45.2448229594706
30
0
41
1
10
6.53913460781467
20
45.251403608338
30
0
0
SPLINE
5
302
100
AcDbEntity
8
1
62
256
6
ByLayer
370
18
48
1
60
0
100
AcDbSpline
70
4
71
3
72
18
73
14
40
0
40
0
40
0
40
0
40
0.250000000000001
40
0.250000000000001
40
0.500000000000002
40
0.500000000000002
40
0.625000000000002
40
0.625000000000002
40
0.750000000000001
40
0.750000000000001
40
0.875000000000001
40
0.875000000000001
40
1
40
1
40
1
40
1
41
1
10
7.02235553229121
20
46.0884818259888
30
0
41
1
10
7.0146341668281
20
46.1184247754542
30
0
41
1
10
7.01126804027484
20
46.1492734197614
30
0
41
1
10
7.01420771658923
20
46.2128440795962
30
0
41
1
10
7.02048306441691
20
46.2443154129416
30
0
41
1
10
7.03787601452041
20
46.2902966415555
30
0
41
1
10
7.04488435169679
20
46.3050596303912
30
0
41
1
10
7.0613696253717
20
46.3334266437967
30
0
41
1
10
7.07094870124087
20
46.3471487903772
30
0
41
1
10
7.09231182379386
20
46.3726999614215
30
0
41
1
10
7.10400172469508
20
46.3844633564578
30
0
41
1
10
7.12942170087865
20
46.4059403120565
30
0
41
1
10
7.14330401715125
20
46.4157205645807
30
0
41
1
10
7.15770169633964
20
46.4240609349222
30
0
0
SPLINE
5
303
100
AcDbEntity
8
1
62
256
6
ByLayer
370
18
48
1
60
0
100
AcDbSpline
70
4
71
3
72
28
73
24
40
0
40
0
40
0
40
0
40
0.124999999999982
40
0.124999999999982
40
0.249999999999965
40
0.249999999999965
40
0.312499999999956
40
0.312499999999956
40
0.374999999999947
40
0.374999999999947
40
0.499999999999946
40
0.499999999999946
40
0.562499999999955
40
0.562499999999955
40
0.624999999999963
40
0.624999999999963
40
0.749999999999978
40
0.749999999999978
40
0.812499999999985
40
0.812499999999985
40
0.874999999999991
40
0.874999999999991
40
1
40
1
40
1
40
1
41
1
10
7.02235553229121
20
46.0884818259888
30
0
41
1
10
7.0332950188328
20
46.0460592137892
30
0
41
1
10
7.04058148581447
20
46.0021514440918
30
0
41
1
10
7.04703454719896
20
45.9133384953647
30
0
41
1
10
7.04628167131273
20
45.8684352218006
30
0
41
1
10
7.03843453014008
20
45.8000288831494
30
0
41
1
10
7.03465141502477
20
45.7769153422671
30
0
41
1
10
7.02480350432114
20
45.731316770632
30
0
41
1
10
7.01874309313376
20
45.7087536272398
30
0
41
1
10
6.99701249205134
20
45.6417801726044
30
0
41
1
10
6.97742212898009
20
45.597585825238
30
0
41
1
10
6.94221787913528
20
45.5367496632123
30
0
41
1
10
6.9294869457795
20
45.517234755294
30
0
41
1
10
6.90204700264917
20
45.479717741251
30
0
41
1
10
6.88723541423775
20
45.461606101222
30
0
41
1
10
6.84049123091461
20
45.4103678271118
30
0
41
1
10
6.80685920398838
20
45.380814351789
30
0
41
1
10
6.75301922348547
20
45.3423773648051
30
0
41
1
10
6.7343966129352
20
45.3305063813712
30
0
41
1
10
6.69671976562432
20
45.3090848317223
30
0
41
1
10
6.67762882848416
20
45.2994918449263
30
0
41
1
10
6.61959757085367
20
45.2737802120564
30
0
41
1
10
6.5799034136403
20
45.2606975536761
30
0
41
1
10
6.53913460781467
20
45.251403608338
30
0
0
SPLINE
5
304
100
AcDbEntity
8
1
62
256
6
ByLayer
370
18
48
1
60
0
100
AcDbSpline
70
4
71
3
72
20
73
16
40
0
40
0
40
0
40
0
40
0.125
40
0.125
40
0.25
40
0.25
40
0.375
40
0.375
40
0.5
40
0.5
40
0.625
40
0.625
40
0.75
40
0.75
40
1
40
1
40
1
40
1
41
1
10
8.8422983036603
20
46.4240609349222
30
0
41
1
10
8.85673359425789
20
46.4156987768275
30
0
41
1
10
8.87034361991073
20
46.406122657047
30
0
41
1
10
8.89591688261658
20
46.3845478601028
30
0
41
1
10
8.90787402410683
20
46.3724939281055
30
0
41
1
10
8.9291010371287
20
46.3470728715778
30
0
41
1
10
8.9385299348898
20
46.3335857996554
30
0
41
1
10
8.95509274133121
20
46.305112621722
30
0
41
1
10
8.96223384419858
20
46.2900271205901
30
0
41
1
10
8.97370664661611
20
46.2596548152017
30
0
41
1
10
8.9781376834195
20
46.2442258430006
30
0
41
1
10
8.98454862377355
20
46.2129242370617
30
0
41
1
10
8.98652913759128
20
46.1969104073799
30
0
41
1
10
8.98872819441078
20
46.1493531659783
30
0
41
1
10
8.98538475731095
20
46.1184981620258
30
0
41
1
10
8.97764446770879
20
46.0884818259888
30
0
0
SPLINE
5
305
100
AcDbEntity
8
1
62
256
6
ByLayer
370
18
48
1
60
0
100
AcDbSpline
70
4
71
3
72
28
73
24
40
0
40
0
40
0
40
0
40
0.125
40
0.125
40
0.25
40
0.25
40
0.3125
40
0.3125
40
0.375000000000001
40
0.375000000000001
40
0.500000000000014
40
0.500000000000014
40
0.562500000000013
40
0.562500000000013
40
0.625000000000012
40
0.625000000000012
40
0.750000000000008
40
0.750000000000008
40
0.812500000000006
40
0.812500000000006
40
0.875000000000004
40
0.875000000000004
40
1
40
1
40
1
40
1
41
1
10
9.46086539218533
20
45.251403608338
30
0
41
1
10
9.42006762999824
20
45.2607041547731
30
0
41
1
10
9.3797562187973
20
45.2740051275271
30
0
41
1
10
9.30210051579968
20
45.3085357217505
30
0
41
1
10
9.26472017514698
20
45.3296901936673
30
0
41
1
10
9.21086278357723
20
45.3681739280287
30
0
41
1
10
9.19318656921735
20
45.3822341441418
30
0
41
1
10
9.15940437141171
20
45.4122155230302
30
0
41
1
10
9.14323072834048
20
45.4281681837595
30
0
41
1
10
9.09692036240426
20
45.4790613369344
30
0
41
1
10
9.06874089710288
20
45.5176181303368
30
0
41
1
10
9.03366040621808
20
45.5785354402947
30
0
41
1
10
9.02305557363906
20
45.599444819244
30
0
41
1
10
9.00400639929666
20
45.6424603847876
30
0
41
1
10
8.99551661343651
20
45.664713455957
30
0
41
1
10
8.97369293668328
20
45.7322545201417
30
0
41
1
10
8.96412834281404
20
45.7775300686468
30
0
41
1
10
8.95631271661523
20
45.8458984021484
30
0
41
1
10
8.95481222174919
20
45.8688864500909
30
0
41
1
10
8.95397746014055
20
45.9141781300056
30
0
41
1
10
8.95462414466215
20
45.9365359159303
30
0
41
1
10
8.95952535043472
20
46.0028608788051
30
0
41
1
10
8.96671274532923
20
46.0460893227012
30
0
41
1
10
8.97764446770879
20
46.0884818259888
30
0
0
SPLINE
5
306
100
AcDbEntity
8
1
62
256
6
ByLayer
370
18
48
1
60
0
100
AcDbSpline
70
4
71
3
72
20
73
16
40
0
40
0
40
0
40
0
40
0.125000000000001
40
0.125000000000001
40
0.250000000000001
40
0.250000000000001
40
0.375000000000002
40
0.375000000000002
40
0.500000000000003
40
0.500000000000003
40
0.625000000000003
40
0.625000000000003
40
0.750000000000004
40
0.750000000000004
40
1
40
1
40
1
40
1
41
1
10
7.15770169633964
20
46.4240609349222
30
0
41
1
10
7.17228475827898
20
46.432508694849
30
0
41
1
10
7.18746976390713
20
46.4395785558088
30
0
41
1
10
7.21903431851661
20
46.4509823100651
30
0
41
1
10
7.23549587407081
20
46.4552929892698
30
0
41
1
10
7.26812977143373
20
46.4608265204085
30
0
41
1
10
7.28448143767787
20
46.4621294256077
30
0
41
1
10
7.3172444243923
20
46.461911411746
30
0
41
1
10
7.33376349693157
20
46.4603436504863
30
0
41
1
10
7.36549836590728
20
46.4546009867705
30
0
41
1
10
7.38087812904234
20
46.4504422482725
30
0
41
1
10
7.41070993860933
20
46.439717790564
30
0
41
1
10
7.42528030885302
20
46.433079755738
30
0
41
1
10
7.46662144190321
20
46.4100796344694
30
0
41
1
10
7.49089117294682
20
46.3909273178887
30
0
41
1
10
7.51208902263602
20
46.3683124046305
30
0
0
SPLINE
5
307
100
AcDbEntity
8
1
62
256
6
ByLayer
370
18
48
1
60
0
100
AcDbSpline
70
4
71
3
72
18
73
14
40
0
40
0
40
0
40
0
40
0.250000000000002
40
0.250000000000002
40
0.500000000000003
40
0.500000000000003
40
0.625000000000003
40
0.625000000000003
40
0.750000000000002
40
0.750000000000002
40
0.875000000000001
40
0.875000000000001
40
1
40
1
40
1
40
1
41
1
10
8.48791097736392
20
46.3683124046305
30
0
41
1
10
8.50905730513449
20
46.3908723517606
30
0
41
1
10
8.53330695629813
20
46.4100383510622
30
0
41
1
10
8.5885510310851
20
46.4407762628928
30
0
41
1
10
8.61848684683019
20
46.4517187858389
30
0
41
1
10
8.66651239061059
20
46.4603856266683
30
0
41
1
10
8.68268169949772
20
46.4619035470427
30
0
41
1
10
8.7153377679266
20
46.4621355383875
30
0
41
1
10
8.73198553115668
20
46.4608183696848
30
0
41
1
10
8.76476620912888
20
46.4552370169856
30
0
41
1
10
8.78082642998896
20
46.4510192246798
30
0
41
1
10
8.8122728934448
20
46.4396847562393
30
0
41
1
10
8.8277754632843
20
46.4324738093557
30
0
41
1
10
8.8422983036603
20
46.4240609349222
30
0
0
SPLINE
5
308
100
AcDbEntity
8
1
62
256
6
ByLayer
370
18
48
1
60
0
100
AcDbSpline
70
4
71
3
72
16
73
12
40
0
40
0
40
0
40
0
40
0.249999999999997
40
0.249999999999997
40
0.499999999999994
40
0.499999999999994
40
0.624999999999992
40
0.624999999999992
40
0.74999999999999
40
0.74999999999999
40
1
40
1
40
1
40
1
41
1
10
8.48791097736392
20
46.3683124046305
30
0
41
1
10
8.46232436681424
20
46.3410153444742
30
0
41
1
10
8.43438472221948
20
46.3155250884246
30
0
41
1
10
8.37455347097222
20
46.2693024199516
30
0
41
1
10
8.3426651663944
20
46.2485152408698
30
0
41
1
10
8.2914317887068
20
46.2211153594509
30
0
41
1
10
8.27368693394391
20
46.2125792177195
30
0
41
1
10
8.23754318502097
20
46.1971384781143
30
0
41
1
10
8.21913035305153
20
46.1902149627307
30
0
41
1
10
8.16281836998559
20
46.1718916889498
30
0
41
1
10
8.12385708259222
20
46.1629108019013
30
0
41
1
10
8.08322173651726
20
46.1576083749212
30
0
0
SPLINE
5
309
100
AcDbEntity
8
1
62
256
6
ByLayer
370
18
48
1
60
0
100
AcDbSpline
70
4
71
3
72
14
73
10
40
0
40
0
40
0
40
0
40
0.250000000000004
40
0.250000000000004
40
0.500000000000002
40
0.500000000000002
40
0.750000000000001
40
0.750000000000001
40
1
40
1
40
1
40
1
41
1
10
7.91677826348268
20
46.1576083749212
30
0
41
1
10
7.8761341869531
20
46.1629119411213
30
0
41
1
10
7.83641969843842
20
46.1720837787252
30
0
41
1
10
7.76116389379706
20
46.1966840961171
30
0
41
1
10
7.72526978199289
20
46.2121410790903
30
0
41
1
10
7.65656231117373
20
46.248971293157
30
0
41
1
10
7.62468329515946
20
46.2698438133573
30
0
41
1
10
7.56524786452781
20
46.3158581033306
30
0
41
1
10
7.53766701829255
20
46.3410245352678
30
0
41
1
10
7.51208902263602
20
46.3683124046305
30
0
0
SPLINE
5
30A
100
AcDbEntity
8
1
62
256
6
ByLayer
370
18
48
1
60
0
100
AcDbSpline
70
4
71
3
72
12
73
8
40
0
40
0
40
0
40
0
40
0.325536428297103
40
0.325536428297103
40
0.662768214148552
40
0.662768214148552
40
1
40
1
40
1
40
1
41
1
10
2.50110345926032
20
10.3697643354288
30
0
41
1
10
2.50135959997823
20
10.3697589460929
30
0
41
1
10
2.50165400620483
20
10.368129764397
30
0
41
1
10
2.50227534457918
20
10.3617053131135
30
0
41
1
10
2.50261168978625
20
10.3566901035211
30
0
41
1
10
2.50324214479213
20
10.3438387163391
30
0
41
1
10
2.50353900214867
20
10.3360223172934
30
0
41
1
10
2.50379686697715
20
10.3267520177683
30
0
0
SPLINE
5
30B
100
AcDbEntity
8
1
62
256
6
ByLayer
370
18
48
1
60
0
100
AcDbSpline
70
4
71
3
72
22
73
18
40
0
40
0
40
0
40
0
40
0.125
40
0.125
40
0.25
40
0.25
40
0.375
40
0.375
40
0.5
40
0.5
40
0.625
40
0.625
40
0.75
40
0.75
40
0.875
40
0.875
40
1
40
1
40
1
40
1
41
1
10
2.53065003787179
20
9.82496102876621
30
0
41
1
10
2.5314875861385
20
9.81440617321181
30
0
41
1
10
2.53251189791655
20
9.80549817567959
30
0
41
1
10
2.53497159681825
20
9.7908636917312
30
0
41
1
10
2.53640842605012
20
9.78523400692518
30
0
41
1
10
2.53958716902764
20
9.77787825655759
30
0
41
1
10
2.54137441192643
20
9.77606461454195
30
0
41
1
10
2.54515470141649
20
9.77638225138156
30
0
41
1
10
2.5471783013017
20
9.77847547943935
30
0
41
1
10
2.55137782829843
20
9.78645221642489
30
0
41
1
10
2.55350902562907
20
9.79221310722579
30
0
41
1
10
2.55782123341675
20
9.80727277654989
30
0
41
1
10
2.55995869522309
20
9.81645838706004
30
0
41
1
10
2.56401952167579
20
9.83747452537096
30
0
41
1
10
2.56597909113719
20
9.84953510860117
30
0
41
1
10
2.56945417094278
20
9.87522715299224
30
0
41
1
10
2.57100991017762
20
9.88910128609319
30
0
41
1
10
2.57230165757864
20
9.90364900443313
30
0
0
SPLINE
5
30C
100
AcDbEntity
8
1
62
256
6
ByLayer
370
18
48
1
60
0
100
AcDbSpline
70
4
71
3
72
14
73
10
40
0
40
0
40
0
40
0
40
0.25
40
0.25
40
0.5
40
0.5
40
0.75
40
0.75
40
1
40
1
40
1
40
1
41
1
10
2.64741949197003
20
10.5967597774098
30
0
41
1
10
2.6490892308546
20
10.6097776628744
30
0
41
1
10
2.65111063335826
20
10.6220023324721
30
0
41
1
10
2.65586147807699
20
10.6449436175737
30
0
41
1
10
2.6585891745824
20
10.6555618875648
30
0
41
1
10
2.66448677889963
20
10.6740738509389
30
0
41
1
10
2.66773819057715
20
10.6822042503833
30
0
41
1
10
2.67444621304514
20
10.6952365095509
30
0
41
1
10
2.67792602250972
20
10.7002607448812
30
0
41
1
10
2.68154098781389
20
10.7037473447829
30
0
0
SPLINE
5
30D
100
AcDbEntity
8
1
62
256
6
ByLayer
370
18
48
1
60
0
100
AcDbSpline
70
4
71
3
72
14
73
10
40
0
40
0
40
0
40
0
40
0.25
40
0.25
40
0.5
40
0.5
40
0.75
40
0.75
40
1
40
1
40
1
40
1
41
1
10
2.79600274202358
20
10.7276095818856
30
0
41
1
10
2.79356180840898
20
10.7371066953014
30
0
41
1
10
2.79065013375049
20
10.7450255219474
30
0
41
1
10
2.78399849986408
20
10.7579421181238
30
0
41
1
10
2.78026267666559
20
10.7628515978714
30
0
41
1
10
2.77242358376787
20
10.7692296027206
30
0
41
1
10
2.76821619675013
20
10.770770502736
30
0
41
1
10
2.75977481608243
20
10.7704504220454
30
0
41
1
10
2.75551067166549
20
10.7686572227614
30
0
41
1
10
2.75120626163363
20
10.7651665824938
30
0
0
SPLINE
5
30E
100
AcDbEntity
8
1
62
256
6
ByLayer
370
18
48
1
60
0
100
AcDbSpline
70
4
71
3
72
22
73
18
40
0
40
0
40
0
40
0
40
0.125
40
0.125
40
0.25
40
0.25
40
0.375
40
0.375
40
0.5
40
0.5
40
0.625
40
0.625
40
0.75
40
0.75
40
0.875
40
0.875
40
1
40
1
40
1
40
1
41
1
10
3.08519105759126
20
10.3045065685505
30
0
41
1
10
3.08102508536581
20
10.289334483288
30
0
41
1
10
3.07607703226472
20
10.2753085497353
30
0
41
1
10
3.06486792318043
20
10.2492572698195
30
0
41
1
10
3.05861617465854
20
10.2373419297206
30
0
41
1
10
3.04556628873672
20
10.2166572207567
30
0
41
1
10
3.03861087382052
20
10.2076447065772
30
0
41
1
10
3.02463704943608
20
10.1930959477783
30
0
41
1
10
3.01754067303591
20
10.1874319950159
30
0
41
1
10
3.00333053778445
20
10.179543146405
30
0
41
1
10
2.99641768684734
20
10.1774148158675
30
0
41
1
10
2.98296287368868
20
10.1768030783921
30
0
41
1
10
2.9763903092595
20
10.1783938766851
30
0
41
1
10
2.96434488257927
20
10.1853615181465
30
0
41
1
10
2.9587228348671
20
10.1907792831549
30
0
41
1
10
2.94868995617435
20
10.2055703000272
30
0
41
1
10
2.94438337550304
20
10.2147278349472
30
0
41
1
10
2.94082112633936
20
10.2258185928836
30
0
0
SPLINE
5
30F
100
AcDbEntity
8
1
62
256
6
ByLayer
370
18
48
1
60
0
100
AcDbSpline
70
4
71
3
72
14
73
10
40
0
40
0
40
0
40
0
40
0.25
40
0.25
40
0.5
40
0.5
40
0.75
40
0.75
40
1
40
1
40
1
40
1
41
1
10
3.3814697568439
20
11.1046049089003
30
0
41
1
10
3.37290144151291
20
11.1012785401278
30
0
41
1
10
3.36454508029021
20
11.0965316615929
30
0
41
1
10
3.34824416312546
20
11.0841989432284
30
0
41
1
10
3.340198840776
20
11.0764878060633
30
0
41
1
10
3.32512811965944
20
11.0583751849561
30
0
41
1
10
3.31811718084299
20
11.0480568327563
30
0
41
1
10
3.30526947291673
20
11.0244770100615
30
0
41
1
10
3.29964816996545
20
11.0115960992774
30
0
41
1
10
3.29500378950354
20
10.9976173415271
30
0
0
SPLINE
5
310
100
AcDbEntity
8
1
62
256
6
ByLayer
370
18
48
1
60
0
100
AcDbSpline
70
4
71
3
72
14
73
10
40
0
40
0
40
0
40
0
40
0.25
40
0.25
40
0.5
40
0.5
40
0.75
40
0.75
40
1
40
1
40
1
40
1
41
1
10
3.5495192877483
20
11.1660241466112
30
0
41
1
10
3.55924693853478
20
11.1693748682362
30
0
41
1
10
3.56888145130603
20
11.1711693016824
30
0
41
1
10
3.58796021072652
20
11.1717171495798
30
0
41
1
10
3.59750840255162
20
11.1704270111483
30
0
41
1
10
3.61565255454519
20
11.1645359163667
30
0
41
1
10
3.62428801755703
20
11.15998731552
30
0
41
1
10
3.64044359359684
20
11.147007815899
30
0
41
1
10
3.64770518176806
20
11.1387791863798
30
0
41
1
10
3.65381557128734
20
11.128467146003
30
0
0
SPLINE
5
311
100
AcDbEntity
8
1
62
256
6
ByLayer
370
18
48
1
60
0
100
AcDbSpline
70
4
71
3
72
22
73
18
40
0
40
0
40
0
40
0
40
0.125
40
0.125
40
0.25
40
0.25
40
0.375
40
0.375
40
0.5
40
0.5
40
0.625
40
0.625
40
0.75
40
0.75
40
0.875
40
0.875
40
1
40
1
40
1
40
1
41
1
10
3.9817923657119
20
10.6266761570009
30
0
41
1
10
3.99102165064909
20
10.6138642573189
30
0
41
1
10
4.00197772386554
20
10.6042280969637
30
0
41
1
10
4.02641475755394
20
10.58940056632
30
0
41
1
10
4.03968842849702
20
10.5844364729181
30
0
41
1
10
4.06714678623695
20
10.5784814193331
30
0
41
1
10
4.08161231453317
20
10.5774543443019
30
0
41
1
10
4.11082832210241
20
10.5788015992977
30
0
41
1
10
4.12556512023627
20
10.5811360266016
30
0
41
1
10
4.15529064044154
20
10.5888234924901
30
0
41
1
10
4.17041696891999
20
10.5942472282046
30
0
41
1
10
4.20016429324846
20
10.6079812357522
30
0
41
1
10
4.21475581603187
20
10.6162391251512
30
0
41
1
10
4.24327508068802
20
10.6358422846508
30
0
41
1
10
4.25737947127493
20
10.6473404062865
30
0
41
1
10
4.28370522683031
20
10.6737013845485
30
0
41
1
10
4.29586653599949
20
10.6883792417564
30
0
41
1
10
4.30643380496952
20
10.7053641326679
30
0
0
SPLINE
5
312
100
AcDbEntity
8
1
62
256
6
ByLayer
370
18
48
1
60
0
100
AcDbSpline
70
4
71
3
72
12
73
8
40
0
40
0
40
0
40
0
40
0.24999999999999
40
0.24999999999999
40
0.49999999999998
40
0.49999999999998
40
1
40
1
40
1
40
1
41
1
10
4.79510653191926
20
11.3984749056445
30
0
41
1
10
4.80893548647504
20
11.4156986018979
30
0
41
1
10
4.82482185648553
20
11.4296020595367
30
0
41
1
10
4.85889519674618
20
11.4538162566444
30
0
41
1
10
4.87686050785845
20
11.4638016454261
30
0
41
1
10
4.93157494977947
20
11.4888643935478
30
0
41
1
10
4.96995353723395
20
11.4995258451586
30
0
41
1
10
5.00860772348773
20
11.5054624730176
30
0
0
SPLINE
5
313
100
AcDbEntity
8
1
62
256
6
ByLayer
370
18
48
1
60
0
100
AcDbSpline
70
4
71
3
72
12
73
8
40
0
40
0
40
0
40
0
40
0.250000000000002
40
0.250000000000002
40
0.500000000000003
40
0.500000000000003
40
1
40
1
40
1
40
1
41
1
10
5.77991886345626
20
11.5293247101204
30
0
41
1
10
5.75563271466086
20
11.5417979872643
30
0
41
1
10
5.72981735985559
20
11.5498632046136
30
0
41
1
10
5.67706344234017
20
11.562316568554
30
0
41
1
10
5.64996612421663
20
11.5664554382378
30
0
41
1
10
5.56888760333675
20
11.5741871979489
30
0
41
1
10
5.51455885804518
20
11.5733960283736
30
0
41
1
10
5.46001133674781
20
11.5668817107285
30
0
0
SPLINE
5
314
100
AcDbEntity
8
1
62
256
6
ByLayer
370
18
48
1
60
0
100
AcDbSpline
70
4
71
3
72
12
73
8
40
0
40
0
40
0
40
0
40
0.500000000000001
40
0.500000000000001
40
0.75
40
0.75
40
1
40
1
40
1
40
1
41
1
10
10.5399886632516
20
11.5668817107285
30
0
41
1
10
10.4852759894192
20
11.5734157516542
30
0
41
1
10
10.4310556593393
20
11.5741568090255
30
0
41
1
10
10.3505414468796
20
11.5665162189192
30
0
41
1
10
10.3238440800493
20
11.5624806354153
30
0
41
1
10
10.2709667032166
20
11.550096880801
30
0
41
1
10
10.2444875486577
20
11.5418597540649
30
0
41
1
10
10.2200811365431
20
11.5293247101204
30
0
0
SPLINE
5
315
100
AcDbEntity
8
1
62
256
6
ByLayer
370
18
48
1
60
0
100
AcDbSpline
70
4
71
3
72
12
73
8
40
0
40
0
40
0
40
0
40
0.50000000000002
40
0.50000000000002
40
0.75000000000001
40
0.75000000000001
40
1
40
1
40
1
40
1
41
1
10
10.9913922765117
20
11.5054624730176
30
0
41
1
10
11.0300399508742
20
11.4995268452747
30
0
41
1
10
11.0678191085201
20
11.4890921871037
30
0
41
1
10
11.1228783302601
20
11.4639457772047
30
0
41
1
10
11.1409348008864
20
11.4539091144339
30
0
41
1
10
11.1748446563162
20
11.4298665940036
30
0
41
1
10
11.1910998894384
20
11.4156545418791
30
0
41
1
10
11.2048934680801
20
11.3984749056445
30
0
0
SPLINE
5
316
100
AcDbEntity
8
1
62
256
6
ByLayer
370
18
48
1
60
0
100
AcDbSpline
70
4
71
3
72
22
73
18
40
0
40
0
40
0
40
0
40
0.125
40
0.125
40
0.25
40
0.25
40
0.375
40
0.375
40
0.5
40
0.5
40
0.625
40
0.625
40
0.75
40
0.75
40
0.875
40
0.875
40
1
40
1
40
1
40
1
41
1
10
11.6935661950299
20
10.7053641326679
30
0
41
1
10
11.7041387776904
20
10.6883707010016
30
0
41
1
10
11.7162612822365
20
10.6737509910798
30
0
41
1
10
11.7424127418999
20
10.6475325478645
30
0
41
1
10
11.7565721301923
20
10.6359556159334
30
0
41
1
10
11.7852014705636
20
10.6162602321003
30
0
41
1
10
11.7998298590229
20
10.6079831021464
30
0
41
1
10
11.829612868924
20
10.594234286513
30
0
41
1
10
11.8447254101329
20
10.5888172072915
30
0
41
1
10
11.8744822634732
20
10.5811259112961
30
0
41
1
10
11.8892501751519
20
10.5787883376606
30
0
41
1
10
11.9185608260623
20
10.5774560851392
30
0
41
1
10
11.9329420074569
20
10.5784917717708
30
0
41
1
10
11.9603982544492
20
10.5844642342026
30
0
41
1
10
11.9737602057587
20
10.5894900903854
30
0
41
1
10
11.998045260353
20
10.6042588165981
30
0
41
1
10
12.0089726049717
20
10.6138562830931
30
0
41
1
10
12.0182076342875
20
10.6266761570009
30
0
0
SPLINE
5
317
100
AcDbEntity
8
1
62
256
6
ByLayer
370
18
48
1
60
0
100
AcDbSpline
70
4
71
3
72
14
73
10
40
0
40
0
40
0
40
0
40
0.25
40
0.25
40
0.5
40
0.5
40
0.75
40
0.75
40
1
40
1
40
1
40
1
41
1
10
12.346184428712
20
11.128467146003
30
0
41
1
10
12.3522968117876
20
11.1387825507534
30
0
41
1
10
12.3594921336738
20
11.1469288041884
30
0
41
1
10
12.3755055054056
20
11.1598483463882
30
0
41
1
10
12.384289398256
20
11.1645102349792
30
0
41
1
10
12.4024459621287
20
11.1704189896895
30
0
41
1
10
12.4119924483369
20
11.1717154677385
30
0
41
1
10
12.431109639395
20
11.1711725898179
30
0
41
1
10
12.440753788318
20
11.1693746178692
30
0
41
1
10
12.4504807122511
20
11.1660241466112
30
0
0
SPLINE
5
318
100
AcDbEntity
8
1
62
256
6
ByLayer
370
18
48
1
60
0
100
AcDbSpline
70
4
71
3
72
14
73
10
40
0
40
0
40
0
40
0
40
0.25
40
0.25
40
0.5
40
0.5
40
0.75
40
0.75
40
1
40
1
40
1
40
1
41
1
10
12.7049962104958
20
10.9976173415271
30
0
41
1
10
12.7003527042077
20
11.0115934681703
30
0
41
1
10
12.6947863359955
20
11.0243442969883
30
0
41
1
10
12.6820510183839
20
11.0477778886458
30
0
41
1
10
12.6749248234527
20
11.0583001611129
30
0
41
1
10
12.6598812515676
20
11.0764028420464
30
0
41
1
10
12.6518190804066
20
11.0841462104912
30
0
41
1
10
12.6354659782442
20
11.0965281577748
30
0
41
1
10
12.6270965517442
20
11.1012793191799
30
0
41
1
10
12.6185302431555
20
11.1046049089003
30
0
0
SPLINE
5
319
100
AcDbEntity
8
1
62
256
6
ByLayer
370
18
48
1
60
0
100
AcDbSpline
70
4
71
3
72
22
73
18
40
0
40
0
40
0
40
0
40
0.125
40
0.125
40
0.25
40
0.25
40
0.375
40
0.375
40
0.5
40
0.5
40
0.625
40
0.625
40
0.75
40
0.75
40
0.875
40
0.875
40
1
40
1
40
1
40
1
41
1
10
13.05917887366
20
10.2258185928836
30
0
41
1
10
13.0556176030089
20
10.2147308814625
30
0
41
1
10
13.0513202106442
20
10.2055988076264
30
0
41
1
10
13.0413380873528
20
10.1908556747999
30
0
41
1
10
13.0356764772017
20
10.1853727404774
30
0
41
1
10
13.0235788820008
20
10.1783771895183
30
0
41
1
10
13.0170063802161
20
10.1767984260231
30
0
41
1
10
13.0035466677868
20
10.1774225167148
30
0
41
1
10
12.996529674874
20
10.1796022384354
30
0
41
1
10
12.9823693578004
20
10.1875007566335
30
0
41
1
10
12.9753221761505
20
10.1931281152431
30
0
41
1
10
12.961305744294
20
10.2077418951542
30
0
41
1
10
12.954386582496
20
10.2167280364704
30
0
41
1
10
12.9413922746649
20
10.2373324344025
30
0
41
1
10
12.9351441043893
20
10.2492316608816
30
0
41
1
10
12.9239261922743
20
10.2752987141722
30
0
41
1
10
12.9189758332654
20
10.2893311377156
30
0
41
1
10
12.9148089424081
20
10.3045065685505
30
0
0
SPLINE
5
31A
100
AcDbEntity
8
1
62
256
6
ByLayer
370
18
48
1
60
0
100
AcDbSpline
70
4
71
3
72
14
73
10
40
0
40
0
40
0
40
0
40
0.25
40
0.25
40
0.5
40
0.5
40
0.75
40
0.75
40
1
40
1
40
1
40
1
41
1
10
13.2487937383657
20
10.7651665824938
30
0
41
1
10
13.244489601877
20
10.7686570009329
30
0
41
1
10
13.2402206009173
20
10.7704542934386
30
0
41
1
10
13.2317601906731
20
10.7707676881208
30
0
41
1
10
13.2275605631079
20
10.7692190301315
30
0
41
1
10
13.2197382577272
20
10.7628500279157
30
0
41
1
10
13.2160050025992
20
10.7579480139762
30
0
41
1
10
13.2093502751835
20
10.7450272209834
30
0
41
1
10
13.2064381207919
20
10.7371064198408
30
0
41
1
10
13.2039972579758
20
10.7276095818856
30
0
0
SPLINE
5
31B
100
AcDbEntity
8
1
62
256
6
ByLayer
370
18
48
1
60
0
100
AcDbSpline
70
4
71
3
72
14
73
10
40
0
40
0
40
0
40
0
40
0.25
40
0.25
40
0.5
40
0.5
40
0.75
40
0.75
40
1
40
1
40
1
40
1
41
1
10
13.3184590121855
20
10.7037473447829
30
0
41
1
10
13.3220737810994
20
10.7002609342977
30
0
41
1
10
13.3255601404763
20
10.6952305242494
30
0
41
1
10
13.3322916845217
20
10.682139816879
30
0
41
1
10
13.3355319237361
20
10.6740210316715
30
0
41
1
10
13.3414180149896
20
10.6555334079478
30
0
41
1
10
13.3441508523321
20
10.6448890225218
30
0
41
1
10
13.3488911419235
20
10.6219887980115
30
0
41
1
10
13.3509108350403
20
10.609777149129
30
0
41
1
10
13.3525805080293
20
10.5967597774098
30
0
0
SPLINE
5
31C
100
AcDbEntity
8
1
62
256
6
ByLayer
370
18
48
1
60
0
100
AcDbSpline
70
4
71
3
72
22
73
18
40
0
40
0
40
0
40
0
40
0.125
40
0.125
40
0.25
40
0.25
40
0.375
40
0.375
40
0.5
40
0.5
40
0.625
40
0.625
40
0.75
40
0.75
40
0.875
40
0.875
40
1
40
1
40
1
40
1
41
1
10
13.4276983424207
20
9.90364900443313
30
0
41
1
10
13.4289901997354
20
9.88910004823992
30
0
41
1
10
13.4305254590739
20
9.8753906693442
30
0
41
1
10
13.4340130840207
20
9.84958014687288
30
0
41
1
10
13.4359648979459
20
9.83756601907731
30
0
41
1
10
13.4400216511577
20
9.81654933499493
30
0
41
1
10
13.442182674466
20
9.80726439645019
30
0
41
1
10
13.4464671135589
20
9.79229119408592
30
0
41
1
10
13.448622010736
20
9.78645148057717
30
0
41
1
10
13.452825618844
20
9.77846907589077
30
0
41
1
10
13.4548235599971
20
9.77639143897898
30
0
41
1
10
13.4586256978819
20
9.77605728605164
30
0
41
1
10
13.4603971566178
20
9.77785546356768
30
0
41
1
10
13.4635789554571
20
9.78519144838589
30
0
41
1
10
13.4650227384033
20
9.79084471321147
30
0
41
1
10
13.4674747829172
20
9.8054043189357
30
0
41
1
10
13.4685123626312
20
9.81440552761097
30
0
41
1
10
13.4693499621276
20
9.82496102876621
30
0
0
SPLINE
5
31D
100
AcDbEntity
8
1
62
256
6
ByLayer
370
18
48
1
60
0
100
AcDbSpline
70
4
71
3
72
12
73
8
40
0
40
0
40
0
40
0
40
0.337157711972701
40
0.337157711972701
40
0.674315423945401
40
0.674315423945401
40
1
40
1
40
1
40
1
41
1
10
13.4962031330222
20
10.3267520177683
30
0
41
1
10
13.496460997324
20
10.336022298358
30
0
41
1
10
13.4967585085041
20
10.3438604055667
30
0
41
1
10
13.4973920597705
20
10.3567581050206
30
0
41
1
10
13.4977269681813
20
10.3617362694392
30
0
41
1
10
13.4983483698276
20
10.3681474792173
30
0
41
1
10
13.4986439459099
20
10.3697682703053
30
0
41
1
10
13.4988990138331
20
10.3697642718847
30
0
0
SPLINE
5
31E
100
AcDbEntity
8
1
62
256
6
ByLayer
370
18
48
1
60
0
100
AcDbSpline
70
2053
71
3
72
127
73
123
40
0
40
0
40
0
40
0
40
0.0312500000000012
40
0.0312500000000012
40
0.0468750000000019
40
0.0468750000000019
40
0.0625000000000026
40
0.0625000000000026
40
0.0937500000000038
40
0.0937500000000038
40
0.101562500000004
40
0.101562500000004
40
0.109375000000004
40
0.109375000000004
40
0.125000000000005
40
0.125000000000005
40
0.156250000000006
40
0.156250000000006
40
0.164062500000006
40
0.164062500000006
40
0.171875000000006
40
0.171875000000006
40
0.187500000000006
40
0.203125000000007
40
0.203125000000007
40
0.210937500000007
40
0.210937500000007
40
0.218750000000007
40
0.218750000000007
40
0.250000000000008
40
0.250000000000008
40
0.265625000000009
40
0.265625000000009
40
0.273437500000009
40
0.273437500000009
40
0.281250000000009
40
0.281250000000009
40
0.31250000000001
40
0.31250000000001
40
0.320312500000011
40
0.320312500000011
40
0.328125000000011
40
0.328125000000011
40
0.343750000000011
40
0.343750000000011
40
0.375000000000011
40
0.375000000000011
40
0.406250000000011
40
0.406250000000011
40
0.421875000000011
40
0.421875000000011
40
0.429687500000011
40
0.429687500000011
40
0.437500000000011
40
0.437500000000011
40
0.468750000000011
40
0.468750000000011
40
0.476562500000011
40
0.476562500000011
40
0.484375000000011
40
0.484375000000011
40
0.500000000000011
40
0.500000000000011
40
0.53125000000001
40
0.53125000000001
40
0.53906250000001
40
0.53906250000001
40
0.54687500000001
40
0.54687500000001
40
0.56250000000001
40
0.57812500000001
40
0.57812500000001
40
0.585937500000009
40
0.585937500000009
40
0.593750000000009
40
0.593750000000009
40
0.625000000000008
40
0.625000000000008
40
0.640625000000008
40
0.640625000000008
40
0.648437500000008
40
0.648437500000008
40
0.656250000000007
40
0.656250000000007
40
0.687500000000006
40
0.687500000000006
40
0.703125000000006
40
0.703125000000006
40
0.718750000000005
40
0.718750000000005
40
0.750000000000005
40
0.750000000000005
40
0.781250000000004
40
0.781250000000004
40
0.796875000000004
40
0.796875000000004
40
0.804687500000003
40
0.804687500000003
40
0.812500000000003
40
0.812500000000003
40
0.843750000000003
40
0.843750000000003
40
0.851562500000003
40
0.851562500000003
40
0.859375000000002
40
0.859375000000002
40
0.875000000000002
40
0.875000000000002
40
0.906250000000001
40
0.906250000000001
40
0.914062500000001
40
0.914062500000001
40
0.921875000000001
40
0.921875000000001
40
0.937500000000001
40
0.953125000000001
40
0.953125000000001
40
0.960937500000001
40
0.960937500000001
40
0.968750000000001
40
0.968750000000001
40
1
40
1
40
1
40
1
41
1
10
10.2295085345386
20
-4.09099940722862
30
0
41
1
10
10.3627385096378
20
-4.2333570040463
30
0
41
1
10
10.4791944212897
20
-4.38633536335652
30
0
41
1
10
10.6297421709249
20
-4.63134368457361
30
0
41
1
10
10.6758721144299
20
-4.71562178129943
30
0
41
1
10
10.7598404682979
20
-4.88955384722578
30
0
41
1
10
10.7977025784842
20
-4.97944240588254
30
0
41
1
10
10.8962695170376
20
-5.25133601312331
30
0
41
1
10
10.9431005860815
20
-5.43738418434219
30
0
41
1
10
10.9782909090087
20
-5.67595460122482
30
0
41
1
10
10.9841510810829
20
-5.72397161197984
30
0
41
1
10
10.9934792173407
20
-5.82062210921731
30
0
41
1
10
10.9969507689103
20
-5.86939229558357
30
0
41
1
10
11.0036506815575
20
-6.0153406125857
30
0
41
1
10
11.003216163749
20
-6.11224837776632
30
0
41
1
10
10.9876874951752
20
-6.40183718469376
30
0
41
1
10
10.9585031141205
20
-6.59339751969219
30
0
41
1
10
10.8979821021155
20
-6.83089199112192
30
0
41
1
10
10.8846359736775
20
-6.87836565394707
30
0
41
1
10
10.8557931541586
20
-6.97210589059097
30
0
41
1
10
10.840270865357
20
-7.01848912209459
30
0
41
1
10
10.7904606690241
20
-7.15620186027417
30
0
41
1
10
10.7154134620507
20
-7.33599373956719
30
0
41
1
10
10.6233377479761
20
-7.5082093826453
30
0
41
1
10
10.5477958518466
20
-7.63447129390255
30
0
41
1
10
10.5215324110404
20
-7.67607439700492
30
0
41
1
10
10.4667984633657
20
-7.75829096991669
30
0
41
1
10
10.4383262921291
20
-7.79889142321548
30
0
41
1
10
10.2919944125425
20
-7.99720111159763
30
0
41
1
10
10.1611695019259
20
-8.14278356450296
30
0
41
1
10
9.94459685633842
20
-8.34174610465789
30
0
41
1
10
9.86899226066231
20
-8.40480844076131
30
0
41
1
10
9.75027114721775
20
-8.49431615796999
30
0
41
1
10
9.70984492706702
20
-8.52326603724566
30
0
41
1
10
9.62811469303051
20
-8.57881874217151
30
0
41
1
10
9.58670258979123
20
-8.60550499846556
30
0
41
1
10
9.37694230947437
20
-8.73355224785308
30
0
41
1
10
9.20057258708886
20
-8.81891548301854
30
0
41
1
10
8.96918289387645
20
-8.90377582696379
30
0
41
1
10
8.92235366929833
20
-8.91964596094277
30
0
41
1
10
8.82756642703089
20
-8.94912894121597
30
0
41
1
10
8.77969918983831
20
-8.96270527249862
30
0
41
1
10
8.636031536171
20
-8.99958823180236
30
0
41
1
10
8.53966061395033
20
-9.01921984127193
30
0
41
1
10
8.24880697963209
20
-9.06354356374317
30
0
41
1
10
8.05260019412509
20
-9.07380415531719
30
0
41
1
10
7.65537329709451
20
-9.05402683101164
30
0
41
1
10
7.46077856056496
20
-9.02426464109897
30
0
41
1
10
7.17562671152723
20
-8.95132316622306
30
0
41
1
10
7.08165021139672
20
-8.9222554282843
30
0
41
1
10
6.94232583174318
20
-8.87139842608258
30
0
41
1
10
6.89604364141826
20
-8.85318515011295
30
0
41
1
10
6.80461297843556
20
-8.81453556348134
30
0
41
1
10
6.75955969745917
20
-8.79414742866231
30
0
41
1
10
6.53752864172156
20
-8.68701363005187
30
0
41
1
10
6.37016392204674
20
-8.58483703473399
30
0
41
1
10
6.17355640536221
20
-8.4369540344635
30
0
41
1
10
6.13487058524743
20
-8.40636012652033
30
0
41
1
10
6.05878809514837
20
-8.34311093844855
30
0
41
1
10
6.02131908012888
20
-8.31038267112609
30
0
41
1
10
5.91199213734092
20
-8.21009450151223
30
0
41
1
10
5.84288210657667
20
-8.1401928233571
30
0
41
1
10
5.64652137565275
20
-7.92167264268409
30
0
41
1
10
5.53013297169389
20
-7.76432501368794
30
0
41
1
10
5.40326488746348
20
-7.55276895238336
30
0
41
1
10
5.3788270357453
20
-7.50968313502142
30
0
41
1
10
5.33236425999257
20
-7.42294869372779
30
0
41
1
10
5.3102675758272
20
-7.3791853539135
30
0
41
1
10
5.24732641040231
20
-7.24672998163169
30
0
41
1
10
5.17232006960802
20
-7.06702085449609
30
0
41
1
10
5.11495796004101
20
-6.88120689887268
30
0
41
1
10
5.07867844716264
20
-6.73952398444311
30
0
41
1
10
5.06771098171754
20
-6.6919085433006
30
0
41
1
10
5.0480742648968
20
-6.59588726490267
30
0
41
1
10
5.03941469223008
20
-6.5474835944928
30
0
41
1
10
5.0023574030086
20
-6.30619929222343
30
0
41
1
10
4.99202723434234
20
-6.11335175139067
30
0
41
1
10
5.00502959398432
20
-5.82436213029928
30
0
41
1
10
5.01414689572573
20
-5.72807875257206
30
0
41
1
10
5.03525434339355
20
-5.58372069273287
30
0
41
1
10
5.04353154694871
20
-5.53566767466691
30
0
41
1
10
5.06238017031967
20
-5.44066411020884
30
0
41
1
10
5.07296963990166
20
-5.39357950719648
30
0
41
1
10
5.13165527238488
20
-5.16020551259834
30
0
41
1
10
5.196802936506
20
-4.98000911207089
30
0
41
1
10
5.32214040395081
20
-4.71942566642787
30
0
41
1
10
5.36884458558376
20
-4.63378061542028
30
0
41
1
10
5.46984348928561
20
-4.46913939414156
30
0
41
1
10
5.52421713530799
20
-4.38985779933086
30
0
41
1
10
5.69870575820437
20
-4.16086481504601
30
0
41
1
10
5.8302214771868
20
-4.01979255996332
30
0
41
1
10
6.12407124732232
20
-3.76223625411234
30
0
41
1
10
6.28175757619368
20
-3.64977069142589
30
0
41
1
10
6.53380890591006
20
-3.50430277686951
30
0
41
1
10
6.62043226785204
20
-3.45971492216955
30
0
41
1
10
6.75437236917213
20
-3.3987950806964
30
0
41
1
10
6.79980537978491
20
-3.37943835044365
30
0
41
1
10
6.89144560541058
20
-3.34298976747613
30
0
41
1
10
6.93755887845975
20
-3.32592758315849
30
0
41
1
10
7.16956271670597
20
-3.24630307095515
30
0
41
1
10
7.3597246630336
20
-3.20063198934775
30
0
41
1
10
7.60309799429746
20
-3.16583794902715
30
0
41
1
10
7.65205876122434
20
-3.16000433073526
30
0
41
1
10
7.75056228245251
20
-3.15062421275854
30
0
41
1
10
7.80024302598974
20
-3.14707393571104
30
0
41
1
10
7.94880862346889
20
-3.13998546936398
30
0
41
1
10
8.04735778651519
20
-3.1399563620933
30
0
41
1
10
8.34156528085072
20
-3.15354342697913
30
0
41
1
10
8.53579736629462
20
-3.18069780883099
30
0
41
1
10
8.77613884802764
20
-3.23796846164078
30
0
41
1
10
8.82417103584817
20
-3.25063108252493
30
0
41
1
10
8.91896035715263
20
-3.2780565333112
30
0
41
1
10
8.96583108894771
20
-3.29284188471701
30
0
41
1
10
9.10489910727648
20
-3.34036530572843
30
0
41
1
10
9.28621247515855
20
-3.4121614826027
30
0
41
1
10
9.45941401567075
20
-3.50067144014207
30
0
41
1
10
9.58622547224297
20
-3.57345395428763
30
0
41
1
10
9.6279800878126
20
-3.59878342195714
30
0
41
1
10
9.71043791279311
20
-3.65162664003816
30
0
41
1
10
9.7511300231148
20
-3.67914221245621
30
0
41
1
10
9.95003387944126
20
-3.82092212662178
30
0
41
1
10
10.0962785594394
20
-3.94864181041095
30
0
41
1
10
10.2295085345386
20
-4.09099940722862
30
0
0
SPLINE
5
31F
100
AcDbEntity
8
1
62
256
6
ByLayer
370
18
48
1
60
0
100
AcDbSpline
70
4
71
3
72
20
73
16
40
0
40
0
40
0
40
0
40
0.0722736047908391
40
0.0722736047908391
40
0.165046244311765
40
0.165046244311765
40
0.257818883832691
40
0.257818883832691
40
0.628909441916363
40
0.628909441916363
40
0.721682081437273
40
0.721682081437273
40
0.814454720958182
40
0.814454720958182
40
1
40
1
40
1
40
1
41
1
10
13.3692513396477
20
10.4603103296033
30
0
41
1
10
13.3749298244001
20
10.4683358874577
30
0
41
1
10
13.3804825772012
20
10.4759610034937
30
0
41
1
10
13.3928595911651
20
10.4924075827929
30
0
41
1
10
13.3995972595696
20
10.5009532580706
30
0
41
1
10
13.4125956096174
20
10.5165254605949
30
0
41
1
10
13.4188641054579
20
10.5235568718352
30
0
41
1
10
13.4485585253498
20
10.5542368665609
30
0
41
1
10
13.4673696624968
20
10.5649276359066
30
0
41
1
10
13.4835324919588
20
10.5576947932779
30
0
41
1
10
13.4863952829809
20
10.5552121887746
30
0
41
1
10
13.491342080659
20
10.548064980161
30
0
41
1
10
13.4934148536615
20
10.5434044601507
30
0
41
1
10
13.4983628561441
20
10.5262973436492
30
0
41
1
10
13.5
20
10.5106871647666
30
0
41
1
10
13.5
20
10.4909332603637
30
0
0
SPLINE
5
320
100
AcDbEntity
8
1
62
256
6
ByLayer
370
18
48
1
60
0
100
AcDbSpline
70
4
71
3
72
8
73
4
40
0
40
0
40
0
40
0
40
1
40
1
40
1
40
1
41
1
10
13.1479500373755
20
10.7706587740126
30
0
41
1
10
13.146913243267
20
10.7760050825752
30
0
41
1
10
13.1458736750585
20
10.7813509417636
30
0
41
1
10
13.1448313254759
20
10.7866963503992
30
0
0
SPLINE
5
321
100
AcDbEntity
8
1
62
256
6
ByLayer
370
18
48
1
60
0
100
AcDbSpline
70
4
71
3
72
22
73
18
40
0
40
0
40
0
40
0
40
0.125
40
0.125
40
0.25
40
0.25
40
0.375
40
0.375
40
0.5
40
0.5
40
0.625
40
0.625
40
0.75
40
0.75
40
0.875
40
0.875
40
1
40
1
40
1
40
1
41
1
10
13.1448313254759
20
10.7866963503992
30
0
41
1
10
13.1418693604235
20
10.8018859891093
30
0
41
1
10
13.1382368530519
20
10.8160311121992
30
0
41
1
10
13.1296853787497
20
10.8423976537571
30
0
41
1
10
13.1247878402336
20
10.8544539127911
30
0
41
1
10
13.1142282470828
20
10.8753587625191
30
0
41
1
10
13.1084457101958
20
10.8844282837075
30
0
41
1
10
13.096536068473
20
10.8989194902492
30
0
41
1
10
13.0902841738618
20
10.9045206106966
30
0
41
1
10
13.077640860535
20
10.9120640174758
30
0
41
1
10
13.071321006078
20
10.9140100452249
30
0
41
1
10
13.0586939536935
20
10.9142425654018
30
0
41
1
10
13.052474347726
20
10.9124822956009
30
0
41
1
10
13.0407176397019
20
10.905306834665
30
0
41
1
10
13.0350331466601
20
10.8997684536079
30
0
41
1
10
13.0248534474231
20
10.8852069968393
30
0
41
1
10
13.0203239849168
20
10.8762429399853
30
0
41
1
10
13.0164565153442
20
10.8653843260663
30
0
0
SPLINE
5
322
100
AcDbEntity
8
1
62
256
6
ByLayer
370
18
48
1
60
0
100
AcDbSpline
70
4
71
3
72
8
73
4
40
0
40
0
40
0
40
0
40
1
40
1
40
1
40
1
41
1
10
13.0164565153442
20
10.8653843260663
30
0
41
1
10
12.9702762821402
20
10.7357250453276
30
0
41
1
10
12.9201511429914
20
10.6068425724549
30
0
41
1
10
12.8656630622232
20
10.4788192245944
30
0
0
SPLINE
5
323
100
AcDbEntity
8
1
62
256
6
ByLayer
370
18
48
1
60
0
100
AcDbSpline
70
4
71
3
72
22
73
18
40
0
40
0
40
0
40
0
40
0.125
40
0.125
40
0.25
40
0.25
40
0.375
40
0.375
40
0.5
40
0.5
40
0.625
40
0.625
40
0.75
40
0.75
40
0.875
40
0.875
40
1
40
1
40
1
40
1
41
1
10
12.2116539499831
20
11.1875539145163
30
0
41
1
10
12.2039958440453
20
11.20486038847
30
0
41
1
10
12.1947061668515
20
11.2201369214229
30
0
41
1
10
12.1736134606516
20
11.2476483962262
30
0
41
1
10
12.1620204298064
20
11.2595178293383
30
0
41
1
10
12.1377925648745
20
11.2796382311894
30
0
41
1
10
12.1249064788764
20
11.2880620527619
30
0
41
1
10
12.0988796789465
20
11.3013547007003
30
0
41
1
10
12.0856785143596
20
11.3063077045394
30
0
41
1
10
12.058910472319
20
11.3130776783255
30
0
41
1
10
12.0452707855396
20
11.3148666381575
30
0
41
1
10
12.0186169064106
20
11.3150996499862
30
0
41
1
10
12.0054848459851
20
11.3135951188466
30
0
41
1
10
11.9796927985146
20
11.306963933275
30
0
41
1
10
11.9670417863542
20
11.3017935752246
30
0
41
1
10
11.9436179032074
20
11.2874359015851
30
0
41
1
10
11.932572305308
20
11.2781141016709
30
0
41
1
10
11.9231083106015
20
11.2662418901854
30
0
0
SPLINE
5
324
100
AcDbEntity
8
1
62
256
6
ByLayer
370
18
48
1
60
0
100
AcDbSpline
70
4
71
3
72
8
73
4
40
0
40
0
40
0
40
0
40
1
40
1
40
1
40
1
41
1
10
11.9231083106027
20
11.2662418901835
30
0
41
1
10
11.8163926253495
20
11.1323712337157
30
0
41
1
10
11.7021610754489
20
11.0018525534669
30
0
41
1
10
11.5789612709564
20
10.8753335961411
30
0
0
SPLINE
5
325
100
AcDbEntity
8
1
62
256
6
ByLayer
370
18
48
1
60
0
100
AcDbSpline
70
4
71
3
72
8
73
4
40
0
40
0
40
0
40
0
40
1
40
1
40
1
40
1
41
1
10
9.74444334128566
20
11.5743710349443
30
0
41
1
10
9.73542698554974
20
11.5790905073521
30
0
41
1
10
9.72637963258433
20
11.583770808603
30
0
41
1
10
9.71730091832876
20
11.588411478634
30
0
0
SPLINE
5
326
100
AcDbEntity
8
1
62
256
6
ByLayer
370
18
48
1
60
0
100
AcDbSpline
70
4
71
3
72
18
73
14
40
0
40
0
40
0
40
0
40
0.0624999999999995
40
0.0624999999999995
40
0.124999999999999
40
0.124999999999999
40
0.249999999999999
40
0.249999999999999
40
0.499999999999999
40
0.499999999999999
40
0.75
40
0.75
40
1
40
1
40
1
40
1
41
1
10
9.7173009183287
20
11.588411478634
30
0
41
1
10
9.69407183382145
20
11.6002852432756
30
0
41
1
10
9.67017380650003
20
11.6096425930222
30
0
41
1
10
9.62173306722389
20
11.6260679169028
30
0
41
1
10
9.59716647704226
20
11.6330416893385
30
0
41
1
10
9.52277528756775
20
11.651626067475
30
0
41
1
10
9.47214044292144
20
11.6609399596547
30
0
41
1
10
9.32037056657998
20
11.6836584941728
30
0
41
1
10
9.21867995275358
20
11.6920638468386
30
0
41
1
10
9.01454717411895
20
11.703694535755
30
0
41
1
10
8.9120981393142
20
11.7067045025168
30
0
41
1
10
8.70653915274346
20
11.7104011603962
30
0
41
1
10
8.60342866839062
20
11.7110692688966
30
0
41
1
10
8.50000000000006
20
11.7110692688966
30
0
0
SPLINE
5
327
100
AcDbEntity
8
1
62
256
6
ByLayer
370
18
48
1
60
0
100
AcDbSpline
70
4
71
3
72
38
73
34
40
0
40
0
40
0
40
0
40
0.124999999999998
40
0.124999999999998
40
0.187499999999998
40
0.187499999999998
40
0.218749999999998
40
0.218749999999998
40
0.249999999999998
40
0.249999999999998
40
0.374999999999999
40
0.374999999999999
40
0.406249999999999
40
0.406249999999999
40
0.437499999999999
40
0.437499999999999
40
0.500000000000001
40
0.500000000000001
40
0.562500000000003
40
0.562500000000003
40
0.593750000000003
40
0.593750000000003
40
0.625000000000003
40
0.625000000000003
40
0.750000000000002
40
0.750000000000002
40
0.781250000000002
40
0.781250000000002
40
0.812500000000002
40
0.812500000000002
40
0.875000000000002
40
0.875000000000002
40
1
40
1
40
1
40
1
41
1
10
8.5
20
18.4986893679957
30
0
41
1
10
8.84983029588534
20
18.4986893679957
30
0
41
1
10
9.19335230431642
20
18.4920706252444
30
0
41
1
10
9.69952250742381
20
18.4737538686544
30
0
41
1
10
9.86671367154912
20
18.466259331748
30
0
41
1
10
10.1151244209759
20
18.4532308203607
30
0
41
1
10
10.1975009222653
20
18.4485903930914
30
0
41
1
10
10.3594604505925
20
18.4389052157365
30
0
41
1
10
10.4392990581008
20
18.4338476121257
30
0
41
1
10
10.8328780729482
20
18.407714454142
30
0
41
1
10
11.1299495660945
20
18.3840449067585
30
0
41
1
10
11.4787200636299
20
18.3551530185285
30
0
41
1
10
11.5475374921375
20
18.3493966508951
30
0
41
1
10
11.6815421017919
20
18.3381947534435
30
0
41
1
10
11.7467759305586
20
18.3327457205844
30
0
41
1
10
11.9372976069807
20
18.3170251937624
30
0
41
1
10
12.0574166652802
20
18.3073790582226
30
0
41
1
10
12.2842378993014
20
18.2906809975189
30
0
41
1
10
12.3909384791243
20
18.2836276125004
30
0
41
1
10
12.5409522027238
20
18.2757274356512
30
0
41
1
10
12.5893361742327
20
18.2735393473221
30
0
41
1
10
12.6824959348825
20
18.2701974747005
30
0
41
1
10
12.7269877187894
20
18.2690531717117
30
0
41
1
10
12.9393939365099
20
18.2661632863351
30
0
41
1
10
13.0773588186659
20
18.2729129320362
30
0
41
1
10
13.2136688497316
20
18.295782658449
30
0
41
1
10
13.2391114597742
20
18.3010784541965
30
0
41
1
10
13.2864093658466
20
18.3131936840493
30
0
41
1
10
13.3082159477293
20
18.32000691899
30
0
41
1
10
13.3678468314661
20
18.3426054798443
30
0
41
1
10
13.4001072032128
20
18.3606005470195
30
0
41
1
10
13.4763866400759
20
18.4236012064348
30
0
41
1
10
13.5
20
18.4776564261292
30
0
41
1
10
13.5
20
18.5442978503515
30
0
0
SPLINE
5
328
100
AcDbEntity
8
1
62
256
6
ByLayer
370
18
48
1
60
0
100
AcDbSpline
70
4
71
3
72
18
73
14
40
0
40
0
40
0
40
0
40
0.249999999999999
40
0.249999999999999
40
0.499999999999999
40
0.499999999999999
40
0.749999999999998
40
0.749999999999998
40
0.874999999999999
40
0.874999999999999
40
0.937499999999999
40
0.937499999999999
40
1
40
1
40
1
40
1
41
1
10
7.5
20
11.7110692688965
30
0
41
1
10
7.39668891332684
20
11.7110692688965
30
0
41
1
10
7.29348648280444
20
11.7104040070026
30
0
41
1
10
7.08729982217966
20
11.7066912835244
30
0
41
1
10
6.98452826354645
20
11.7036620587526
30
0
41
1
10
6.78014135767012
20
11.6919762799051
30
0
41
1
10
6.67845878486412
20
11.6835297255022
30
0
41
1
10
6.52699038139554
20
11.6607862828456
30
0
41
1
10
6.47655128635131
20
11.6514805674468
30
0
41
1
10
6.40243338501017
20
11.6329301892422
30
0
41
1
10
6.37795467184333
20
11.6259707866764
30
0
41
1
10
6.32967971244284
20
11.6095840891237
30
0
41
1
10
6.30586000454446
20
11.6002504018164
30
0
41
1
10
6.28269908167118
20
11.5884114786339
30
0
0
SPLINE
5
329
100
AcDbEntity
8
1
62
256
6
ByLayer
370
18
48
1
60
0
100
AcDbSpline
70
4
71
3
72
8
73
4
40
0
40
0
40
0
40
0
40
1
40
1
40
1
40
1
41
1
10
6.28269908167118
20
11.5884114786339
30
0
41
1
10
6.27359271237651
20
11.58375667247
30
0
41
1
10
6.26451789572479
20
11.579061993274
30
0
41
1
10
6.25547426431831
20
11.5743279053258
30
0
0
SPLINE
5
32A
100
AcDbEntity
8
1
62
256
6
ByLayer
370
18
48
1
60
0
100
AcDbSpline
70
4
71
3
72
8
73
4
40
0
40
0
40
0
40
0
40
1
40
1
40
1
40
1
41
1
10
4.42103872904357
20
10.8753335961411
30
0
41
1
10
4.29783892455106
20
11.0018525534669
30
0
41
1
10
4.18360737465053
20
11.1323712337157
30
0
41
1
10
4.07689168939726
20
11.2662418901834
30
0
0
SPLINE
5
32B
100
AcDbEntity
8
1
62
256
6
ByLayer
370
18
48
1
60
0
100
AcDbSpline
70
4
71
3
72
20
73
16
40
0
40
0
40
0
40
0
40
0.125
40
0.125
40
0.25
40
0.25
40
0.375
40
0.375
40
0.5
40
0.5
40
0.625
40
0.625
40
0.75
40
0.75
40
1
40
1
40
1
40
1
41
1
10
4.07689168939731
20
11.2662418901834
30
0
41
1
10
4.06740084123248
20
11.2781477882831
30
0
41
1
10
4.0565985686805
20
11.2872646268736
30
0
41
1
10
4.03326338115858
20
11.3016442586136
30
0
41
1
10
4.02057670404355
20
11.3068641859464
30
0
41
1
10
3.99485779887817
20
11.3135367657804
30
0
41
1
10
3.98171239124508
20
11.3150802462055
30
0
41
1
10
3.95493248519853
20
11.3148902590071
30
0
41
1
10
3.94132808950218
20
11.3131163367208
30
0
41
1
10
3.91461005415488
20
11.3064019404946
30
0
41
1
10
3.90137303359575
20
11.3014692002743
30
0
41
1
10
3.875150059085
20
11.2881053256405
30
0
41
1
10
3.86240920095401
20
11.2797813629597
30
0
41
1
10
3.82605005119734
20
11.2496590449018
30
0
41
1
10
3.80364894279597
20
11.2221367627386
30
0
41
1
10
3.78834605001532
20
11.1875539145139
30
0
0
SPLINE
5
32C
100
AcDbEntity
8
1
62
256
6
ByLayer
370
18
48
1
60
0
100
AcDbSpline
70
4
71
3
72
8
73
4
40
0
40
0
40
0
40
0
40
1
40
1
40
1
40
1
41
1
10
3.13433693777682
20
10.4788192245943
30
0
41
1
10
3.07984885700864
20
10.6068425724547
30
0
41
1
10
3.02972371785989
20
10.7357250453275
30
0
41
1
10
2.98354348465585
20
10.8653843260661
30
0
0
SPLINE
5
32D
100
AcDbEntity
8
1
62
256
6
ByLayer
370
18
48
1
60
0
100
AcDbSpline
70
4
71
3
72
22
73
18
40
0
40
0
40
0
40
0
40
0.125
40
0.125
40
0.25
40
0.25
40
0.375
40
0.375
40
0.5
40
0.5
40
0.625
40
0.625
40
0.75
40
0.75
40
0.875
40
0.875
40
1
40
1
40
1
40
1
41
1
10
2.98354348465585
20
10.8653843260661
30
0
41
1
10
2.97967714674223
20
10.8762397626499
30
0
41
1
10
2.97514320303213
20
10.8852176712554
30
0
41
1
10
2.96493481002295
20
10.8998083861488
30
0
41
1
10
2.9592661945548
20
10.9053245335807
30
0
41
1
10
2.94747343819023
20
10.9125062853292
30
0
41
1
10
2.94120115386499
20
10.9142551990738
30
0
41
1
10
2.92863392131005
20
10.9139944751666
30
0
41
1
10
2.92227724512026
20
10.9120367889721
30
0
41
1
10
2.90957556778506
20
10.9044149141139
30
0
41
1
10
2.903426589849
20
10.8988824377764
30
0
41
1
10
2.89151605675482
20
10.8843733263202
30
0
41
1
10
2.88573792797888
20
10.8752953633506
30
0
41
1
10
2.87522158524797
20
10.854469000024
30
0
41
1
10
2.87033658691848
20
10.8424592892205
30
0
41
1
10
2.86176712675262
20
10.816049455331
30
0
41
1
10
2.85813125743852
20
10.8018891576482
30
0
41
1
10
2.85516867452407
20
10.7866963503991
30
0
0
SPLINE
5
32E
100
AcDbEntity
8
1
62
256
6
ByLayer
370
18
48
1
60
0
100
AcDbSpline
70
4
71
3
72
8
73
4
40
0
40
0
40
0
40
0
40
1
40
1
40
1
40
1
41
1
10
2.85516867452407
20
10.7866963503991
30
0
41
1
10
2.85412632494149
20
10.7813509417635
30
0
41
1
10
2.85308675673298
20
10.7760050825752
30
0
41
1
10
2.85204996262439
20
10.7706587740125
30
0
0
SPLINE
5
32F
100
AcDbEntity
8
1
62
256
6
ByLayer
370
18
48
1
60
0
100
AcDbSpline
70
4
71
3
72
16
73
12
40
0
40
0
40
0
40
0
40
0.370590144704996
40
0.370590144704996
40
0.463237680881236
40
0.463237680881236
40
0.555885217057477
40
0.555885217057477
40
0.741180289409974
40
0.741180289409974
40
1
40
1
40
1
40
1
41
1
10
2.5
20
10.4909332603637
30
0
41
1
10
2.5
20
10.5307738727904
30
0
41
1
10
2.50664265810667
20
10.553004874255
30
0
41
1
10
2.52259827312616
20
10.5605074861512
30
0
41
1
10
2.52617317467752
20
10.5609906159735
30
0
41
1
10
2.53407880357832
20
10.5599531900383
30
0
41
1
10
2.53841347080009
20
10.5584240963278
30
0
41
1
10
2.5523391209278
20
10.5510146638937
30
0
41
1
10
2.56289807754047
20
10.5423223876628
30
0
41
1
10
2.5908935946548
20
10.5135789445165
30
0
41
1
10
2.60938534276465
20
10.4904225500881
30
0
41
1
10
2.62976892867903
20
10.4616988169655
30
0
0
SPLINE
5
330
100
AcDbEntity
8
1
62
256
6
ByLayer
370
18
48
1
60
0
100
AcDbSpline
70
4
71
3
72
38
73
34
40
0
40
0
40
0
40
0
40
0.124999999999998
40
0.124999999999998
40
0.187499999999998
40
0.187499999999998
40
0.218749999999999
40
0.218749999999999
40
0.25
40
0.25
40
0.375000000000005
40
0.375000000000005
40
0.437500000000007
40
0.437500000000007
40
0.468750000000007
40
0.468750000000007
40
0.500000000000008
40
0.500000000000008
40
0.625000000000009
40
0.625000000000009
40
0.656250000000009
40
0.656250000000009
40
0.687500000000008
40
0.687500000000008
40
0.750000000000006
40
0.750000000000006
40
0.812500000000004
40
0.812500000000004
40
0.843750000000003
40
0.843750000000003
40
0.875000000000002
40
0.875000000000002
40
1
40
1
40
1
40
1
41
1
10
2.5
20
18.5442978503515
30
0
41
1
10
2.5
20
18.4778679106564
30
0
41
1
10
2.52342980353978
20
18.4239425861691
30
0
41
1
10
2.59936020766344
20
18.3609466981035
30
0
41
1
10
2.6314926799879
20
18.3429317410117
30
0
41
1
10
2.69095009337684
20
18.3202860945398
30
0
41
1
10
2.71268950298895
20
18.3134567914702
30
0
41
1
10
2.75995464007292
20
18.3012866133669
30
0
41
1
10
2.7853629451555
20
18.2959714975682
30
0
41
1
10
2.92136010741513
20
18.2730247340938
30
0
41
1
10
3.05864184429129
20
18.2662679193188
30
0
41
1
10
3.31068349579635
20
18.2695022618483
30
0
41
1
10
3.40241648256165
20
18.272811278557
30
0
41
1
10
3.55241585296505
20
18.2806145518753
30
0
41
1
10
3.60464703001628
20
18.2837004854384
30
0
41
1
10
3.71206223863982
20
18.2906370815449
30
0
41
1
10
3.76734592650456
20
18.2944908813669
30
0
41
1
10
4.05156993596273
20
18.315355397723
30
0
41
1
10
4.3037187703992
20
18.3371101343021
30
0
41
1
10
4.65069538815658
20
18.3658783279228
30
0
41
1
10
4.72169369508026
20
18.3717128847942
30
0
41
1
10
4.86697548372928
20
18.3834307646136
30
0
41
1
10
4.94111248228904
20
18.3893010702498
30
0
41
1
10
5.16569599584761
20
18.406601163687
30
0
41
1
10
5.31915187035258
20
18.4177850701771
30
0
41
1
10
5.63335842999953
20
18.4386951031474
30
0
41
1
10
5.7941090731984
20
18.4484227366147
30
0
41
1
10
6.04075588983261
20
18.4614282199377
30
0
41
1
10
6.12389349110356
20
18.4654996831571
30
0
41
1
10
6.29204465955104
20
18.4730388465777
30
0
41
1
10
6.37724357710846
20
18.4765120117552
30
0
41
1
10
6.80391967776808
20
18.4920473605708
30
0
41
1
10
7.14971740095632
20
18.4986893679958
30
0
41
1
10
7.49999999999989
20
18.4986893679958
30
0
0
SPLINE
5
331
100
AcDbEntity
8
1
62
256
6
ByLayer
370
18
48
1
60
0
100
AcDbSpline
70
4
71
3
72
38
73
34
40
0
40
0
40
0
40
0
40
0.125
40
0.125
40
0.1875
40
0.1875
40
0.21875
40
0.21875
40
0.25
40
0.25
40
0.374999999999995
40
0.374999999999995
40
0.437499999999994
40
0.437499999999994
40
0.468749999999994
40
0.468749999999994
40
0.499999999999994
40
0.499999999999994
40
0.624999999999994
40
0.624999999999994
40
0.656249999999994
40
0.656249999999994
40
0.687499999999994
40
0.687499999999994
40
0.749999999999995
40
0.749999999999995
40
0.812499999999996
40
0.812499999999996
40
0.843749999999997
40
0.843749999999997
40
0.874999999999997
40
0.874999999999997
40
1
40
1
40
1
40
1
41
1
10
2.5
20
-14.659681980645
30
0
41
1
10
2.5
20
-14.94801001496
30
0
41
1
10
2.52342980492949
20
-15.2267995633695
30
0
41
1
10
2.59936020903524
20
-15.6307353474504
30
0
41
1
10
2.63149268098727
20
-15.7630028015383
30
0
41
1
10
2.69095009250196
20
-15.957812497477
30
0
41
1
10
2.71268949995022
20
-16.0222592142318
30
0
41
1
10
2.75995463888114
20
-16.1494618291528
30
0
41
1
10
2.78536294490647
20
-16.2119218155853
30
0
41
1
10
2.92136011167708
20
-16.5186428367293
30
0
41
1
10
3.05864185158555
20
-16.7462345356623
30
0
41
1
10
3.31068350042858
20
-17.0625951104536
30
0
41
1
10
3.40241648509317
20
-17.1638645250208
30
0
41
1
10
3.55241584948237
20
-17.3095653561618
30
0
41
1
10
3.60464702575905
20
-17.3572229721083
30
0
41
1
10
3.71206223783031
20
-17.4493417521546
30
0
41
1
10
3.76734592721306
20
-17.4939172598686
30
0
41
1
10
4.05156994297653
20
-17.7096862489775
30
0
41
1
10
4.30371877840457
20
-17.8597436684893
30
0
41
1
10
4.6506953879894
20
-18.0221368087582
30
0
41
1
10
4.72169369280317
20
-18.0533446893155
30
0
41
1
10
4.86697547614381
20
-18.1132458800557
30
0
41
1
10
4.94111247824043
20
-18.141865805667
30
0
41
1
10
5.16569599698556
20
-18.2230310741559
30
0
41
1
10
5.31915187351638
20
-18.2712534316823
30
0
41
1
10
5.63335843395896
20
-18.3568219757598
30
0
41
1
10
5.79410907593024
20
-18.3941670107096
30
0
41
1
10
6.04075588791977
20
-18.44234433403
30
0
41
1
10
6.12389348717437
20
-18.4570931626271
30
0
41
1
10
6.29204465057637
20
-18.4839792833715
30
0
41
1
10
6.37724356707986
20
-18.4961349392166
30
0
41
1
10
6.80391967560212
20
-18.5498588985095
30
0
41
1
10
7.14971740170995
20
-18.5710772319927
30
0
41
1
10
7.49999999999989
20
-18.5710772319927
30
0
0
SPLINE
5
332
100
AcDbEntity
8
1
62
256
6
ByLayer
370
18
48
1
60
0
100
AcDbSpline
70
4
71
3
72
16
73
12
40
0
40
0
40
0
40
0
40
0.142566163513239
40
0.142566163513239
40
0.428377442342163
40
0.428377442342163
40
0.571283081756622
40
0.571283081756622
40
0.714188721171081
40
0.714188721171081
40
1
40
1
40
1
40
1
41
1
10
2.70646645823734
20
-23.5497574752597
30
0
41
1
10
2.68932962493636
20
-23.4828810157011
30
0
41
1
10
2.67277645517805
20
-23.4163515833304
30
0
41
1
10
2.62576079968358
20
-23.2205940334048
30
0
41
1
10
2.59799621986451
20
-23.0955228430482
30
0
41
1
10
2.56300660975779
20
-22.9181443326022
30
0
41
1
10
2.5524587468704
20
-22.860731781857
30
0
41
1
10
2.53390061020286
20
-22.7498054556776
30
0
41
1
10
2.5258805172968
20
-22.696109423495
30
0
41
1
10
2.50665236500276
20
-22.5457392049616
30
0
41
1
10
2.5
20
-22.458377469375
30
0
41
1
10
2.5
20
-22.3849162574922
30
0
0
SPLINE
5
333
100
AcDbEntity
8
1
62
256
6
ByLayer
370
18
48
1
60
0
100
AcDbSpline
70
4
71
3
72
38
73
34
40
0
40
0
40
0
40
0
40
0.124999999999995
40
0.124999999999995
40
0.187499999999992
40
0.187499999999992
40
0.218749999999991
40
0.218749999999991
40
0.24999999999999
40
0.24999999999999
40
0.374999999999988
40
0.374999999999988
40
0.406249999999987
40
0.406249999999987
40
0.437499999999987
40
0.437499999999987
40
0.499999999999987
40
0.499999999999987
40
0.562499999999988
40
0.562499999999988
40
0.593749999999988
40
0.593749999999988
40
0.624999999999988
40
0.624999999999988
40
0.749999999999993
40
0.749999999999993
40
0.781249999999995
40
0.781249999999995
40
0.812499999999997
40
0.812499999999997
40
0.874999999999998
40
0.874999999999998
40
1
40
1
40
1
40
1
41
1
10
8.5
20
-18.5710772319922
30
0
41
1
10
8.84983029588534
20
-18.5710772319922
30
0
41
1
10
9.19335230431642
20
-18.5499095727013
30
0
41
1
10
9.69952250742381
20
-18.4866112525656
30
0
41
1
10
9.86671367154912
20
-18.4601897202193
30
0
41
1
10
10.1151244209759
20
-18.4120014061551
30
0
41
1
10
10.1975009222653
20
-18.3945017674175
30
0
41
1
10
10.3594604505925
20
-18.3570012869812
30
0
41
1
10
10.4392990581008
20
-18.3369536014324
30
0
41
1
10
10.8328780729482
20
-18.2301621091288
30
0
41
1
10
11.1299495660945
20
-18.1240289571854
30
0
41
1
10
11.4787200636299
20
-17.9617435992863
30
0
41
1
10
11.5475374921375
20
-17.9276763361792
30
0
41
1
10
11.6815421017919
20
-17.8570839498912
30
0
41
1
10
11.7467759305586
20
-17.8205525002527
30
0
41
1
10
11.9372976069807
20
-17.7072034556811
30
0
41
1
10
12.0574166652802
20
-17.6266390634327
30
0
41
1
10
12.2842378993014
20
-17.4550538828872
30
0
41
1
10
12.3909384791243
20
-17.3640331816091
30
0
41
1
10
12.5409522027238
20
-17.2191234735982
30
0
41
1
10
12.5893361742327
20
-17.1693614396327
30
0
41
1
10
12.6824959348825
20
-17.0671829424739
30
0
41
1
10
12.7269877187894
20
-17.0150862204613
30
0
41
1
10
12.9393939365099
20
-16.7495483437083
30
0
41
1
10
13.0773588186659
20
-16.5210085613471
30
0
41
1
10
13.2136688497316
20
-16.2142332587976
30
0
41
1
10
13.2391114597742
20
-16.1518192856727
30
0
41
1
10
13.2864093658466
20
-16.0248343696619
30
0
41
1
10
13.3082159477293
20
-15.9603650785896
30
0
41
1
10
13.3678468314661
20
-15.7655162229016
30
0
41
1
10
13.4001072032128
20
-15.6331401013656
30
0
41
1
10
13.4763866400759
20
-15.2286226205432
30
0
41
1
10
13.5
20
-14.9489279202063
30
0
41
1
10
13.5
20
-14.659681980645
30
0
0
SPLINE
5
334
100
AcDbEntity
8
1
62
256
6
ByLayer
370
18
48
1
60
0
100
AcDbSpline
70
4
71
3
72
18
73
14
40
0
40
0
40
0
40
0
40
0.250000000000002
40
0.250000000000002
40
0.500000000000003
40
0.500000000000003
40
0.750000000000004
40
0.750000000000004
40
0.875000000000005
40
0.875000000000005
40
0.937500000000002
40
0.937500000000002
40
1
40
1
40
1
40
1
41
1
10
7.5
20
-24.9508095883682
30
0
41
1
10
7.39668878956746
20
-24.9508095883682
30
0
41
1
10
7.29348623554552
20
-24.9490660880878
30
0
41
1
10
7.08729932844739
20
-24.9430237103318
30
0
41
1
10
6.98452761273461
20
-24.9387144781981
30
0
41
1
10
6.78014018947948
20
-24.9304948842336
30
0
41
1
10
6.67845727111063
20
-24.9263944123286
30
0
41
1
10
6.52698809642692
20
-24.925757193883
30
0
41
1
10
6.47654940423371
20
-24.9264795964089
30
0
41
1
10
6.40243236843764
20
-24.9309892485233
30
0
41
1
10
6.37795391809391
20
-24.9330695661941
30
0
41
1
10
6.32967940755771
20
-24.9392456838298
30
0
41
1
10
6.3058598879349
20
-24.9432542093075
30
0
41
1
10
6.28269908167118
20
-24.94946057411
30
0
0
SPLINE
5
335
100
AcDbEntity
8
1
62
256
6
ByLayer
370
18
48
1
60
0
100
AcDbSpline
70
4
71
3
72
8
73
4
40
0
40
0
40
0
40
0
40
1
40
1
40
1
40
1
41
1
10
6.28269908167118
20
-24.94946057411
30
0
41
1
10
6.19710683886274
20
-24.9723965927048
30
0
41
1
10
6.11430207708742
20
-24.9971792663243
30
0
41
1
10
6.03397972652323
20
-25.0236064918104
30
0
0
SPLINE
5
336
100
AcDbEntity
8
1
62
256
6
ByLayer
370
18
48
1
60
0
100
AcDbSpline
70
4
71
3
72
12
73
8
40
0
40
0
40
0
40
0
40
0.41150725528944
40
0.41150725528944
40
0.823014510578881
40
0.823014510578881
40
1
40
1
40
1
40
1
41
1
10
4.53242256830657
20
-25.0717057541661
30
0
41
1
10
4.5446957918594
20
-25.0886011420839
30
0
41
1
10
4.55865460130599
20
-25.1033572875073
30
0
41
1
10
4.58866293054814
20
-25.1302624055295
30
0
41
1
10
4.60463260946574
20
-25.1422159872142
30
0
41
1
10
4.62777675103871
20
-25.1572232198906
30
0
41
1
10
4.63482077920992
20
-25.1615023514847
30
0
41
1
10
4.64193257686566
20
-25.1655519571357
30
0
0
SPLINE
5
337
100
AcDbEntity
8
1
62
256
6
ByLayer
370
18
48
1
60
0
100
AcDbSpline
70
4
71
3
72
8
73
4
40
0
40
0
40
0
40
0
40
1
40
1
40
1
40
1
41
1
10
4.53242256830652
20
-25.0717057541662
30
0
41
1
10
4.36587350371906
20
-24.842433383999
30
0
41
1
10
4.21508111965289
20
-24.6031354836378
30
0
41
1
10
4.07689168939794
20
-24.3558186801963
30
0
0
SPLINE
5
338
100
AcDbEntity
8
1
62
256
6
ByLayer
370
18
48
1
60
0
100
AcDbSpline
70
4
71
3
72
20
73
16
40
0
40
0
40
0
40
0
40
0.124999999999995
40
0.124999999999995
40
0.249999999999991
40
0.249999999999991
40
0.374999999999986
40
0.374999999999986
40
0.499999999999982
40
0.499999999999982
40
0.624999999999977
40
0.624999999999977
40
0.749999999999972
40
0.749999999999972
40
1
40
1
40
1
40
1
41
1
10
4.07689168939805
20
-24.3558186801964
30
0
41
1
10
4.06739991088472
20
-24.3388313005062
30
0
41
1
10
4.05659714053439
20
-24.3233502418865
30
0
41
1
10
4.03326220405211
20
-24.2944193965251
30
0
41
1
10
4.02057569649349
20
-24.2808969333963
30
0
41
1
10
3.99485624823922
20
-24.2567228400075
30
0
41
1
10
3.98171096572588
20
-24.2459152078945
30
0
41
1
10
3.95493211986604
20
-24.2266155162934
30
0
41
1
10
3.94132700761941
20
-24.2181775254573
30
0
41
1
10
3.91460885253531
20
-24.2042298535928
30
0
41
1
10
3.90137221387334
20
-24.1986239081221
30
0
41
1
10
3.87515093141496
20
-24.1904629679262
30
0
41
1
10
3.86240829656964
20
-24.1879979310626
30
0
41
1
10
3.82604951718901
20
-24.1862894352498
30
0
41
1
10
3.80364885177426
20
-24.192695749317
30
0
41
1
10
3.78834605001595
20
-24.2108252339547
30
0
0
SPLINE
5
339
100
AcDbEntity
8
1
62
256
6
ByLayer
370
18
48
1
60
0
100
AcDbSpline
70
4
71
3
72
8
73
4
40
0
40
0
40
0
40
0
40
1
40
1
40
1
40
1
41
1
10
3.78834605001651
20
-24.2108252339554
30
0
41
1
10
3.76636171267205
20
-24.2368704453122
30
0
41
1
10
3.7447991056124
20
-24.2629985695489
30
0
41
1
10
3.723643535252
20
-24.2892067178819
30
0
0
SPLINE
5
33A
100
AcDbEntity
8
1
62
256
6
ByLayer
370
18
48
1
60
0
100
AcDbSpline
70
4
71
3
72
12
73
8
40
0
40
0
40
0
40
0
40
0.409151024132128
40
0.409151024132128
40
0.818302048264257
40
0.818302048264257
40
1
40
1
40
1
40
1
41
1
10
3.18467264023241
20
-24.3330704140109
30
0
41
1
10
3.18914307552461
20
-24.347299278363
30
0
41
1
10
3.1944129640886
20
-24.3608475167451
30
0
41
1
10
3.20637369148926
20
-24.3867602450865
30
0
41
1
10
3.21303582398673
20
-24.3989909083444
30
0
41
1
10
3.22314951771949
20
-24.4149529361291
30
0
41
1
10
3.22635681197414
20
-24.4196746334405
30
0
41
1
10
3.22962597184005
20
-24.4241712557829
30
0
0
SPLINE
5
33B
100
AcDbEntity
8
1
62
256
6
ByLayer
370
18
48
1
60
0
100
AcDbSpline
70
4
71
3
72
8
73
4
40
0
40
0
40
0
40
0
40
1
40
1
40
1
40
1
41
1
10
3.18467264023241
20
-24.3330704140109
30
0
41
1
10
3.1103431184344
20
-24.096488378058
30
0
41
1
10
3.04360664990361
20
-23.8577732249171
30
0
41
1
10
2.98354348465585
20
-23.61718334004
30
0
0
SPLINE
5
33C
100
AcDbEntity
8
1
62
256
6
ByLayer
370
18
48
1
60
0
100
AcDbSpline
70
4
71
3
72
22
73
18
40
0
40
0
40
0
40
0
40
0.125
40
0.125
40
0.25
40
0.25
40
0.375
40
0.375
40
0.5
40
0.5
40
0.625
40
0.625
40
0.75
40
0.75
40
0.875
40
0.875
40
1
40
1
40
1
40
1
41
1
10
2.98354348465585
20
-23.6171833400399
30
0
41
1
10
2.97967683309201
20
-23.6016950245181
30
0
41
1
10
2.97514274846537
20
-23.5867931621468
30
0
41
1
10
2.96493485188637
20
-23.558025124438
30
0
41
1
10
2.95926587078805
20
-23.5442474146337
30
0
41
1
10
2.94747326785921
20
-23.5191449421789
30
0
41
1
10
2.94120115769317
20
-23.5075087918963
30
0
41
1
10
2.92863361995683
20
-23.4872498452464
30
0
41
1
10
2.92227810485025
20
-23.4784862957387
30
0
41
1
10
2.9095754015201
20
-23.4639648980364
30
0
41
1
10
2.90342634964031
20
-23.4584226531757
30
0
41
1
10
2.89151639347199
20
-23.4507802044175
30
0
41
1
10
2.88573795603457
20
-23.4487354707916
30
0
41
1
10
2.87522151226733
20
-23.4486017061077
30
0
41
1
10
2.87033720541467
20
-23.4504863800477
30
0
41
1
10
2.86176706213064
20
-23.4583588351197
30
0
41
1
10
2.85813116451442
20
-23.4642255190101
30
0
41
1
10
2.85516867452407
20
-23.4721898937996
30
0
0
SPLINE
5
33D
100
AcDbEntity
8
1
62
256
6
ByLayer
370
18
48
1
60
0
100
AcDbSpline
70
4
71
3
72
8
73
4
40
0
40
0
40
0
40
0
40
1
40
1
40
1
40
1
41
1
10
2.85516867452407
20
-23.4721898937996
30
0
41
1
10
2.84537347456831
20
-23.498523364576
30
0
41
1
10
2.83582389206504
20
-23.5248776933591
30
0
41
1
10
2.8265138905
20
-23.5512523675238
30
0
0
SPLINE
5
33E
100
AcDbEntity
8
1
62
256
6
ByLayer
370
18
48
1
60
0
100
AcDbSpline
70
4
71
3
72
19
73
15
40
0
40
0
40
0
40
0
40
0.142823992673884
40
0.142823992673884
40
0.285647985347769
40
0.428471978021653
40
0.428471978021653
40
0.571295970695538
40
0.571295970695538
40
0.856943956043299
40
0.856943956043299
40
0.999767948717177
40
0.999767948717177
40
1
40
1
40
1
40
1
41
1
10
13.5
20
-22.3849162574921
30
0
41
1
10
13.5
20
-22.4213744728336
30
0
41
1
10
13.4983236475337
20
-22.4621401351934
30
0
41
1
10
13.4917292370927
20
-22.5497904945425
30
0
41
1
10
13.4819439317852
20
-22.6436606106865
30
0
41
1
10
13.4662034368122
20
-22.7491387029421
30
0
41
1
10
13.4476565170245
20
-22.8600871351936
30
0
41
1
10
13.4369523755642
20
-22.9183789190472
30
0
41
1
10
13.4017318811281
20
-23.0968474925573
30
0
41
1
10
13.3739384049638
20
-23.2218658641178
30
0
41
1
10
13.3271920025176
20
-23.4164731603789
30
0
41
1
10
13.3107589819746
20
-23.4825336810662
30
0
41
1
10
13.2935270569119
20
-23.5497827841858
30
0
41
1
10
13.2934991031502
20
-23.5498918710917
30
0
41
1
10
13.2934711475422
20
-23.5500009600968
30
0
0
SPLINE
5
33F
100
AcDbEntity
8
1
62
256
6
ByLayer
370
18
48
1
60
0
100
AcDbSpline
70
4
71
3
72
8
73
4
40
0
40
0
40
0
40
0
40
1
40
1
40
1
40
1
41
1
10
13.1734861094999
20
-23.5512523675238
30
0
41
1
10
13.1641761079349
20
-23.5248776933591
30
0
41
1
10
13.1546265254317
20
-23.498523364576
30
0
41
1
10
13.1448313254759
20
-23.4721898937996
30
0
0
SPLINE
5
340
100
AcDbEntity
8
1
62
256
6
ByLayer
370
18
48
1
60
0
100
AcDbSpline
70
4
71
3
72
22
73
18
40
0
40
0
40
0
40
0
40
0.125
40
0.125
40
0.25
40
0.25
40
0.375
40
0.375
40
0.5
40
0.5
40
0.625
40
0.625
40
0.75
40
0.75
40
0.875
40
0.875
40
1
40
1
40
1
40
1
41
1
10
13.1448313254759
20
-23.4721898937996
30
0
41
1
10
13.1418694556526
20
-23.4642271862707
30
0
41
1
10
13.1382370168495
20
-23.4583679404551
30
0
41
1
10
13.1296854658668
20
-23.4505018639904
30
0
41
1
10
13.1247880935112
20
-23.4485986569844
30
0
41
1
10
13.1142285191746
20
-23.4487388307926
30
0
41
1
10
13.1084460313793
20
-23.4507975511002
30
0
41
1
10
13.0965365220487
20
-23.4584532852065
30
0
41
1
10
13.090284465138
20
-23.4641078177843
30
0
41
1
10
13.0776414427273
20
-23.4785958479758
30
0
41
1
10
13.0713216127814
20
-23.4873101721443
30
0
41
1
10
13.0586943670704
20
-23.507689185543
30
0
41
1
10
13.0524750251607
20
-23.5192486121512
30
0
41
1
10
13.0407182843077
20
-23.544287576685
30
0
41
1
10
13.0350337295002
20
-23.5581087805988
30
0
41
1
10
13.0248540100694
20
-23.5868072021767
30
0
41
1
10
13.0203243069298
20
-23.6016904580301
30
0
41
1
10
13.0164565153442
20
-23.6171833400398
30
0
0
SPLINE
5
341
100
AcDbEntity
8
1
62
256
6
ByLayer
370
18
48
1
60
0
100
AcDbSpline
70
4
71
3
72
8
73
4
40
0
40
0
40
0
40
0
40
1
40
1
40
1
40
1
41
1
10
13.0164565153442
20
-23.6171833400398
30
0
41
1
10
12.9563933500964
20
-23.857773224917
30
0
41
1
10
12.8896568815656
20
-24.096488378058
30
0
41
1
10
12.8153273597676
20
-24.3330704140109
30
0
0
SPLINE
5
342
100
AcDbEntity
8
1
62
256
6
ByLayer
370
18
48
1
60
0
100
AcDbSpline
70
4
71
3
72
12
73
8
40
0
40
0
40
0
40
0
40
0.185587010308202
40
0.185587010308202
40
0.592793505154101
40
0.592793505154101
40
1
40
1
40
1
40
1
41
1
10
12.7700573925026
20
-24.4246062582503
30
0
41
1
10
12.7734129019149
20
-24.4200113737991
30
0
41
1
10
12.7767091315758
20
-24.4151721803293
30
0
41
1
10
12.7869294871414
20
-24.3990539916754
30
0
41
1
10
12.7934516051934
20
-24.3870979538601
30
0
41
1
10
12.8054295421173
20
-24.3612283909404
30
0
41
1
10
12.8108481005231
20
-24.3473273639801
30
0
41
1
10
12.8153273597744
20
-24.3330704140151
30
0
0
SPLINE
5
343
100
AcDbEntity
8
1
62
256
6
ByLayer
370
18
48
1
60
0
100
AcDbSpline
70
4
71
3
72
8
73
4
40
0
40
0
40
0
40
0
40
1
40
1
40
1
40
1
41
1
10
12.2763564647476
20
-24.2892067178815
30
0
41
1
10
12.2552008943871
20
-24.2629985695485
30
0
41
1
10
12.2336382873275
20
-24.2368704453118
30
0
41
1
10
12.2116539499831
20
-24.2108252339549
30
0
0
SPLINE
5
344
100
AcDbEntity
8
1
62
256
6
ByLayer
370
18
48
1
60
0
100
AcDbSpline
70
4
71
3
72
22
73
18
40
0
40
0
40
0
40
0
40
0.125
40
0.125
40
0.25
40
0.25
40
0.375
40
0.375
40
0.5
40
0.5
40
0.625
40
0.625
40
0.75
40
0.75
40
0.875
40
0.875
40
1
40
1
40
1
40
1
41
1
10
12.2116539499831
20
-24.2108252339549
30
0
41
1
10
12.2039960876824
20
-24.2017528366822
30
0
41
1
10
12.1947065027779
20
-24.1957368899873
30
0
41
1
10
12.1736133483074
20
-24.1882188067357
30
0
41
1
10
12.1620208120273
20
-24.186870399221
30
0
41
1
10
12.1377928193903
20
-24.1879684171495
30
0
41
1
10
12.1249065926135
20
-24.1904569581969
30
0
41
1
10
12.0988801843063
20
-24.1985336004604
30
0
41
1
10
12.0856790213887
20
-24.2040971729623
30
0
41
1
10
12.0589105921489
20
-24.2180362352582
30
0
41
1
10
12.0452710345394
20
-24.2264871654529
30
0
41
1
10
12.0186174215132
20
-24.2456608298801
30
0
41
1
10
12.0054852664908
20
-24.2564270934875
30
0
41
1
10
11.9796925691559
20
-24.2806201284406
30
0
41
1
10
11.9670420121809
20
-24.2940750322913
30
0
41
1
10
11.9436182721936
20
-24.323051086276
30
0
41
1
10
11.9325725493397
20
-24.3388805882778
30
0
41
1
10
11.923108310602
20
-24.3558186801947
30
0
0
SPLINE
5
345
100
AcDbEntity
8
1
62
256
6
ByLayer
370
18
48
1
60
0
100
AcDbSpline
70
4
71
3
72
8
73
4
40
0
40
0
40
0
40
0
40
1
40
1
40
1
40
1
41
1
10
11.9231083106027
20
-24.3558186801952
30
0
41
1
10
11.7849188803476
20
-24.6031354836371
30
0
41
1
10
11.6341264962812
20
-24.8424333839986
30
0
41
1
10
11.4675774316935
20
-25.0717057541662
30
0
0
SPLINE
5
346
100
AcDbEntity
8
1
62
256
6
ByLayer
370
18
48
1
60
0
100
AcDbSpline
70
4
71
3
72
12
73
8
40
0
40
0
40
0
40
0
40
0.188559670016374
40
0.188559670016374
40
0.594279835008187
40
0.594279835008187
40
1
40
1
40
1
40
1
41
1
10
11.3558712664067
20
-25.1668083471193
30
0
41
1
10
11.3635288912797
20
-25.1625003443112
30
0
41
1
10
11.3711314956664
20
-25.1579150306865
30
0
41
1
10
11.394913231839
20
-25.142543486685
30
0
41
1
10
11.4110182407222
20
-25.1305149760756
30
0
41
1
10
11.4410396414544
20
-25.1036640274957
30
0
41
1
10
11.4552892490615
20
-25.0886217348363
30
0
41
1
10
11.4675774316938
20
-25.0717057541664
30
0
0
SPLINE
5
347
100
AcDbEntity
8
1
62
256
6
ByLayer
370
18
48
1
60
0
100
AcDbSpline
70
4
71
3
72
8
73
4
40
0
40
0
40
0
40
0
40
1
40
1
40
1
40
1
41
1
10
9.96526127617165
20
-25.0233568438734
30
0
41
1
10
9.88517630965242
20
-24.9970231790547
30
0
41
1
10
9.80262358918719
20
-24.9723243559336
30
0
41
1
10
9.71730091832865
20
-24.9494605741099
30
0
0
SPLINE
5
348
100
AcDbEntity
8
1
62
256
6
ByLayer
370
18
48
1
60
0
100
AcDbSpline
70
4
71
3
72
18
73
14
40
0
40
0
40
0
40
0
40
0.0624999999999965
40
0.0624999999999965
40
0.124999999999993
40
0.124999999999993
40
0.249999999999991
40
0.249999999999991
40
0.499999999999994
40
0.499999999999994
40
0.749999999999997
40
0.749999999999997
40
1
40
1
40
1
40
1
41
1
10
9.71730091832865
20
-24.9494605741099
30
0
41
1
10
9.69407217480091
20
-24.9432360042657
30
0
41
1
10
9.67017423292185
20
-24.9392200866885
30
0
41
1
10
9.62173339625616
20
-24.9330364997279
30
0
41
1
10
9.5971666165828
20
-24.9309566984048
30
0
41
1
10
9.52277457712523
20
-24.9264550102416
30
0
41
1
10
9.47213923035304
20
-24.9257478348671
30
0
41
1
10
9.32036995246648
20
-24.9264257864656
30
0
41
1
10
9.21867958794485
20
-24.9305404523575
30
0
41
1
10
9.01454714601266
20
-24.9387536026251
30
0
41
1
10
8.91209819516359
20
-24.9430436035603
30
0
41
1
10
8.70653926260036
20
-24.9490630971154
30
0
41
1
10
8.60342874806179
20
-24.9508095883685
30
0
41
1
10
8.50000000000006
20
-24.9508095883684
30
0
0
SPLINE
5
349
100
AcDbEntity
8
1
62
256
6
ByLayer
370
18
48
1
60
0
100
AcDbSpline
70
4
71
3
72
38
73
34
40
0
40
0
40
0
40
0
40
0.124999999999994
40
0.124999999999994
40
0.187499999999992
40
0.187499999999992
40
0.218749999999991
40
0.218749999999991
40
0.249999999999991
40
0.249999999999991
40
0.374999999999991
40
0.374999999999991
40
0.437499999999991
40
0.437499999999991
40
0.468749999999992
40
0.468749999999992
40
0.499999999999992
40
0.499999999999992
40
0.624999999999993
40
0.624999999999993
40
0.656249999999993
40
0.656249999999993
40
0.687499999999992
40
0.687499999999992
40
0.749999999999994
40
0.749999999999994
40
0.812499999999995
40
0.812499999999995
40
0.843749999999996
40
0.843749999999996
40
0.874999999999996
40
0.874999999999996
40
1
40
1
40
1
40
1
41
1
10
2.5
20
40.8852795052982
30
0
41
1
10
2.5
20
41.0796614153679
30
0
41
1
10
2.52342980492949
20
41.2821890385938
30
0
41
1
10
2.59936020903524
20
41.5970351847524
30
0
41
1
10
2.63149268098727
20
41.703825642857
30
0
41
1
10
2.69095009250196
20
41.8666095593842
30
0
41
1
10
2.71268949995022
20
41.9213981838726
30
0
41
1
10
2.75995463888114
20
42.0313895669836
30
0
41
1
10
2.78536294490647
20
42.0863328442738
30
0
41
1
10
2.92136011167708
20
42.3606022403399
30
0
41
1
10
3.05864185158555
20
42.5786383609716
30
0
41
1
10
3.31068350042858
20
42.8995729871813
30
0
41
1
10
3.40241648509317
20
43.0055220580466
30
0
41
1
10
3.55241584948237
20
43.1622583836723
30
0
41
1
10
3.60464702575905
20
43.2142801686066
30
0
41
1
10
3.71206223783031
20
43.316208777233
30
0
41
1
10
3.76734592721306
20
43.3662343810753
30
0
41
1
10
4.05156994297653
20
43.6115102528753
30
0
41
1
10
4.30371877840457
20
43.792333516091
30
0
41
1
10
4.6506953879894
20
43.9954110249798
30
0
41
1
10
4.72169369280317
20
44.0348702147492
30
0
41
1
10
4.86697547614381
20
44.1113429894606
30
0
41
1
10
4.94111247824043
20
44.1482647813305
30
0
41
1
10
5.16569599698556
20
44.2538960771675
30
0
41
1
10
5.31915187351638
20
44.3179348671176
30
0
41
1
10
5.63335843395896
20
44.4330746634451
30
0
41
1
10
5.79410907593024
20
44.4841766494232
30
0
41
1
10
6.04075588791977
20
44.5507465033019
30
0
41
1
10
6.12389348717437
20
44.5712532502699
30
0
41
1
10
6.29204465057637
20
44.6088013579023
30
0
41
1
10
6.37724356707986
20
44.6258688110392
30
0
41
1
10
6.80391967560212
20
44.7015630719001
30
0
41
1
10
7.14971740170995
20
44.7321746223392
30
0
41
1
10
7.49999999999989
20
44.7321746223392
30
0
0
SPLINE
5
34A
100
AcDbEntity
8
1
62
256
6
ByLayer
370
18
48
1
60
0
100
AcDbSpline
70
4
71
3
72
38
73
34
40
0
40
0
40
0
40
0
40
0.124999999999999
40
0.124999999999999
40
0.187499999999998
40
0.187499999999998
40
0.218749999999998
40
0.218749999999998
40
0.249999999999998
40
0.249999999999998
40
0.374999999999999
40
0.374999999999999
40
0.406249999999999
40
0.406249999999999
40
0.437499999999999
40
0.437499999999999
40
0.499999999999997
40
0.499999999999997
40
0.562499999999996
40
0.562499999999996
40
0.593749999999995
40
0.593749999999995
40
0.624999999999994
40
0.624999999999994
40
0.749999999999994
40
0.749999999999994
40
0.781249999999994
40
0.781249999999994
40
0.812499999999994
40
0.812499999999994
40
0.874999999999996
40
0.874999999999996
40
1
40
1
40
1
40
1
41
1
10
8.5
20
44.7321746223385
30
0
41
1
10
8.84983029588534
20
44.7321746223385
30
0
41
1
10
9.19335230431642
20
44.7016466472829
30
0
41
1
10
9.69952250742381
20
44.6124445215589
30
0
41
1
10
9.86671367154912
20
44.5754241134758
30
0
41
1
10
10.1151244209759
20
44.5088107019103
30
0
41
1
10
10.1975009222653
20
44.4847485079932
30
0
41
1
10
10.3594604505925
20
44.4335511183877
30
0
41
1
10
10.4392990581009
20
44.4063509012193
30
0
41
1
10
10.8328780729482
20
44.2626015424675
30
0
41
1
10
11.1299495660945
20
44.1229945955992
30
0
41
1
10
11.4787200636299
20
43.9198499375227
30
0
41
1
10
11.5475374921375
20
43.8776419412383
30
0
41
1
10
11.6815421017919
20
43.79120767965
30
0
41
1
10
11.7467759305586
20
43.7469701338404
30
0
41
1
10
11.9372976069807
20
43.6113889070293
30
0
41
1
10
12.0574166652802
20
43.5171828190761
30
0
41
1
10
12.2842378993015
20
43.3219830146181
30
0
41
1
10
12.3909384791243
20
43.2209873205864
30
0
41
1
10
12.5409522027238
20
43.06490507533
30
0
41
1
10
12.5893361742327
20
43.0120486171738
30
0
41
1
10
12.6824959348825
20
42.9051439984298
30
0
41
1
10
12.7269877187894
20
42.8514289876111
30
0
41
1
10
12.9393939365099
20
42.5818041957647
30
0
41
1
10
13.0773588186659
20
42.3628098538952
30
0
41
1
10
13.2136688497316
20
42.0883772286065
30
0
41
1
10
13.2391114597742
20
42.0334526416513
30
0
41
1
10
13.2864093658465
20
41.9236012480095
30
0
41
1
10
13.3082159477293
20
41.868767326194
30
0
41
1
10
13.3678468314661
20
41.7058776617564
30
0
41
1
10
13.4001072032128
20
41.5989504082753
30
0
41
1
10
13.4763866400759
20
41.2835293144365
30
0
41
1
10
13.5
20
41.0802802389085
30
0
41
1
10
13.5
20
40.8852795052982
30
0
0
SPLINE
5
34B
100
AcDbEntity
8
1
62
256
6
ByLayer
370
18
48
1
60
0
100
AcDbSpline
70
4
71
3
72
38
73
34
40
0
40
0
40
0
40
0
40
0.125
40
0.125
40
0.187500000000001
40
0.187500000000001
40
0.218750000000001
40
0.218750000000001
40
0.250000000000002
40
0.250000000000002
40
0.375000000000005
40
0.375000000000005
40
0.406250000000005
40
0.406250000000005
40
0.437500000000006
40
0.437500000000006
40
0.500000000000004
40
0.500000000000004
40
0.562500000000003
40
0.562500000000003
40
0.593750000000003
40
0.593750000000003
40
0.625000000000003
40
0.625000000000003
40
0.750000000000003
40
0.750000000000003
40
0.781250000000003
40
0.781250000000003
40
0.812500000000003
40
0.812500000000003
40
0.875000000000003
40
0.875000000000003
40
1
40
1
40
1
40
1
41
1
10
8.5
20
-44.7621586573571
30
0
41
1
10
8.84983029588534
20
-44.7621586573571
30
0
41
1
10
9.19335230431642
20
-44.725604323753
30
0
41
1
10
9.69952250742381
20
-44.6177702243516
30
0
41
1
10
9.86671367154912
20
-44.5729099980624
30
0
41
1
10
10.1151244209759
20
-44.4917329193776
30
0
41
1
10
10.1975009222653
20
-44.462344265669
30
0
41
1
10
10.3594604505925
20
-44.3996254002856
30
0
41
1
10
10.4392990581009
20
-44.3662160878774
30
0
41
1
10
10.8328780729482
20
-44.1890569531319
30
0
41
1
10
11.1299495660945
20
-44.0152924628526
30
0
41
1
10
11.4787200636299
20
-43.7568944205072
30
0
41
1
10
11.5475374921376
20
-43.7029596673547
30
0
41
1
10
11.6815421017919
20
-43.5919250598144
30
0
41
1
10
11.7467759305586
20
-43.5348127554235
30
0
41
1
10
11.9372976069807
20
-43.3587924724861
30
0
41
1
10
12.0574166652802
20
-43.2352110807843
30
0
41
1
10
12.2842378993014
20
-42.9758549306509
30
0
41
1
10
12.3909384791243
20
-42.8400788354284
30
0
41
1
10
12.5409522027238
20
-42.6272453841905
30
0
41
1
10
12.5893361742327
20
-42.5546831525361
30
0
41
1
10
12.6824959348825
20
-42.4068390634496
30
0
41
1
10
12.7269877187894
20
-42.3320188696356
30
0
41
1
10
12.9393939365099
20
-41.953601717631
30
0
41
1
10
13.0773588186659
20
-41.6371473035751
30
0
41
1
10
13.2136688497316
20
-41.2261712365214
30
0
41
1
10
13.2391114597742
20
-41.143200344994
30
0
41
1
10
13.2864093658466
20
-40.9757317844075
30
0
41
1
10
13.3082159477293
20
-40.8913716735572
30
0
41
1
10
13.3678468314661
20
-40.6384123400847
30
0
41
1
10
13.4001072032128
20
-40.4691993008493
30
0
41
1
10
13.4763866400759
20
-39.9601258526685
30
0
41
1
10
13.5
20
-39.6186330338226
30
0
41
1
10
13.5
20
-39.276218927456
30
0
0
SPLINE
5
34C
100
AcDbEntity
8
1
62
256
6
ByLayer
370
18
48
1
60
0
100
AcDbSpline
70
4
71
3
72
38
73
34
40
0
40
0
40
0
40
0
40
0.125000000000001
40
0.125000000000001
40
0.187500000000003
40
0.187500000000003
40
0.218750000000003
40
0.218750000000003
40
0.250000000000002
40
0.250000000000002
40
0.375000000000001
40
0.375000000000001
40
0.437500000000001
40
0.437500000000001
40
0.468750000000002
40
0.468750000000002
40
0.500000000000002
40
0.500000000000002
40
0.625000000000001
40
0.625000000000001
40
0.656250000000002
40
0.656250000000002
40
0.687500000000002
40
0.687500000000002
40
0.750000000000002
40
0.750000000000002
40
0.812500000000002
40
0.812500000000002
40
0.843750000000002
40
0.843750000000002
40
0.875000000000002
40
0.875000000000002
40
1
40
1
40
1
40
1
41
1
10
2.5
20
-39.276218927456
30
0
41
1
10
2.5
20
-39.6175463930999
30
0
41
1
10
2.52342980353978
20
-39.95788902579
30
0
41
1
10
2.59936020766344
20
-40.4661446080007
30
0
41
1
10
2.6314926799879
20
-40.6351840822026
30
0
41
1
10
2.69095009337684
20
-40.8880409582519
30
0
41
1
10
2.71268950298895
20
-40.9723530841593
30
0
41
1
10
2.75995464007292
20
-41.1400745612173
30
0
41
1
10
2.7853629451555
20
-41.2230912019784
30
0
41
1
10
2.92136010741513
20
-41.6339134526668
30
0
41
1
10
3.05864184429129
20
-41.9490199036626
30
0
41
1
10
3.31068349579635
20
-42.3996556689708
30
0
41
1
10
3.40241648256165
20
-42.546181269268
30
0
41
1
10
3.55241585296505
20
-42.7600366420419
30
0
41
1
10
3.60464703001628
20
-42.8305206230172
30
0
41
1
10
3.71206223863982
20
-42.9677328427805
30
0
41
1
10
3.76734592650462
20
-43.03462592846
30
0
41
1
10
4.05156993596273
20
-43.3606338692098
30
0
41
1
10
4.3037187703992
20
-43.5946018453266
30
0
41
1
10
4.65069538815658
20
-43.8530286259627
30
0
41
1
10
4.72169369508026
20
-43.902997792072
30
0
41
1
10
4.86697548372928
20
-43.999428751086
30
0
41
1
10
4.94111248228904
20
-44.0457737414989
30
0
41
1
10
5.16569599584761
20
-44.1778588556168
30
0
41
1
10
5.31915187035258
20
-44.2572394734615
30
0
41
1
10
5.63335842999953
20
-44.3991617019483
30
0
41
1
10
5.7941090731984
20
-44.4617031909737
30
0
41
1
10
6.04075588983261
20
-44.5428416995996
30
0
41
1
10
6.12389349110356
20
-44.5677711567219
30
0
41
1
10
6.29204465955104
20
-44.6133330376687
30
0
41
1
10
6.37724357710852
20
-44.6339968961963
30
0
41
1
10
6.80391967776808
20
-44.7255093948057
30
0
41
1
10
7.14971740095632
20
-44.7621586573579
30
0
41
1
10
7.49999999999989
20
-44.7621586573579
30
0
0
SPLINE
5
34D
100
AcDbEntity
8
1
62
256
6
ByLayer
370
18
48
1
60
0
100
AcDbSpline
70
4
71
3
72
18
73
14
40
0
40
0
40
0
40
0
40
0.249999999999999
40
0.249999999999999
40
0.499999999999998
40
0.499999999999998
40
0.749999999999996
40
0.749999999999996
40
0.874999999999997
40
0.874999999999997
40
0.937499999999999
40
0.937499999999999
40
1
40
1
40
1
40
1
41
1
10
7.5
20
-46.9968425809554
30
0
41
1
10
7.39668891332684
20
-46.9968425809554
30
0
41
1
10
7.29348648280444
20
-46.993711643486
30
0
41
1
10
7.08729982217966
20
-46.981453725812
30
0
41
1
10
6.98452826354645
20
-46.9723303413466
30
0
41
1
10
6.78014135767012
20
-46.9490203259387
30
0
41
1
10
6.67845878486412
20
-46.9347748511263
30
0
41
1
10
6.52699038139554
20
-46.9111301336281
30
0
41
1
10
6.47655128635131
20
-46.9028459745122
30
0
41
1
10
6.40243338501017
20
-46.8906731896291
30
0
41
1
10
6.37795467184338
20
-46.8866558048722
30
0
41
1
10
6.32967971244284
20
-46.879003492919
30
0
41
1
10
6.30586000454451
20
-46.8753387501479
30
0
41
1
10
6.28269908167118
20
-46.8722769964331
30
0
0
SPLINE
5
34E
100
AcDbEntity
8
1
62
256
6
ByLayer
370
18
48
1
60
0
100
AcDbSpline
70
4
71
3
72
10
73
6
40
0
40
0
40
0
40
0
40
0.5
40
0.5
40
1
40
1
40
1
40
1
41
1
10
6.28269908167118
20
-46.8722769964331
30
0
41
1
10
6.1067295347766
20
-46.8490147362525
30
0
41
1
10
5.94254202150103
20
-46.821901934394
30
0
41
1
10
5.63242901936479
20
-46.7617080328089
30
0
41
1
10
5.48655494307212
20
-46.7286101306997
30
0
41
1
10
5.34828721380603
20
-46.6930263626364
30
0
0
SPLINE
5
34F
100
AcDbEntity
8
1
62
256
6
ByLayer
370
18
48
1
60
0
100
AcDbSpline
70
4
71
3
72
12
73
8
40
0
40
0
40
0
40
0
40
0.499999999999987
40
0.499999999999987
40
0.749999999999993
40
0.749999999999993
40
1
40
1
40
1
40
1
41
1
10
5.10065062593122
20
-46.5878899729898
30
0
41
1
10
5.14392961406088
20
-46.6107219943924
30
0
41
1
10
5.18667098204969
20
-46.6312778123
30
0
41
1
10
5.24973822665629
20
-46.6584790484239
30
0
41
1
10
5.27071978076458
20
-46.6669836466826
30
0
41
1
10
5.31141083960335
20
-46.6820338923405
30
0
41
1
10
5.3308848824442
20
-46.6885478011806
30
0
41
1
10
5.34828721380592
20
-46.6930263626364
30
0
0
SPLINE
5
350
100
AcDbEntity
8
1
62
256
6
ByLayer
370
18
48
1
60
0
100
AcDbSpline
70
4
71
3
72
8
73
4
40
0
40
0
40
0
40
0
40
1
40
1
40
1
40
1
41
1
10
5.10065062593117
20
-46.5878899729898
30
0
41
1
10
4.97095151714592
20
-46.5194666351148
30
0
41
1
10
4.8446518254861
20
-46.4456427285093
30
0
41
1
10
4.72175085638924
20
-46.3664193566075
30
0
0
SPLINE
5
351
100
AcDbEntity
8
1
62
256
6
ByLayer
370
18
48
1
60
0
100
AcDbSpline
70
4
71
3
72
12
73
8
40
0
40
0
40
0
40
0
40
0.249999999999985
40
0.249999999999985
40
0.499999999999969
40
0.499999999999969
40
1
40
1
40
1
40
1
41
1
10
4.53242256830657
20
-46.2211972105507
30
0
41
1
10
4.54469460485944
20
-46.2332471469232
30
0
41
1
10
4.5586530046989
20
-46.245682736213
30
0
41
1
10
4.58866231587217
20
-46.2708988803395
30
0
41
1
10
4.60463112640599
20
-46.2835760010811
30
0
41
1
10
4.65318211935733
20
-46.3204494340044
30
0
41
1
10
4.68735791276714
20
-46.3442492713482
30
0
41
1
10
4.72175085638912
20
-46.3664193566079
30
0
0
SPLINE
5
352
100
AcDbEntity
8
1
62
256
6
ByLayer
370
18
48
1
60
0
100
AcDbSpline
70
4
71
3
72
8
73
4
40
0
40
0
40
0
40
0
40
1
40
1
40
1
40
1
41
1
10
4.53242256830646
20
-46.2211972105508
30
0
41
1
10
4.3658735140184
20
-46.0576623727574
30
0
41
1
10
4.21508112758727
20
-45.8869765386654
30
0
41
1
10
4.07689168939726
20
-45.7105709904154
30
0
0
SPLINE
5
353
100
AcDbEntity
8
1
62
256
6
ByLayer
370
18
48
1
60
0
100
AcDbSpline
70
4
71
3
72
20
73
16
40
0
40
0
40
0
40
0
40
0.125
40
0.125
40
0.25
40
0.25
40
0.375
40
0.375
40
0.5
40
0.5
40
0.625
40
0.625
40
0.75
40
0.75
40
1
40
1
40
1
40
1
41
1
10
4.07689168939731
20
-45.7105709904154
30
0
41
1
10
4.06740084123248
20
-45.6984554604892
30
0
41
1
10
4.0565985686805
20
-45.6856791551468
30
0
41
1
10
4.03326338115858
20
-45.6591434932677
30
0
41
1
10
4.02057670404355
20
-45.6452394228529
30
0
41
1
10
3.99485779887817
20
-45.617725098193
30
0
41
1
10
3.98171239124508
20
-45.6039839039539
30
0
41
1
10
3.95493248519853
20
-45.5764987792527
30
0
41
1
10
3.94132808950218
20
-45.5627923547709
30
0
41
1
10
3.91461005415488
20
-45.5363528464832
30
0
41
1
10
3.90137303359575
20
-45.5234916798495
30
0
41
1
10
3.87515005908506
20
-45.4985857538676
30
0
41
1
10
3.86240920095401
20
-45.4867762579752
30
0
41
1
10
3.8260500511974
20
-45.4542373949015
30
0
41
1
10
3.80364894279597
20
-45.4357750492862
30
0
41
1
10
3.78834605001532
20
-45.4268313166189
30
0
0
SPLINE
5
354
100
AcDbEntity
8
1
62
256
6
ByLayer
370
18
48
1
60
0
100
AcDbSpline
70
4
71
3
72
8
73
4
40
0
40
0
40
0
40
0
40
1
40
1
40
1
40
1
41
1
10
3.78834605001589
20
-45.4268313166195
30
0
41
1
10
3.68750634970956
20
-45.3678958372462
30
0
41
1
10
3.59553966288013
20
-45.3080997823561
30
0
41
1
10
3.51102796953796
20
-45.2475806828219
30
0
0
SPLINE
5
355
100
AcDbEntity
8
1
62
256
6
ByLayer
370
18
48
1
60
0
100
AcDbSpline
70
4
71
3
72
14
73
10
40
0
40
0
40
0
40
0
40
0.25
40
0.25
40
0.5
40
0.5
40
0.75
40
0.75
40
1
40
1
40
1
40
1
41
1
10
3.41849063770508
20
-45.1424442931769
30
0
41
1
10
3.42735430910147
20
-45.1545267708012
30
0
41
1
10
3.43608923098333
20
-45.1659685582642
30
0
41
1
10
3.45329507823783
20
-45.1876023913146
30
0
41
1
10
3.46187001186729
20
-45.1979107003027
30
0
41
1
10
3.47805758189452
20
-45.2163752384702
30
0
41
1
10
3.48567871529087
20
-45.2245595289539
30
0
41
1
10
3.49973858875774
20
-45.2384589808775
30
0
41
1
10
3.50594085198276
20
-45.2439377813604
30
0
41
1
10
3.51102796956991
20
-45.2475806828751
30
0
0
SPLINE
5
356
100
AcDbEntity
8
1
62
256
6
ByLayer
370
18
48
1
60
0
100
AcDbSpline
70
4
71
3
72
8
73
4
40
0
40
0
40
0
40
0
40
1
40
1
40
1
40
1
41
1
10
3.41849063770502
20
-45.1424442931769
30
0
41
1
10
3.36532991691536
20
-45.0699784727843
30
0
41
1
10
3.31428386754641
20
-44.9961548610438
30
0
41
1
10
3.26535214876697
20
-44.9209736767965
30
0
0
SPLINE
5
357
100
AcDbEntity
8
1
62
256
6
ByLayer
370
18
48
1
60
0
100
AcDbSpline
70
4
71
3
72
14
73
10
40
0
40
0
40
0
40
0
40
0.25
40
0.25
40
0.5
40
0.5
40
0.75
40
0.75
40
1
40
1
40
1
40
1
41
1
10
3.18467264023241
20
-44.7757515307377
30
0
41
1
10
3.18914268555898
20
-44.7858997757453
30
0
41
1
10
3.19441244457971
20
-44.7969641905518
30
0
41
1
10
3.20637403596555
20
-44.8206390680577
30
0
41
1
10
3.21303567390078
20
-44.8331682434833
30
0
41
1
10
3.22704319480619
20
-44.8583646724316
30
0
41
1
10
3.23453935689042
20
-44.8712988348535
30
0
41
1
10
3.24971054135489
20
-44.8964706864001
30
0
41
1
10
3.25745145534472
20
-44.9088346491335
30
0
41
1
10
3.26535214876691
20
-44.9209736767964
30
0
0
SPLINE
5
358
100
AcDbEntity
8
1
62
256
6
ByLayer
370
18
48
1
60
0
100
AcDbSpline
70
4
71
3
72
8
73
4
40
0
40
0
40
0
40
0
40
1
40
1
40
1
40
1
41
1
10
3.18467264023241
20
-44.7757515307377
30
0
41
1
10
3.11034311889023
20
-44.6070028629352
30
0
41
1
10
3.04360665025644
20
-44.4367326893443
30
0
41
1
10
2.98354348465585
20
-44.2651253106025
30
0
0
SPLINE
5
359
100
AcDbEntity
8
1
62
256
6
ByLayer
370
18
48
1
60
0
100
AcDbSpline
70
4
71
3
72
22
73
18
40
0
40
0
40
0
40
0
40
0.125
40
0.125
40
0.25
40
0.25
40
0.375
40
0.375
40
0.5
40
0.5
40
0.625
40
0.625
40
0.75
40
0.75
40
0.875
40
0.875
40
1
40
1
40
1
40
1
41
1
10
2.98354348465585
20
-44.2651253106025
30
0
41
1
10
2.97967714674223
20
-44.2540787380809
30
0
41
1
10
2.97514320303213
20
-44.2419823484088
30
0
41
1
10
2.96493481002295
20
-44.2158867703546
30
0
41
1
10
2.9592661945548
20
-44.2019195844253
30
0
41
1
10
2.94747343819023
20
-44.1736004842021
30
0
41
1
10
2.94120115386499
20
-44.1588929748583
30
0
41
1
10
2.92863392131005
20
-44.1299824027545
30
0
41
1
10
2.92227724512026
20
-44.1156290646106
30
0
41
1
10
2.90957556778506
20
-44.0874726466342
30
0
41
1
10
2.903426589849
20
-44.0741021113594
30
0
41
1
10
2.89151605675482
20
-44.0487844464768
30
0
41
1
10
2.88573792797888
20
-44.0368150938916
30
0
41
1
10
2.87522158524797
20
-44.0157995450462
30
0
41
1
10
2.87033658691848
20
-44.0064558186965
30
0
41
1
10
2.86176712675262
20
-43.991178743944
30
0
41
1
10
2.85813125743852
20
-43.9853147639176
30
0
41
1
10
2.85516867452407
20
-43.9813856368072
30
0
0
SPLINE
5
35A
100
AcDbEntity
8
1
62
256
6
ByLayer
370
18
48
1
60
0
100
AcDbSpline
70
4
71
3
72
8
73
4
40
0
40
0
40
0
40
0
40
1
40
1
40
1
40
1
41
1
10
2.85516867452407
20
-43.9813856368072
30
0
41
1
10
2.82044175923647
20
-43.9353290475892
30
0
41
1
10
2.78880204581992
20
-43.8891431253909
30
0
41
1
10
2.75998053880806
20
-43.8428391393117
30
0
0
SPLINE
5
35B
100
AcDbEntity
8
1
62
256
6
ByLayer
370
18
48
1
60
0
100
AcDbSpline
70
4
71
3
72
20
73
16
40
0
40
0
40
0
40
0
40
0.250000000000003
40
0.250000000000003
40
0.312500000000006
40
0.312500000000006
40
0.37500000000001
40
0.37500000000001
40
0.500000000000006
40
0.500000000000006
40
0.749999999999997
40
0.749999999999997
40
0.874999999999999
40
0.874999999999999
40
1
40
1
40
1
40
1
41
1
10
2.5
20
-42.1479854242951
30
0
41
1
10
2.5
20
-42.2916460316235
30
0
41
1
10
2.50664265810667
20
-42.4372207421707
30
0
41
1
10
2.52259827312616
20
-42.6213941629262
30
0
41
1
10
2.52617317467752
20
-42.6583394340955
30
0
41
1
10
2.53407880357832
20
-42.7324477700598
30
0
41
1
10
2.53841347080009
20
-42.7696188451318
30
0
41
1
10
2.5523391209278
20
-42.8800314789871
30
0
41
1
10
2.56289807754047
20
-42.9526654551743
30
0
41
1
10
2.59793923065098
20
-43.1679965401572
30
0
41
1
10
2.62576246341308
20
-43.3081405697583
30
0
41
1
10
2.67293704022183
20
-43.5141998033899
30
0
41
1
10
2.68948930308858
20
-43.5817972490184
30
0
41
1
10
2.72380662025245
20
-43.7141393894899
30
0
41
1
10
2.74160938186481
20
-43.7790468202251
30
0
41
1
10
2.75998053880806
20
-43.8428391393117
30
0
0
SPLINE
5
35C
100
AcDbEntity
8
1
62
256
6
ByLayer
370
18
48
1
60
0
100
AcDbSpline
70
4
71
3
72
22
73
18
40
0
40
0
40
0
40
0
40
0.250000000000007
40
0.250000000000007
40
0.375000000000011
40
0.375000000000011
40
0.437500000000013
40
0.437500000000013
40
0.500000000000015
40
0.500000000000015
40
0.750000000000002
40
0.750000000000002
40
0.812500000000004
40
0.812500000000004
40
0.875000000000007
40
0.875000000000007
40
1
40
1
40
1
40
1
41
1
10
13.2400194611919
20
-43.8428391393117
30
0
41
1
10
13.2764719340982
20
-43.7162609499078
30
0
41
1
10
13.3105634197434
20
-43.585817788071
30
0
41
1
10
13.357198219276
20
-43.3827824999507
30
0
41
1
10
13.3719881997632
20
-43.3138682014202
30
0
41
1
10
13.3928595911651
20
-43.2083464040745
30
0
41
1
10
13.3995972595696
20
-43.1728132088563
30
0
41
1
10
13.4125956096175
20
-43.1009659837607
30
0
41
1
10
13.4188641054579
20
-43.0645926161779
30
0
41
1
10
13.4485585253498
20
-42.8828109659054
30
0
41
1
10
13.4673696624968
20
-42.7361215489224
30
0
41
1
10
13.4835324919588
20
-42.5508803800114
30
0
41
1
10
13.4863952829809
20
-42.5137376087051
30
0
41
1
10
13.491342080659
20
-42.4392529602267
30
0
41
1
10
13.4934148536615
20
-42.4020364311045
30
0
41
1
10
13.4983628561441
20
-42.2916256509421
30
0
41
1
10
13.5
20
-42.2192157024153
30
0
41
1
10
13.5
20
-42.1479854242951
30
0
0
SPLINE
5
35D
100
AcDbEntity
8
1
62
256
6
ByLayer
370
18
48
1
60
0
100
AcDbSpline
70
4
71
3
72
8
73
4
40
0
40
0
40
0
40
0
40
1
40
1
40
1
40
1
41
1
10
13.2400194611919
20
-43.8428391393117
30
0
41
1
10
13.2111979541801
20
-43.8891431253908
30
0
41
1
10
13.1795582407635
20
-43.9353290475892
30
0
41
1
10
13.1448313254759
20
-43.9813856368072
30
0
0
SPLINE
5
35E
100
AcDbEntity
8
1
62
256
6
ByLayer
370
18
48
1
60
0
100
AcDbSpline
70
4
71
3
72
22
73
18
40
0
40
0
40
0
40
0
40
0.125
40
0.125
40
0.25
40
0.25
40
0.375
40
0.375
40
0.5
40
0.5
40
0.625
40
0.625
40
0.75
40
0.75
40
0.875
40
0.875
40
1
40
1
40
1
40
1
41
1
10
13.1448313254759
20
-43.9813856368072
30
0
41
1
10
13.1418693604235
20
-43.9853139444776
30
0
41
1
10
13.1382368530519
20
-43.9911729206519
30
0
41
1
10
13.1296853787497
20
-44.0064153919436
30
0
41
1
10
13.1247878402336
20
-44.0157800658965
30
0
41
1
10
13.1142282470828
20
-44.0368833336833
30
0
41
1
10
13.1084457101958
20
-44.0488644214279
30
0
41
1
10
13.096536068473
20
-44.0741827903292
30
0
41
1
10
13.0902841738618
20
-44.0877804900576
30
0
41
1
10
13.077640860535
20
-44.1158137322358
30
0
41
1
10
13.071321006078
20
-44.1300839039353
30
0
41
1
10
13.0586939536935
20
-44.1591364902761
30
0
41
1
10
13.052474347726
20
-44.1737245225047
30
0
41
1
10
13.0407176397019
20
-44.2019597611596
30
0
41
1
10
13.0350331466601
20
-44.2159674897852
30
0
41
1
10
13.0248534474231
20
-44.2419921074283
30
0
41
1
10
13.0203239849168
20
-44.2540755048008
30
0
41
1
10
13.0164565153442
20
-44.2651253106023
30
0
0
SPLINE
5
35F
100
AcDbEntity
8
1
62
256
6
ByLayer
370
18
48
1
60
0
100
AcDbSpline
70
4
71
3
72
8
73
4
40
0
40
0
40
0
40
0
40
1
40
1
40
1
40
1
41
1
10
13.0164565153442
20
-44.2651253106023
30
0
41
1
10
12.9563933497436
20
-44.4367326893442
30
0
41
1
10
12.8896568811098
20
-44.6070028629351
30
0
41
1
10
12.8153273597676
20
-44.7757515307378
30
0
0
SPLINE
5
360
100
AcDbEntity
8
1
62
256
6
ByLayer
370
18
48
1
60
0
100
AcDbSpline
70
4
71
3
72
14
73
10
40
0
40
0
40
0
40
0
40
0.25
40
0.25
40
0.5
40
0.5
40
0.75
40
0.75
40
1
40
1
40
1
40
1
41
1
10
12.7346478512343
20
-44.9209736767945
30
0
41
1
10
12.7425594631168
20
-44.9088178734534
30
0
41
1
10
12.7502899229849
20
-44.8964687020009
30
0
41
1
10
12.7654031470893
20
-44.8713954409765
30
0
41
1
10
12.7728883144646
20
-44.8584852223022
30
0
41
1
10
12.7869298909108
20
-44.8332328151964
30
0
41
1
10
12.7934520074175
20
-44.8209712674814
30
0
41
1
10
12.8054297408585
20
-44.7972883154095
30
0
41
1
10
12.8108483366706
20
-44.785920157793
30
0
41
1
10
12.8153273597809
20
-44.7757515307218
30
0
0
SPLINE
5
361
100
AcDbEntity
8
1
62
256
6
ByLayer
370
18
48
1
60
0
100
AcDbSpline
70
4
71
3
72
8
73
4
40
0
40
0
40
0
40
0
40
1
40
1
40
1
40
1
41
1
10
12.7346478512343
20
-44.9209736767945
30
0
41
1
10
12.6857161324535
20
-44.996154861044
30
0
41
1
10
12.6346700830829
20
-45.0699784727868
30
0
41
1
10
12.5815093622916
20
-45.1424442931815
30
0
0
SPLINE
5
362
100
AcDbEntity
8
1
62
256
6
ByLayer
370
18
48
1
60
0
100
AcDbSpline
70
4
71
3
72
14
73
10
40
0
40
0
40
0
40
0
40
0.25
40
0.25
40
0.5
40
0.5
40
0.75
40
0.75
40
1
40
1
40
1
40
1
41
1
10
12.488972030462
20
-45.2475806828219
30
0
41
1
10
12.4940594270337
20
-45.2439375815265
30
0
41
1
10
12.5002048241227
20
-45.238507624135
30
0
41
1
10
12.5141463004728
20
-45.2247396947054
30
0
41
1
10
12.5218918211255
20
-45.2164306747941
30
0
41
1
10
12.5380742775079
20
-45.1979765100603
30
0
41
1
10
12.5466573595848
20
-45.1876611783772
30
0
41
1
10
12.5639021642014
20
-45.1659803896671
30
0
41
1
10
12.5726468143183
20
-45.1545252394159
30
0
41
1
10
12.5815093622915
20
-45.1424442931817
30
0
0
SPLINE
5
363
100
AcDbEntity
8
1
62
256
6
ByLayer
370
18
48
1
60
0
100
AcDbSpline
70
4
71
3
72
8
73
4
40
0
40
0
40
0
40
0
40
1
40
1
40
1
40
1
41
1
10
12.488972030462
20
-45.2475806828219
30
0
41
1
10
12.4044603371196
20
-45.3080997823563
30
0
41
1
10
12.3124936502898
20
-45.3678958372466
30
0
41
1
10
12.2116539499831
20
-45.4268313166201
30
0
0
SPLINE
5
364
100
AcDbEntity
8
1
62
256
6
ByLayer
370
18
48
1
60
0
100
AcDbSpline
70
4
71
3
72
22
73
18
40
0
40
0
40
0
40
0
40
0.125
40
0.125
40
0.25
40
0.25
40
0.375
40
0.375
40
0.5
40
0.5
40
0.625
40
0.625
40
0.75
40
0.75
40
0.875
40
0.875
40
1
40
1
40
1
40
1
41
1
10
12.2116539499831
20
-45.4268313166201
30
0
41
1
10
12.2039958440453
20
-45.4313070751077
30
0
41
1
10
12.1947061668515
20
-45.438075985554
30
0
41
1
10
12.1736134606515
20
-45.4549555669615
30
0
41
1
10
12.1620204298064
20
-45.4649179571351
30
0
41
1
10
12.1377925648745
20
-45.4865912759274
30
0
41
1
10
12.1249064788764
20
-45.4985343795433
30
0
41
1
10
12.0988796789465
20
-45.5232493632168
30
0
41
1
10
12.0856785143596
20
-45.5360705355182
30
0
41
1
10
12.058910472319
20
-45.5625530939237
30
0
41
1
10
12.0452707855396
20
-45.5762935731685
30
0
41
1
10
12.0186169064106
20
-45.6036425846801
30
0
41
1
10
12.0054848459851
20
-45.6173638359271
30
0
41
1
10
11.9796927985146
20
-45.644945928546
30
0
41
1
10
11.9670417863542
20
-45.6588043138844
30
0
41
1
10
11.9436179032074
20
-45.6854253239947
30
0
41
1
10
11.932572305308
20
-45.6984897402375
30
0
41
1
10
11.9231083106015
20
-45.7105709904162
30
0
0
SPLINE
5
365
100
AcDbEntity
8
1
62
256
6
ByLayer
370
18
48
1
60
0
100
AcDbSpline
70
4
71
3
72
8
73
4
40
0
40
0
40
0
40
0
40
1
40
1
40
1
40
1
41
1
10
11.9231083106027
20
-45.7105709904154
30
0
41
1
10
11.7849188724127
20
-45.8869765386654
30
0
41
1
10
11.6341264859816
20
-46.0576623727574
30
0
41
1
10
11.4675774316936
20
-46.2211972105507
30
0
0
SPLINE
5
366
100
AcDbEntity
8
1
62
256
6
ByLayer
370
18
48
1
60
0
100
AcDbSpline
70
4
71
3
72
12
73
8
40
0
40
0
40
0
40
0
40
0.500000000000016
40
0.500000000000016
40
0.750000000000008
40
0.750000000000008
40
1
40
1
40
1
40
1
41
1
10
11.2782491436108
20
-46.3664193566074
30
0
41
1
10
11.312680448981
20
-46.3442245429256
30
0
41
1
10
11.3462056855337
20
-46.3208912495946
30
0
41
1
10
11.3949129960906
20
-46.28393352746
30
0
41
1
10
11.4110180377984
20
-46.271157054599
30
0
41
1
10
11.441039825099
20
-46.2459510462774
30
0
41
1
10
11.4552896161623
20
-46.2332626403328
30
0
41
1
10
11.4675774316941
20
-46.2211972105505
30
0
0
SPLINE
5
367
100
AcDbEntity
8
1
62
256
6
ByLayer
370
18
48
1
60
0
100
AcDbSpline
70
4
71
3
72
8
73
4
40
0
40
0
40
0
40
0
40
1
40
1
40
1
40
1
41
1
10
11.2782491436108
20
-46.3664193566074
30
0
41
1
10
11.1553481745169
20
-46.4456427285074
30
0
41
1
10
11.0290484828602
20
-46.5194666351112
30
0
41
1
10
10.8993493740782
20
-46.5878899729849
30
0
0
SPLINE
5
368
100
AcDbEntity
8
1
62
256
6
ByLayer
370
18
48
1
60
0
100
AcDbSpline
70
4
71
3
72
12
73
8
40
0
40
0
40
0
40
0
40
0.249999999999997
40
0.249999999999997
40
0.499999999999994
40
0.499999999999994
40
1
40
1
40
1
40
1
41
1
10
10.6517127862003
20
-46.6930263626348
30
0
41
1
10
10.6690217643638
20
-46.6885718260076
30
0
41
1
10
10.688426698523
20
-46.6820888006333
30
0
41
1
10
10.7290280188697
20
-46.6670820552942
30
0
41
1
10
10.7498275288394
20
-46.6586585354289
30
0
41
1
10
10.8128801102817
20
-46.6314867964214
30
0
41
1
10
10.8561949662034
20
-46.610656271524
30
0
41
1
10
10.8993493740784
20
-46.5878899729848
30
0
0
SPLINE
5
369
100
AcDbEntity
8
1
62
256
6
ByLayer
370
18
48
1
60
0
100
AcDbSpline
70
4
71
3
72
10
73
6
40
0
40
0
40
0
40
0
40
0.5
40
0.5
40
1
40
1
40
1
40
1
41
1
10
10.6517127862003
20
-46.6930263626348
30
0
41
1
10
10.5134450569334
20
-46.7286101306984
30
0
41
1
10
10.3675709806397
20
-46.7617080328079
30
0
41
1
10
10.0574579785014
20
-46.8219019343936
30
0
41
1
10
9.8932704652247
20
-46.8490147362523
30
0
41
1
10
9.71730091832876
20
-46.8722769964331
30
0
0
SPLINE
5
36A
100
AcDbEntity
8
1
62
256
6
ByLayer
370
18
48
1
60
0
100
AcDbSpline
70
4
71
3
72
18
73
14
40
0
40
0
40
0
40
0
40
0.0625000000000008
40
0.0625000000000008
40
0.125000000000002
40
0.125000000000002
40
0.250000000000003
40
0.250000000000003
40
0.500000000000002
40
0.500000000000002
40
0.750000000000001
40
0.750000000000001
40
1
40
1
40
1
40
1
41
1
10
9.71730091832876
20
-46.8722769964331
30
0
41
1
10
9.69407183382145
20
-46.8753477607619
30
0
41
1
10
9.67017380650003
20
-46.8790257815914
30
0
41
1
10
9.62173306722389
20
-46.8867062426143
30
0
41
1
10
9.59716647704226
20
-46.8907387666089
30
0
41
1
10
9.52277528756775
20
-46.9029568588566
30
0
41
1
10
9.47214044292144
20
-46.9112706116815
30
0
41
1
10
9.32037056657998
20
-46.9349478603482
30
0
41
1
10
9.21867995275358
20
-46.9491722515921
30
0
41
1
10
9.01454717411895
20
-46.9724181071728
30
0
41
1
10
8.9120981393142
20
-46.9814950567586
30
0
41
1
10
8.70653915274346
20
-46.9937045644781
30
0
41
1
10
8.60342866839062
20
-46.9968425809559
30
0
41
1
10
8.50000000000006
20
-46.9968425809559
30
0
0
SPLINE
5
36B
100
AcDbEntity
8
1
62
256
6
ByLayer
370
18
48
1
60
0
100
AcDbSpline
70
4
71
3
72
12
73
8
40
0
40
0
40
0
40
0
40
0.500000000000008
40
0.500000000000008
40
0.750000000000004
40
0.750000000000004
40
1
40
1
40
1
40
1
41
1
10
10.5399886632516
20
41.5193339469108
30
0
41
1
10
10.4852759894192
20
41.5406143476551
30
0
41
1
10
10.4310556593393
20
41.5579075126136
30
0
41
1
10
10.3505414468796
20
41.5779378058353
30
0
41
1
10
10.3238440800493
20
41.5836123251286
30
0
41
1
10
10.2709667032166
20
41.5922315943671
30
0
41
1
10
10.2444875486577
20
41.5953086362099
30
0
41
1
10
10.2200811365431
20
41.5954647013549
30
0
0
SPLINE
5
36C
100
AcDbEntity
8
1
62
256
6
ByLayer
370
18
48
1
60
0
100
AcDbSpline
70
4
71
3
72
12
73
8
40
0
40
0
40
0
40
0
40
0.500000000000008
40
0.500000000000008
40
0.750000000000004
40
0.750000000000004
40
1
40
1
40
1
40
1
41
1
10
10.9913922765117
20
41.3193006127525
30
0
41
1
10
11.0300399508742
20
41.2999691548578
30
0
41
1
10
11.0678191085201
20
41.2781986120772
30
0
41
1
10
11.1228783302601
20
41.2406937892629
30
0
41
1
10
11.1409348008864
20
41.2273569302157
30
0
41
1
10
11.1748446563162
20
41.1994546562063
30
0
41
1
10
11.1910998894384
20
41.1845958059051
30
0
41
1
10
11.2048934680801
20
41.1693063242928
30
0
0
SPLINE
5
36D
100
AcDbEntity
8
1
62
256
6
ByLayer
370
18
48
1
60
0
100
AcDbSpline
70
4
71
3
72
22
73
18
40
0
40
0
40
0
40
0
40
0.125
40
0.125
40
0.25
40
0.25
40
0.375
40
0.375
40
0.5
40
0.5
40
0.625
40
0.625
40
0.75
40
0.75
40
0.875
40
0.875
40
1
40
1
40
1
40
1
41
1
10
11.6935661950299
20
40.5524536579169
30
0
41
1
10
11.7041387776904
20
40.5373298940931
30
0
41
1
10
11.7162612822365
20
40.5224197709251
30
0
41
1
10
11.7424127418999
20
40.4927876237538
30
0
41
1
10
11.7565721301923
20
40.4779934256271
30
0
41
1
10
11.7852014705636
20
40.4497585503844
30
0
41
1
10
11.7998298590229
20
40.4361401930028
30
0
41
1
10
11.829612868924
20
40.4097622262624
30
0
41
1
10
11.844725410133
20
40.3970556153559
30
0
41
1
10
11.8744822634732
20
40.3733153935633
30
0
41
1
10
11.8892501751519
20
40.3621695278329
30
0
41
1
10
11.9185608260623
20
40.3414989759652
30
0
41
1
10
11.9329420074569
20
40.3320979547635
30
0
41
1
10
11.9603982544492
20
40.3159791117549
30
0
41
1
10
11.9737602057587
20
40.3091042403762
30
0
41
1
10
11.998045260353
20
40.2993210142239
30
0
41
1
10
12.0089726049717
20
40.2963382206581
30
0
41
1
10
12.0182076342875
20
40.2961786092927
30
0
0
SPLINE
5
36E
100
AcDbEntity
8
1
62
256
6
ByLayer
370
18
48
1
60
0
100
AcDbSpline
70
4
71
3
72
14
73
10
40
0
40
0
40
0
40
0
40
0.25
40
0.25
40
0.5
40
0.5
40
0.75
40
0.75
40
1
40
1
40
1
40
1
41
1
10
12.346184428712
20
40.289931157445
30
0
41
1
10
12.3522968117876
20
40.2898027274894
30
0
41
1
10
12.3594921336738
20
40.2875775264863
30
0
41
1
10
12.3755055054056
20
40.2798389173115
30
0
41
1
10
12.384289398256
20
40.2742974698681
30
0
41
1
10
12.4024459621287
20
40.2607821018022
30
0
41
1
10
12.4119924483369
20
40.2526749848185
30
0
41
1
10
12.431109639395
20
40.2346623544126
30
0
41
1
10
12.440753788318
20
40.2247123902172
30
0
41
1
10
12.4504807122511
20
40.213800403001
30
0
0
SPLINE
5
36F
100
AcDbEntity
8
1
62
256
6
ByLayer
370
18
48
1
60
0
100
AcDbSpline
70
4
71
3
72
14
73
10
40
0
40
0
40
0
40
0
40
0.25
40
0.25
40
0.5
40
0.5
40
0.75
40
0.75
40
1
40
1
40
1
40
1
41
1
10
12.7049962104958
20
39.863772780383
30
0
41
1
10
12.7003527042077
20
39.8762112120473
30
0
41
1
10
12.6947863359955
20
39.8890464586946
30
0
41
1
10
12.6820510183839
20
39.9153545861241
30
0
41
1
10
12.6749248234527
20
39.9286952667546
30
0
41
1
10
12.6598812515676
20
39.954597280228
30
0
41
1
10
12.6518190804067
20
39.9674014022039
30
0
41
1
10
12.6354659782442
20
39.9914979619864
30
0
41
1
10
12.6270965517442
20
40.0029361170987
30
0
41
1
10
12.6185302431555
20
40.0137670688426
30
0
0
SPLINE
5
370
100
AcDbEntity
8
1
62
256
6
ByLayer
370
18
48
1
60
0
100
AcDbSpline
70
4
71
3
72
22
73
18
40
0
40
0
40
0
40
0
40
0.125
40
0.125
40
0.25
40
0.25
40
0.375
40
0.375
40
0.5
40
0.5
40
0.625
40
0.625
40
0.75
40
0.75
40
0.875
40
0.875
40
1
40
1
40
1
40
1
41
1
10
13.05917887366
20
38.9906450653829
30
0
41
1
10
13.0556176030089
20
38.9907831107936
30
0
41
1
10
13.0513202106442
20
38.9930807433186
30
0
41
1
10
13.0413380873528
20
39.0015487038723
30
0
41
1
10
13.0356764772017
20
39.0077440794337
30
0
41
1
10
13.0235788820008
20
39.0231615758831
30
0
41
1
10
13.0170063802161
20
39.0325627025558
30
0
41
1
10
13.0035466677868
20
39.0535231253788
30
0
41
1
10
12.996529674874
20
39.0652712865887
30
0
41
1
10
12.9823693578004
20
39.0905009014158
30
0
41
1
10
12.9753221761505
20
39.1037945544658
30
0
41
1
10
12.961305744294
20
39.131745234584
30
0
41
1
10
12.954386582496
20
39.146325627085
30
0
41
1
10
12.9413922746649
20
39.1754241957629
30
0
41
1
10
12.9351441043893
20
39.1903332741233
30
0
41
1
10
12.9239261922743
20
39.2193749435008
30
0
41
1
10
12.9189758332654
20
39.2334143291616
30
0
41
1
10
12.9148089424081
20
39.2469201140071
30
0
0
SPLINE
5
371
100
AcDbEntity
8
1
62
256
6
ByLayer
370
18
48
1
60
0
100
AcDbSpline
70
4
71
3
72
14
73
10
40
0
40
0
40
0
40
0
40
0.25
40
0.25
40
0.5
40
0.5
40
0.75
40
0.75
40
1
40
1
40
1
40
1
41
1
10
13.2487937383657
20
38.9082668590911
30
0
41
1
10
13.244489601877
20
38.9196346334888
30
0
41
1
10
13.2402206009173
20
38.9299260649535
30
0
41
1
10
13.2317601906731
20
38.9484252604772
30
0
41
1
10
13.2275605631079
20
38.9566134400842
30
0
41
1
10
13.2197382577272
20
38.969899074296
30
0
41
1
10
13.2160050025992
20
38.9751898922713
30
0
41
1
10
13.2093502751835
20
38.9823631007795
30
0
41
1
10
13.2064381207919
20
38.9842793749874
30
0
41
1
10
13.2039972579758
20
38.9843976135352
30
0
0
SPLINE
5
372
100
AcDbEntity
8
1
62
256
6
ByLayer
370
18
48
1
60
0
100
AcDbSpline
70
4
71
3
72
14
73
10
40
0
40
0
40
0
40
0
40
0.25
40
0.25
40
0.5
40
0.5
40
0.75
40
0.75
40
1
40
1
40
1
40
1
41
1
10
13.3184590121855
20
38.7082335249328
30
0
41
1
10
13.3220737810994
20
38.6968788038456
30
0
41
1
10
13.3255601404763
20
38.6849241717166
30
0
41
1
10
13.3322916845217
20
38.6598399272178
30
0
41
1
10
13.3355319237361
20
38.6466889581214
30
0
41
1
10
13.3414180149896
20
38.6206638491033
30
0
41
1
10
13.3441508523321
20
38.6074050442986
30
0
41
1
10
13.3488911419235
20
38.5819894797356
30
0
41
1
10
13.3509108350403
20
38.5698243982789
30
0
41
1
10
13.3525805080293
20
38.5582392364732
30
0
0
SPLINE
5
373
100
AcDbEntity
8
1
62
256
6
ByLayer
370
18
48
1
60
0
100
AcDbSpline
70
4
71
3
72
22
73
18
40
0
40
0
40
0
40
0
40
0.125
40
0.125
40
0.25
40
0.25
40
0.375
40
0.375
40
0.5
40
0.5
40
0.625
40
0.625
40
0.75
40
0.75
40
0.875
40
0.875
40
1
40
1
40
1
40
1
41
1
10
13.4276983424207
20
37.9413865700972
30
0
41
1
10
13.4289901997354
20
37.928438333292
30
0
41
1
10
13.4305254590739
20
37.9148072622148
30
0
41
1
10
13.4340130840207
20
37.8862280266903
30
0
41
1
10
13.4359648979459
20
37.8713192968292
30
0
41
1
10
13.4400216511577
20
37.8418540278174
30
0
41
1
10
13.442182674466
20
37.8268900825791
30
0
41
1
10
13.4464671135589
20
37.7983477393708
30
0
41
1
10
13.448622010736
20
37.7845441835086
30
0
41
1
10
13.452825618844
20
37.7586569197601
30
0
41
1
10
13.4548235599971
20
37.7468760568531
30
0
41
1
10
13.4586256978819
20
37.7256375354834
30
0
41
1
10
13.4603971566178
20
37.716381391967
30
0
41
1
10
13.4635789554571
20
37.7013036319098
30
0
41
1
10
13.4650227384033
20
37.6953414644013
30
0
41
1
10
13.4674747829172
20
37.6873744611647
30
0
41
1
10
13.4685123626312
20
37.6852429407026
30
0
41
1
10
13.4693499621276
20
37.685111521473
30
0
0
SPLINE
5
374
100
AcDbEntity
8
1
62
256
6
ByLayer
370
18
48
1
60
0
100
AcDbSpline
70
4
71
3
72
14
73
10
40
0
40
0
40
0
40
0
40
0.25
40
0.25
40
0.5
40
0.5
40
0.75
40
0.75
40
1
40
1
40
1
40
1
41
1
10
13.4962031330222
20
37.6788640696254
30
0
41
1
10
13.496460997324
20
37.6787486517863
30
0
41
1
10
13.4967585085041
20
37.6769166036647
30
0
41
1
10
13.4973920597705
20
37.6699213713671
30
0
41
1
10
13.4977269681813
20
37.6647133450196
30
0
41
1
10
13.4983591256675
20
37.6514712930743
30
0
41
1
10
13.4986647587768
20
37.6432348270582
30
0
41
1
10
13.4991868773968
20
37.6246292347728
30
0
41
1
10
13.4994068435486
20
37.6142459780033
30
0
41
1
10
13.4995785903629
20
37.6027333151812
30
0
0
SPLINE
5
375
100
AcDbEntity
8
1
62
256
6
ByLayer
370
18
48
1
60
0
100
AcDbSpline
70
4
71
3
72
14
73
10
40
0
40
0
40
0
40
0
40
0.25
40
0.25
40
0.5
40
0.5
40
0.75
40
0.75
40
1
40
1
40
1
40
1
41
1
10
2.50042140963643
20
37.6027333151812
30
0
41
1
10
2.50059315633763
20
37.6142459704179
30
0
41
1
10
2.50081354412606
20
37.6246561725961
30
0
41
1
10
2.50133845997118
20
37.6433375266369
30
0
41
1
10
2.50164304192759
20
37.6515250249
30
0
41
1
10
2.50227534457918
20
37.6647534057745
30
0
41
1
10
2.50261168978625
20
37.6699695646427
30
0
41
1
10
2.50324214479213
20
37.6769169760376
30
0
41
1
10
2.50353900214867
20
37.6787486515506
30
0
41
1
10
2.50379686697715
20
37.6788640696254
30
0
0
SPLINE
5
376
100
AcDbEntity
8
1
62
256
6
ByLayer
370
18
48
1
60
0
100
AcDbSpline
70
4
71
3
72
22
73
18
40
0
40
0
40
0
40
0
40
0.125
40
0.125
40
0.25
40
0.25
40
0.375
40
0.375
40
0.5
40
0.5
40
0.625
40
0.625
40
0.75
40
0.75
40
0.875
40
0.875
40
1
40
1
40
1
40
1
41
1
10
2.53065003787179
20
37.685111521473
30
0
41
1
10
2.5314875861385
20
37.6852429326647
30
0
41
1
10
2.53251189791655
20
37.6873376314254
30
0
41
1
10
2.53497159681825
20
37.6953166624403
30
0
41
1
10
2.53640842605012
20
37.701248938407
30
0
41
1
10
2.53958716902764
20
37.7163020578462
30
0
41
1
10
2.54137441192643
20
37.7256405590273
30
0
41
1
10
2.54515470141649
20
37.7467522299661
30
0
41
1
10
2.5471783013017
20
37.7586807403917
30
0
41
1
10
2.55137782829843
20
37.7845435134956
30
0
41
1
10
2.55350902562907
20
37.7981905308788
30
0
41
1
10
2.55782123341675
20
37.8269143754865
30
0
41
1
10
2.55995869522309
20
37.841715470837
30
0
41
1
10
2.56401952167579
20
37.8712019762255
30
0
41
1
10
2.56597909113719
20
37.8861696652534
30
0
41
1
10
2.56945417094278
20
37.9146346285853
30
0
41
1
10
2.57100991017762
20
37.9284394349529
30
0
41
1
10
2.57230165757864
20
37.9413865700972
30
0
0
SPLINE
5
377
100
AcDbEntity
8
1
62
256
6
ByLayer
370
18
48
1
60
0
100
AcDbSpline
70
4
71
3
72
14
73
10
40
0
40
0
40
0
40
0
40
0.25
40
0.25
40
0.5
40
0.5
40
0.75
40
0.75
40
1
40
1
40
1
40
1
41
1
10
2.64741949197003
20
38.5582392364732
30
0
41
1
10
2.6490892308546
20
38.5698248555005
30
0
41
1
10
2.65111063335826
20
38.5820016969212
30
0
41
1
10
2.65586147807699
20
38.6074684482484
30
0
41
1
10
2.6585891745824
20
38.6206990001668
30
0
41
1
10
2.66448677889963
20
38.646768273592
30
0
41
1
10
2.66773819057715
20
38.6599550004643
30
0
41
1
10
2.67444621304514
20
38.6849440795345
30
0
41
1
10
2.67792602250972
20
38.6968781869442
30
0
41
1
10
2.68154098781389
20
38.7082335249328
30
0
0
SPLINE
5
378
100
AcDbEntity
8
1
62
256
6
ByLayer
370
18
48
1
60
0
100
AcDbSpline
70
4
71
3
72
14
73
10
40
0
40
0
40
0
40
0
40
0.25
40
0.25
40
0.5
40
0.5
40
0.75
40
0.75
40
1
40
1
40
1
40
1
41
1
10
2.79600274202358
20
38.9843976135352
30
0
41
1
10
2.79356180840898
20
38.9842793715578
30
0
41
1
10
2.79065013375049
20
38.9823630534841
30
0
41
1
10
2.78399849986408
20
38.9751941554221
30
0
41
1
10
2.78026267666559
20
38.9699019739803
30
0
41
1
10
2.77242358376787
20
38.9565851994877
30
0
41
1
10
2.76821619675013
20
38.9483757798644
30
0
41
1
10
2.75977481608243
20
38.9299138870527
30
0
41
1
10
2.75551067166549
20
38.9196353559512
30
0
41
1
10
2.75120626163363
20
38.9082668590911
30
0
0
SPLINE
5
379
100
AcDbEntity
8
1
62
256
6
ByLayer
370
18
48
1
60
0
100
AcDbSpline
70
4
71
3
72
22
73
18
40
0
40
0
40
0
40
0
40
0.125
40
0.125
40
0.25
40
0.25
40
0.375
40
0.375
40
0.5
40
0.5
40
0.625
40
0.625
40
0.75
40
0.75
40
0.875
40
0.875
40
1
40
1
40
1
40
1
41
1
10
3.08519105759126
20
39.2469201140071
30
0
41
1
10
3.08102508536581
20
39.2334173066441
30
0
41
1
10
3.07607703226472
20
39.2193844256549
30
0
41
1
10
3.06486792318043
20
39.1903632791779
30
0
41
1
10
3.05861617465854
20
39.1754413165058
30
0
41
1
10
3.04556628873672
20
39.1462218955744
30
0
41
1
10
3.03861087382052
20
39.1315744216382
30
0
41
1
10
3.02463704943608
20
39.1037178232949
30
0
41
1
10
3.01754067303591
20
39.0903325019466
30
0
41
1
10
3.00333053778445
20
39.0650304580366
30
0
41
1
10
2.99641768684734
20
39.0534649318706
30
0
41
1
10
2.98296287368868
20
39.0325175198298
30
0
41
1
10
2.9763903092595
20
39.0231217908272
30
0
41
1
10
2.96434488257927
20
39.0077718228968
30
0
41
1
10
2.9587228348671
20
39.001606964173
30
0
41
1
10
2.94868995617435
20
38.9930828352122
30
0
41
1
10
2.94438337550304
20
38.9907831487237
30
0
41
1
10
2.94082112633936
20
38.9906450653829
30
0
0
SPLINE
5
37A
100
AcDbEntity
8
1
62
256
6
ByLayer
370
18
48
1
60
0
100
AcDbSpline
70
4
71
3
72
14
73
10
40
0
40
0
40
0
40
0
40
0.25
40
0.25
40
0.5
40
0.5
40
0.75
40
0.75
40
1
40
1
40
1
40
1
41
1
10
3.3814697568439
20
40.0137670688426
30
0
41
1
10
3.37290144151291
20
40.0029335798415
30
0
41
1
10
3.36454508029021
20
39.9915115145828
30
0
41
1
10
3.34824416312546
20
39.9674973224305
30
0
41
1
10
3.340198840776
20
39.9547289120169
30
0
41
1
10
3.32512811965944
20
39.9287926402129
30
0
41
1
10
3.31811718084299
20
39.9156857802757
30
0
41
1
10
3.30526947291673
20
39.8891777305545
30
0
41
1
10
3.29964816996545
20
39.8762135536722
30
0
41
1
10
3.29500378950354
20
39.863772780383
30
0
0
SPLINE
5
37B
100
AcDbEntity
8
1
62
256
6
ByLayer
370
18
48
1
60
0
100
AcDbSpline
70
4
71
3
72
14
73
10
40
0
40
0
40
0
40
0
40
0.25
40
0.25
40
0.5
40
0.5
40
0.75
40
0.75
40
1
40
1
40
1
40
1
41
1
10
3.5495192877483
20
40.213800403001
30
0
41
1
10
3.55924693853478
20
40.2247132056256
30
0
41
1
10
3.56888145130603
20
40.2346522437346
30
0
41
1
10
3.58796021072652
20
40.2526320902583
30
0
41
1
10
3.59750840255162
20
40.2607443614821
30
0
41
1
10
3.61565255454519
20
40.2742580095954
30
0
41
1
10
3.62428801755703
20
40.2797243877081
30
0
41
1
10
3.64044359359684
20
40.2875609685102
30
0
41
1
10
3.64770518176806
20
40.2898027693769
30
0
41
1
10
3.65381557128734
20
40.289931157445
30
0
0
SPLINE
5
37C
100
AcDbEntity
8
1
62
256
6
ByLayer
370
18
48
1
60
0
100
AcDbSpline
70
4
71
3
72
22
73
18
40
0
40
0
40
0
40
0
40
0.125
40
0.125
40
0.25
40
0.25
40
0.375
40
0.375
40
0.5
40
0.5
40
0.625
40
0.625
40
0.75
40
0.75
40
0.875
40
0.875
40
1
40
1
40
1
40
1
41
1
10
3.9817923657119
20
40.2961786092927
30
0
41
1
10
3.99102165064909
20
40.2963381213766
30
0
41
1
10
4.00197772386554
20
40.2993221978298
30
0
41
1
10
4.02641475755394
20
40.3091828655753
30
0
41
1
10
4.03968842849702
20
40.31602591375
30
0
41
1
10
4.06714678623695
20
40.3321541967151
30
0
41
1
10
4.08161231453317
20
40.3416168510055
30
0
41
1
10
4.11082832210241
20
40.3622291502259
30
0
41
1
10
4.12556512023627
20
40.37335227724
30
0
41
1
10
4.15529064044154
20
40.3970693419514
30
0
41
1
10
4.17041696891999
20
40.4097882897822
30
0
41
1
10
4.20016429324846
20
40.4361353771413
30
0
41
1
10
4.21475581603187
20
40.4497201809249
30
0
41
1
10
4.24327508068802
20
40.4778390119286
30
0
41
1
10
4.25737947127493
20
40.492559921755
30
0
41
1
10
4.28370522683031
20
40.5223741524093
30
0
41
1
10
4.29586653599949
20
40.5373374951687
30
0
41
1
10
4.30643380496952
20
40.5524536579169
30
0
0
SPLINE
5
37D
100
AcDbEntity
8
1
62
256
6
ByLayer
370
18
48
1
60
0
100
AcDbSpline
70
4
71
3
72
12
73
8
40
0
40
0
40
0
40
0
40
0.249999999999998
40
0.249999999999998
40
0.499999999999996
40
0.499999999999996
40
1
40
1
40
1
40
1
41
1
10
4.79510653191926
20
41.1693063242928
30
0
41
1
10
4.80893548647504
20
41.1846350183097
30
0
41
1
10
4.82482185648553
20
41.1991648540601
30
0
41
1
10
4.85889519674618
20
41.2272322169607
30
0
41
1
10
4.8768605078584
20
41.240501556614
30
0
41
1
10
4.93157494977942
20
41.2778140953419
30
0
41
1
10
4.96995353723395
20
41.2999658976281
30
0
41
1
10
5.00860772348773
20
41.3193006127525
30
0
0
SPLINE
5
37E
100
AcDbEntity
8
1
62
256
6
ByLayer
370
18
48
1
60
0
100
AcDbSpline
70
4
71
3
72
12
73
8
40
0
40
0
40
0
40
0
40
0.250000000000005
40
0.250000000000005
40
0.50000000000001
40
0.50000000000001
40
1
40
1
40
1
40
1
41
1
10
5.77991886345626
20
41.5954647013549
30
0
41
1
10
5.75563271466086
20
41.5953094052255
30
0
41
1
10
5.72981735985559
20
41.5923297306849
30
0
41
1
10
5.67706344234017
20
41.5837889899941
30
0
41
1
10
5.64996612421663
20
41.5780560326946
30
0
41
1
10
5.56888760333675
20
41.5579093486549
30
0
41
1
10
5.51455885804518
20
41.5405501118596
30
0
41
1
10
5.46001133674781
20
41.5193339469108
30
0
0
SPLINE
5
37F
100
AcDbEntity
8
1
62
256
6
ByLayer
370
18
48
1
60
0
100
AcDbSpline
70
4
71
3
72
20
73
16
40
0
40
0
40
0
40
0
40
0.124999999999997
40
0.124999999999997
40
0.249999999999994
40
0.249999999999994
40
0.374999999999991
40
0.374999999999991
40
0.499999999999988
40
0.499999999999988
40
0.624999999999985
40
0.624999999999985
40
0.749999999999982
40
0.749999999999982
40
1
40
1
40
1
40
1
41
1
10
7.15770169633964
20
32.7076408340425
30
0
41
1
10
7.17228475827898
20
32.7140844245258
30
0
41
1
10
7.18746976390713
20
32.7199670155969
30
0
41
1
10
7.21903431851661
20
32.7306242437885
30
0
41
1
10
7.23549587407081
20
32.735401495873
30
0
41
1
10
7.26812977143373
20
32.743452394952
30
0
41
1
10
7.28448143767787
20
32.7467938051195
30
0
41
1
10
7.3172444243923
20
32.7521822896912
30
0
41
1
10
7.33376349693157
20
32.7542260262676
30
0
41
1
10
7.36549836590728
20
32.7569239871745
30
0
41
1
10
7.38087812904234
20
32.7576129841826
30
0
41
1
10
7.41070993860933
20
32.7577901750199
30
0
41
1
10
7.42528030885302
20
32.7572661184694
30
0
41
1
10
7.46662144190316
20
32.7540184756993
30
0
41
1
10
7.49089117294682
20
32.749726701363
30
0
41
1
10
7.51208902263602
20
32.7436249423831
30
0
0
SPLINE
5
380
100
AcDbEntity
8
1
62
256
6
ByLayer
370
18
48
1
60
0
100
AcDbSpline
70
4
71
3
72
18
73
14
40
0
40
0
40
0
40
0
40
0.250000000000006
40
0.250000000000006
40
0.500000000000012
40
0.500000000000012
40
0.625000000000009
40
0.625000000000009
40
0.750000000000006
40
0.750000000000006
40
0.875000000000003
40
0.875000000000003
40
1
40
1
40
1
40
1
41
1
10
8.48791097736392
20
32.7436249423831
30
0
41
1
10
8.50905730513449
20
32.749711870881
30
0
41
1
10
8.53330695629813
20
32.7540122389688
30
0
41
1
10
8.5885510310851
20
32.7583532811769
30
0
41
1
10
8.61848684683019
20
32.7582925970872
30
0
41
1
10
8.66651239061059
20
32.754198997947
30
0
41
1
10
8.68268169949772
20
32.7521910358598
30
0
41
1
10
8.7153377679266
20
32.7468269178235
30
0
41
1
10
8.73198553115668
20
32.743429319329
30
0
41
1
10
8.76476620912888
20
32.7353314068985
30
0
41
1
10
8.78082642998896
20
32.7306648731741
30
0
41
1
10
8.8122728934448
20
32.7200602093416
30
0
41
1
10
8.8277754632843
20
32.7140578153614
30
0
41
1
10
8.8422983036603
20
32.7076408340425
30
0
0
SPLINE
5
381
100
AcDbEntity
8
1
62
256
6
ByLayer
370
18
48
1
60
0
100
AcDbSpline
70
4
71
3
72
16
73
12
40
0
40
0
40
0
40
0
40
0.250000000000013
40
0.250000000000013
40
0.500000000000026
40
0.500000000000026
40
0.625000000000023
40
0.625000000000023
40
0.75000000000002
40
0.75000000000002
40
1
40
1
40
1
40
1
41
1
10
8.48791097736392
20
32.7436249423831
30
0
41
1
10
8.46232436681424
20
32.7362598872959
30
0
41
1
10
8.43438472221948
20
32.7298120998656
30
0
41
1
10
8.37455347097222
20
32.7187944513908
30
0
41
1
10
8.3426651663944
20
32.7142069463643
30
0
41
1
10
8.2914317887068
20
32.7085196050661
30
0
41
1
10
8.27368693394391
20
32.7068162996397
30
0
41
1
10
8.23754318502097
20
32.7038310942799
30
0
41
1
10
8.21913035305158
20
32.7025444312064
30
0
41
1
10
8.16281836998559
20
32.6992306995229
30
0
41
1
10
8.12385708259222
20
32.6977399264566
30
0
41
1
10
8.08322173651726
20
32.6968722183379
30
0
0
SPLINE
5
382
100
AcDbEntity
8
1
62
256
6
ByLayer
370
18
48
1
60
0
100
AcDbSpline
70
4
71
3
72
14
73
10
40
0
40
0
40
0
40
0
40
0.25
40
0.25
40
0.5
40
0.5
40
0.75
40
0.75
40
1
40
1
40
1
40
1
41
1
10
7.91677826348268
20
32.6968722183379
30
0
41
1
10
7.8761341869531
20
32.6977401128826
30
0
41
1
10
7.83641969843842
20
32.6992633476444
30
0
41
1
10
7.76116389379706
20
32.7037165011084
30
0
41
1
10
7.72526978199289
20
32.7066538005558
30
0
41
1
10
7.65656231117373
20
32.7143046895046
30
0
41
1
10
7.62468329515946
20
32.7189189685546
30
0
41
1
10
7.56524786452781
20
32.7298960938339
30
0
41
1
10
7.53766701829255
20
32.7362623670758
30
0
41
1
10
7.51208902263602
20
32.7436249423831
30
0
0
SPLINE
5
383
100
AcDbEntity
8
1
62
256
6
ByLayer
370
18
48
1
60
0
100
AcDbSpline
70
4
71
3
72
18
73
14
40
0
40
0
40
0
40
0
40
0.249999999999992
40
0.249999999999992
40
0.499999999999984
40
0.499999999999984
40
0.624999999999988
40
0.624999999999988
40
0.749999999999992
40
0.749999999999992
40
0.874999999999996
40
0.874999999999996
40
1
40
1
40
1
40
1
41
1
10
7.02235553229121
20
32.5289485473943
30
0
41
1
10
7.0146341668281
20
32.5408142280403
30
0
41
1
10
7.01126804027479
20
32.5541703760758
30
0
41
1
10
7.01420771658923
20
32.5838431324917
30
0
41
1
10
7.02048306441691
20
32.5995808797432
30
0
41
1
10
7.03787601452041
20
32.6241257956133
30
0
41
1
10
7.04488435169679
20
32.6322747160324
30
0
41
1
10
7.0613696253717
20
32.6484686452455
30
0
41
1
10
7.07094870124087
20
32.6565870089399
30
0
41
1
10
7.09231182379386
20
32.672302742952
30
0
41
1
10
7.10400172469508
20
32.6798528744126
30
0
41
1
10
7.12942170087865
20
32.6943125878116
30
0
41
1
10
7.14330401715125
20
32.7012791557484
30
0
41
1
10
7.15770169633964
20
32.7076408340425
30
0
0
SPLINE
5
384
100
AcDbEntity
8
1
62
256
6
ByLayer
370
18
48
1
60
0
100
AcDbSpline
70
4
71
3
72
20
73
16
40
0
40
0
40
0
40
0
40
0.124999999999997
40
0.124999999999997
40
0.249999999999994
40
0.249999999999994
40
0.374999999999991
40
0.374999999999991
40
0.499999999999988
40
0.499999999999988
40
0.624999999999985
40
0.624999999999985
40
0.749999999999982
40
0.749999999999982
40
1
40
1
40
1
40
1
41
1
10
8.8422983036603
20
32.7076408340425
30
0
41
1
10
8.85673359425789
20
32.7012625369808
30
0
41
1
10
8.87034361991073
20
32.6944384805555
30
0
41
1
10
8.89591688261658
20
32.6799066803089
30
0
41
1
10
8.90787402410683
20
32.6721737089471
30
0
41
1
10
8.9291010371287
20
32.6565426486929
30
0
41
1
10
8.9385299348898
20
32.6485609147019
30
0
41
1
10
8.95509274133121
20
32.6323035659123
30
0
41
1
10
8.96223384419858
20
32.6239804326499
30
0
41
1
10
8.97370664661611
20
32.607770602614
30
0
41
1
10
8.9781376834195
20
32.5997996236337
30
0
41
1
10
8.98454862377355
20
32.5841496321964
30
0
41
1
10
8.98652913759128
20
32.5764057940829
30
0
41
1
10
8.98872819441078
20
32.5542076159167
30
0
41
1
10
8.98538475731095
20
32.5408433093979
30
0
41
1
10
8.97764446770879
20
32.5289485473943
30
0
0
SPLINE
5
385
100
AcDbEntity
8
1
62
256
6
ByLayer
370
18
48
1
60
0
100
AcDbSpline
70
4
71
3
72
18
73
14
40
0
40
0
40
0
40
0
40
0.250000000000003
40
0.250000000000003
40
0.500000000000006
40
0.500000000000006
40
0.625000000000004
40
0.625000000000004
40
0.750000000000003
40
0.750000000000003
40
0.875000000000001
40
0.875000000000001
40
1
40
1
40
1
40
1
41
1
10
9.46086539218533
20
31.8904610330966
30
0
41
1
10
9.48966006818762
20
31.8744811290272
30
0
41
1
10
9.5171610377605
20
31.8559675777845
30
0
41
1
10
9.5690349360703
20
31.8132160789865
30
0
41
1
10
9.59238646746638
20
31.7897942108025
30
0
41
1
10
9.62247288038344
20
31.7515942578233
30
0
41
1
10
9.63145250719572
20
31.738619553247
30
0
41
1
10
9.6472522943551
20
31.7121525553865
30
0
41
1
10
9.65412354414474
20
31.6985248320593
30
0
41
1
10
9.66517465200013
20
31.6714225473904
30
0
41
1
10
9.66936787342115
20
31.6579902459646
30
0
41
1
10
9.67504176223139
20
31.6313536646714
30
0
41
1
10
9.67649999999998
20
31.6180482020366
30
0
41
1
10
9.67649999999998
20
31.6053968281651
30
0
0
SPLINE
5
386
100
AcDbEntity
8
1
62
256
6
ByLayer
370
18
48
1
60
0
100
AcDbSpline
70
4
71
3
72
28
73
24
40
0
40
0
40
0
40
0
40
0.12500000000001
40
0.12500000000001
40
0.250000000000021
40
0.250000000000021
40
0.312500000000026
40
0.312500000000026
40
0.375000000000031
40
0.375000000000031
40
0.500000000000035
40
0.500000000000035
40
0.562500000000032
40
0.562500000000032
40
0.625000000000028
40
0.625000000000028
40
0.750000000000018
40
0.750000000000018
40
0.812500000000014
40
0.812500000000014
40
0.875000000000009
40
0.875000000000009
40
1
40
1
40
1
40
1
41
1
10
9.46086539218533
20
31.8904610330966
30
0
41
1
10
9.42006762999824
20
31.9131021743251
30
0
41
1
10
9.3797562187973
20
31.9381598619522
30
0
41
1
10
9.30210051579968
20
31.9917443952459
30
0
41
1
10
9.26472017514698
20
32.020242676806
30
0
41
1
10
9.21086278357723
20
32.0655332254793
30
0
41
1
10
9.19318656921735
20
32.0811513266425
30
0
41
1
10
9.15940437141171
20
32.112543375834
30
0
41
1
10
9.14323072834043
20
32.1283652264287
30
0
41
1
10
9.09692036240426
20
32.1761272987361
30
0
41
1
10
9.06874089710288
20
32.2087453400476
30
0
41
1
10
9.03366040621808
20
32.2551646019048
30
0
41
1
10
9.02305557363906
20
32.2703237587686
30
0
41
1
10
9.00400639929666
20
32.3000396076457
30
0
41
1
10
8.99551661343651
20
32.3146876760681
30
0
41
1
10
8.97369293668328
20
32.3571401182546
30
0
41
1
10
8.96412834281404
20
32.3830220467992
30
0
41
1
10
8.95631271661523
20
32.4192307600429
30
0
41
1
10
8.95481222174919
20
32.4309168529928
30
0
41
1
10
8.95397746014055
20
32.4531090038788
30
0
41
1
10
8.95462414466215
20
32.4636491118595
30
0
41
1
10
8.95952535043472
20
32.4938626634617
30
0
41
1
10
8.96671274532923
20
32.5121494038638
30
0
41
1
10
8.97764446770879
20
32.5289485473943
30
0
0
SPLINE
5
387
100
AcDbEntity
8
1
62
256
6
ByLayer
370
18
48
1
60
0
100
AcDbSpline
70
4
71
3
72
28
73
24
40
0
40
0
40
0
40
0
40
0.125000000000007
40
0.125000000000007
40
0.250000000000014
40
0.250000000000014
40
0.312500000000013
40
0.312500000000013
40
0.375000000000011
40
0.375000000000011
40
0.500000000000009
40
0.500000000000009
40
0.562500000000007
40
0.562500000000007
40
0.625000000000006
40
0.625000000000006
40
0.749999999999997
40
0.749999999999997
40
0.812500000000001
40
0.812500000000001
40
0.875000000000004
40
0.875000000000004
40
1
40
1
40
1
40
1
41
1
10
7.02235553229121
20
32.5289485473943
30
0
41
1
10
7.0332950188328
20
32.5121374724162
30
0
41
1
10
7.04058148581447
20
32.4935587745754
30
0
41
1
10
7.04703454719896
20
32.453062121399
30
0
41
1
10
7.04628167131273
20
32.431174375878
30
0
41
1
10
7.03843453014008
20
32.3949337417167
30
0
41
1
10
7.03465141502477
20
32.3821972886411
30
0
41
1
10
7.02480350432114
20
32.3559401795226
30
0
41
1
10
7.01874309313376
20
32.3423838196553
30
0
41
1
10
6.99701249205134
20
32.3002422772709
30
0
41
1
10
6.97742212898009
20
32.2697412825274
30
0
41
1
10
6.94221787913528
20
32.223292195697
30
0
41
1
10
6.9294869457795
20
32.2076174329335
30
0
41
1
10
6.90204700264917
20
32.1759064694833
30
0
41
1
10
6.88723541423775
20
32.1597660602469
30
0
41
1
10
6.84049123091461
20
32.1116186957599
30
0
41
1
10
6.80685920398838
20
32.0804242405856
30
0
41
1
10
6.75301922348547
20
32.0351664170402
30
0
41
1
10
6.7343966129352
20
32.0202635297136
30
0
41
1
10
6.69671976562432
20
31.9915696780128
30
0
41
1
10
6.67762882848416
20
31.9777391010282
30
0
41
1
10
6.61959757085367
20
31.9377510680042
30
0
41
1
10
6.5799034136403
20
31.9130861046921
30
0
41
1
10
6.53913460781467
20
31.8904610330966
30
0
0
SPLINE
5
388
100
AcDbEntity
8
1
62
256
6
ByLayer
370
18
48
1
60
0
100
AcDbSpline
70
4
71
3
72
20
73
16
40
0
40
0
40
0
40
0
40
0.124999999999997
40
0.124999999999997
40
0.249999999999993
40
0.249999999999993
40
0.37499999999999
40
0.37499999999999
40
0.499999999999986
40
0.499999999999986
40
0.624999999999982
40
0.624999999999982
40
0.749999999999979
40
0.749999999999979
40
1
40
1
40
1
40
1
41
1
10
6.32349999999997
20
31.6053968281651
30
0
41
1
10
6.32349999999997
20
31.6180921111697
30
0
41
1
10
6.32492142583897
20
31.6311293512218
30
0
41
1
10
6.33060023641065
20
31.6578914132065
30
0
41
1
10
6.33490698348891
20
31.6716481776699
30
0
41
1
10
6.34592927980719
20
31.6986286444346
30
0
41
1
10
6.35266820949977
20
31.7120097185535
30
0
41
1
10
6.36851771695439
20
31.7385792767963
30
0
41
1
10
6.3777081718232
20
31.7518352913438
30
0
41
1
10
6.39761855667206
20
31.7770925670173
30
0
41
1
10
6.40840956241237
20
31.7892347154562
30
0
41
1
10
6.43154737026077
20
31.8126279562987
30
0
41
1
10
6.44401221162502
20
31.8239709968005
30
0
41
1
10
6.48280333205196
20
31.855933792562
30
0
41
1
10
6.51026794396802
20
31.8744411786264
30
0
41
1
10
6.53913460781467
20
31.8904610330966
30
0
0
SPLINE
5
389
100
AcDbEntity
8
1
62
256
6
ByLayer
370
18
48
1
60
0
100
AcDbSpline
70
4
71
3
72
18
73
14
40
0
40
0
40
0
40
0
40
0.250000000000028
40
0.250000000000028
40
0.500000000000056
40
0.500000000000056
40
0.625000000000042
40
0.625000000000042
40
0.750000000000028
40
0.750000000000028
40
0.875000000000014
40
0.875000000000014
40
1
40
1
40
1
40
1
41
1
10
6.53913460781467
20
31.4618393340701
30
0
41
1
10
6.51033993181238
20
31.4577249192804
30
0
41
1
10
6.4828389622395
20
31.4575866139045
30
0
41
1
10
6.43096506392965
20
31.4658675455929
30
0
41
1
10
6.40761353253362
20
31.4741491632032
30
0
41
1
10
6.37752711961656
20
31.4930992142858
30
0
41
1
10
6.36854749280428
20
31.5003786363748
30
0
41
1
10
6.35274770564484
20
31.5168766606089
30
0
41
1
10
6.34587645585526
20
31.5261990687825
30
0
41
1
10
6.33482534799981
20
31.546399842793
30
0
41
1
10
6.33063212657879
20
31.5572269068247
30
0
41
1
10
6.32495823776861
20
31.5803421735607
30
0
41
1
10
6.32349999999997
20
31.5927454542935
30
0
41
1
10
6.32349999999997
20
31.6053968281651
30
0
0
SPLINE
5
38A
100
AcDbEntity
8
1
62
256
6
ByLayer
370
18
48
1
60
0
100
AcDbSpline
70
4
71
3
72
20
73
16
40
0
40
0
40
0
40
0
40
0.125000000000005
40
0.125000000000005
40
0.25000000000001
40
0.25000000000001
40
0.375000000000016
40
0.375000000000016
40
0.500000000000021
40
0.500000000000021
40
0.625000000000026
40
0.625000000000026
40
0.750000000000032
40
0.750000000000032
40
1
40
1
40
1
40
1
41
1
10
9.67649999999998
20
31.6053968281651
30
0
41
1
10
9.67649999999998
20
31.5927015451604
30
0
41
1
10
9.67507857416098
20
31.5805436710083
30
0
41
1
10
9.66939976358935
20
31.5573059182244
30
0
41
1
10
9.66509301651109
20
31.5462250793667
30
0
41
1
10
9.65407072019281
20
31.5261283620303
30
0
41
1
10
9.64733179050023
20
31.5169694790146
30
0
41
1
10
9.63148228304556
20
31.5003999863734
30
0
41
1
10
9.6222918281768
20
31.4929736637708
30
0
41
1
10
9.60238144332794
20
31.480456178933
30
0
41
1
10
9.59159043758757
20
31.4752683674818
30
0
41
1
10
9.56845262973923
20
31.4669381723923
30
0
41
1
10
9.55598778837498
20
31.4637823509909
30
0
41
1
10
9.51719666794799
20
31.457597118351
30
0
41
1
10
9.48973205603198
20
31.4577146330785
30
0
41
1
10
9.46086539218533
20
31.4618393340701
30
0
0
SPLINE
5
38B
100
AcDbEntity
8
1
62
256
6
ByLayer
370
18
48
1
60
0
100
AcDbSpline
70
4
71
3
72
18
73
14
40
0
40
0
40
0
40
0
40
0.25
40
0.25
40
0.5
40
0.5
40
0.625
40
0.625
40
0.75
40
0.75
40
0.875
40
0.875
40
1
40
1
40
1
40
1
41
1
10
8.97764446770879
20
30.8233518197725
30
0
41
1
10
8.9853658331719
20
30.7913908337105
30
0
41
1
10
8.98873195972516
20
30.7594037278526
30
0
41
1
10
8.98579228341077
20
30.6952736811422
30
0
41
1
10
8.97951693558309
20
30.6643965154151
30
0
41
1
10
8.96212398547959
20
30.6205728884248
30
0
41
1
10
8.95511564830315
20
30.6067257341315
30
0
41
1
10
8.93863037462825
20
30.5805638924945
30
0
41
1
10
8.92905129875913
20
30.5681451886059
30
0
41
1
10
8.90768817620614
20
30.5455190202909
30
0
41
1
10
8.89599827530486
20
30.5353639597133
30
0
41
1
10
8.87057829912135
20
30.5173845926838
30
0
41
1
10
8.85669598284875
20
30.5095145005817
30
0
41
1
10
8.8422983036603
20
30.5031528222877
30
0
0
SPLINE
5
38C
100
AcDbEntity
8
1
62
256
6
ByLayer
370
18
48
1
60
0
100
AcDbSpline
70
4
71
3
72
28
73
24
40
0
40
0
40
0
40
0
40
0.125000000000005
40
0.125000000000005
40
0.250000000000009
40
0.250000000000009
40
0.312500000000012
40
0.312500000000012
40
0.375000000000016
40
0.375000000000016
40
0.500000000000005
40
0.500000000000005
40
0.562500000000004
40
0.562500000000004
40
0.625000000000004
40
0.625000000000004
40
0.750000000000006
40
0.750000000000006
40
0.812500000000006
40
0.812500000000006
40
0.875000000000005
40
0.875000000000005
40
1
40
1
40
1
40
1
41
1
10
8.97764446770879
20
30.8233518197725
30
0
41
1
10
8.96670498116714
20
30.8686335485745
30
0
41
1
10
8.95941851418553
20
30.9145204053511
30
0
41
1
10
8.95296545280104
20
31.0049115317665
30
0
41
1
10
8.95371832868727
20
31.049438251872
30
0
41
1
10
8.96156546985986
20
31.1148632117872
30
0
41
1
10
8.96534858497523
20
31.1365610316401
30
0
41
1
10
8.97519649567886
20
31.1784268952292
30
0
41
1
10
8.98125690686624
20
31.1986743679331
30
0
41
1
10
9.00298750794866
20
31.2571927194061
30
0
41
1
10
9.02257787101985
20
31.2935694130088
30
0
41
1
10
9.05778212086472
20
31.339934517361
30
0
41
1
10
9.0705130542205
20
31.3541632772892
30
0
41
1
10
9.09795299735083
20
31.3802072655273
30
0
41
1
10
9.11276458576225
20
31.3920888672797
30
0
41
1
10
9.15950876908533
20
31.4236359203446
30
0
41
1
10
9.19314079601162
20
31.4389857693129
30
0
41
1
10
9.24698077651453
20
31.4550538978659
30
0
41
1
10
9.26560338706474
20
31.4592472313492
30
0
41
1
10
9.30328023437562
20
31.4653170245951
30
0
41
1
10
9.32237117151578
20
31.4672198093845
30
0
41
1
10
9.38040242914633
20
31.4698936685155
30
0
41
1
10
9.42009658635965
20
31.4676647087899
30
0
41
1
10
9.46086539218533
20
31.4618393340701
30
0
0
SPLINE
5
38D
100
AcDbEntity
8
1
62
256
6
ByLayer
370
18
48
1
60
0
100
AcDbSpline
70
4
71
3
72
28
73
24
40
0
40
0
40
0
40
0
40
0.124999999999998
40
0.124999999999998
40
0.249999999999996
40
0.249999999999996
40
0.312499999999995
40
0.312499999999995
40
0.374999999999994
40
0.374999999999994
40
0.500000000000002
40
0.500000000000002
40
0.5625
40
0.5625
40
0.624999999999999
40
0.624999999999999
40
0.750000000000004
40
0.750000000000004
40
0.812500000000003
40
0.812500000000003
40
0.874999999999999
40
0.874999999999999
40
1
40
1
40
1
40
1
41
1
10
6.53913460781467
20
31.4618393340701
30
0
41
1
10
6.57993237000176
20
31.4676688463076
30
0
41
1
10
6.6202437812027
20
31.4699193176344
30
0
41
1
10
6.69789948420026
20
31.4662292570145
30
0
41
1
10
6.73527982485297
20
31.4603699501076
30
0
41
1
10
6.78913721642277
20
31.4442637276021
30
0
41
1
10
6.8068134307826
20
31.4376069932674
30
0
41
1
10
6.84059562858829
20
31.4218236984299
30
0
41
1
10
6.85676927165952
20
31.4126929607082
30
0
41
1
10
6.90307963759574
20
31.3813076977236
30
0
41
1
10
6.93125910289712
20
31.354565355328
30
0
41
1
10
6.96633959378187
20
31.3080621112371
30
0
41
1
10
6.97694442636089
20
31.2914569516375
30
0
41
1
10
6.99599360070334
20
31.256074127589
30
0
41
1
10
7.00448338656344
20
31.2371672514298
30
0
41
1
10
7.02630706331672
20
31.1781144983287
30
0
41
1
10
7.03587165718597
20
31.1363879638672
30
0
41
1
10
7.04368728338477
20
31.070989555244
30
0
41
1
10
7.04518777825075
20
31.048593908286
30
0
41
1
10
7.04602253985945
20
31.0037776994568
30
0
41
1
10
7.0453758553378
20
30.9813097994543
30
0
41
1
10
7.04047464956528
20
30.9137820741643
30
0
41
1
10
7.03328725467077
20
30.8686014104408
30
0
41
1
10
7.02235553229121
20
30.8233518197725
30
0
0
SPLINE
5
38E
100
AcDbEntity
8
1
62
256
6
ByLayer
370
18
48
1
60
0
100
AcDbSpline
70
4
71
3
72
20
73
16
40
0
40
0
40
0
40
0
40
0.124999999999999
40
0.124999999999999
40
0.249999999999998
40
0.249999999999998
40
0.374999999999997
40
0.374999999999997
40
0.499999999999996
40
0.499999999999996
40
0.624999999999995
40
0.624999999999995
40
0.749999999999994
40
0.749999999999994
40
1
40
1
40
1
40
1
41
1
10
7.1577016963397
20
30.5031528222877
30
0
41
1
10
7.14326640574211
20
30.5095311193494
30
0
41
1
10
7.12965638008927
20
30.5172345416227
30
0
41
1
10
7.10408311738342
20
30.535290651192
30
0
41
1
10
7.09212597589311
20
30.5456995480728
30
0
41
1
10
7.0708989628713
20
30.5682143575281
30
0
41
1
10
7.0614700651102
20
30.5804182825767
30
0
41
1
10
7.04490725866873
20
30.6066756972962
30
0
41
1
10
7.03776615580136
20
30.6208285223882
30
0
41
1
10
7.02629335338389
20
30.6497781427518
30
0
41
1
10
7.02186231658044
20
30.6647034586167
30
0
41
1
10
7.01545137622645
20
30.6954164960818
30
0
41
1
10
7.01347086240872
20
30.7113475539155
30
0
41
1
10
7.01127180558922
20
30.7593232939196
30
0
41
1
10
7.01461524268905
20
30.7913125011736
30
0
41
1
10
7.02235553229121
20
30.8233518197725
30
0
0
SPLINE
5
38F
100
AcDbEntity
8
1
62
256
6
ByLayer
370
18
48
1
60
0
100
AcDbSpline
70
4
71
3
72
20
73
16
40
0
40
0
40
0
40
0
40
0.124999999999998
40
0.124999999999998
40
0.249999999999996
40
0.249999999999996
40
0.374999999999994
40
0.374999999999994
40
0.499999999999992
40
0.499999999999992
40
0.62499999999999
40
0.62499999999999
40
0.749999999999988
40
0.749999999999988
40
1
40
1
40
1
40
1
41
1
10
8.8422983036603
20
30.5031528222877
30
0
41
1
10
8.82771524172102
20
30.4967092318044
30
0
41
1
10
8.81253023609281
20
30.4917239607584
30
0
41
1
10
8.78096568148339
20
30.4846540334296
30
0
41
1
10
8.76450412592919
20
30.4826039763416
30
0
41
1
10
8.73187022856627
20
30.4815670686762
30
0
41
1
10
8.71551856232213
20
30.4825247279182
30
0
41
1
10
8.6827555756077
20
30.4873084488537
30
0
41
1
10
8.66623650306843
20
30.4911971652532
30
0
41
1
10
8.63450163409266
20
30.5014612212932
30
0
41
1
10
8.61912187095766
20
30.5078428880039
30
0
41
1
10
8.58929006139067
20
30.5229701251955
30
0
41
1
10
8.57471969114698
20
30.5318065231152
30
0
41
1
10
8.53337855809679
20
30.5612335285378
30
0
41
1
10
8.50910882705313
20
30.5844179733167
30
0
41
1
10
8.48791097736392
20
30.610934424164
30
0
0
SPLINE
5
390
100
AcDbEntity
8
1
62
256
6
ByLayer
370
18
48
1
60
0
100
AcDbSpline
70
4
71
3
72
16
73
12
40
0
40
0
40
0
40
0
40
0.250000000000001
40
0.250000000000001
40
0.500000000000002
40
0.500000000000002
40
0.625
40
0.625
40
0.749999999999998
40
0.749999999999998
40
1
40
1
40
1
40
1
41
1
10
7.51208902263602
20
30.610934424164
30
0
41
1
10
7.53767563318576
20
30.6429407885331
30
0
41
1
10
7.56561527778052
20
30.673185887161
30
0
41
1
10
7.62544652902773
20
30.7285913513368
30
0
41
1
10
7.6573348336056
20
30.7538135484477
30
0
41
1
10
7.70856821129314
20
30.7873581398764
30
0
41
1
10
7.72631306605609
20
30.7978655625878
30
0
41
1
10
7.76245681497903
20
30.8169517588337
30
0
41
1
10
7.78086964694842
20
30.82555299701
30
0
41
1
10
7.83718163001441
20
30.848392434689
30
0
41
1
10
7.87614291740778
20
30.8596977470066
30
0
41
1
10
7.91677826348268
20
30.8663829031887
30
0
0
SPLINE
5
391
100
AcDbEntity
8
1
62
256
6
ByLayer
370
18
48
1
60
0
100
AcDbSpline
70
4
71
3
72
14
73
10
40
0
40
0
40
0
40
0
40
0.25
40
0.25
40
0.5
40
0.5
40
0.75
40
0.75
40
1
40
1
40
1
40
1
41
1
10
8.08322173651726
20
30.8663829031887
30
0
41
1
10
8.1238658130469
20
30.8596963107089
30
0
41
1
10
8.16358030156158
20
30.8481512621367
30
0
41
1
10
8.23883610620294
20
30.8174911846105
30
0
41
1
10
8.27473021800711
20
30.7983424776161
30
0
41
1
10
8.34343768882627
20
30.7532577829526
30
0
41
1
10
8.37531670484054
20
30.7279386371865
30
0
41
1
10
8.43475213547219
20
30.6727905515037
30
0
41
1
10
8.46233298170745
20
30.6429300121385
30
0
41
1
10
8.48791097736392
20
30.610934424164
30
0
0
LINE
5
70
100
AcDbEntity
8
80
62
256
6
ByLayer
370
18
48
1
60
0
100
AcDbLine
10
0
20
0
30
0
11
-5
21
0
31
0
39
0
210
0
220
0
230
1
0
LINE
5
71
100
AcDbEntity
8
1
62
256
6
ByLayer
370
18
48
1
60
0
100
AcDbLine
10
4.028204
20
-24.290038
30
0
11
3.332308
21
-24.290038
31
0
39
0
210
0
220
0
230
1
0
LINE
5
73
100
AcDbEntity
8
1
62
256
6
ByLayer
370
18
48
1
60
0
100
AcDbLine
10
15.6
20
23.5
30
0
11
14.3
21
23.5
31
0
39
0
210
0
220
0
230
1
0
LINE
5
74
100
AcDbEntity
8
81
62
256
6
ByLayer
370
18
48
1
60
0
100
AcDbLine
10
14
20
51
30
0
11
19
21
51
31
0
39
0
210
0
220
0
230
1
0
LINE
5
75
100
AcDbEntity
8
1
62
256
6
ByLayer
370
18
48
1
60
0
100
AcDbLine
10
2.546339
20
-22.812767
30
0
11
2.5
21
-22.812767
31
0
39
0
210
0
220
0
230
1
0
LINE
5
76
100
AcDbEntity
8
1
62
256
6
ByLayer
370
18
48
1
60
0
100
AcDbLine
10
12.419244
20
11.17148
30
0
11
11.837004
21
11.17148
31
0
39
0
210
0
220
0
230
1
0
LINE
5
77
100
AcDbEntity
8
1
62
256
6
ByLayer
370
18
48
1
60
0
100
AcDbLine
10
4.162919
20
11.17148
30
0
11
3.580679
21
11.17148
31
0
39
0
210
0
220
0
230
1
0
LINE
5
78
100
AcDbEntity
8
1
62
256
6
ByLayer
370
18
48
1
60
0
100
AcDbLine
10
13.235439
20
10.770622
30
0
11
12.978454
21
10.770622
31
0
39
0
210
0
220
0
230
1
0
LINE
5
79
100
AcDbEntity
8
1
62
256
6
ByLayer
370
18
48
1
60
0
100
AcDbLine
10
3.021536
20
10.770622
30
0
11
2.764543
21
10.770622
31
0
39
0
210
0
220
0
230
1
0
LINE
5
7A
100
AcDbEntity
8
1
62
256
6
ByLayer
370
18
48
1
60
0
100
AcDbLine
10
7.045728
20
45.808231
30
0
11
7.045728
21
45.905265
31
0
39
0
210
0
220
0
230
1
0
LINE
5
7B
100
AcDbEntity
8
1
62
256
6
ByLayer
370
18
48
1
60
0
100
AcDbLine
10
8.954272
20
45.905089
30
0
11
8.954272
21
45.808231
31
0
39
0
210
0
220
0
230
1
0
LINE
5
7C
100
AcDbEntity
8
1
62
256
6
ByLayer
370
18
48
1
60
0
100
AcDbLine
10
10.454613
20
11.572337
30
0
11
5.550305
21
11.572337
31
0
39
0
210
0
220
0
230
1
0
LINE
5
7D
100
AcDbEntity
8
1
62
256
6
ByLayer
370
18
48
1
60
0
100
AcDbLine
10
5.375
20
44.957372
30
0
11
5.375
21
44.86914
31
0
39
0
210
0
220
0
230
1
0
LINE
5
7E
100
AcDbEntity
8
1
62
256
6
ByLayer
370
18
48
1
60
0
100
AcDbLine
10
10.625
20
44.86914
30
0
11
10.625
21
44.957372
31
0
39
0
210
0
220
0
230
1
0
LINE
5
7F
100
AcDbEntity
8
1
62
256
6
ByLayer
370
18
48
1
60
0
100
AcDbLine
10
2.358596
20
33.689258
30
0
11
2.062326
21
32.138469
31
0
39
0
210
0
220
0
230
1
0
LINE
5
80
100
AcDbEntity
8
1
62
256
6
ByLayer
370
18
48
1
60
0
100
AcDbLine
10
13.937674
20
32.138469
30
0
11
13.641404
21
33.689258
31
0
39
0
210
0
220
0
230
1
0
LINE
5
81
100
AcDbEntity
8
1
62
256
6
ByLayer
370
18
48
1
60
0
100
AcDbLine
10
2.242452
20
1.499951
30
0
11
2.00028
21
-0.466206
31
0
39
0
210
0
220
0
230
1
0
LINE
5
82
100
AcDbEntity
8
1
62
256
6
ByLayer
370
18
48
1
60
0
100
AcDbLine
10
13.99972
20
-0.466206
30
0
11
13.757548
21
1.499951
31
0
39
0
210
0
220
0
230
1
0
LINE
5
83
100
AcDbEntity
8
1
62
256
6
ByLayer
370
18
48
1
60
0
100
AcDbLine
10
12.667711
20
-24.290038
30
0
11
11.972638
21
-24.290038
31
0
39
0
210
0
220
0
230
1
0
LINE
5
84
100
AcDbEntity
8
1
62
256
6
ByLayer
370
18
48
1
60
0
100
AcDbLine
10
11.115196
20
-25.028673
30
0
11
4.88774
21
-25.028673
31
0
39
0
210
0
220
0
230
1
0
LINE
5
85
100
AcDbEntity
8
1
62
256
6
ByLayer
370
18
48
1
60
0
100
AcDbLine
10
2.619839
20
10.369764
30
0
11
2.501137
21
10.369764
31
0
39
0
210
0
220
0
230
1
0
LINE
5
86
100
AcDbEntity
8
1
62
256
6
ByLayer
370
18
48
1
60
0
100
AcDbLine
10
16
20
23.1
30
0
11
15.6
21
23.5
31
0
39
0
210
0
220
0
230
1
0
LINE
5
87
100
AcDbEntity
8
1
62
256
6
ByLayer
370
18
48
1
60
0
100
AcDbLine
10
15.6
20
-23.5
30
0
11
16
21
-23.1
31
0
39
0
210
0
220
0
230
1
0
LINE
5
88
100
AcDbEntity
8
1
62
256
6
ByLayer
370
18
48
1
60
0
100
AcDbLine
10
13.337965
20
-23.551402
30
0
11
13.03839
21
-23.551402
31
0
39
0
210
0
220
0
230
1
0
LINE
5
89
100
AcDbEntity
8
1
62
256
6
ByLayer
370
18
48
1
60
0
100
AcDbLine
10
13.5
20
-22.812767
30
0
11
13.454487
21
-22.812767
31
0
39
0
210
0
220
0
230
1
0
LINE
5
8A
100
AcDbEntity
8
1
62
256
6
ByLayer
370
18
48
1
60
0
100
AcDbLine
10
2.961497
20
-23.551402
30
0
11
2.662003
21
-23.551402
31
0
39
0
210
0
220
0
230
1
0
LINE
5
8B
100
AcDbEntity
8
1
62
256
6
ByLayer
370
18
48
1
60
0
100
AcDbLine
10
13.498846
20
10.369764
30
0
11
13.380146
21
10.369764
31
0
39
0
210
0
220
0
230
1
0
LINE
5
8C
100
AcDbEntity
8
4
62
256
6
ByLayer
370
18
48
0.05
60
0
100
AcDbLine
10
0
20
0
30
0
11
17
21
0
31
0
39
0
210
0
220
0
230
1
0
LINE
5
8E
100
AcDbEntity
8
SK4
62
256
6
ByLayer
370
18
48
0.05
60
0
100
AcDbLine
10
-3
20
0
30
0
11
17
21
0
31
0
39
0
210
0
220
0
230
1
0
LINE
5
90
100
AcDbEntity
8
1
62
256
6
ByLayer
370
18
48
1
60
0
100
AcDbLine
10
14.3
20
-23.5
30
0
11
15.6
21
-23.5
31
0
39
0
210
0
220
0
230
1
0
LINE
5
91
100
AcDbEntity
8
1
62
256
6
ByLayer
370
18
48
1
60
0
100
AcDbLine
10
1.7
20
23.5
30
0
11
0.4
21
23.5
31
0
39
0
210
0
220
0
230
1
0
LINE
5
92
100
AcDbEntity
8
1
62
256
6
ByLayer
370
18
48
1
60
0
100
AcDbLine
10
0.4
20
-23.5
30
0
11
1.7
21
-23.5
31
0
39
0
210
0
220
0
230
1
0
LINE
5
93
100
AcDbEntity
8
1
62
256
6
ByLayer
370
18
48
1
60
0
100
AcDbLine
10
0.4
20
23.5
30
0
11
0
21
23.1
31
0
39
0
210
0
220
0
230
1
0
LINE
5
94
100
AcDbEntity
8
1
62
256
6
ByLayer
370
18
48
1
60
0
100
AcDbLine
10
0
20
-23.1
30
0
11
0.4
21
-23.5
31
0
39
0
210
0
220
0
230
1
0
LINE
5
95
100
AcDbEntity
8
1
62
256
6
ByLayer
370
18
48
1
60
0
100
AcDbLine
10
13.966917
20
-31.739673
30
0
11
13.695856
21
-30.070245
31
0
39
0
210
0
220
0
230
1
0
LINE
5
96
100
AcDbEntity
8
1
62
256
6
ByLayer
370
18
48
1
60
0
100
AcDbLine
10
2.304144
20
-30.070245
30
0
11
2.033083
21
-31.739673
31
0
39
0
210
0
220
0
230
1
0
LINE
5
97
100
AcDbEntity
8
1
62
256
6
ByLayer
370
18
48
1
60
0
100
AcDbLine
10
2.294611
20
-33.354336
30
0
11
2.358596
21
-33.689258
31
0
39
0
210
0
220
0
230
1
0
LINE
5
98
100
AcDbEntity
8
1
62
256
6
ByLayer
370
18
48
1
60
0
100
AcDbLine
10
13.641404
20
-33.689258
30
0
11
13.705389
21
-33.354336
31
0
39
0
210
0
220
0
230
1
0
LINE
5
99
100
AcDbEntity
8
1
62
256
6
ByLayer
370
18
48
1
60
0
100
AcDbLine
10
5.375
20
32.514624
30
0
11
5.375
21
31.784281
31
0
39
0
210
0
220
0
230
1
0
LINE
5
9A
100
AcDbEntity
8
1
62
256
6
ByLayer
370
18
48
1
60
0
100
AcDbLine
10
10.625
20
31.784281
30
0
11
10.625
21
32.514624
31
0
39
0
210
0
220
0
230
1
0
LINE
5
9B
100
AcDbEntity
8
1
62
256
6
ByLayer
370
18
48
1
60
0
100
AcDbLine
10
8.954272
20
32.631937
30
0
11
8.954272
21
32.446909
31
0
39
0
210
0
220
0
230
1
0
LINE
5
9C
100
AcDbEntity
8
1
62
256
6
ByLayer
370
18
48
1
60
0
100
AcDbLine
10
7.045728
20
32.445449
30
0
11
7.045728
21
32.629647
31
0
39
0
210
0
220
0
230
1
0
LINE
5
9D
100
AcDbEntity
8
1
62
256
6
ByLayer
370
18
48
1
60
0
100
AcDbLine
10
7.045728
20
31.01132
30
0
11
7.045728
21
31.813066
31
0
39
0
210
0
220
0
230
1
0
LINE
5
9E
100
AcDbEntity
8
1
62
256
6
ByLayer
370
18
48
1
60
0
100
AcDbLine
10
8.954272
20
31.813066
30
0
11
8.954272
21
31.00986
31
0
39
0
210
0
220
0
230
1
0
LINE
5
9F
100
AcDbEntity
8
1
62
256
6
ByLayer
370
13
48
1
60
0
100
AcDbLine
10
10.220081
20
-25.290537
30
0
11
5.779919
21
-25.290537
31
0
39
0
210
0
220
0
230
1
0
LINE
5
A0
100
AcDbEntity
8
1
62
256
6
ByLayer
370
13
48
1
60
0
100
AcDbLine
10
8.5
20
-31.718914
30
0
11
8.5
21
-25.900877
31
0
39
0
210
0
220
0
230
1
0
LINE
5
A1
100
AcDbEntity
8
1
62
256
6
ByLayer
370
18
48
1
60
0
100
AcDbLine
10
7.5
20
-25.900877
30
0
11
8.5
21
-25.900877
31
0
39
0
210
0
220
0
230
1
0
LINE
5
A2
100
AcDbEntity
8
1
62
256
6
ByLayer
370
13
48
1
60
0
100
AcDbLine
10
7.5
20
-25.900877
30
0
11
7.5
21
-31.718914
31
0
39
0
210
0
220
0
230
1
0
LINE
5
A3
100
AcDbEntity
8
1
62
256
6
ByLayer
370
18
48
1
60
0
100
AcDbLine
10
7.5
20
-31.718914
30
0
11
8.5
21
-31.718914
31
0
39
0
210
0
220
0
230
1
0
LINE
5
A4
100
AcDbEntity
8
1
62
256
6
ByLayer
370
18
48
1
60
0
100
AcDbLine
10
5.780208
20
-31.736858
30
0
11
5.160706
21
-31.334524
31
0
39
0
210
0
220
0
230
1
0
LINE
5
A5
100
AcDbEntity
8
1
62
256
6
ByLayer
370
18
48
1
60
0
100
AcDbLine
10
3.125108
20
-30.012508
30
0
11
3.060298
21
-29.970417
31
0
39
0
210
0
220
0
230
1
0
LINE
5
A6
100
AcDbEntity
8
1
62
256
6
ByLayer
370
18
48
1
60
0
100
AcDbLine
10
2.937473
20
-29.77784
30
0
11
2.937473
21
-29.764061
31
0
39
0
210
0
220
0
230
1
0
LINE
5
A7
100
AcDbEntity
8
1
62
256
6
ByLayer
370
18
48
1
60
0
100
AcDbLine
10
2.5
20
-28.410896
30
0
11
2.5
21
-22.913421
31
0
39
0
210
0
220
0
230
1
0
LINE
5
A8
100
AcDbEntity
8
1
62
256
6
ByLayer
370
13
48
1
60
0
100
AcDbLine
10
10.539989
20
-25.161293
30
0
11
5.460011
21
-25.161293
31
0
39
0
210
0
220
0
230
1
0
LINE
5
A9
100
AcDbEntity
8
1
62
256
6
ByLayer
370
13
48
1
60
0
100
AcDbLine
10
10.991392
20
-25.04812
30
0
11
5.008608
21
-25.04812
31
0
39
0
210
0
220
0
230
1
0
LINE
5
AA
100
AcDbEntity
8
1
62
256
6
ByLayer
370
13
48
1
60
0
100
AcDbLine
10
12.018208
20
-25.267789
30
0
11
11.513169
21
-25.267789
31
0
39
0
210
0
220
0
230
1
0
LINE
5
AB
100
AcDbEntity
8
1
62
256
6
ByLayer
370
13
48
1
60
0
100
AcDbLine
10
4.486831
20
-25.267789
30
0
11
3.981792
21
-25.267789
31
0
39
0
210
0
220
0
230
1
0
LINE
5
AC
100
AcDbEntity
8
1
62
256
6
ByLayer
370
13
48
1
60
0
100
AcDbLine
10
12.346184
20
-24.551902
30
0
11
11.798294
21
-24.551902
31
0
39
0
210
0
220
0
230
1
0
LINE
5
AD
100
AcDbEntity
8
1
62
256
6
ByLayer
370
13
48
1
60
0
100
AcDbLine
10
4.201706
20
-24.551902
30
0
11
3.653816
21
-24.551902
31
0
39
0
210
0
220
0
230
1
0
LINE
5
AE
100
AcDbEntity
8
1
62
256
6
ByLayer
370
13
48
1
60
0
100
AcDbLine
10
12.450481
20
-24.422658
30
0
11
11.880541
21
-24.422658
31
0
39
0
210
0
220
0
230
1
0
LINE
5
AF
100
AcDbEntity
8
1
62
256
6
ByLayer
370
13
48
1
60
0
100
AcDbLine
10
4.119459
20
-24.422658
30
0
11
3.549519
21
-24.422658
31
0
39
0
210
0
220
0
230
1
0
LINE
5
B0
100
AcDbEntity
8
1
62
256
6
ByLayer
370
13
48
1
60
0
100
AcDbLine
10
4.042589
20
-24.309484
30
0
11
3.38147
21
-24.309484
31
0
39
0
210
0
220
0
230
1
0
LINE
5
B1
100
AcDbEntity
8
1
62
256
6
ByLayer
370
13
48
1
60
0
100
AcDbLine
10
12.61853
20
-24.309484
30
0
11
11.956891
21
-24.309484
31
0
39
0
210
0
220
0
230
1
0
LINE
5
B2
100
AcDbEntity
8
1
62
256
6
ByLayer
370
18
48
1
60
0
100
AcDbLine
10
2.525
20
19.50205
30
0
11
2.525
21
19.709634
31
0
39
0
210
0
220
0
230
1
0
LINE
5
B3
100
AcDbEntity
8
1
62
256
6
ByLayer
370
18
48
1
60
0
100
AcDbLine
10
8.866025
20
24.796243
30
0
11
9.732051
21
23.478017
31
0
39
0
210
0
220
0
230
1
0
LINE
5
B4
100
AcDbEntity
8
1
62
256
6
ByLayer
370
13
48
1
60
0
100
AcDbLine
10
13.059179
20
-24.529154
30
0
11
12.835811
21
-24.529154
31
0
39
0
210
0
220
0
230
1
0
LINE
5
B5
100
AcDbEntity
8
1
62
256
6
ByLayer
370
13
48
1
60
0
100
AcDbLine
10
3.164189
20
-24.529154
30
0
11
2.940821
21
-24.529154
31
0
39
0
210
0
220
0
230
1
0
LINE
5
B6
100
AcDbEntity
8
1
62
256
6
ByLayer
370
13
48
1
60
0
100
AcDbLine
10
13.203997
20
-23.813267
30
0
11
12.961363
21
-23.813267
31
0
39
0
210
0
220
0
230
1
0
LINE
5
B7
100
AcDbEntity
8
1
62
256
6
ByLayer
370
13
48
1
60
0
100
AcDbLine
10
3.038637
20
-23.813267
30
0
11
2.796003
21
-23.813267
31
0
39
0
210
0
220
0
230
1
0
LINE
5
B8
100
AcDbEntity
8
1
62
256
6
ByLayer
370
13
48
1
60
0
100
AcDbLine
10
13.248794
20
-23.684022
30
0
11
12.997629
21
-23.684022
31
0
39
0
210
0
220
0
230
1
0
LINE
5
B9
100
AcDbEntity
8
1
62
256
6
ByLayer
370
13
48
1
60
0
100
AcDbLine
10
3.002371
20
-23.684022
30
0
11
2.751206
21
-23.684022
31
0
39
0
210
0
220
0
230
1
0
LINE
5
BA
100
AcDbEntity
8
1
62
256
6
ByLayer
370
13
48
1
60
0
100
AcDbLine
10
2.968916
20
-23.570849
30
0
11
2.681541
21
-23.570849
31
0
39
0
210
0
220
0
230
1
0
LINE
5
BB
100
AcDbEntity
8
1
62
256
6
ByLayer
370
13
48
1
60
0
100
AcDbLine
10
13.318459
20
-23.570849
30
0
11
13.031287
21
-23.570849
31
0
39
0
210
0
220
0
230
1
0
LINE
5
BC
100
AcDbEntity
8
1
62
256
6
ByLayer
370
18
48
1
60
0
100
AcDbLine
10
13.5
20
-22.913421
30
0
11
13.5
21
-28.410896
31
0
39
0
210
0
220
0
230
1
0
LINE
5
BD
100
AcDbEntity
8
1
62
256
6
ByLayer
370
18
48
1
60
0
100
AcDbLine
10
8.866025
20
24.796243
30
0
11
7.133975
21
24.796243
31
0
39
0
210
0
220
0
230
1
0
LINE
5
BE
100
AcDbEntity
8
1
62
256
6
ByLayer
370
13
48
1
60
0
100
AcDbLine
10
2.599008
20
-23.790518
30
0
11
2.53065
21
-23.790518
31
0
39
0
210
0
220
0
230
1
0
LINE
5
BF
100
AcDbEntity
8
1
62
256
6
ByLayer
370
13
48
1
60
0
100
AcDbLine
10
13.46935
20
-23.790518
30
0
11
13.400992
21
-23.790518
31
0
39
0
210
0
220
0
230
1
0
LINE
5
C0
100
AcDbEntity
8
1
62
256
6
ByLayer
370
13
48
1
60
0
100
AcDbLine
10
2.594811
20
-23.074631
30
0
11
2.503797
21
-23.074631
31
0
39
0
210
0
220
0
230
1
0
LINE
5
C1
100
AcDbEntity
8
1
62
256
6
ByLayer
370
13
48
1
60
0
100
AcDbLine
10
13.496203
20
-23.074631
30
0
11
13.403641
21
-23.074631
31
0
39
0
210
0
220
0
230
1
0
LINE
5
C2
100
AcDbEntity
8
1
62
256
6
ByLayer
370
13
48
1
60
0
100
AcDbLine
10
2.570584
20
-22.945387
30
0
11
2.500421
21
-22.945387
31
0
39
0
210
0
220
0
230
1
0
LINE
5
C3
100
AcDbEntity
8
1
62
256
6
ByLayer
370
13
48
1
60
0
100
AcDbLine
10
13.499579
20
-22.945387
30
0
11
13.430034
21
-22.945387
31
0
39
0
210
0
220
0
230
1
0
LINE
5
C4
100
AcDbEntity
8
1
62
256
6
ByLayer
370
13
48
1
60
0
100
AcDbLine
10
2.549877
20
-22.832214
30
0
11
2.5
21
-22.832214
31
0
39
0
210
0
220
0
230
1
0
LINE
5
C5
100
AcDbEntity
8
1
62
256
6
ByLayer
370
13
48
1
60
0
100
AcDbLine
10
13.5
20
-22.832214
30
0
11
13.45146
21
-22.832214
31
0
39
0
210
0
220
0
230
1
0
LINE
5
C6
100
AcDbEntity
8
1
62
256
6
ByLayer
370
18
48
1
60
0
100
AcDbLine
10
2.5
20
-22.913421
30
0
11
2.5
21
-22.832214
31
0
39
0
210
0
220
0
230
1
0
LINE
5
C7
100
AcDbEntity
8
1
62
256
6
ByLayer
370
18
48
1
60
0
100
AcDbLine
10
13.5
20
-22.913421
30
0
11
13.5
21
-22.832214
31
0
39
0
210
0
220
0
230
1
0
LINE
5
C8
100
AcDbEntity
8
1
62
256
6
ByLayer
370
18
48
1
60
0
100
AcDbLine
10
2.525
20
27.271596
30
0
11
13.475
21
27.271596
31
0
39
0
210
0
220
0
230
1
0
LINE
5
C9
100
AcDbEntity
8
1
62
256
6
ByLayer
370
18
48
1
60
0
100
AcDbLine
10
2.5
20
-42.147997
30
0
11
2.5
21
-42.308129
31
0
39
0
210
0
220
0
230
1
0
LINE
5
CA
100
AcDbEntity
8
1
62
256
6
ByLayer
370
18
48
1
60
0
100
AcDbLine
10
13.5
20
-22.832214
30
0
11
13.5
21
-22.812767
31
0
39
0
210
0
220
0
230
1
0
LINE
5
CB
100
AcDbEntity
8
1
62
256
6
ByLayer
370
18
48
1
60
0
100
AcDbLine
10
2.5
20
41.975821
30
0
11
2.5
21
42.60329
31
0
39
0
210
0
220
0
230
1
0
LINE
5
CC
100
AcDbEntity
8
1
62
256
6
ByLayer
370
18
48
1
60
0
100
AcDbLine
10
9.923267
20
-31.816626
30
0
11
6.076733
21
-31.816626
31
0
39
0
210
0
220
0
230
1
0
LINE
5
CD
100
AcDbEntity
8
1
62
256
6
ByLayer
370
13
48
1
60
0
100
AcDbLine
10
8.5
20
-49.517286
30
0
11
8.5
21
-47.730887
31
0
39
0
210
0
220
0
230
1
0
LINE
5
CE
100
AcDbEntity
8
1
62
256
6
ByLayer
370
18
48
1
60
0
100
AcDbLine
10
2.5
20
-22.832214
30
0
11
2.5
21
-22.812767
31
0
39
0
210
0
220
0
230
1
0
LINE
5
CF
100
AcDbEntity
8
1
62
256
6
ByLayer
370
18
48
1
60
0
100
AcDbLine
10
2.5
20
-22.384922
30
0
11
2.5
21
-22.812766
31
0
39
0
210
0
220
0
230
1
0
LINE
5
D0
100
AcDbEntity
8
1
62
256
6
ByLayer
370
18
48
1
60
0
100
AcDbLine
10
13.5
20
-22.384922
30
0
11
13.5
21
-22.812766
31
0
39
0
210
0
220
0
230
1
0
LINE
5
D1
100
AcDbEntity
8
1
62
256
6
ByLayer
370
18
48
1
60
0
100
AcDbLine
10
12.939702
20
36.261879
30
0
11
10.219792
21
38.330115
31
0
39
0
210
0
220
0
230
1
0
LINE
5
D2
100
AcDbEntity
8
1
62
256
6
ByLayer
370
18
48
1
60
0
100
AcDbLine
10
5.780208
20
38.330115
30
0
11
3.060298
21
36.261879
31
0
39
0
210
0
220
0
230
1
0
LINE
5
D3
100
AcDbEntity
8
1
62
256
6
ByLayer
370
18
48
1
60
0
100
AcDbLine
10
13.5
20
-42.751433
30
0
11
13.5
21
-44.439405
31
0
39
0
210
0
220
0
230
1
0
LINE
5
D4
100
AcDbEntity
8
1
62
256
6
ByLayer
370
18
48
1
60
0
100
AcDbLine
10
2.5
20
-44.439405
30
0
11
2.5
21
-42.751433
31
0
39
0
210
0
220
0
230
1
0
LINE
5
D5
100
AcDbEntity
8
1
62
256
6
ByLayer
370
13
48
1
60
0
100
AcDbLine
10
7.5
20
-47.730887
30
0
11
7.5
21
-49.517286
31
0
39
0
210
0
220
0
230
1
0
LINE
5
D6
100
AcDbEntity
8
1
62
256
6
ByLayer
370
13
48
1
60
0
100
AcDbLine
10
10.539989
20
-47.150323
30
0
11
5.460011
21
-47.150323
31
0
39
0
210
0
220
0
230
1
0
LINE
5
D7
100
AcDbEntity
8
1
62
256
6
ByLayer
370
13
48
1
60
0
100
AcDbLine
10
10.220081
20
-47.295546
30
0
11
5.779919
21
-47.295546
31
0
39
0
210
0
220
0
230
1
0
LINE
5
D8
100
AcDbEntity
8
1
62
256
6
ByLayer
370
13
48
1
60
0
100
AcDbLine
10
10.991392
20
-46.928853
30
0
11
9.333881
21
-46.928853
31
0
39
0
210
0
220
0
230
1
0
LINE
5
D9
100
AcDbEntity
8
1
62
256
6
ByLayer
370
13
48
1
60
0
100
AcDbLine
10
6.652752
20
-46.928853
30
0
11
5.008608
21
-46.928853
31
0
39
0
210
0
220
0
230
1
0
LINE
5
DA
100
AcDbEntity
8
1
62
256
6
ByLayer
370
13
48
1
60
0
100
AcDbLine
10
11.204893
20
-46.823716
30
0
11
10.018682
21
-46.823716
31
0
39
0
210
0
220
0
230
1
0
LINE
5
DB
100
AcDbEntity
8
1
62
256
6
ByLayer
370
13
48
1
60
0
100
AcDbLine
10
5.979916
20
-46.823716
30
0
11
4.795107
21
-46.823716
31
0
39
0
210
0
220
0
230
1
0
LINE
5
DC
100
AcDbEntity
8
1
62
256
6
ByLayer
370
13
48
1
60
0
100
AcDbLine
10
11.693566
20
-46.644466
30
0
11
10.777908
21
-46.644466
31
0
39
0
210
0
220
0
230
1
0
LINE
5
DD
100
AcDbEntity
8
1
62
256
6
ByLayer
370
13
48
1
60
0
100
AcDbLine
10
5.22417
20
-46.644466
30
0
11
4.306434
21
-46.644466
31
0
39
0
210
0
220
0
230
1
0
LINE
5
DE
100
AcDbEntity
8
1
62
256
6
ByLayer
370
13
48
1
60
0
100
AcDbLine
10
12.450481
20
-45.704878
30
0
11
11.927688
21
-45.704878
31
0
39
0
210
0
220
0
230
1
0
LINE
5
DF
100
AcDbEntity
8
1
62
256
6
ByLayer
370
13
48
1
60
0
100
AcDbLine
10
4.090253
20
-45.704878
30
0
11
3.549519
21
-45.704878
31
0
39
0
210
0
220
0
230
1
0
LINE
5
E0
100
AcDbEntity
8
1
62
256
6
ByLayer
370
13
48
1
60
0
100
AcDbLine
10
12.346184
20
-45.8501
30
0
11
11.798565
21
-45.8501
31
0
39
0
210
0
220
0
230
1
0
LINE
5
E1
100
AcDbEntity
8
1
62
256
6
ByLayer
370
13
48
1
60
0
100
AcDbLine
10
4.201435
20
-45.8501
30
0
11
3.653816
21
-45.8501
31
0
39
0
210
0
220
0
230
1
0
LINE
5
E2
100
AcDbEntity
8
1
62
256
6
ByLayer
370
13
48
1
60
0
100
AcDbLine
10
3.857877
20
-45.483407
30
0
11
3.38147
21
-45.483407
31
0
39
0
210
0
220
0
230
1
0
LINE
5
E3
100
AcDbEntity
8
1
62
256
6
ByLayer
370
13
48
1
60
0
100
AcDbLine
10
12.61853
20
-45.483407
30
0
11
12.141949
21
-45.483407
31
0
39
0
210
0
220
0
230
1
0
LINE
5
E4
100
AcDbEntity
8
1
62
256
6
ByLayer
370
13
48
1
60
0
100
AcDbLine
10
12.018208
20
-46.360726
30
0
11
11.262785
21
-46.360726
31
0
39
0
210
0
220
0
230
1
0
LINE
5
E5
100
AcDbEntity
8
1
62
256
6
ByLayer
370
13
48
1
60
0
100
AcDbLine
10
4.737215
20
-46.360726
30
0
11
3.981792
21
-46.360726
31
0
39
0
210
0
220
0
230
1
0
LINE
5
E6
100
AcDbEntity
8
1
62
256
6
ByLayer
370
13
48
1
60
0
100
AcDbLine
10
3.713255
20
-45.378271
30
0
11
3.295004
21
-45.378271
31
0
39
0
210
0
220
0
230
1
0
LINE
5
E7
100
AcDbEntity
8
1
62
256
6
ByLayer
370
13
48
1
60
0
100
AcDbLine
10
12.704996
20
-45.378271
30
0
11
12.286745
21
-45.378271
31
0
39
0
210
0
220
0
230
1
0
LINE
5
E8
100
AcDbEntity
8
1
62
256
6
ByLayer
370
13
48
1
60
0
100
AcDbLine
10
12.914809
20
-45.19902
30
0
11
12.536798
21
-45.19902
31
0
39
0
210
0
220
0
230
1
0
LINE
5
E9
100
AcDbEntity
8
1
62
256
6
ByLayer
370
13
48
1
60
0
100
AcDbLine
10
3.463045
20
-45.19902
30
0
11
3.085191
21
-45.19902
31
0
39
0
210
0
220
0
230
1
0
LINE
5
EA
100
AcDbEntity
8
1
62
256
6
ByLayer
370
13
48
1
60
0
100
AcDbLine
10
3.038535
20
-44.404654
30
0
11
2.796003
21
-44.404654
31
0
39
0
210
0
220
0
230
1
0
LINE
5
EB
100
AcDbEntity
8
1
62
256
6
ByLayer
370
13
48
1
60
0
100
AcDbLine
10
2.981407
20
-44.259432
30
0
11
2.751206
21
-44.259432
31
0
39
0
210
0
220
0
230
1
0
LINE
5
EC
100
AcDbEntity
8
1
62
256
6
ByLayer
370
13
48
1
60
0
100
AcDbLine
10
13.248794
20
-44.259432
30
0
11
13.018593
21
-44.259432
31
0
39
0
210
0
220
0
230
1
0
LINE
5
ED
100
AcDbEntity
8
1
62
256
6
ByLayer
370
13
48
1
60
0
100
AcDbLine
10
13.203997
20
-44.404654
30
0
11
12.961465
21
-44.404654
31
0
39
0
210
0
220
0
230
1
0
LINE
5
EE
100
AcDbEntity
8
1
62
256
6
ByLayer
370
13
48
1
60
0
100
AcDbLine
10
13.318459
20
-44.037961
30
0
11
13.113809
21
-44.037961
31
0
39
0
210
0
220
0
230
1
0
LINE
5
EF
100
AcDbEntity
8
1
62
256
6
ByLayer
370
13
48
1
60
0
100
AcDbLine
10
2.88609
20
-44.037961
30
0
11
2.681541
21
-44.037961
31
0
39
0
210
0
220
0
230
1
0
LINE
5
F0
100
AcDbEntity
8
1
62
256
6
ByLayer
370
13
48
1
60
0
100
AcDbLine
10
3.269558
20
-44.91528
30
0
11
2.940821
21
-44.91528
31
0
39
0
210
0
220
0
230
1
0
LINE
5
F1
100
AcDbEntity
8
1
62
256
6
ByLayer
370
13
48
1
60
0
100
AcDbLine
10
13.059179
20
-44.91528
30
0
11
12.730442
21
-44.91528
31
0
39
0
210
0
220
0
230
1
0
LINE
5
F2
100
AcDbEntity
8
1
62
256
6
ByLayer
370
13
48
1
60
0
100
AcDbLine
10
13.352581
20
-43.932825
30
0
11
13.178194
21
-43.932825
31
0
39
0
210
0
220
0
230
1
0
LINE
5
F3
100
AcDbEntity
8
1
62
256
6
ByLayer
370
13
48
1
60
0
100
AcDbLine
10
2.821806
20
-43.932825
30
0
11
2.647419
21
-43.932825
31
0
39
0
210
0
220
0
230
1
0
LINE
5
F4
100
AcDbEntity
8
1
62
256
6
ByLayer
370
13
48
1
60
0
100
AcDbLine
10
2.736731
20
-43.753574
30
0
11
2.572302
21
-43.753574
31
0
39
0
210
0
220
0
230
1
0
LINE
5
F5
100
AcDbEntity
8
1
62
256
6
ByLayer
370
13
48
1
60
0
100
AcDbLine
10
13.427698
20
-43.753574
30
0
11
13.263321
21
-43.753574
31
0
39
0
210
0
220
0
230
1
0
LINE
5
F6
100
AcDbEntity
8
1
62
256
6
ByLayer
370
13
48
1
60
0
100
AcDbLine
10
2.546036
20
-42.813986
30
0
11
2.500421
21
-42.813986
31
0
39
0
210
0
220
0
230
1
0
LINE
5
F7
100
AcDbEntity
8
1
62
256
6
ByLayer
370
13
48
1
60
0
100
AcDbLine
10
2.567126
20
-42.959209
30
0
11
2.503797
21
-42.959209
31
0
39
0
210
0
220
0
230
1
0
LINE
5
F8
100
AcDbEntity
8
1
62
256
6
ByLayer
370
13
48
1
60
0
100
AcDbLine
10
13.496203
20
-42.959209
30
0
11
13.433703
21
-42.959209
31
0
39
0
210
0
220
0
230
1
0
LINE
5
F9
100
AcDbEntity
8
1
62
256
6
ByLayer
370
13
48
1
60
0
100
AcDbLine
10
13.499579
20
-42.813986
30
0
11
13.455144
21
-42.813986
31
0
39
0
210
0
220
0
230
1
0
LINE
5
FA
100
AcDbEntity
8
1
62
256
6
ByLayer
370
13
48
1
60
0
100
AcDbLine
10
13.5
20
-42.592516
30
0
11
13.477503
21
-42.592516
31
0
39
0
210
0
220
0
230
1
0
LINE
5
FB
100
AcDbEntity
8
1
62
256
6
ByLayer
370
13
48
1
60
0
100
AcDbLine
10
2.522206
20
-42.592516
30
0
11
2.5
21
-42.592516
31
0
39
0
210
0
220
0
230
1
0
LINE
5
FC
100
AcDbEntity
8
1
62
256
6
ByLayer
370
13
48
1
60
0
100
AcDbLine
10
2.662948
20
-43.469835
30
0
11
2.53065
21
-43.469835
31
0
39
0
210
0
220
0
230
1
0
LINE
5
FD
100
AcDbEntity
8
1
62
256
6
ByLayer
370
13
48
1
60
0
100
AcDbLine
10
13.46935
20
-43.469835
30
0
11
13.336839
21
-43.469835
31
0
39
0
210
0
220
0
230
1
0
LINE
5
FE
100
AcDbEntity
8
1
62
256
6
ByLayer
370
18
48
1
60
0
100
AcDbLine
10
7.5
20
-47.730887
30
0
11
8.5
21
-47.730887
31
0
39
0
210
0
220
0
230
1
0
LINE
5
FF
100
AcDbEntity
8
1
62
256
6
ByLayer
370
18
48
1
60
0
100
AcDbLine
10
7.5
20
-49.517286
30
0
11
8.5
21
-49.517286
31
0
39
0
210
0
220
0
230
1
0
LINE
5
100
100
AcDbEntity
8
1
62
256
6
ByLayer
370
18
48
1
60
0
100
AcDbLine
10
2.5
20
-42.751433
30
0
11
2.5
21
-42.592516
31
0
39
0
210
0
220
0
230
1
0
LINE
5
101
100
AcDbEntity
8
1
62
256
6
ByLayer
370
18
48
1
60
0
100
AcDbLine
10
13.5
20
-42.751433
30
0
11
13.5
21
-42.592516
31
0
39
0
210
0
220
0
230
1
0
LINE
5
102
100
AcDbEntity
8
1
62
256
6
ByLayer
370
18
48
1
60
0
100
AcDbLine
10
13.5
20
-42.487379
30
0
11
13.5
21
-42.592516
31
0
39
0
210
0
220
0
230
1
0
LINE
5
103
100
AcDbEntity
8
1
62
256
6
ByLayer
370
18
48
1
60
0
100
AcDbLine
10
2.5
20
-42.487379
30
0
11
2.5
21
-42.592516
31
0
39
0
210
0
220
0
230
1
0
LINE
5
104
100
AcDbEntity
8
1
62
256
6
ByLayer
370
18
48
1
60
0
100
AcDbLine
10
2.5
20
-42.308129
30
0
11
2.5
21
-42.487379
31
0
39
0
210
0
220
0
230
1
0
LINE
5
105
100
AcDbEntity
8
1
62
256
6
ByLayer
370
18
48
1
60
0
100
AcDbLine
10
13.5
20
-42.308129
30
0
11
13.5
21
-42.487379
31
0
39
0
210
0
220
0
230
1
0
LINE
5
106
100
AcDbEntity
8
1
62
256
6
ByLayer
370
18
48
1
60
0
100
AcDbLine
10
5.780208
20
4.662136
30
0
11
3.060298
21
4.448735
31
0
39
0
210
0
220
0
230
1
0
LINE
5
107
100
AcDbEntity
8
1
62
256
6
ByLayer
370
18
48
1
60
0
100
AcDbLine
10
12.939702
20
4.448735
30
0
11
10.219792
21
4.662136
31
0
39
0
210
0
220
0
230
1
0
LINE
5
108
100
AcDbEntity
8
1
62
256
6
ByLayer
370
18
48
1
60
0
100
AcDbLine
10
2.5
20
40.885287
30
0
11
2.5
21
41.975812
31
0
39
0
210
0
220
0
230
1
0
LINE
5
109
100
AcDbEntity
8
1
62
256
6
ByLayer
370
18
48
1
60
0
100
AcDbLine
10
13.5
20
40.885287
30
0
11
13.5
21
41.975812
31
0
39
0
210
0
220
0
230
1
0
LINE
5
10A
100
AcDbEntity
8
1
62
256
6
ByLayer
370
18
48
1
60
0
100
AcDbLine
10
9.923267
20
4.671773
30
0
11
6.076733
21
4.671773
31
0
39
0
210
0
220
0
230
1
0
LINE
5
10B
100
AcDbEntity
8
1
62
256
6
ByLayer
370
18
48
1
60
0
100
AcDbLine
10
7.916778
20
30.866383
30
0
11
7.916778
21
31.615616
31
0
39
0
210
0
220
0
230
1
0
LINE
5
10C
100
AcDbEntity
8
1
62
256
6
ByLayer
370
18
48
1
60
0
100
AcDbLine
10
13.475
20
19.50205
30
0
11
13.475
21
19.709634
31
0
39
0
210
0
220
0
230
1
0
LINE
5
10D
100
AcDbEntity
8
1
62
256
6
ByLayer
370
18
48
1
60
0
100
AcDbLine
10
9.923267
20
38.423511
30
0
11
6.076733
21
38.423511
31
0
39
0
210
0
220
0
230
1
0
LINE
5
10E
100
AcDbEntity
8
1
62
256
6
ByLayer
370
18
48
1
60
0
100
AcDbLine
10
13.5
20
-42.147997
30
0
11
13.5
21
-42.308129
31
0
39
0
210
0
220
0
230
1
0
LINE
5
10F
100
AcDbEntity
8
1
62
256
6
ByLayer
370
18
48
1
60
0
100
AcDbLine
10
13.5
20
41.975821
30
0
11
13.5
21
42.60329
31
0
39
0
210
0
220
0
230
1
0
LINE
5
110
100
AcDbEntity
8
1
62
256
6
ByLayer
370
18
48
1
60
0
100
AcDbLine
10
6.267949
20
23.478017
30
0
11
7.133975
21
24.796243
31
0
39
0
210
0
220
0
230
1
0
LINE
5
111
100
AcDbEntity
8
1
62
256
6
ByLayer
370
18
48
1
60
0
100
AcDbLine
10
7.133975
20
22.159791
30
0
11
6.267949
21
23.478017
31
0
39
0
210
0
220
0
230
1
0
LINE
5
112
100
AcDbEntity
8
1
62
256
6
ByLayer
370
18
48
1
60
0
100
AcDbLine
10
7.133975
20
22.159791
30
0
11
8.866025
21
22.159791
31
0
39
0
210
0
220
0
230
1
0
LINE
5
113
100
AcDbEntity
8
1
62
256
6
ByLayer
370
18
48
1
60
0
100
AcDbLine
10
8.866025
20
22.159791
30
0
11
9.732051
21
23.478017
31
0
39
0
210
0
220
0
230
1
0
LINE
5
114
100
AcDbEntity
8
1
62
256
6
ByLayer
370
18
48
1
60
0
100
AcDbLine
10
13.475
20
27.271596
30
0
11
13.475
21
19.709634
31
0
39
0
210
0
220
0
230
1
0
LINE
5
115
100
AcDbEntity
8
1
62
256
6
ByLayer
370
18
48
1
60
0
100
AcDbLine
10
13.475
20
19.709634
30
0
11
2.525
21
19.709634
31
0
39
0
210
0
220
0
230
1
0
LINE
5
116
100
AcDbEntity
8
1
62
256
6
ByLayer
370
18
48
1
60
0
100
AcDbLine
10
7.133975
20
24.796243
30
0
11
7.133975
21
23.841925
31
0
39
0
210
0
220
0
230
1
0
LINE
5
117
100
AcDbEntity
8
1
62
256
6
ByLayer
370
18
48
1
60
0
100
AcDbLine
10
13.474997
20
27.322935
30
0
11
13.5
21
27.322935
31
0
39
0
210
0
220
0
230
1
0
LINE
5
118
100
AcDbEntity
8
1
62
256
6
ByLayer
370
18
48
1
60
0
100
AcDbLine
10
7.133975
20
23.841925
30
0
11
8.866025
21
23.841925
31
0
39
0
210
0
220
0
230
1
0
LINE
5
119
100
AcDbEntity
8
1
62
256
6
ByLayer
370
18
48
1
60
0
100
AcDbLine
10
13.5
20
29.477466
30
0
11
13.5
21
29.659179
31
0
39
0
210
0
220
0
230
1
0
LINE
5
11A
100
AcDbEntity
8
1
62
256
6
ByLayer
370
18
48
1
60
0
100
AcDbLine
10
2.525
20
27.271596
30
0
11
2.525
21
19.709634
31
0
39
0
210
0
220
0
230
1
0
LINE
5
11B
100
AcDbEntity
8
1
62
256
6
ByLayer
370
18
48
1
60
0
100
AcDbLine
10
8.866025
20
24.796243
30
0
11
8.866025
21
23.841925
31
0
39
0
210
0
220
0
230
1
0
LINE
5
11C
100
AcDbEntity
8
1
62
256
6
ByLayer
370
18
48
1
60
0
100
AcDbLine
10
6.202749
20
-0.2744
30
0
11
6.2
21
-0.282202
31
0
39
0
210
0
220
0
230
1
0
LINE
5
11D
100
AcDbEntity
8
1
62
256
6
ByLayer
370
13
48
1
60
0
100
AcDbLine
10
7.512089
20
-0.281886
30
0
11
7.512089
21
-0.232055
31
0
39
0
210
0
220
0
230
1
0
LINE
5
11E
100
AcDbEntity
8
1
62
256
6
ByLayer
370
13
48
1
60
0
100
AcDbLine
10
8.487911
20
-0.281886
30
0
11
8.487911
21
-0.232055
31
0
39
0
210
0
220
0
230
1
0
LINE
5
11F
100
AcDbEntity
8
1
62
256
6
ByLayer
370
18
48
1
60
0
100
AcDbLine
10
6.267949
20
-5.977393
30
0
11
7.133975
21
-4.539163
31
0
39
0
210
0
220
0
230
1
0
LINE
5
120
100
AcDbEntity
8
1
62
256
6
ByLayer
370
18
48
1
60
0
100
AcDbLine
10
7.133975
20
-7.415622
30
0
11
6.267949
21
-5.977393
31
0
39
0
210
0
220
0
230
1
0
LINE
5
121
100
AcDbEntity
8
1
62
256
6
ByLayer
370
18
48
1
60
0
100
AcDbLine
10
7.133975
20
-7.415622
30
0
11
8.866025
21
-7.415622
31
0
39
0
210
0
220
0
230
1
0
LINE
5
122
100
AcDbEntity
8
1
62
256
6
ByLayer
370
18
48
1
60
0
100
AcDbLine
10
2.525
20
27.351048
30
0
11
13.475
21
27.351048
31
0
39
0
210
0
220
0
230
1
0
LINE
5
123
100
AcDbEntity
8
1
62
256
6
ByLayer
370
18
48
1
60
0
100
AcDbLine
10
8.866025
20
-7.415622
30
0
11
9.732051
21
-5.977393
31
0
39
0
210
0
220
0
230
1
0
LINE
5
124
100
AcDbEntity
8
1
62
256
6
ByLayer
370
18
48
1
60
0
100
AcDbLine
10
13.474997
20
-1.728829
30
0
11
13.5
21
-1.728829
31
0
39
0
210
0
220
0
230
1
0
LINE
5
125
100
AcDbEntity
8
1
62
256
6
ByLayer
370
18
48
1
60
0
100
AcDbLine
10
13.5
20
-1.728829
30
0
11
13.5
21
-1.283302
31
0
39
0
210
0
220
0
230
1
0
LINE
5
126
100
AcDbEntity
8
1
62
256
6
ByLayer
370
18
48
1
60
0
100
AcDbLine
10
8.866025
20
-4.539163
30
0
11
9.732051
21
-5.977393
31
0
39
0
210
0
220
0
230
1
0
LINE
5
127
100
AcDbEntity
8
1
62
256
6
ByLayer
370
18
48
1
60
0
100
AcDbLine
10
8.866025
20
-4.539163
30
0
11
7.133975
21
-4.539163
31
0
39
0
210
0
220
0
230
1
0
LINE
5
128
100
AcDbEntity
8
1
62
256
6
ByLayer
370
18
48
1
60
0
100
AcDbLine
10
9.561024
20
-5.69339
30
0
11
8.866025
21
-6.847592
31
0
39
0
210
0
220
0
230
1
0
LINE
5
129
100
AcDbEntity
8
1
62
256
6
ByLayer
370
18
48
1
60
0
100
AcDbLine
10
2.5
20
-0.65891
30
0
11
2.5
21
-1.283302
31
0
39
0
210
0
220
0
230
1
0
LINE
5
12A
100
AcDbEntity
8
1
62
256
6
ByLayer
370
18
48
1
60
0
100
AcDbLine
10
8.866025
20
-7.415622
30
0
11
8.866025
21
-6.847592
31
0
39
0
210
0
220
0
230
1
0
LINE
5
12B
100
AcDbEntity
8
1
62
256
6
ByLayer
370
18
48
1
60
0
100
AcDbLine
10
6.438976
20
-5.69339
30
0
11
7.133975
21
-6.847592
31
0
39
0
210
0
220
0
230
1
0
LINE
5
12C
100
AcDbEntity
8
1
62
256
6
ByLayer
370
18
48
1
60
0
100
AcDbLine
10
13.475
20
-11.297148
30
0
11
13.475
21
-11.198657
31
0
39
0
210
0
220
0
230
1
0
LINE
5
12D
100
AcDbEntity
8
1
62
256
6
ByLayer
370
18
48
1
60
0
100
AcDbLine
10
2.525
20
-11.297148
30
0
11
2.525
21
-11.198657
31
0
39
0
210
0
220
0
230
1
0
LINE
5
12E
100
AcDbEntity
8
1
62
256
6
ByLayer
370
13
48
1
60
0
100
AcDbLine
10
9.460865
20
45.251404
30
0
11
9.460865
21
45.148147
31
0
39
0
210
0
220
0
230
1
0
LINE
5
12F
100
AcDbEntity
8
1
62
256
6
ByLayer
370
13
48
1
60
0
100
AcDbLine
10
6.539135
20
45.251404
30
0
11
6.539135
21
45.148147
31
0
39
0
210
0
220
0
230
1
0
LINE
5
130
100
AcDbEntity
8
1
62
256
6
ByLayer
370
13
48
1
60
0
100
AcDbLine
10
7.512089
20
46.368312
30
0
11
7.512089
21
46.265192
31
0
39
0
210
0
220
0
230
1
0
LINE
5
131
100
AcDbEntity
8
1
62
256
6
ByLayer
370
13
48
1
60
0
100
AcDbLine
10
8.487911
20
46.368312
30
0
11
8.487911
21
46.265192
31
0
39
0
210
0
220
0
230
1
0
LINE
5
132
100
AcDbEntity
8
1
62
256
6
ByLayer
370
18
48
1
60
0
100
AcDbLine
10
7.916778
20
46.067094
30
0
11
7.916778
21
46.157608
31
0
39
0
210
0
220
0
230
1
0
LINE
5
133
100
AcDbEntity
8
1
62
256
6
ByLayer
370
18
48
1
60
0
100
AcDbLine
10
8.083222
20
46.157608
30
0
11
8.083222
21
46.067094
31
0
39
0
210
0
220
0
230
1
0
LINE
5
134
100
AcDbEntity
8
1
62
256
6
ByLayer
370
18
48
1
60
0
100
AcDbLine
10
13.062527
20
-46.516544
30
0
11
13.062527
21
-46.537695
31
0
39
0
210
0
220
0
230
1
0
LINE
5
135
100
AcDbEntity
8
1
62
256
6
ByLayer
370
18
48
1
60
0
100
AcDbLine
10
12.939702
20
-46.833306
30
0
11
12.874892
21
-46.897916
31
0
39
0
210
0
220
0
230
1
0
LINE
5
136
100
AcDbEntity
8
1
62
256
6
ByLayer
370
18
48
1
60
0
100
AcDbLine
10
10.839294
20
-48.927239
30
0
11
10.219792
21
-49.544831
31
0
39
0
210
0
220
0
230
1
0
LINE
5
137
100
AcDbEntity
8
1
62
256
6
ByLayer
370
18
48
1
60
0
100
AcDbLine
10
9.923267
20
-49.667277
30
0
11
6.076733
21
-49.667277
31
0
39
0
210
0
220
0
230
1
0
LINE
5
138
100
AcDbEntity
8
1
62
256
6
ByLayer
370
18
48
1
60
0
100
AcDbLine
10
13.5
20
10.346961
30
0
11
13.5
21
4.260331
31
0
39
0
210
0
220
0
230
1
0
LINE
5
139
100
AcDbEntity
8
1
62
256
6
ByLayer
370
18
48
1
60
0
100
AcDbLine
10
2.5
20
4.260331
30
0
11
2.5
21
10.346961
31
0
39
0
210
0
220
0
230
1
0
LINE
5
13A
100
AcDbEntity
8
1
62
256
6
ByLayer
370
13
48
1
60
0
100
AcDbLine
10
7.5
20
11.101516
30
0
11
7.5
21
4.671845
31
0
39
0
210
0
220
0
230
1
0
LINE
5
13B
100
AcDbEntity
8
1
62
256
6
ByLayer
370
13
48
1
60
0
100
AcDbLine
10
8.5
20
4.671845
30
0
11
8.5
21
11.101516
31
0
39
0
210
0
220
0
230
1
0
LINE
5
13C
100
AcDbEntity
8
1
62
256
6
ByLayer
370
18
48
1
60
0
100
AcDbLine
10
5.780208
20
-49.544831
30
0
11
5.160706
21
-48.927239
31
0
39
0
210
0
220
0
230
1
0
LINE
5
13D
100
AcDbEntity
8
1
62
256
6
ByLayer
370
18
48
1
60
0
100
AcDbLine
10
3.125108
20
-46.897916
30
0
11
3.060298
21
-46.833306
31
0
39
0
210
0
220
0
230
1
0
LINE
5
13E
100
AcDbEntity
8
1
62
256
6
ByLayer
370
18
48
1
60
0
100
AcDbLine
10
2.937473
20
-46.537695
30
0
11
2.937473
21
-46.516544
31
0
39
0
210
0
220
0
230
1
0
LINE
5
13F
100
AcDbEntity
8
1
62
256
6
ByLayer
370
13
48
1
60
0
100
AcDbLine
10
10.220081
20
11.529325
30
0
11
5.779919
21
11.529325
31
0
39
0
210
0
220
0
230
1
0
LINE
5
140
100
AcDbEntity
8
1
62
256
6
ByLayer
370
18
48
1
60
0
100
AcDbLine
10
2.5
20
4.140116
30
0
11
2.5
21
4.260331
31
0
39
0
210
0
220
0
230
1
0
LINE
5
141
100
AcDbEntity
8
1
62
256
6
ByLayer
370
13
48
1
60
0
100
AcDbLine
10
12.018208
20
10.626676
30
0
11
11.775985
21
10.626676
31
0
39
0
210
0
220
0
230
1
0
LINE
5
142
100
AcDbEntity
8
1
62
256
6
ByLayer
370
13
48
1
60
0
100
AcDbLine
10
4.222006
20
10.626676
30
0
11
3.981792
21
10.626676
31
0
39
0
210
0
220
0
230
1
0
LINE
5
143
100
AcDbEntity
8
1
62
256
6
ByLayer
370
13
48
1
60
0
100
AcDbLine
10
12.346184
20
11.128467
30
0
11
11.798022
21
11.128467
31
0
39
0
210
0
220
0
230
1
0
LINE
5
144
100
AcDbEntity
8
1
62
256
6
ByLayer
370
13
48
1
60
0
100
AcDbLine
10
4.201978
20
11.128467
30
0
11
3.653816
21
11.128467
31
0
39
0
210
0
220
0
230
1
0
LINE
5
145
100
AcDbEntity
8
1
62
256
6
ByLayer
370
18
48
1
60
0
100
AcDbLine
10
13.5
20
4.140116
30
0
11
13.5
21
4.260331
31
0
39
0
210
0
220
0
230
1
0
LINE
5
146
100
AcDbEntity
8
1
62
256
6
ByLayer
370
13
48
1
60
0
100
AcDbLine
10
13.059179
20
10.225819
30
0
11
12.95069
21
10.225819
31
0
39
0
210
0
220
0
230
1
0
LINE
5
147
100
AcDbEntity
8
1
62
256
6
ByLayer
370
13
48
1
60
0
100
AcDbLine
10
3.049923
20
10.225819
30
0
11
2.940821
21
10.225819
31
0
39
0
210
0
220
0
230
1
0
LINE
5
148
100
AcDbEntity
8
1
62
256
6
ByLayer
370
13
48
1
60
0
100
AcDbLine
10
3.038789
20
10.72761
30
0
11
2.796003
21
10.72761
31
0
39
0
210
0
220
0
230
1
0
LINE
5
149
100
AcDbEntity
8
1
62
256
6
ByLayer
370
13
48
1
60
0
100
AcDbLine
10
13.203997
20
10.72761
30
0
11
12.961211
21
10.72761
31
0
39
0
210
0
220
0
230
1
0
LINE
5
14A
100
AcDbEntity
8
1
62
256
6
ByLayer
370
13
48
1
60
0
100
AcDbLine
10
2.561156
20
9.824961
30
0
11
2.53065
21
9.824961
31
0
39
0
210
0
220
0
230
1
0
LINE
5
14B
100
AcDbEntity
8
1
62
256
6
ByLayer
370
13
48
1
60
0
100
AcDbLine
10
13.46935
20
9.824961
30
0
11
13.438791
21
9.824961
31
0
39
0
210
0
220
0
230
1
0
LINE
5
14C
100
AcDbEntity
8
1
62
256
6
ByLayer
370
13
48
1
60
0
100
AcDbLine
10
13.496203
20
10.326752
30
0
11
13.385074
21
10.326752
31
0
39
0
210
0
220
0
230
1
0
LINE
5
14D
100
AcDbEntity
8
1
62
256
6
ByLayer
370
13
48
1
60
0
100
AcDbLine
10
2.614926
20
10.326752
30
0
11
2.503797
21
10.326752
31
0
39
0
210
0
220
0
230
1
0
LINE
5
14E
100
AcDbEntity
8
1
62
256
6
ByLayer
370
18
48
1
60
0
100
AcDbLine
10
7.5
20
11.101516
30
0
11
8.5
21
11.101516
31
0
39
0
210
0
220
0
230
1
0
LINE
5
14F
100
AcDbEntity
8
1
62
256
6
ByLayer
370
18
48
1
60
0
100
AcDbLine
10
2.5
20
2.620117
30
0
11
2.5
21
4.140116
31
0
39
0
210
0
220
0
230
1
0
LINE
5
150
100
AcDbEntity
8
1
62
256
6
ByLayer
370
18
48
1
60
0
100
AcDbLine
10
13.5
20
2.620117
30
0
11
13.5
21
4.140116
31
0
39
0
210
0
220
0
230
1
0
LINE
5
151
100
AcDbEntity
8
1
62
256
6
ByLayer
370
18
48
1
60
0
100
AcDbLine
10
2.5
20
-1.728829
30
0
11
2.5
21
-1.283302
31
0
39
0
210
0
220
0
230
1
0
LINE
5
152
100
AcDbEntity
8
1
62
256
6
ByLayer
370
18
48
1
60
0
100
AcDbLine
10
2.5
20
-1.728829
30
0
11
2.525003
21
-1.728829
31
0
39
0
210
0
220
0
230
1
0
LINE
5
153
100
AcDbEntity
8
1
62
256
6
ByLayer
370
18
48
1
60
0
100
AcDbLine
10
13.5
20
-0.65891
30
0
11
13.5
21
-1.283302
31
0
39
0
210
0
220
0
230
1
0
LINE
5
154
100
AcDbEntity
8
1
62
256
6
ByLayer
370
18
48
1
60
0
100
AcDbLine
10
9.418563
20
23.000876
30
0
11
8.866025
21
23.841925
31
0
39
0
210
0
220
0
230
1
0
LINE
5
155
100
AcDbEntity
8
1
62
256
6
ByLayer
370
18
48
1
60
0
100
AcDbLine
10
13.5
20
-39.276219
30
0
11
13.5
21
-42.147985
31
0
39
0
210
0
220
0
230
1
0
LINE
5
156
100
AcDbEntity
8
1
62
256
6
ByLayer
370
18
48
1
60
0
100
AcDbLine
10
8.5
20
-46.996843
30
0
11
7.5
21
-46.996843
31
0
39
0
210
0
220
0
230
1
0
LINE
5
157
100
AcDbEntity
8
1
62
256
6
ByLayer
370
18
48
1
60
0
100
AcDbLine
10
2.525
20
-2.016004
30
0
11
2.525
21
-1.70588
31
0
39
0
210
0
220
0
230
1
0
LINE
5
158
100
AcDbEntity
8
1
62
256
6
ByLayer
370
18
48
1
60
0
100
AcDbLine
10
2.525
20
-1.70588
30
0
11
13.475
21
-1.70588
31
0
39
0
210
0
220
0
230
1
0
LINE
5
159
100
AcDbEntity
8
1
62
256
6
ByLayer
370
18
48
1
60
0
100
AcDbLine
10
13.475
20
-2.016004
30
0
11
13.475
21
-1.70588
31
0
39
0
210
0
220
0
230
1
0
LINE
5
15A
100
AcDbEntity
8
1
62
256
6
ByLayer
370
18
48
1
60
0
100
AcDbLine
10
2.525
20
-2.016004
30
0
11
13.475
21
-2.016004
31
0
39
0
210
0
220
0
230
1
0
LINE
5
15B
100
AcDbEntity
8
1
62
256
6
ByLayer
370
18
48
1
60
0
100
AcDbLine
10
2.525
20
-2.016004
30
0
11
2.525
21
-11.198657
31
0
39
0
210
0
220
0
230
1
0
LINE
5
15C
100
AcDbEntity
8
1
62
256
6
ByLayer
370
18
48
1
60
0
100
AcDbLine
10
13.475
20
-2.016004
30
0
11
13.475
21
-11.198657
31
0
39
0
210
0
220
0
230
1
0
LINE
5
15D
100
AcDbEntity
8
1
62
256
6
ByLayer
370
18
48
1
60
0
100
AcDbLine
10
2.5
20
-33.705502
30
0
11
2.5
21
-35.200243
31
0
39
0
210
0
220
0
230
1
0
LINE
5
15E
100
AcDbEntity
8
1
62
256
6
ByLayer
370
18
48
1
60
0
100
AcDbLine
10
13.475
20
-11.198657
30
0
11
2.525
21
-11.198657
31
0
39
0
210
0
220
0
230
1
0
LINE
5
15F
100
AcDbEntity
8
1
62
256
6
ByLayer
370
18
48
1
60
0
100
AcDbLine
10
13.5
20
-35.200243
30
0
11
13.5
21
-33.705502
31
0
39
0
210
0
220
0
230
1
0
LINE
5
160
100
AcDbEntity
8
1
62
256
6
ByLayer
370
18
48
1
60
0
100
AcDbLine
10
7.133975
20
-7.415622
30
0
11
7.133975
21
-6.847592
31
0
39
0
210
0
220
0
230
1
0
LINE
5
161
100
AcDbEntity
8
1
62
256
6
ByLayer
370
18
48
1
60
0
100
AcDbLine
10
8.866025
20
-6.847592
30
0
11
7.133975
21
-6.847592
31
0
39
0
210
0
220
0
230
1
0
LINE
5
162
100
AcDbEntity
8
1
62
256
6
ByLayer
370
18
48
1
60
0
100
AcDbLine
10
13.5
20
18.544298
30
0
11
13.5
21
10.490933
31
0
39
0
210
0
220
0
230
1
0
LINE
5
163
100
AcDbEntity
8
1
62
256
6
ByLayer
370
13
48
1
60
0
100
AcDbLine
10
8.5
20
11.711069
30
0
11
8.5
21
18.498689
31
0
39
0
210
0
220
0
230
1
0
LINE
5
164
100
AcDbEntity
8
1
62
256
6
ByLayer
370
13
48
1
60
0
100
AcDbLine
10
9.717301
20
11.588411
30
0
11
6.282699
21
11.588411
31
0
39
0
210
0
220
0
230
1
0
LINE
5
165
100
AcDbEntity
8
1
62
256
6
ByLayer
370
13
48
1
60
0
100
AcDbLine
10
7.5
20
18.498689
30
0
11
7.5
21
11.711069
31
0
39
0
210
0
220
0
230
1
0
LINE
5
166
100
AcDbEntity
8
1
62
256
6
ByLayer
370
18
48
1
60
0
100
AcDbLine
10
8.5
20
11.711069
30
0
11
7.5
21
11.711069
31
0
39
0
210
0
220
0
230
1
0
LINE
5
167
100
AcDbEntity
8
1
62
256
6
ByLayer
370
13
48
1
60
0
100
AcDbLine
10
12.211654
20
11.187554
30
0
11
11.851558
21
11.187554
31
0
39
0
210
0
220
0
230
1
0
LINE
5
168
100
AcDbEntity
8
1
62
256
6
ByLayer
370
13
48
1
60
0
100
AcDbLine
10
4.148442
20
11.187554
30
0
11
3.788346
21
11.187554
31
0
39
0
210
0
220
0
230
1
0
LINE
5
169
100
AcDbEntity
8
1
62
256
6
ByLayer
370
18
48
1
60
0
100
AcDbLine
10
2.5
20
10.490933
30
0
11
2.5
21
18.544298
31
0
39
0
210
0
220
0
230
1
0
LINE
5
16A
100
AcDbEntity
8
1
62
256
6
ByLayer
370
18
48
1
60
0
100
AcDbLine
10
7.5
20
18.498689
30
0
11
8.5
21
18.498689
31
0
39
0
210
0
220
0
230
1
0
LINE
5
16B
100
AcDbEntity
8
1
62
256
6
ByLayer
370
18
48
1
60
0
100
AcDbLine
10
2.5
20
19.502047
30
0
11
2.5
21
18.544298
31
0
39
0
210
0
220
0
230
1
0
LINE
5
16C
100
AcDbEntity
8
1
62
256
6
ByLayer
370
18
48
1
60
0
100
AcDbLine
10
2.5
20
-22.384916
30
0
11
2.5
21
-14.659682
31
0
39
0
210
0
220
0
230
1
0
LINE
5
16D
100
AcDbEntity
8
1
62
256
6
ByLayer
370
13
48
1
60
0
100
AcDbLine
10
7.5
20
-18.571077
30
0
11
7.5
21
-24.95081
31
0
39
0
210
0
220
0
230
1
0
LINE
5
16E
100
AcDbEntity
8
1
62
256
6
ByLayer
370
18
48
1
60
0
100
AcDbLine
10
7.5
20
-18.571077
30
0
11
8.5
21
-18.571077
31
0
39
0
210
0
220
0
230
1
0
LINE
5
16F
100
AcDbEntity
8
1
62
256
6
ByLayer
370
18
48
1
60
0
100
AcDbLine
10
2.5
20
-11.795788
30
0
11
2.5
21
-14.659682
31
0
39
0
210
0
220
0
230
1
0
LINE
5
170
100
AcDbEntity
8
1
62
256
6
ByLayer
370
18
48
1
60
0
100
AcDbLine
10
2.5
20
19.502047
30
0
11
13.5
21
19.502047
31
0
39
0
210
0
220
0
230
1
0
LINE
5
171
100
AcDbEntity
8
1
62
256
6
ByLayer
370
18
48
1
60
0
100
AcDbLine
10
13.5
20
18.544298
30
0
11
13.5
21
19.502047
31
0
39
0
210
0
220
0
230
1
0
LINE
5
172
100
AcDbEntity
8
1
62
256
6
ByLayer
370
18
48
1
60
0
100
AcDbLine
10
2.5
20
-11.795788
30
0
11
13.5
21
-11.795788
31
0
39
0
210
0
220
0
230
1
0
LINE
5
173
100
AcDbEntity
8
1
62
256
6
ByLayer
370
18
48
1
60
0
100
AcDbLine
10
13.5
20
-14.659682
30
0
11
13.5
21
-11.795788
31
0
39
0
210
0
220
0
230
1
0
LINE
5
174
100
AcDbEntity
8
1
62
256
6
ByLayer
370
18
48
1
60
0
100
AcDbLine
10
13.5
20
-14.659682
30
0
11
13.5
21
-22.384916
31
0
39
0
210
0
220
0
230
1
0
LINE
5
175
100
AcDbEntity
8
1
62
256
6
ByLayer
370
13
48
1
60
0
100
AcDbLine
10
8.5
20
-24.95081
30
0
11
8.5
21
-18.571077
31
0
39
0
210
0
220
0
230
1
0
LINE
5
176
100
AcDbEntity
8
1
62
256
6
ByLayer
370
13
48
1
60
0
100
AcDbLine
10
13.144831
20
10.786696
30
0
11
12.984859
21
10.786696
31
0
39
0
210
0
220
0
230
1
0
LINE
5
177
100
AcDbEntity
8
1
62
256
6
ByLayer
370
13
48
1
60
0
100
AcDbLine
10
3.015141
20
10.786696
30
0
11
2.855169
21
10.786696
31
0
39
0
210
0
220
0
230
1
0
LINE
5
178
100
AcDbEntity
8
1
62
256
6
ByLayer
370
18
48
1
60
0
100
AcDbLine
10
8.5
20
-24.95081
30
0
11
7.5
21
-24.95081
31
0
39
0
210
0
220
0
230
1
0
LINE
5
179
100
AcDbEntity
8
1
62
256
6
ByLayer
370
18
48
1
60
0
100
AcDbLine
10
2.5
20
10.490933
30
0
11
2.5
21
10.366388
31
0
39
0
210
0
220
0
230
1
0
LINE
5
17A
100
AcDbEntity
8
1
62
256
6
ByLayer
370
18
48
1
60
0
100
AcDbLine
10
2.57788
20
10.464527
30
0
11
2.620307
21
10.374165
31
0
39
0
210
0
220
0
230
1
0
LINE
5
17B
100
AcDbEntity
8
1
62
256
6
ByLayer
370
13
48
1
60
0
100
AcDbLine
10
13.42212
20
10.385839
30
0
11
13.385012
21
10.385839
31
0
39
0
210
0
220
0
230
1
0
LINE
5
17C
100
AcDbEntity
8
1
62
256
6
ByLayer
370
13
48
1
60
0
100
AcDbLine
10
2.614988
20
10.385839
30
0
11
2.57788
21
10.385839
31
0
39
0
210
0
220
0
230
1
0
LINE
5
17D
100
AcDbEntity
8
1
62
256
6
ByLayer
370
13
48
1
60
0
100
AcDbLine
10
9.717301
20
-24.949461
30
0
11
8.558498
21
-24.949461
31
0
39
0
210
0
220
0
230
1
0
LINE
5
17E
100
AcDbEntity
8
1
62
256
6
ByLayer
370
13
48
1
60
0
100
AcDbLine
10
7.419391
20
-24.949461
30
0
11
6.282699
21
-24.949461
31
0
39
0
210
0
220
0
230
1
0
LINE
5
17F
100
AcDbEntity
8
1
62
256
6
ByLayer
370
13
48
1
60
0
100
AcDbLine
10
12.211654
20
-24.210825
30
0
11
12.078987
21
-24.210825
31
0
39
0
210
0
220
0
230
1
0
LINE
5
180
100
AcDbEntity
8
1
62
256
6
ByLayer
370
13
48
1
60
0
100
AcDbLine
10
3.920618
20
-24.210825
30
0
11
3.788346
21
-24.210825
31
0
39
0
210
0
220
0
230
1
0
LINE
5
181
100
AcDbEntity
8
1
62
256
6
ByLayer
370
18
48
1
60
0
100
AcDbLine
10
2.583347
20
10.369756
30
0
11
2.57788
21
10.385839
31
0
39
0
210
0
220
0
230
1
0
LINE
5
182
100
AcDbEntity
8
1
62
256
6
ByLayer
370
18
48
1
60
0
100
AcDbLine
10
13.42212
20
10.385839
30
0
11
13.416653
21
10.369756
31
0
39
0
210
0
220
0
230
1
0
LINE
5
183
100
AcDbEntity
8
1
62
256
6
ByLayer
370
13
48
1
60
0
100
AcDbLine
10
13.144831
20
-23.47219
30
0
11
13.084058
21
-23.47219
31
0
39
0
210
0
220
0
230
1
0
LINE
5
184
100
AcDbEntity
8
1
62
256
6
ByLayer
370
13
48
1
60
0
100
AcDbLine
10
2.916746
20
-23.47219
30
0
11
2.855169
21
-23.47219
31
0
39
0
210
0
220
0
230
1
0
LINE
5
185
100
AcDbEntity
8
1
62
256
6
ByLayer
370
18
48
1
60
0
100
AcDbLine
10
13.379693
20
10.374165
30
0
11
13.42212
21
10.464527
31
0
39
0
210
0
220
0
230
1
0
LINE
5
186
100
AcDbEntity
8
1
62
256
6
ByLayer
370
18
48
1
60
0
100
AcDbLine
10
2.5
20
-35.200243
30
0
11
2.525094
21
-35.200243
31
0
39
0
210
0
220
0
230
1
0
LINE
5
187
100
AcDbEntity
8
1
62
256
6
ByLayer
370
18
48
1
60
0
100
AcDbLine
10
13.474906
20
-35.200243
30
0
11
13.5
21
-35.200243
31
0
39
0
210
0
220
0
230
1
0
LINE
5
188
100
AcDbEntity
8
1
62
256
6
ByLayer
370
18
48
1
60
0
100
AcDbLine
10
2.5
20
-11.100301
30
0
11
2.525094
21
-11.100301
31
0
39
0
210
0
220
0
230
1
0
LINE
5
189
100
AcDbEntity
8
1
62
256
6
ByLayer
370
18
48
1
60
0
100
AcDbLine
10
13.474906
20
-11.100301
30
0
11
13.5
21
-11.100301
31
0
39
0
210
0
220
0
230
1
0
LINE
5
18A
100
AcDbEntity
8
1
62
256
6
ByLayer
370
18
48
1
60
0
100
AcDbLine
10
13.5
20
10.490933
30
0
11
13.5
21
10.34693
31
0
39
0
210
0
220
0
230
1
0
LINE
5
18B
100
AcDbEntity
8
1
62
256
6
ByLayer
370
18
48
1
60
0
100
AcDbLine
10
2.5
20
-11.100301
30
0
11
2.5
21
-11.795788
31
0
39
0
210
0
220
0
230
1
0
LINE
5
18C
100
AcDbEntity
8
1
62
256
6
ByLayer
370
18
48
1
60
0
100
AcDbLine
10
2.5
20
-7.251401
30
0
11
2.525094
21
-7.251401
31
0
39
0
210
0
220
0
230
1
0
LINE
5
18D
100
AcDbEntity
8
1
62
256
6
ByLayer
370
18
48
1
60
0
100
AcDbLine
10
13.474906
20
-7.251401
30
0
11
13.5
21
-7.251401
31
0
39
0
210
0
220
0
230
1
0
LINE
5
18E
100
AcDbEntity
8
1
62
256
6
ByLayer
370
18
48
1
60
0
100
AcDbLine
10
13.5
20
-11.795788
30
0
11
13.5
21
-11.100301
31
0
39
0
210
0
220
0
230
1
0
LINE
5
18F
100
AcDbEntity
8
1
62
256
6
ByLayer
370
18
48
1
60
0
100
AcDbLine
10
2.5
20
-7.251401
30
0
11
2.5
21
-11.100301
31
0
39
0
210
0
220
0
230
1
0
LINE
5
190
100
AcDbEntity
8
1
62
256
6
ByLayer
370
18
48
1
60
0
100
AcDbLine
10
2.5
20
-6.754044
30
0
11
2.525094
21
-6.754044
31
0
39
0
210
0
220
0
230
1
0
LINE
5
191
100
AcDbEntity
8
1
62
256
6
ByLayer
370
18
48
1
60
0
100
AcDbLine
10
13.474906
20
-6.754044
30
0
11
13.5
21
-6.754044
31
0
39
0
210
0
220
0
230
1
0
LINE
5
192
100
AcDbEntity
8
1
62
256
6
ByLayer
370
18
48
1
60
0
100
AcDbLine
10
13.5
20
-11.100301
30
0
11
13.5
21
-7.251401
31
0
39
0
210
0
220
0
230
1
0
LINE
5
193
100
AcDbEntity
8
1
62
256
6
ByLayer
370
18
48
1
60
0
100
AcDbLine
10
2.5
20
-1.728861
30
0
11
2.5
21
-6.754044
31
0
39
0
210
0
220
0
230
1
0
LINE
5
194
100
AcDbEntity
8
1
62
256
6
ByLayer
370
18
48
1
60
0
100
AcDbLine
10
13.5
20
-6.936823
30
0
11
13.474906
21
-6.936823
31
0
39
0
210
0
220
0
230
1
0
LINE
5
195
100
AcDbEntity
8
1
62
256
6
ByLayer
370
18
48
1
60
0
100
AcDbLine
10
2.525094
20
-6.936823
30
0
11
2.5
21
-6.936823
31
0
39
0
210
0
220
0
230
1
0
LINE
5
196
100
AcDbEntity
8
1
62
256
6
ByLayer
370
13
48
1
60
0
100
AcDbLine
10
7.5
20
44.732175
30
0
11
7.5
21
41.600818
31
0
39
0
210
0
220
0
230
1
0
LINE
5
197
100
AcDbEntity
8
1
62
256
6
ByLayer
370
18
48
1
60
0
100
AcDbLine
10
13.5
20
-6.754044
30
0
11
13.5
21
-1.728861
31
0
39
0
210
0
220
0
230
1
0
LINE
5
198
100
AcDbEntity
8
1
62
256
6
ByLayer
370
18
48
1
60
0
100
AcDbLine
10
13.5
20
-7.251401
30
0
11
13.5
21
-6.936823
31
0
39
0
210
0
220
0
230
1
0
LINE
5
199
100
AcDbEntity
8
1
62
256
6
ByLayer
370
13
48
1
60
0
100
AcDbLine
10
8.5
20
41.600818
30
0
11
8.5
21
44.732175
31
0
39
0
210
0
220
0
230
1
0
LINE
5
19A
100
AcDbEntity
8
1
62
256
6
ByLayer
370
18
48
1
60
0
100
AcDbLine
10
2.5
20
-6.936823
30
0
11
2.5
21
-7.251401
31
0
39
0
210
0
220
0
230
1
0
LINE
5
19B
100
AcDbEntity
8
1
62
256
6
ByLayer
370
18
48
1
60
0
100
AcDbLine
10
2.5
20
-6.754044
30
0
11
2.5
21
-6.936823
31
0
39
0
210
0
220
0
230
1
0
LINE
5
19C
100
AcDbEntity
8
1
62
256
6
ByLayer
370
18
48
1
60
0
100
AcDbLine
10
13.5
20
-6.936823
30
0
11
13.5
21
-6.754044
31
0
39
0
210
0
220
0
230
1
0
LINE
5
19D
100
AcDbEntity
8
1
62
256
6
ByLayer
370
18
48
1
60
0
100
AcDbLine
10
2.5
20
37.546261
30
0
11
2.5
21
40.88528
31
0
39
0
210
0
220
0
230
1
0
LINE
5
19E
100
AcDbEntity
8
1
62
256
6
ByLayer
370
18
48
1
60
0
100
AcDbLine
10
7.5
20
44.732175
30
0
11
8.5
21
44.732175
31
0
39
0
210
0
220
0
230
1
0
LINE
5
19F
100
AcDbEntity
8
1
62
256
6
ByLayer
370
13
48
1
60
0
100
AcDbLine
10
14.3
20
23.5
30
0
11
14.3
21
-23.5
31
0
39
0
210
0
220
0
230
1
0
LINE
5
1A0
100
AcDbEntity
8
1
62
256
6
ByLayer
370
18
48
1
60
0
100
AcDbLine
10
13.5
20
40.88528
30
0
11
13.5
21
37.546261
31
0
39
0
210
0
220
0
230
1
0
LINE
5
1A1
100
AcDbEntity
8
1
62
256
6
ByLayer
370
13
48
1
60
0
100
AcDbLine
10
1.7
20
-23.5
30
0
11
1.7
21
23.5
31
0
39
0
210
0
220
0
230
1
0
LINE
5
1A2
100
AcDbEntity
8
1
62
256
6
ByLayer
370
18
48
1
60
0
100
AcDbLine
10
2.5
20
22.120247
30
0
11
2.5
21
19.502071
31
0
39
0
210
0
220
0
230
1
0
LINE
5
1A3
100
AcDbEntity
8
1
62
256
6
ByLayer
370
18
48
1
60
0
100
AcDbLine
10
13.5
20
19.502071
30
0
11
13.5
21
22.120247
31
0
39
0
210
0
220
0
230
1
0
LINE
5
1A4
100
AcDbEntity
8
1
62
256
6
ByLayer
370
18
48
1
60
0
100
AcDbLine
10
15.6
20
23.5
30
0
11
15.6
21
-23.5
31
0
39
0
210
0
220
0
230
1
0
LINE
5
1A5
100
AcDbEntity
8
1
62
256
6
ByLayer
370
18
48
1
60
0
100
AcDbLine
10
0.4
20
23.5
30
0
11
0.4
21
-23.5
31
0
39
0
210
0
220
0
230
1
0
LINE
5
1A6
100
AcDbEntity
8
1
62
256
6
ByLayer
370
18
48
1
60
0
100
AcDbLine
10
0
20
23.1
30
0
11
0
21
-23.1
31
0
39
0
210
0
220
0
230
1
0
LINE
5
1A7
100
AcDbEntity
8
1
62
256
6
ByLayer
370
18
48
1
60
0
100
AcDbLine
10
16
20
23.1
30
0
11
16
21
-23.1
31
0
39
0
210
0
220
0
230
1
0
LINE
5
1A8
100
AcDbEntity
8
1
62
256
6
ByLayer
370
18
48
1
60
0
100
AcDbLine
10
2.5
20
-36.18381
30
0
11
13.5
21
-36.18381
31
0
39
0
210
0
220
0
230
1
0
LINE
5
1A9
100
AcDbEntity
8
1
62
256
6
ByLayer
370
18
48
1
60
0
100
AcDbLine
10
2.5
20
-35.200243
30
0
11
2.5
21
-36.18381
31
0
39
0
210
0
220
0
230
1
0
LINE
5
1AA
100
AcDbEntity
8
1
62
256
6
ByLayer
370
18
48
1
60
0
100
AcDbLine
10
13.5
20
-36.18381
30
0
11
13.5
21
-35.200243
31
0
39
0
210
0
220
0
230
1
0
LINE
5
1AB
100
AcDbEntity
8
1
62
256
6
ByLayer
370
13
48
1
60
0
100
AcDbLine
10
7.5
20
-44.762159
30
0
11
7.5
21
-46.996843
31
0
39
0
210
0
220
0
230
1
0
LINE
5
1AC
100
AcDbEntity
8
1
62
256
6
ByLayer
370
18
48
1
60
0
100
AcDbLine
10
7.5
20
-44.762159
30
0
11
8.5
21
-44.762159
31
0
39
0
210
0
220
0
230
1
0
LINE
5
1AD
100
AcDbEntity
8
1
62
256
6
ByLayer
370
18
48
1
60
0
100
AcDbLine
10
2.5
20
-36.18381
30
0
11
2.5
21
-39.276219
31
0
39
0
210
0
220
0
230
1
0
LINE
5
1AE
100
AcDbEntity
8
1
62
256
6
ByLayer
370
18
48
1
60
0
100
AcDbLine
10
13.5
20
-39.276219
30
0
11
13.5
21
-36.18381
31
0
39
0
210
0
220
0
230
1
0
LINE
5
1AF
100
AcDbEntity
8
1
62
256
6
ByLayer
370
18
48
1
60
0
100
AcDbLine
10
2.5
20
-42.147985
30
0
11
2.5
21
-39.276219
31
0
39
0
210
0
220
0
230
1
0
LINE
5
1B0
100
AcDbEntity
8
1
62
256
6
ByLayer
370
13
48
1
60
0
100
AcDbLine
10
8.5
20
-46.996843
30
0
11
8.5
21
-44.762159
31
0
39
0
210
0
220
0
230
1
0
LINE
5
1B1
100
AcDbEntity
8
1
62
256
6
ByLayer
370
18
48
1
60
0
100
AcDbLine
10
2.5
20
-29.078786
30
0
11
2.5
21
-28.41092
31
0
39
0
210
0
220
0
230
1
0
LINE
5
1B2
100
AcDbEntity
8
1
62
256
6
ByLayer
370
18
48
1
60
0
100
AcDbLine
10
13.5
20
-29.078786
30
0
11
13.5
21
-28.41092
31
0
39
0
210
0
220
0
230
1
0
LINE
5
1B3
100
AcDbEntity
8
1
62
256
6
ByLayer
370
18
48
1
60
0
100
AcDbLine
10
13.475
20
-35.546926
30
0
11
10.934942
21
-35.546926
31
0
39
0
210
0
220
0
230
1
0
LINE
5
1B4
100
AcDbEntity
8
1
62
256
6
ByLayer
370
18
48
1
60
0
100
AcDbLine
10
5.065058
20
-35.546926
30
0
11
2.525
21
-35.546926
31
0
39
0
210
0
220
0
230
1
0
LINE
5
1B5
100
AcDbEntity
8
1
62
256
6
ByLayer
370
18
48
1
60
0
100
AcDbLine
10
13.062527
20
-29.764061
30
0
11
13.062527
21
-29.77784
31
0
39
0
210
0
220
0
230
1
0
LINE
5
1B6
100
AcDbEntity
8
1
62
256
6
ByLayer
370
18
48
1
60
0
100
AcDbLine
10
12.939702
20
-29.970417
30
0
11
12.874892
21
-30.012508
31
0
39
0
210
0
220
0
230
1
0
LINE
5
1B7
100
AcDbEntity
8
1
62
256
6
ByLayer
370
18
48
1
60
0
100
AcDbLine
10
10.839294
20
-31.334524
30
0
11
10.219792
21
-31.736858
31
0
39
0
210
0
220
0
230
1
0
LINE
5
1B8
100
AcDbEntity
8
1
62
256
6
ByLayer
370
18
48
1
60
0
100
AcDbLine
10
2.525
20
27.271596
30
0
11
2.525
21
27.351048
31
0
39
0
210
0
220
0
230
1
0
LINE
5
1B9
100
AcDbEntity
8
1
62
256
6
ByLayer
370
18
48
1
60
0
100
AcDbLine
10
13.5
20
27.322935
30
0
11
13.5
21
22.12028
31
0
39
0
210
0
220
0
230
1
0
LINE
5
1BA
100
AcDbEntity
8
1
62
256
6
ByLayer
370
18
48
1
60
0
100
AcDbLine
10
2.5
20
29.477466
30
0
11
2.5
21
29.659179
31
0
39
0
210
0
220
0
230
1
0
LINE
5
1BB
100
AcDbEntity
8
1
62
256
6
ByLayer
370
18
48
1
60
0
100
AcDbLine
10
2.5
20
27.322935
30
0
11
2.5
21
22.12028
31
0
39
0
210
0
220
0
230
1
0
LINE
5
1BC
100
AcDbEntity
8
1
62
256
6
ByLayer
370
18
48
1
60
0
100
AcDbLine
10
2.5
20
22.12028
30
0
11
2.525094
21
22.12028
31
0
39
0
210
0
220
0
230
1
0
LINE
5
1BD
100
AcDbEntity
8
1
62
256
6
ByLayer
370
18
48
1
60
0
100
AcDbLine
10
13.474906
20
22.12028
30
0
11
13.5
21
22.12028
31
0
39
0
210
0
220
0
230
1
0
LINE
5
1BE
100
AcDbEntity
8
1
62
256
6
ByLayer
370
13
48
1
60
0
100
AcDbLine
10
8.5
20
38.423542
30
0
11
8.5
21
41.600791
31
0
39
0
210
0
220
0
230
1
0
LINE
5
1BF
100
AcDbEntity
8
1
62
256
6
ByLayer
370
18
48
1
60
0
100
AcDbLine
10
2.525
20
-33.742331
30
0
11
2.525
21
-35.546926
31
0
39
0
210
0
220
0
230
1
0
LINE
5
1C0
100
AcDbEntity
8
1
62
256
6
ByLayer
370
18
48
1
60
0
100
AcDbLine
10
13.475
20
-33.742331
30
0
11
13.475
21
-35.546926
31
0
39
0
210
0
220
0
230
1
0
LINE
5
1C1
100
AcDbEntity
8
1
62
256
6
ByLayer
370
18
48
1
60
0
100
AcDbLine
10
7.133975
20
23.841925
30
0
11
6.581437
21
23.000876
31
0
39
0
210
0
220
0
230
1
0
LINE
5
1C2
100
AcDbEntity
8
1
62
256
6
ByLayer
370
18
48
1
60
0
100
AcDbLine
10
13.5
20
34.352572
30
0
11
13.5
21
34.435913
31
0
39
0
210
0
220
0
230
1
0
LINE
5
1C3
100
AcDbEntity
8
1
62
256
6
ByLayer
370
18
48
1
60
0
100
AcDbLine
10
2.5
20
34.435913
30
0
11
2.5
21
37.546234
31
0
39
0
210
0
220
0
230
1
0
LINE
5
1C4
100
AcDbEntity
8
1
62
256
6
ByLayer
370
13
48
1
60
0
100
AcDbLine
10
7.5
20
41.600791
30
0
11
7.5
21
38.423542
31
0
39
0
210
0
220
0
230
1
0
LINE
5
1C5
100
AcDbEntity
8
1
62
256
6
ByLayer
370
18
48
1
60
0
100
AcDbLine
10
13.475
20
27.271596
30
0
11
13.475
21
27.351048
31
0
39
0
210
0
220
0
230
1
0
LINE
5
1C6
100
AcDbEntity
8
1
62
256
6
ByLayer
370
18
48
1
60
0
100
AcDbLine
10
13.5
20
37.546234
30
0
11
13.5
21
34.435913
31
0
39
0
210
0
220
0
230
1
0
LINE
5
1C7
100
AcDbEntity
8
1
62
256
6
ByLayer
370
18
48
1
60
0
100
AcDbLine
10
2.5
20
34.352572
30
0
11
2.5
21
34.435913
31
0
39
0
210
0
220
0
230
1
0
LINE
5
1C8
100
AcDbEntity
8
1
62
256
6
ByLayer
370
18
48
1
60
0
100
AcDbLine
10
2.5
20
27.322935
30
0
11
2.525003
21
27.322935
31
0
39
0
210
0
220
0
230
1
0
LINE
5
1C9
100
AcDbEntity
8
1
62
256
6
ByLayer
370
18
48
1
60
0
100
AcDbLine
10
2.5
20
27.322935
30
0
11
2.5
21
28.77395
31
0
39
0
210
0
220
0
230
1
0
LINE
5
1CA
100
AcDbEntity
8
1
62
256
6
ByLayer
370
18
48
1
60
0
100
AcDbLine
10
7.5
20
41.600791
30
0
11
8.5
21
41.600791
31
0
39
0
210
0
220
0
230
1
0
LINE
5
1CB
100
AcDbEntity
8
1
62
256
6
ByLayer
370
18
48
1
60
0
100
AcDbLine
10
2.5
20
29.477466
30
0
11
2.5
21
28.77395
31
0
39
0
210
0
220
0
230
1
0
LINE
5
1CC
100
AcDbEntity
8
1
62
256
6
ByLayer
370
18
48
1
60
0
100
AcDbLine
10
13.5
20
29.477466
30
0
11
13.5
21
28.77395
31
0
39
0
210
0
220
0
230
1
0
LINE
5
1CD
100
AcDbEntity
8
1
62
256
6
ByLayer
370
18
48
1
60
0
100
AcDbLine
10
13.5
20
27.322935
30
0
11
13.5
21
28.77395
31
0
39
0
210
0
220
0
230
1
0
LINE
5
1CE
100
AcDbEntity
8
1
62
256
6
ByLayer
370
13
48
1
60
0
100
AcDbLine
10
7.022356
20
32.528949
30
0
11
7.022356
21
32.593065
31
0
39
0
210
0
220
0
230
1
0
LINE
5
1CF
100
AcDbEntity
8
1
62
256
6
ByLayer
370
13
48
1
60
0
100
AcDbLine
10
8.977644
20
32.528949
30
0
11
8.977644
21
32.591369
31
0
39
0
210
0
220
0
230
1
0
LINE
5
1D0
100
AcDbEntity
8
1
62
256
6
ByLayer
370
13
48
1
60
0
100
AcDbLine
10
6.539135
20
31.461839
30
0
11
6.539135
21
31.89045
31
0
39
0
210
0
220
0
230
1
0
LINE
5
1D1
100
AcDbEntity
8
1
62
256
6
ByLayer
370
13
48
1
60
0
100
AcDbLine
10
9.460865
20
31.461839
30
0
11
9.460865
21
31.89045
31
0
39
0
210
0
220
0
230
1
0
LINE
5
1D2
100
AcDbEntity
8
1
62
256
6
ByLayer
370
13
48
1
60
0
100
AcDbLine
10
7.512089
20
30.610934
30
0
11
7.512089
21
31.464515
31
0
39
0
210
0
220
0
230
1
0
LINE
5
1D3
100
AcDbEntity
8
1
62
256
6
ByLayer
370
13
48
1
60
0
100
AcDbLine
10
8.487911
20
30.610934
30
0
11
8.487911
21
31.464515
31
0
39
0
210
0
220
0
230
1
0
LINE
5
1D4
100
AcDbEntity
8
1
62
256
6
ByLayer
370
18
48
1
60
0
100
AcDbLine
10
8.083222
20
31.615616
30
0
11
8.083222
21
30.866383
31
0
39
0
210
0
220
0
230
1
0
MTEXT
5
392
100
AcDbEntity
8
SK6
62
256
6
ByLayer
370
13
48
1
60
0
100
AcDbMText
10
-13.488816
20
-87.612663
30
0
210
0
220
0
230
1
1
\W0.7559;N331.32-102S32FMQ
40
3.5
41
0
44
1.084337
50
0
71
7
72
5
7
iso_b_vert
0
DIMENSION
5
3A1
100
AcDbEntity
8
2
62
256
6
ByLayer
370
13
48
1
60
0
100
AcDbDimension
2
DimnDraft3D1
10
49.35
20
-51
30
0
11
44.35
21
1.615789
31
0
70
33
71
5
72
1
41
1
210
0
220
0
230
1
3
Standard
100
AcDbAlignedDimension
13
15.5875
23
51
33
0
14
15.5875
24
-51
34
0
1001
ACAD
1000
DSTYLE
1002
{
1070
   279
1070
     0
1070
    74
1070
     0
1070
   173
1070
     1
1070
   340
1005
393
1070
   271
1070
     2
1070
   272
1070
     2
1070
    77
1070
     1
1070
    73
1070
     0
1070
   171
1070
     3
1070
   274
1070
     4
1070
   177
1070
     2
1070
   176
1070
     2
1070
   178
1070
     2
1070
    78
1070
     8
1070
    48
1040
-0.005
1070
    41
1041
3.5
1070
   147
1041
2.0
1070
    42
1041
1.5875
1070
    44
1041
2.0
1070
   140
1041
4.0
1070
   343
1005
0
1070
   344
1005
0
1002
}
0
DIMENSION
5
3AD
100
AcDbEntity
8
SK2
62
256
6
ByLayer
370
13
48
1
60
0
100
AcDbDimension
2
DimnDraft3D2
10
-16.35
20
-16
30
0
11
-17.35
21
0.305263
31
0
70
33
71
5
72
1
41
1
210
0
220
0
230
1
3
Standard
100
AcDbAlignedDimension
13
-1.5875
23
16
33
0
14
-1.5875
24
-16
34
0
1001
ACAD
1000
DSTYLE
1002
{
1070
   279
1070
     0
1070
    74
1070
     0
1070
   173
1070
     1
1070
   340
1005
393
1070
   271
1070
     2
1070
   272
1070
     2
1070
    77
1070
     1
1070
    73
1070
     0
1070
   171
1070
     3
1070
   274
1070
     4
1070
   177
1070
     2
1070
   176
1070
     2
1070
   178
1070
     2
1070
    78
1070
     8
1070
    48
1040
-0.005
1070
    41
1041
3.5
1070
   147
1041
2.0
1070
    42
1041
1.5875
1070
    44
1041
2.0
1070
   140
1041
4.0
1070
   343
1005
0
1070
   344
1005
0
1002
}
0
DIMENSION
5
3B8
100
AcDbEntity
8
SK2
62
256
6
ByLayer
370
13
48
1
60
0
100
AcDbDimension
2
DimnDraft3D3
10
-31.35
20
-23.5
30
0
11
-32.35
21
2.4
31
0
70
33
71
5
72
1
41
1
210
0
220
0
230
1
3
Standard
100
AcDbAlignedDimension
13
-1.5875
23
23.5
33
0
14
-1.5875
24
-23.5
34
0
1001
ACAD
1000
DSTYLE
1002
{
1070
   279
1070
     0
1070
    74
1070
     0
1070
   173
1070
     1
1070
   340
1005
393
1070
   271
1070
     2
1070
   272
1070
     2
1070
    77
1070
     1
1070
    73
1070
     0
1070
   171
1070
     3
1070
   274
1070
     4
1070
   177
1070
     2
1070
   176
1070
     2
1070
   178
1070
     2
1070
    78
1070
     8
1070
    48
1040
-0.005
1070
    41
1041
3.5
1070
   147
1041
2.0
1070
    42
1041
1.5875
1070
    44
1041
2.0
1070
   140
1041
4.0
1070
   343
1005
0
1070
   344
1005
0
1002
}
0
DIMENSION
5
3C2
100
AcDbEntity
8
SK2
62
256
6
ByLayer
370
13
48
1
60
0
100
AcDbDimension
2
DimnDraft3D4
10
2
20
54
30
0
11
-3
21
54
31
0
70
32
71
5
72
1
41
1
210
0
220
0
230
1
3
Standard
100
AcDbAlignedDimension
13
14
23
52.5875
33
0
14
2
24
52.5875
34
0
50
0
100
AcDbRotatedDimension
1001
ACAD
1000
DSTYLE
1002
{
1070
   279
1070
     0
1070
   172
1070
     1
1070
   173
1070
     1
1070
   340
1005
393
1070
   271
1070
     2
1070
   272
1070
     2
1070
    77
1070
     1
1070
    73
1070
     0
1070
   171
1070
     3
1070
   274
1070
     4
1070
   177
1070
     2
1070
   176
1070
     2
1070
   178
1070
     2
1070
    78
1070
     8
1070
    48
1040
-0.005
1070
    41
1041
3.5
1070
   147
1041
2.0
1070
    42
1041
1.5875
1070
    44
1041
2.0
1070
   140
1041
4.0
1070
   343
1005
0
1070
   344
1005
0
1002
}
0
DIMENSION
5
3CD
100
AcDbEntity
8
SK2
62
256
6
ByLayer
370
13
48
1
60
0
100
AcDbDimension
2
DimnDraft3D5
10
16
20
-65
30
0
11
-22
21
-65
31
0
70
32
71
5
72
1
41
1
210
0
220
0
230
1
3
Standard
100
AcDbAlignedDimension
13
0
23
-25.0875
33
0
14
16
24
-25.0875
34
0
50
0
100
AcDbRotatedDimension
1001
ACAD
1000
DSTYLE
1002
{
1070
   279
1070
     0
1070
   172
1070
     1
1070
   173
1070
     1
1070
   340
1005
393
1070
   271
1070
     2
1070
   272
1070
     2
1070
    77
1070
     1
1070
    73
1070
     0
1070
   171
1070
     3
1070
   274
1070
     4
1070
   177
1070
     2
1070
   176
1070
     2
1070
   178
1070
     2
1070
    78
1070
     8
1070
    48
1040
-0.005
1070
    41
1041
3.5
1070
   147
1041
2.0
1070
    42
1041
1.5875
1070
    44
1041
2.0
1070
   140
1041
4.0
1070
   343
1005
0
1070
   344
1005
0
1002
}
0
ENDSEC
0
SECTION
2
OBJECTS
0
DICTIONARY
5
437
330
0
100
AcDbDictionary
280
0
281
1
3
ACAD_GROUP
350
438
3
ACAD_MLINESTYLE
350
439
0
DICTIONARY
5
438
330
0
100
AcDbDictionary
280
0
281
1
0
DICTIONARY
5
439
330
0
100
AcDbDictionary
280
0
281
1
3
Standard
350
18
0
MLINESTYLE
5
18
330
439
100
AcDbMlineStyle
2
Standard
70
0
3

62
256
51
90
52
90
71
2
49
-0.5
62
256
6
ByLayer
49
0.5
62
256
6
ByLayer
0
RASTERVARIABLES
5
426
330

100
AcDbRasterVariables
90
0
70
1
71
1
72
1
0
ENDSEC
0
EOF
