0
SECTION
2
HEADER
9
$ACADVER
1
AC1015
9
$DWGCODEPAGE
3
ANSI_1252
9
$HANDSEED
5
3e6
9
$ANGBASE
50
0
9
$ANGDIR
70
0
9
$ATTMODE
70
1
9
$AUNITS
70
0
9
$AUPREC
70
0
9
$CECOLOR
62
256
9
$CELTSCALE
40
1
9
$CELTYPE
6
ByLayer
9
$CELWEIGHT
370
18
9
$CLAYER
8
0
9
$CMLJUST
70
0
9
$CMLSCALE
40
1
9
$CMLSTYLE
2
Standard
9
$DIMSTYLE
2
Standard
9
$TEXTSIZE
40
0.2
9
$TEXTSTYLE
7
Standard
9
$LUNITS
70
2
9
$LUPREC
70
4
9
$EXTNAMES
290
1
9
$INSUNITS
70
4
9
$LTSCALE
40
1
9
$LWDISPLAY
290
1
9
$PDMODE
70
0
9
$PDSIZE
40
0
9
$PLINEGEN
70
0
0
ENDSEC
0
SECTION
2
CLASSES
0
CLASS
1
RASTERVARIABLES
2
AcDbRasterVariables
3
ISM
90
0
280
0
281
0
0
ENDSEC
0
SECTION
2
TABLES
0
TABLE
2
VPORT
5
3dc
100
AcDbSymbolTable
0
VPORT
5
1
100
AcDbSymbolTableRecord
100
AcDbViewportTableRecord
2
*Active
70
0
10
0
20
0
11
1
21
1
12
-1
22
1
13
0
23
0
14
0.5
24
0.5
15
10
25
10
16
0
26
0
36
1
17
0
27
0
37
0
0
ENDTAB
0
TABLE
2
LTYPE
5
3dd
100
AcDbSymbolTable
0
LTYPE
5
14
100
AcDbSymbolTableRecord
100
AcDbLinetypeTableRecord
70
0
2
ByBlock
3

72
65
73
0
40
0
0
LTYPE
5
15
100
AcDbSymbolTableRecord
100
AcDbLinetypeTableRecord
70
0
2
ByLayer
3

72
65
73
0
40
0
0
LTYPE
5
16
100
AcDbSymbolTableRecord
100
AcDbLinetypeTableRecord
70
0
2
CONTINUOUS
3
Solid line
72
65
73
0
40
0
0
LTYPE
5
6A
100
AcDbSymbolTableRecord
100
AcDbLinetypeTableRecord
70
0
2
CENTER
3
____ _ ____ _ ____ _ ____
72
65
73
4
40
47.5
49
22
74
0
49
-8.5
74
0
49
8.5
74
0
49
-8.5
74
0
0
LTYPE
5
6B
100
AcDbSymbolTableRecord
100
AcDbLinetypeTableRecord
70
0
2
DASHED
3
__ __ __ __ __ __ __ __ __
72
65
73
2
40
25.72
49
12.86
74
0
49
-12.86
74
0
0
ENDTAB
0
TABLE
2
LAYER
5
3de
100
AcDbSymbolTable
0
LAYER
5
10
100
AcDbSymbolTableRecord
100
AcDbLayerTableRecord
2
0
70
0
62
7
6
CONTINUOUS
290
1
370
-3
390
0
0
LAYER
5
6D
100
AcDbSymbolTableRecord
100
AcDbLayerTableRecord
2
81
70
0
62
-3
6
CONTINUOUS
290
1
370
-3
390
0
0
LAYER
5
6F
100
AcDbSymbolTableRecord
100
AcDbLayerTableRecord
2
80
70
0
62
-6
6
CONTINUOUS
290
1
370
-3
390
0
0
LAYER
5
72
100
AcDbSymbolTableRecord
100
AcDbLayerTableRecord
2
1
70
0
62
4
6
CONTINUOUS
290
1
370
-3
390
0
0
LAYER
5
8C
100
AcDbSymbolTableRecord
100
AcDbLayerTableRecord
2
4
70
0
62
-2
6
CENTER
290
1
370
-3
390
0
0
LAYER
5
33A
100
AcDbSymbolTableRecord
100
AcDbLayerTableRecord
2
2
70
0
62
7
6
CONTINUOUS
290
1
370
-3
390
0
0
LAYER
5
3c9
100
AcDbSymbolTableRecord
100
AcDbLayerTableRecord
2
SK4
70
0
62
2
6
CENTER
290
1
370
-3
390
0
0
LAYER
5
3ca
100
AcDbSymbolTableRecord
100
AcDbLayerTableRecord
2
SK6
70
0
62
5
6
CONTINUOUS
290
1
370
-3
390
0
0
LAYER
5
3cb
100
AcDbSymbolTableRecord
100
AcDbLayerTableRecord
2
SK2
70
0
62
7
6
CONTINUOUS
290
1
370
-3
390
0
0
ENDTAB
0
TABLE
2
STYLE
5
3df
100
AcDbSymbolTable
0
STYLE
5
11
100
AcDbSymbolTableRecord
100
AcDbTextStyleTableRecord
2
Standard
3
txt
70
0
71
0
40
0
41
1
42
0
50
0
0
STYLE
5
335
100
AcDbSymbolTableRecord
100
AcDbTextStyleTableRecord
2
iso_b_vert
3
simplex.shx
70
0
71
0
40
0
41
1
42
0
50
0
0
STYLE
5
336
100
AcDbSymbolTableRecord
100
AcDbTextStyleTableRecord
2
DWGDirectTextStyle
3
simplex
70
0
71
0
40
0
41
1
42
0
50
0
0
ENDTAB
0
TABLE
2
DIMSTYLE
5
3e0
100
AcDbSymbolTable
100
AcDbDimStyleTable
0
DIMSTYLE
105
27
100
AcDbSymbolTableRecord
100
AcDbDimStyleTableRecord
2
Standard
70
0
3
<>
41
0.18
42
0.0625
44
0.18
140
0.18
147
0.09
73
0
74
0
77
1
271
2
275
0
278
52
280
0
340
11
0
ENDTAB
0
TABLE
2
VIEW
5
3e1
100
AcDbSymbolTable
0
ENDTAB
0
TABLE
2
UCS
5
3e2
100
AcDbSymbolTable
0
ENDTAB
0
TABLE
2
APPID
5
3e3
100
AcDbSymbolTable
0
APPID
5
12
100
AcDbSymbolTableRecord
100
AcDbRegAppTableRecord
2
ACAD
70
0
0
ENDTAB
0
TABLE
2
BLOCK_RECORD
5
3e4
100
AcDbSymbolTable
0
BLOCK_RECORD
5
1F
100
AcDbSymbolTableRecord
100
AcDbBlockTableRecord
2
*Model_Space
340
0
70
0
0
BLOCK_RECORD
5
1B
100
AcDbSymbolTableRecord
100
AcDbBlockTableRecord
2
*Paper_Space
340
0
70
0
0
BLOCK_RECORD
5
23
100
AcDbSymbolTableRecord
100
AcDbBlockTableRecord
2
*Paper_Space0
340
0
70
0
0
BLOCK_RECORD
5
338
100
AcDbSymbolTableRecord
100
AcDbBlockTableRecord
2
DimnDraft3D1
340
0
70
0
0
BLOCK_RECORD
5
344
100
AcDbSymbolTableRecord
100
AcDbBlockTableRecord
2
DimnDraft3D2
340
0
70
0
0
BLOCK_RECORD
5
350
100
AcDbSymbolTableRecord
100
AcDbBlockTableRecord
2
DimnDraft3D3
340
0
70
0
0
BLOCK_RECORD
5
35B
100
AcDbSymbolTableRecord
100
AcDbBlockTableRecord
2
DimnDraft3D4
340
0
70
0
0
BLOCK_RECORD
5
365
100
AcDbSymbolTableRecord
100
AcDbBlockTableRecord
2
DimnDraft3D5
340
0
70
0
0
ENDTAB
0
ENDSEC
0
SECTION
2
BLOCKS
0
BLOCK
5
20
100
AcDbEntity
8
0
100
AcDbBlockBegin
2
*Model_Space
70
0
10
0
20
0
30
0
3
*Model_Space
0
ENDBLK
5
21
100
AcDbEntity
8
0
100
AcDbBlockEnd
0
BLOCK
5
1C
100
AcDbEntity
8
0
100
AcDbBlockBegin
2
*Paper_Space
70
0
10
0
20
0
30
0
3
*Paper_Space
0
ENDBLK
5
1D
100
AcDbEntity
8
0
100
AcDbBlockEnd
0
BLOCK
5
24
100
AcDbEntity
8
0
100
AcDbBlockBegin
2
*Paper_Space0
70
0
10
0
20
0
30
0
3
*Paper_Space0
0
ENDBLK
5
25
100
AcDbEntity
8
0
100
AcDbBlockEnd
0
BLOCK
5
341
100
AcDbEntity
8
0
100
AcDbBlockBegin
2
DimnDraft3D1
70
0
10
0
20
0
30
0
3
DimnDraft3D1
0
MTEXT
5
339
100
AcDbEntity
8
2
62
256
6
ByLayer
370
13
48
1
60
0
100
AcDbMText
10
45.35
20
3.610526
30
0
210
0
220
0
230
1
1
\W0.6740;82
40
4
41
0
44
1.084337
50
90
71
7
72
5
7
iso_b_vert
0
MTEXT
5
33B
100
AcDbEntity
8
2
62
256
6
ByLayer
370
13
48
1
60
0
100
AcDbMText
10
45.35
20
-4.358224
30
0
210
0
220
0
230
1
1
%%c
40
4
41
0
44
1.084337
50
90
71
7
72
5
7
iso_b_vert
0
LINE
5
33C
100
AcDbEntity
8
2
62
256
6
ByLayer
370
13
48
1
60
0
100
AcDbLine
10
15.5875
20
41
30
0
11
49.35
21
41
31
0
39
0
210
0
220
0
230
1
0
LINE
5
33D
100
AcDbEntity
8
2
62
256
6
ByLayer
370
13
48
1
60
0
100
AcDbLine
10
15.5875
20
-41
30
0
11
49.35
21
-41
31
0
39
0
210
0
220
0
230
1
0
LINE
5
33E
100
AcDbEntity
8
2
62
256
6
ByLayer
370
13
48
1
60
0
100
AcDbLine
10
47.35
20
41
30
0
11
47.35
21
-41
31
0
39
0
210
0
220
0
230
1
0
SOLID
5
33F
100
AcDbEntity
8
2
62
256
6
ByLayer
370
13
48
1
60
0
100
AcDbTrace
10
47.35
20
41
30
0
11
47.810784
21
37.500002
31
0
12
46.889216
22
37.499998
32
0
13
47.35
23
41
33
0
39
0
210
0
220
0
230
1
0
SOLID
5
340
100
AcDbEntity
8
2
62
256
6
ByLayer
370
13
48
1
60
0
100
AcDbTrace
10
47.35
20
-41
30
0
11
46.889216
21
-37.500002
31
0
12
47.810784
22
-37.499998
32
0
13
47.35
23
-41
33
0
39
0
210
0
220
0
230
1
0
ENDBLK
5
342
100
AcDbEntity
8
0
100
AcDbBlockEnd
0
BLOCK
5
34D
100
AcDbEntity
8
0
100
AcDbBlockBegin
2
DimnDraft3D2
70
0
10
0
20
0
30
0
3
DimnDraft3D2
0
MTEXT
5
345
100
AcDbEntity
8
SK2
62
256
6
ByLayer
370
13
48
1
60
0
100
AcDbMText
10
-16.35
20
1.305263
30
0
210
0
220
0
230
1
1
\W0.7346;27.0
40
4
41
0
44
1.084337
50
90
71
7
72
5
7
iso_b_vert
0
MTEXT
5
347
100
AcDbEntity
8
SK2
62
256
6
ByLayer
370
13
48
1
60
0
100
AcDbMText
10
-16.35
20
-6.663487
30
0
210
0
220
0
230
1
1
%%c
40
4
41
0
44
1.084337
50
90
71
7
72
5
7
iso_b_vert
0
LINE
5
348
100
AcDbEntity
8
SK2
62
256
6
ByLayer
370
13
48
1
60
0
100
AcDbLine
10
-1.5875
20
13.5
30
0
11
-16.35
21
13.5
31
0
39
0
210
0
220
0
230
1
0
LINE
5
349
100
AcDbEntity
8
SK2
62
256
6
ByLayer
370
13
48
1
60
0
100
AcDbLine
10
-1.5875
20
-13.5
30
0
11
-16.35
21
-13.5
31
0
39
0
210
0
220
0
230
1
0
LINE
5
34A
100
AcDbEntity
8
SK2
62
256
6
ByLayer
370
13
48
1
60
0
100
AcDbLine
10
-14.35
20
13.5
30
0
11
-14.35
21
-13.5
31
0
39
0
210
0
220
0
230
1
0
SOLID
5
34B
100
AcDbEntity
8
SK2
62
256
6
ByLayer
370
13
48
1
60
0
100
AcDbTrace
10
-14.35
20
13.5
30
0
11
-13.889216
21
10.000002
31
0
12
-14.810784
22
9.999998
32
0
13
-14.35
23
13.5
33
0
39
0
210
0
220
0
230
1
0
SOLID
5
34C
100
AcDbEntity
8
SK2
62
256
6
ByLayer
370
13
48
1
60
0
100
AcDbTrace
10
-14.35
20
-13.5
30
0
11
-14.810784
21
-10.000002
31
0
12
-13.889216
22
-9.999998
32
0
13
-14.35
23
-13.5
33
0
39
0
210
0
220
0
230
1
0
ENDBLK
5
34E
100
AcDbEntity
8
0
100
AcDbBlockEnd
0
BLOCK
5
358
100
AcDbEntity
8
0
100
AcDbBlockBegin
2
DimnDraft3D3
70
0
10
0
20
0
30
0
3
DimnDraft3D3
0
MTEXT
5
351
100
AcDbEntity
8
SK2
62
256
6
ByLayer
370
13
48
1
60
0
100
AcDbMText
10
-31.35
20
3.610526
30
0
210
0
220
0
230
1
1
\W0.6927;39
40
4
41
0
44
1.084337
50
90
71
7
72
5
7
iso_b_vert
0
MTEXT
5
352
100
AcDbEntity
8
SK2
62
256
6
ByLayer
370
13
48
1
60
0
100
AcDbMText
10
-31.35
20
-4.358224
30
0
210
0
220
0
230
1
1
%%c
40
4
41
0
44
1.084337
50
90
71
7
72
5
7
iso_b_vert
0
LINE
5
353
100
AcDbEntity
8
SK2
62
256
6
ByLayer
370
13
48
1
60
0
100
AcDbLine
10
-1.5875
20
19.5
30
0
11
-31.35
21
19.5
31
0
39
0
210
0
220
0
230
1
0
LINE
5
354
100
AcDbEntity
8
SK2
62
256
6
ByLayer
370
13
48
1
60
0
100
AcDbLine
10
-1.5875
20
-19.5
30
0
11
-31.35
21
-19.5
31
0
39
0
210
0
220
0
230
1
0
LINE
5
355
100
AcDbEntity
8
SK2
62
256
6
ByLayer
370
13
48
1
60
0
100
AcDbLine
10
-29.35
20
19.5
30
0
11
-29.35
21
-19.5
31
0
39
0
210
0
220
0
230
1
0
SOLID
5
356
100
AcDbEntity
8
SK2
62
256
6
ByLayer
370
13
48
1
60
0
100
AcDbTrace
10
-29.35
20
19.5
30
0
11
-28.889216
21
16.000002
31
0
12
-29.810784
22
15.999998
32
0
13
-29.35
23
19.5
33
0
39
0
210
0
220
0
230
1
0
SOLID
5
357
100
AcDbEntity
8
SK2
62
256
6
ByLayer
370
13
48
1
60
0
100
AcDbTrace
10
-29.35
20
-19.5
30
0
11
-29.810784
21
-16.000002
31
0
12
-28.889216
22
-15.999998
32
0
13
-29.35
23
-19.5
33
0
39
0
210
0
220
0
230
1
0
ENDBLK
5
359
100
AcDbEntity
8
0
100
AcDbBlockEnd
0
BLOCK
5
362
100
AcDbEntity
8
0
100
AcDbBlockBegin
2
DimnDraft3D4
70
0
10
0
20
0
30
0
3
DimnDraft3D4
0
MTEXT
5
35C
100
AcDbEntity
8
SK2
62
256
6
ByLayer
370
13
48
1
60
0
100
AcDbMText
10
-10.389474
20
45
30
0
210
0
220
0
230
1
1
\W0.6563;12.0
40
4
41
0
44
1.084337
50
0
71
7
72
5
7
iso_b_vert
0
LINE
5
35D
100
AcDbEntity
8
SK2
62
256
6
ByLayer
370
13
48
1
60
0
100
AcDbLine
10
14
20
42.5875
30
0
11
14
21
46
31
0
39
0
210
0
220
0
230
1
0
LINE
5
35E
100
AcDbEntity
8
SK2
62
256
6
ByLayer
370
13
48
1
60
0
100
AcDbLine
10
2
20
42.5875
30
0
11
2
21
46
31
0
39
0
210
0
220
0
230
1
0
LINE
5
35F
100
AcDbEntity
8
SK2
62
256
6
ByLayer
370
13
48
1
60
0
100
AcDbLine
10
14
20
44
30
0
11
-11.389474
21
44
31
0
39
0
210
0
220
0
230
1
0
SOLID
5
360
100
AcDbEntity
8
SK2
62
256
6
ByLayer
370
13
48
1
60
0
100
AcDbTrace
10
14
20
44
30
0
11
10.500002
21
43.539216
31
0
12
10.499998
22
44.460784
32
0
13
14
23
44
33
0
39
0
210
0
220
0
230
1
0
SOLID
5
361
100
AcDbEntity
8
SK2
62
256
6
ByLayer
370
13
48
1
60
0
100
AcDbTrace
10
2
20
44
30
0
11
5.499998
21
44.460784
31
0
12
5.500002
22
43.539216
32
0
13
2
23
44
33
0
39
0
210
0
220
0
230
1
0
ENDBLK
5
363
100
AcDbEntity
8
0
100
AcDbBlockEnd
0
BLOCK
5
36D
100
AcDbEntity
8
0
100
AcDbBlockBegin
2
DimnDraft3D5
70
0
10
0
20
0
30
0
3
DimnDraft3D5
0
MTEXT
5
366
100
AcDbEntity
8
SK2
62
256
6
ByLayer
370
13
48
1
60
0
100
AcDbMText
10
-21
20
-54
30
0
210
0
220
0
230
1
1
\W0.5321;16
40
4
41
0
44
1.084337
50
0
71
7
72
5
7
iso_b_vert
0
MTEXT
5
367
100
AcDbEntity
8
SK2
62
256
6
ByLayer
370
13
48
1
60
0
100
AcDbMText
10
-13.846053
20
-53.625
30
0
210
0
220
0
230
1
1
\W0.8221;\W0.4110;%%p\W0.8221;0.05
40
3.5
41
0
44
1.084337
50
0
71
7
72
5
7
iso_b_vert
0
LINE
5
368
100
AcDbEntity
8
SK2
62
256
6
ByLayer
370
13
48
1
60
0
100
AcDbLine
10
0
20
-21.0875
30
0
11
0
21
-57
31
0
39
0
210
0
220
0
230
1
0
LINE
5
369
100
AcDbEntity
8
SK2
62
256
6
ByLayer
370
13
48
1
60
0
100
AcDbLine
10
16
20
-21.0875
30
0
11
16
21
-57
31
0
39
0
210
0
220
0
230
1
0
LINE
5
36A
100
AcDbEntity
8
SK2
62
256
6
ByLayer
370
13
48
1
60
0
100
AcDbLine
10
16
20
-55
30
0
11
-22
21
-55
31
0
39
0
210
0
220
0
230
1
0
SOLID
5
36B
100
AcDbEntity
8
SK2
62
256
6
ByLayer
370
13
48
1
60
0
100
AcDbTrace
10
0
20
-55
30
0
11
3.499998
21
-54.539216
31
0
12
3.500002
22
-55.460784
32
0
13
0
23
-55
33
0
39
0
210
0
220
0
230
1
0
SOLID
5
36C
100
AcDbEntity
8
SK2
62
256
6
ByLayer
370
13
48
1
60
0
100
AcDbTrace
10
16
20
-55
30
0
11
12.500002
21
-55.460784
31
0
12
12.499998
22
-54.539216
32
0
13
16
23
-55
33
0
39
0
210
0
220
0
230
1
0
ENDBLK
5
36E
100
AcDbEntity
8
0
100
AcDbBlockEnd
0
ENDSEC
0
SECTION
2
ENTITIES
0
ELLIPSE
5
1B0
100
AcDbEntity
8
1
62
256
6
ByLayer
370
18
48
1
60
0
100
AcDbEllipse
10
8.5
20
20.906171
30
0
11
4.99999999999996
21
5.05319527541177E-15
31
0
210
0
220
0
230
-1
40
0.577007
41
-0.419280004023145
42
0
0
ELLIPSE
5
1B1
100
AcDbEntity
8
1
62
256
6
ByLayer
370
18
48
1
60
0
100
AcDbEllipse
10
8.5
20
20.906171
30
0
11
4.99999999999996
21
5.05319527541177E-15
31
0
210
0
220
0
230
-1
40
0.577007
41
-1.08392313956537
42
-0.505403778759914
0
ELLIPSE
5
1B2
100
AcDbEntity
8
1
62
256
6
ByLayer
370
18
48
1
60
0
100
AcDbEllipse
10
8
20
17.469008
30
0
11
-2.625
21
3.21459167878374E-16
31
0
210
0
220
0
230
1
40
0.566406
41
-0.649229507668571
42
0
0
ELLIPSE
5
1B3
100
AcDbEntity
8
1
62
256
6
ByLayer
370
18
48
1
60
0
100
AcDbEllipse
10
8
20
17.469008
30
0
11
-2.625
21
3.21459167878374E-16
31
0
210
0
220
0
230
1
40
0.566406
41
-3.14159240468071
42
-2.49226448705943
0
ELLIPSE
5
1B4
100
AcDbEntity
8
1
62
256
6
ByLayer
370
18
48
1
60
0
100
AcDbEllipse
10
8
20
17.469008
30
0
11
-2.625
21
3.21459167878374E-16
31
0
210
0
220
0
230
1
40
0.566406
41
0
42
3.14159240468066
0
ELLIPSE
5
1B5
100
AcDbEntity
8
1
62
256
6
ByLayer
370
18
48
1
60
0
100
AcDbEllipse
10
8
20
17.242011
30
0
11
-1.8
21
2.20429143688028E-16
31
0
210
0
220
0
230
1
40
0.566406
41
0
42
6.28318530717959
0
ELLIPSE
5
1B6
100
AcDbEntity
8
1
62
256
6
ByLayer
370
18
48
1
60
0
100
AcDbEllipse
10
8
20
17.242011
30
0
11
-1.6765
21
2.05305255218322E-16
31
0
210
0
220
0
230
1
40
0.566406
41
-2.09718565007454
42
-1.04440700351526
0
ELLIPSE
5
1B7
100
AcDbEntity
8
1
62
256
6
ByLayer
370
18
48
1
60
0
100
AcDbEllipse
10
8
20
17.242011
30
0
11
-1.6765
21
2.05305255218322E-16
31
0
210
0
220
0
230
1
40
0.566406
41
-1.04440700351526
42
0
0
ELLIPSE
5
1B8
100
AcDbEntity
8
1
62
256
6
ByLayer
370
18
48
1
60
0
100
AcDbEllipse
10
8
20
17.242011
30
0
11
-1.6765
21
2.05305255218322E-16
31
0
210
0
220
0
230
1
40
0.566406
41
0
42
1.04440700351526
0
ELLIPSE
5
1B9
100
AcDbEntity
8
1
62
256
6
ByLayer
370
18
48
1
60
0
100
AcDbEllipse
10
8
20
17.242011
30
0
11
-1.6765
21
2.05305255218322E-16
31
0
210
0
220
0
230
1
40
0.566406
41
1.04440700351526
42
2.09718565007453
0
ELLIPSE
5
1BA
100
AcDbEntity
8
1
62
256
6
ByLayer
370
18
48
1
60
0
100
AcDbEllipse
10
8
20
17.242011
30
0
11
-1.6765
21
2.05305255218322E-16
31
0
210
0
220
0
230
1
40
0.566406
41
2.09718565007453
42
3.14159265358979
0
ELLIPSE
5
1BB
100
AcDbEntity
8
1
62
256
6
ByLayer
370
18
48
1
60
0
100
AcDbEllipse
10
8
20
17.242011
30
0
11
-1.6765
21
2.05305255218322E-16
31
0
210
0
220
0
230
1
40
0.566406
41
3.14159265358979
42
-2.09718565007454
0
ELLIPSE
5
1BC
100
AcDbEntity
8
1
62
256
6
ByLayer
370
18
48
1
60
0
100
AcDbEllipse
10
8
20
17.465641
30
0
11
1.2065
21
0
31
0
210
0
220
0
230
1
40
0.566406
41
1.501763693383
42
1.6398289602068
0
ELLIPSE
5
1BD
100
AcDbEntity
8
1
62
256
6
ByLayer
370
18
48
1
60
0
100
AcDbEllipse
10
8
20
18.416391
30
0
11
1.2065
21
0
31
0
210
0
220
0
230
1
40
0.566406
41
-1.6398289602068
42
-1.501763693383
0
ELLIPSE
5
1BE
100
AcDbEntity
8
1
62
256
6
ByLayer
370
18
48
1
60
0
100
AcDbEllipse
10
8
20
18.416391
30
0
11
1.2065
21
0
31
0
210
0
220
0
230
1
40
0.566406
41
-2.48313822985118
42
-1.6398289602068
0
ELLIPSE
5
1BF
100
AcDbEntity
8
1
62
256
6
ByLayer
370
18
48
1
60
0
100
AcDbEllipse
10
8
20
18.416391
30
0
11
1.2065
21
0
31
0
210
0
220
0
230
1
40
0.566406
41
-1.501763693383
42
-0.658454423738616
0
ELLIPSE
5
1C0
100
AcDbEntity
8
1
62
256
6
ByLayer
370
18
48
1
60
0
100
AcDbEllipse
10
7.304407
20
17.73836
30
0
11
-0.292
21
3.57585055316134E-17
31
0
210
0
220
0
230
1
40
0.566406
41
0.482401703170556
42
2.36205766171614
0
ELLIPSE
5
1C1
100
AcDbEntity
8
1
62
256
6
ByLayer
370
18
48
1
60
0
100
AcDbEllipse
10
8.695593
20
17.73836
30
0
11
-0.292
21
3.57585055316134E-17
31
0
210
0
220
0
230
1
40
0.566406
41
0.779534991873658
42
2.65919095041924
0
ELLIPSE
5
1C2
100
AcDbEntity
8
1
62
256
6
ByLayer
370
18
48
1
60
0
100
AcDbEllipse
10
8
20
17.465641
30
0
11
1.2065
21
0
31
0
210
0
220
0
230
1
40
0.566406
41
-1.6398289602068
42
-1.501763693383
0
ELLIPSE
5
1C3
100
AcDbEntity
8
1
62
256
6
ByLayer
370
18
48
1
60
0
100
AcDbEllipse
10
8
20
17.348964
30
0
11
-0.686
21
8.40079958722151E-17
31
0
210
0
220
0
230
1
40
0.566406
41
-2.36205766171614
42
-1.69241036801179
0
ELLIPSE
5
1C4
100
AcDbEntity
8
1
62
256
6
ByLayer
370
18
48
1
60
0
100
AcDbEllipse
10
7.5
20
0.388142
30
0
11
-5.90033987868675E-16
21
9.63630453209712
31
0
210
0
220
0
230
-1
40
0.518871
41
3.14159265358979
42
-2.79040179159991
0
ELLIPSE
5
1C5
100
AcDbEntity
8
1
62
256
6
ByLayer
370
18
48
1
60
0
100
AcDbEllipse
10
8.5
20
0.388142
30
0
11
-5.90033987865987E-16
21
9.63630453205321
31
0
210
0
220
0
230
-1
40
0.518871
41
2.7904017915991
42
3.14159265358979
0
ELLIPSE
5
1C6
100
AcDbEntity
8
1
62
256
6
ByLayer
370
18
48
1
60
0
100
AcDbEllipse
10
7.5
20
-7.411899
30
0
11
5
21
0
31
0
210
0
220
0
230
1
40
0.25038
41
3.14159265358979
42
-3.12860934805679
0
ELLIPSE
5
1C7
100
AcDbEntity
8
1
62
256
6
ByLayer
370
18
48
1
60
0
100
AcDbEllipse
10
7.5
20
-7.157822
30
0
11
-5.90033988342209E-16
21
9.63630453983077
31
0
210
0
220
0
230
-1
40
0.518871
41
-1.68157791962151
42
-1.60976989531923
0
ELLIPSE
5
1C8
100
AcDbEntity
8
1
62
256
6
ByLayer
370
18
48
1
60
0
100
AcDbEllipse
10
7.5
20
-9.505455
30
0
11
-4.3672551650922E-16
21
7.13250450066772
31
0
210
0
220
0
230
-1
40
0.701016
41
-1.40052996668046
42
-1.32736283798674
0
ELLIPSE
5
1C9
100
AcDbEntity
8
1
62
256
6
ByLayer
370
18
48
1
60
0
100
AcDbEllipse
10
7.5
20
-7.411899
30
0
11
5
21
0
31
0
210
0
220
0
230
1
40
0.25038
41
-2.87129628206367
42
-2.82326050439133
0
ELLIPSE
5
1CA
100
AcDbEntity
8
1
62
256
6
ByLayer
370
18
48
1
60
0
100
AcDbEllipse
10
7.5
20
-4.642501
30
0
11
-5.90033987186727E-16
21
9.63630452095969
31
0
210
0
220
0
230
-1
40
0.518871
41
-1.99385911765127
42
-1.91661149878676
0
ELLIPSE
5
1CB
100
AcDbEntity
8
1
62
256
6
ByLayer
370
18
48
1
60
0
100
AcDbEllipse
10
7.5
20
-12.020777
30
0
11
7.18248271397016E-09
21
-7.13250449901181
31
0
210
0
220
0
230
-1
40
0.701016
41
2.05945828015553
42
2.14246517074819
0
ELLIPSE
5
1CC
100
AcDbEntity
8
1
62
256
6
ByLayer
370
18
48
1
60
0
100
AcDbEllipse
10
7.5
20
-7.411899
30
0
11
-5
21
6.12303176911189E-16
31
0
210
0
220
0
230
1
40
0.25038
41
0.602879956568609
42
0.659830501638973
0
ELLIPSE
5
1CD
100
AcDbEntity
8
1
62
256
6
ByLayer
370
18
48
1
60
0
100
AcDbEllipse
10
7.5
20
-2.12718
30
0
11
-5.90033987734454E-16
21
9.63630452990505
31
0
210
0
220
0
230
-1
40
0.518871
41
-2.36108316978463
42
-2.26394666187523
0
ELLIPSE
5
1CE
100
AcDbEntity
8
1
62
256
6
ByLayer
370
18
48
1
60
0
100
AcDbEllipse
10
7.5
20
-14.536098
30
0
11
-4.36725515812738E-16
21
7.13250448929294
31
0
210
0
220
0
230
-1
40
0.701016
41
-0.692824778686796
42
-0.571600350334293
0
ELLIPSE
5
1CF
100
AcDbEntity
8
1
62
256
6
ByLayer
370
18
48
1
60
0
100
AcDbEllipse
10
7.5
20
-7.411899
30
0
11
-5
21
6.12303176911189E-16
31
0
210
0
220
0
230
1
40
0.25038
41
1.04918428166409
42
1.15053644700383
0
ELLIPSE
5
1D0
100
AcDbEntity
8
1
62
256
6
ByLayer
370
18
48
1
60
0
100
AcDbEllipse
10
9.899971
20
-33.618984
30
0
11
3.38047337036294
21
-2.67709028340557
31
0
210
0
220
0
230
-1
40
0.694562
41
-0.870709899013124
42
0.107003453611153
0
ELLIPSE
5
1D1
100
AcDbEntity
8
1
62
256
6
ByLayer
370
18
48
1
60
0
100
AcDbEllipse
10
8
20
-34.987649
30
0
11
6
21
0
31
0
210
0
220
0
230
1
40
0.996917
41
2.73053487376578
42
0
0
ELLIPSE
5
1D2
100
AcDbEntity
8
1
62
256
6
ByLayer
370
18
48
1
60
0
100
AcDbEllipse
10
8
20
-34.987649
30
0
11
6
21
0
31
0
210
0
220
0
230
1
40
0.996917
41
0
42
0.411155982306543
0
ELLIPSE
5
1D3
100
AcDbEntity
8
1
62
256
6
ByLayer
370
18
48
1
60
0
100
AcDbEllipse
10
7.5
20
-13.527061
30
0
11
5.00000000000001
21
5.05319527541183E-15
31
0
210
0
220
0
230
-1
40
0.438569
41
1.5707963267949
42
3.14159265358979
0
ELLIPSE
5
1D4
100
AcDbEntity
8
1
62
256
6
ByLayer
370
18
48
1
60
0
100
AcDbEllipse
10
8.5
20
-7.411899
30
0
11
-5
21
6.12303176911189E-16
31
0
210
0
220
0
230
1
40
0.25038
41
1.99105620658596
42
2.09240837192571
0
ELLIPSE
5
1D5
100
AcDbEntity
8
1
62
256
6
ByLayer
370
18
48
1
60
0
100
AcDbEllipse
10
8.5
20
-14.536098
30
0
11
-4.36725515911278E-16
21
7.13250449090227
31
0
210
0
220
0
230
-1
40
0.701016
41
0.571600350318143
42
0.692824778647855
0
ELLIPSE
5
1D6
100
AcDbEntity
8
1
62
256
6
ByLayer
370
18
48
1
60
0
100
AcDbEllipse
10
8.5
20
-2.127179
30
0
11
-5.90033987841303E-16
21
9.63630453165009
31
0
210
0
220
0
230
-1
40
0.518871
41
2.26394666187695
42
2.36108316976811
0
ELLIPSE
5
1D7
100
AcDbEntity
8
1
62
256
6
ByLayer
370
18
48
1
60
0
100
AcDbEllipse
10
8.5
20
-7.411899
30
0
11
-5
21
6.12303176911189E-16
31
0
210
0
220
0
230
1
40
0.25038
41
2.48176215195082
42
2.53871269702118
0
ELLIPSE
5
1D8
100
AcDbEntity
8
1
62
256
6
ByLayer
370
18
48
1
60
0
100
AcDbEllipse
10
8.5
20
-12.020777
30
0
11
7.23359598661399E-09
21
7.13250449907187
31
0
210
0
220
0
230
-1
40
0.701016
41
0.999127482835674
42
1.0821343734277
0
ELLIPSE
5
1D9
100
AcDbEntity
8
1
62
256
6
ByLayer
370
18
48
1
60
0
100
AcDbEllipse
10
8.5
20
-4.642501
30
0
11
-5.90033987542678E-16
21
9.63630452677301
31
0
210
0
220
0
230
-1
40
0.518871
41
1.91661149864557
42
1.99385911745825
0
ELLIPSE
5
1DA
100
AcDbEntity
8
1
62
256
6
ByLayer
370
18
48
1
60
0
100
AcDbEllipse
10
8.5
20
-7.411899
30
0
11
5
21
0
31
0
210
0
220
0
230
1
40
0.25038
41
-0.31833214919846
42
-0.270296371526122
0
ELLIPSE
5
1DB
100
AcDbEntity
8
1
62
256
6
ByLayer
370
18
48
1
60
0
100
AcDbEllipse
10
8.5
20
-9.505455
30
0
11
-4.36725515464512E-16
21
7.13250448360578
31
0
210
0
220
0
230
-1
40
0.701016
41
1.32736283743593
42
1.4005299663118
0
ELLIPSE
5
1DC
100
AcDbEntity
8
1
62
256
6
ByLayer
370
18
48
1
60
0
100
AcDbEllipse
10
8.5
20
-7.157822
30
0
11
-5.90033988867008E-16
21
9.63630454840167
31
0
210
0
220
0
230
-1
40
0.518871
41
1.6097698952852
42
1.68157791952323
0
ELLIPSE
5
1DD
100
AcDbEntity
8
1
62
256
6
ByLayer
370
18
48
1
60
0
100
AcDbEllipse
10
8.5
20
-7.411899
30
0
11
5
21
0
31
0
210
0
220
0
230
1
40
0.25038
41
-0.0129833055330027
42
-4.25678609968907E-15
0
ELLIPSE
5
1DE
100
AcDbEntity
8
1
62
256
6
ByLayer
370
18
48
1
60
0
100
AcDbEllipse
10
8.5
20
-13.527061
30
0
11
5.00000000000005
21
5.05319527541187E-15
31
0
210
0
220
0
230
-1
40
0.438569
41
0
42
1.5707963267949
0
ELLIPSE
5
1DF
100
AcDbEntity
8
1
62
256
6
ByLayer
370
18
48
1
60
0
100
AcDbEllipse
10
8
20
-13.605204
30
0
11
5.41554549010217
21
0
31
0
210
0
220
0
230
1
40
0.430511
41
-0.422336262222314
42
-0.363061901175133
0
ELLIPSE
5
1E0
100
AcDbEntity
8
1
62
256
6
ByLayer
370
18
48
1
60
0
100
AcDbEllipse
10
8
20
-13.605204
30
0
11
5.41554549010217
21
0
31
0
210
0
220
0
230
1
40
0.430511
41
-1.20773442561976
42
-1.14846006457258
0
ELLIPSE
5
1E1
100
AcDbEntity
8
1
62
256
6
ByLayer
370
18
48
1
60
0
100
AcDbEllipse
10
8
20
-13.605204
30
0
11
5.41554549010217
21
0
31
0
210
0
220
0
230
1
40
0.430511
41
-1.99313258901721
42
-1.93385822797003
0
ELLIPSE
5
1E2
100
AcDbEntity
8
1
62
256
6
ByLayer
370
18
48
1
60
0
100
AcDbEllipse
10
8
20
-2.974484
30
0
11
-9.5688185424235E-16
21
15.6275827126917
31
0
210
0
220
0
230
-1
40
0.214866
41
2.531712953844
42
-2.531712953844
0
ELLIPSE
5
1E3
100
AcDbEntity
8
1
62
256
6
ByLayer
370
18
48
1
60
0
100
AcDbEllipse
10
8
20
-13.605204
30
0
11
5.41554549010217
21
0
31
0
210
0
220
0
230
1
40
0.430511
41
-2.77853075241466
42
-2.71925639136748
0
ELLIPSE
5
1E4
100
AcDbEntity
8
1
62
256
6
ByLayer
370
18
48
1
60
0
100
AcDbEllipse
10
6.100029
20
-2.156525
30
0
11
3.84036592028297
21
14.0408730447344
31
0
210
0
220
0
230
-1
40
0.026321
41
2.62764977721848
42
-2.58736941837009
0
ELLIPSE
5
1E5
100
AcDbEntity
8
1
62
256
6
ByLayer
370
18
48
1
60
0
100
AcDbEllipse
10
6.656518
20
-2.734909
30
0
11
2.63332716878501
21
15.1694612879856
31
0
210
0
220
0
230
-1
40
0.163423
41
2.57075965636407
42
-2.49266625132392
0
ELLIPSE
5
1E6
100
AcDbEntity
8
1
62
256
6
ByLayer
370
18
48
1
60
0
100
AcDbEllipse
10
9.343482
20
-2.734909
30
0
11
2.63332716878488
21
-15.169461287985
31
0
210
0
220
0
230
-1
40
0.163423
41
-0.648926402265885
42
0.570832997225727
0
ELLIPSE
5
1E7
100
AcDbEntity
8
1
62
256
6
ByLayer
370
18
48
1
60
0
100
AcDbEllipse
10
9.899971
20
-2.156525
30
0
11
3.84036592028283
21
-14.0408730447338
31
0
210
0
220
0
230
-1
40
0.026321
41
-0.554223235219712
42
0.513942876371349
0
ELLIPSE
5
1E8
100
AcDbEntity
8
1
62
256
6
ByLayer
370
18
48
1
60
0
100
AcDbEllipse
10
8
20
-17.90151
30
0
11
6
21
0
31
0
210
0
220
0
230
1
40
0.430511
41
3.08308037027751
42
0
0
ELLIPSE
5
1E9
100
AcDbEntity
8
1
62
256
6
ByLayer
370
18
48
1
60
0
100
AcDbEllipse
10
8
20
-17.90151
30
0
11
6
21
0
31
0
210
0
220
0
230
1
40
0.430511
41
0
42
0.0586102312091204
0
ELLIPSE
5
1EA
100
AcDbEntity
8
1
62
256
6
ByLayer
370
18
48
1
60
0
100
AcDbEllipse
10
6.100029
20
31.462459
30
0
11
3.82247298118848
21
12.8926579823375
31
0
210
0
220
0
230
-1
40
0.040578
41
-2.86086185616202
42
-2.3956952185102
0
ELLIPSE
5
1EB
100
AcDbEntity
8
1
62
256
6
ByLayer
370
18
48
1
60
0
100
AcDbEllipse
10
8
20
21.00898
30
0
11
5.41554549010217
21
0
31
0
210
0
220
0
230
1
40
0.566406
41
2.71925639136748
42
2.77853075241466
0
ELLIPSE
5
1EC
100
AcDbEntity
8
1
62
256
6
ByLayer
370
18
48
1
60
0
100
AcDbEllipse
10
6.656518
20
32.223415
30
0
11
3.08155985312736
21
11.2758750212408
31
0
210
0
220
0
230
-1
40
0.167894
41
2.36643557790391
42
-2.69699032978412
0
ELLIPSE
5
1ED
100
AcDbEntity
8
1
62
256
6
ByLayer
370
18
48
1
60
0
100
AcDbEllipse
10
8
20
21.00898
30
0
11
5.41554549010217
21
0
31
0
210
0
220
0
230
1
40
0.566406
41
1.93385822797003
42
1.99313258901721
0
ELLIPSE
5
1EE
100
AcDbEntity
8
1
62
256
6
ByLayer
370
18
48
1
60
0
100
AcDbEllipse
10
8
20
32.538614
30
0
11
-6.47038591235623E-16
21
10.5672911007854
31
0
210
0
220
0
230
-1
40
0.317758
41
2.531712953844
42
-2.531712953844
0
ELLIPSE
5
1EF
100
AcDbEntity
8
1
62
256
6
ByLayer
370
18
48
1
60
0
100
AcDbEllipse
10
8
20
21.00898
30
0
11
5.41554549010217
21
0
31
0
210
0
220
0
230
1
40
0.566406
41
1.14846006457258
42
1.20773442561976
0
ELLIPSE
5
1F0
100
AcDbEntity
8
1
62
256
6
ByLayer
370
18
48
1
60
0
100
AcDbEllipse
10
9.343482
20
32.223415
30
0
11
3.08155985312717
21
-11.27587502124
31
0
210
0
220
0
230
-1
40
0.167894
41
-0.444602323805691
42
0.775157075685907
0
ELLIPSE
5
1F1
100
AcDbEntity
8
1
62
256
6
ByLayer
370
13
48
1
60
0
100
AcDbEllipse
10
8
20
17.953451
30
0
11
-3.00752396831598
21
3.68303296087284E-16
31
0
210
0
220
0
230
1
40
0.566406
41
2.54596637755521
42
2.93414963689728
0
ELLIPSE
5
1F2
100
AcDbEntity
8
1
62
256
6
ByLayer
370
13
48
1
60
0
100
AcDbEllipse
10
8
20
17.953451
30
0
11
-3.00752396831598
21
3.68303296087284E-16
31
0
210
0
220
0
230
1
40
0.566406
41
0.207345120200869
42
0.595528005237024
0
ELLIPSE
5
1F3
100
AcDbEntity
8
1
62
256
6
ByLayer
370
18
48
1
60
0
100
AcDbEllipse
10
8
20
21.00898
30
0
11
5.41554549010217
21
0
31
0
210
0
220
0
230
1
40
0.566406
41
0.363061901175133
42
0.422336262222313
0
ELLIPSE
5
1F4
100
AcDbEntity
8
1
62
256
6
ByLayer
370
18
48
1
60
0
100
AcDbEllipse
10
9.899971
20
31.462459
30
0
11
3.82247298118933
21
-12.8926579823403
31
0
210
0
220
0
230
-1
40
0.040578
41
-0.745897435079488
42
-0.280730797427733
0
ELLIPSE
5
1F5
100
AcDbEntity
8
1
62
256
6
ByLayer
370
13
48
1
60
0
100
AcDbEllipse
10
8
20
18.103937
30
0
11
2.92865569377185
21
0
31
0
210
0
220
0
230
1
40
0.566406
41
-2.92001194389731
42
-2.67673465881317
0
ELLIPSE
5
1F6
100
AcDbEntity
8
1
62
256
6
ByLayer
370
13
48
1
60
0
100
AcDbEllipse
10
8
20
18.103937
30
0
11
2.92865569377185
21
0
31
0
210
0
220
0
230
1
40
0.566406
41
-0.464759151786948
42
-0.221482087454132
0
ELLIPSE
5
1F7
100
AcDbEntity
8
1
62
256
6
ByLayer
370
18
48
1
60
0
100
AcDbEllipse
10
8
20
17.086139
30
0
11
6
21
0
31
0
210
0
220
0
230
1
40
0.566406
41
0
42
-3.14159256620992
0
ELLIPSE
5
1F8
100
AcDbEntity
8
1
62
256
6
ByLayer
370
18
48
1
60
0
100
AcDbEllipse
10
8
20
17.086139
30
0
11
6
21
0
31
0
210
0
220
0
230
1
40
0.566406
41
3.14159256620987
42
-1.6919439992394
0
ELLIPSE
5
1F9
100
AcDbEntity
8
1
62
256
6
ByLayer
370
18
48
1
60
0
100
AcDbEllipse
10
8
20
17.086139
30
0
11
6
21
0
31
0
210
0
220
0
230
1
40
0.566406
41
-1.44955054898903
42
0
0
ELLIPSE
5
1FA
100
AcDbEntity
8
1
62
256
6
ByLayer
370
18
48
1
60
0
100
AcDbEllipse
10
8
20
17.086139
30
0
11
-3.08111510185448
21
3.77315313058908E-16
31
0
210
0
220
0
230
1
40
0.566406
41
0
42
6.28318530717959
0
ELLIPSE
5
1FB
100
AcDbEntity
8
1
62
256
6
ByLayer
370
18
48
1
60
0
100
AcDbEllipse
10
8
20
34.985768
30
0
11
6.29999999994905
21
6.3670260469674E-15
31
0
210
0
220
0
230
-1
40
0.981666
41
2.56583581517353
42
2.63214880477834
0
ELLIPSE
5
1FC
100
AcDbEntity
8
1
62
256
6
ByLayer
370
18
48
1
60
0
100
AcDbEllipse
10
8
20
34.985768
30
0
11
6.29999999996181
21
6.36702604698029E-15
31
0
210
0
220
0
230
-1
40
0.981666
41
0.509443848811897
42
0.576489271152425
0
ELLIPSE
5
1FD
100
AcDbEntity
8
1
62
256
6
ByLayer
370
18
48
1
60
0
100
AcDbEllipse
10
8
20
34.951199
30
0
11
2.625
21
0
31
0
210
0
220
0
230
1
40
0.996917
41
-0.398589596396745
42
0
0
ELLIPSE
5
1FE
100
AcDbEntity
8
1
62
256
6
ByLayer
370
18
48
1
60
0
100
AcDbEllipse
10
8
20
34.951199
30
0
11
2.625
21
0
31
0
210
0
220
0
230
1
40
0.996917
41
0
42
-2.74388679576847
0
ELLIPSE
5
1FF
100
AcDbEntity
8
1
62
256
6
ByLayer
370
18
48
1
60
0
100
AcDbEllipse
10
8
20
34.97281
30
0
11
1.8
21
0
31
0
210
0
220
0
230
1
40
0.996917
41
-0.48243079241616
42
0
0
ELLIPSE
5
200
100
AcDbEntity
8
1
62
256
6
ByLayer
370
18
48
1
60
0
100
AcDbEllipse
10
8
20
34.97281
30
0
11
1.8
21
0
31
0
210
0
220
0
230
1
40
0.996917
41
0
42
-2.66171421232868
0
ELLIPSE
5
201
100
AcDbEntity
8
1
62
256
6
ByLayer
370
18
48
1
60
0
100
AcDbEllipse
10
8
20
34.97281
30
0
11
1.6765
21
0
31
0
210
0
220
0
230
1
40
0.996917
41
1.04440700351526
42
2.09718565007454
0
ELLIPSE
5
202
100
AcDbEntity
8
1
62
256
6
ByLayer
370
18
48
1
60
0
100
AcDbEllipse
10
8
20
34.97281
30
0
11
1.6765
21
0
31
0
210
0
220
0
230
1
40
0.996917
41
2.09718565007454
42
3.14159265358979
0
ELLIPSE
5
203
100
AcDbEntity
8
1
62
256
6
ByLayer
370
18
48
1
60
0
100
AcDbEllipse
10
8
20
34.97281
30
0
11
1.6765
21
0
31
0
210
0
220
0
230
1
40
0.996917
41
3.14159265358979
42
-2.6370624240486
0
ELLIPSE
5
204
100
AcDbEntity
8
1
62
256
6
ByLayer
370
18
48
1
60
0
100
AcDbEllipse
10
8
20
34.97281
30
0
11
1.6765
21
0
31
0
210
0
220
0
230
1
40
0.996917
41
-0.504056698248763
42
0
0
ELLIPSE
5
205
100
AcDbEntity
8
1
62
256
6
ByLayer
370
18
48
1
60
0
100
AcDbEllipse
10
8
20
34.97281
30
0
11
1.6765
21
0
31
0
210
0
220
0
230
1
40
0.996917
41
0
42
1.04440700351526
0
ELLIPSE
5
206
100
AcDbEntity
8
1
62
256
6
ByLayer
370
18
48
1
60
0
100
AcDbEllipse
10
9.3845
20
34.861006
30
0
11
0.292
21
0
31
0
210
0
220
0
230
1
40
0.996917
41
0.170989349019946
42
1.30619414537843
0
ELLIPSE
5
207
100
AcDbEntity
8
1
62
256
6
ByLayer
370
18
48
1
60
0
100
AcDbEllipse
10
6.6155
20
34.861006
30
0
11
0.292
21
0
31
0
210
0
220
0
230
1
40
0.996917
41
1.83539850821137
42
2.96072447085367
0
ELLIPSE
5
208
100
AcDbEntity
8
1
62
256
6
ByLayer
370
18
48
1
60
0
100
AcDbEllipse
10
8
20
34.862967
30
0
11
2.625
21
0
31
0
210
0
220
0
230
1
40
0.996917
41
-0.366682879036621
42
0
0
ELLIPSE
5
209
100
AcDbEntity
8
1
62
256
6
ByLayer
370
18
48
1
60
0
100
AcDbEllipse
10
8
20
34.862967
30
0
11
2.625
21
0
31
0
210
0
220
0
230
1
40
0.996917
41
3.14159255382815
42
-2.77677546006237
0
ELLIPSE
5
20A
100
AcDbEntity
8
1
62
256
6
ByLayer
370
18
48
1
60
0
100
AcDbEllipse
10
9.640272
20
35.802058
30
0
11
0.686
21
0
31
0
210
0
220
0
230
1
40
0.996917
41
-2.61938915183216
42
-1.83539850821137
0
ELLIPSE
5
20B
100
AcDbEntity
8
1
62
256
6
ByLayer
370
18
48
1
60
0
100
AcDbEllipse
10
9.640272
20
35.802058
30
0
11
0.686
21
0
31
0
210
0
220
0
230
1
40
0.996917
41
-3.14158758833452
42
-2.61938915183216
0
ELLIPSE
5
20C
100
AcDbEntity
8
1
62
256
6
ByLayer
370
18
48
1
60
0
100
AcDbEllipse
10
6.359728
20
35.802058
30
0
11
0.686
21
0
31
0
210
0
220
0
230
1
40
0.996917
41
-0.52220350175764
42
-5.06525527698685E-06
0
ELLIPSE
5
20D
100
AcDbEntity
8
1
62
256
6
ByLayer
370
18
48
1
60
0
100
AcDbEllipse
10
6.359728
20
35.802058
30
0
11
0.686
21
0
31
0
210
0
220
0
230
1
40
0.996917
41
-1.30619414537843
42
-0.52220350175764
0
ELLIPSE
5
20E
100
AcDbEntity
8
1
62
256
6
ByLayer
370
18
48
1
60
0
100
AcDbEllipse
10
8
20
34.95152
30
0
11
-1.2065
21
1.4774875658867E-16
31
0
210
0
220
0
230
1
40
0.996917
41
-1.6398289602068
42
-1.501763693383
0
ELLIPSE
5
20F
100
AcDbEntity
8
1
62
256
6
ByLayer
370
18
48
1
60
0
100
AcDbEllipse
10
7.304407
20
36.054391
30
0
11
0.292
21
0
31
0
210
0
220
0
230
1
40
0.996917
41
0.779534991873689
42
2.95519529453886
0
ELLIPSE
5
210
100
AcDbEntity
8
1
62
256
6
ByLayer
370
18
48
1
60
0
100
AcDbEllipse
10
8.695593
20
36.054391
30
0
11
0.292
21
0
31
0
210
0
220
0
230
1
40
0.996917
41
0.145851150212023
42
2.3620576617161
0
ELLIPSE
5
211
100
AcDbEntity
8
1
62
256
6
ByLayer
370
18
48
1
60
0
100
AcDbEllipse
10
8
20
36.739756
30
0
11
0.686
21
0
31
0
210
0
220
0
230
1
40
0.996917
41
-2.36205766171614
42
-1.69241036801179
0
ELLIPSE
5
212
100
AcDbEntity
8
1
62
256
6
ByLayer
370
18
48
1
60
0
100
AcDbEllipse
10
8
20
36.739756
30
0
11
0.686
21
0
31
0
210
0
220
0
230
1
40
0.996917
41
-1.449182285578
42
-0.779534991873643
0
ELLIPSE
5
213
100
AcDbEntity
8
1
62
256
6
ByLayer
370
18
48
1
60
0
100
AcDbEllipse
10
8
20
34.861006
30
0
11
-1.2065
21
1.4774875658867E-16
31
0
210
0
220
0
230
1
40
0.996917
41
-1.6398289602068
42
-1.501763693383
0
ELLIPSE
5
214
100
AcDbEntity
8
1
62
256
6
ByLayer
370
18
48
1
60
0
100
AcDbEllipse
10
8
20
34.861006
30
0
11
-1.2065
21
1.4774875658867E-16
31
0
210
0
220
0
230
1
40
0.996917
41
-0.52220350175763
42
0.349207196419583
0
ELLIPSE
5
215
100
AcDbEntity
8
1
62
256
6
ByLayer
370
18
48
1
60
0
100
AcDbEllipse
10
8
20
34.861006
30
0
11
-1.2065
21
1.4774875658867E-16
31
0
210
0
220
0
230
1
40
0.996917
41
-1.501763693383
42
-0.52220350175763
0
ELLIPSE
5
216
100
AcDbEntity
8
1
62
256
6
ByLayer
370
18
48
1
60
0
100
AcDbEllipse
10
8
20
9.410501
30
0
11
-2.25
21
2.75536429610035E-16
31
0
210
0
220
0
230
1
40
0.97237
41
0
42
6.28318530717959
0
ELLIPSE
5
217
100
AcDbEntity
8
1
62
256
6
ByLayer
370
18
48
1
60
0
100
AcDbEllipse
10
8
20
34.861006
30
0
11
-1.2065
21
1.4774875658867E-16
31
0
210
0
220
0
230
1
40
0.996917
41
2.77281912852466
42
-2.61938915183216
0
ELLIPSE
5
218
100
AcDbEntity
8
1
62
256
6
ByLayer
370
18
48
1
60
0
100
AcDbEllipse
10
8
20
34.861006
30
0
11
-1.2065
21
1.4774875658867E-16
31
0
210
0
220
0
230
1
40
0.996917
41
-2.61938915183216
42
-1.6398289602068
0
ELLIPSE
5
219
100
AcDbEntity
8
1
62
256
6
ByLayer
370
18
48
1
60
0
100
AcDbEllipse
10
8.5
20
-34.433232
30
0
11
-3.10920307045044E-16
21
5.07788165682083
31
0
210
0
220
0
230
-1
40
0.984663
41
1.5707963267949
42
3.14159265358979
0
ELLIPSE
5
21A
100
AcDbEntity
8
1
62
256
6
ByLayer
370
18
48
1
60
0
100
AcDbEllipse
10
7.5
20
-32.74526
30
0
11
5
21
0
31
0
210
0
220
0
230
1
40
0.96363
41
3.14159265358979
42
-3.12860934805679
0
ELLIPSE
5
21B
100
AcDbEntity
8
1
62
256
6
ByLayer
370
18
48
1
60
0
100
AcDbEllipse
10
7.5
20
-32.675127
30
0
11
-4.36725516420406E-16
21
7.13250449921723
31
0
210
0
220
0
230
-1
40
0.701016
41
-1.68157791959143
42
-1.60976989530884
0
ELLIPSE
5
21C
100
AcDbEntity
8
1
62
256
6
ByLayer
370
18
48
1
60
0
100
AcDbEllipse
10
7.5
20
-33.323146
30
0
11
5.00000000462341
21
5.05319528008441E-15
31
0
210
0
220
0
230
-1
40
0.50076
41
2.89815916459565
42
2.97132629335101
0
ELLIPSE
5
21D
100
AcDbEntity
8
1
62
256
6
ByLayer
370
18
48
1
60
0
100
AcDbEllipse
10
7.5
20
-32.74526
30
0
11
5
21
0
31
0
210
0
220
0
230
1
40
0.96363
41
-2.87129628206367
42
-2.82326050439133
0
ELLIPSE
5
21E
100
AcDbEntity
8
1
62
256
6
ByLayer
370
18
48
1
60
0
100
AcDbEllipse
10
7.5
20
-31.980821
30
0
11
1.04729501003237E-08
21
-7.1325044789934
31
0
210
0
220
0
230
-1
40
0.701016
41
1.14773353780387
42
1.2249811566887
0
ELLIPSE
5
21F
100
AcDbEntity
8
1
62
256
6
ByLayer
370
18
48
1
60
0
100
AcDbEllipse
10
7.5
20
-34.017451
30
0
11
5.00000004669796
21
1.5572919268035E-08
31
0
210
0
220
0
230
-1
40
0.50076
41
2.56992381480103
42
2.65293070501847
0
ELLIPSE
5
220
100
AcDbEntity
8
1
62
256
6
ByLayer
370
18
48
1
60
0
100
AcDbEllipse
10
7.5
20
-32.74526
30
0
11
-5
21
6.12303176911189E-16
31
0
210
0
220
0
230
1
40
0.96363
41
0.602879956568611
42
0.659830501638974
0
ELLIPSE
5
221
100
AcDbEntity
8
1
62
256
6
ByLayer
370
18
48
1
60
0
100
AcDbEllipse
10
7.5
20
-31.286516
30
0
11
6.41905949457372E-09
21
-7.13250448477681
31
0
210
0
220
0
230
-1
40
0.701016
41
0.780509484744724
42
0.877645992695036
0
ELLIPSE
5
222
100
AcDbEntity
8
1
62
256
6
ByLayer
370
18
48
1
60
0
100
AcDbEllipse
10
7.5
20
-34.711757
30
0
11
5.00000000335275
21
1.5872465036452E-09
31
0
210
0
220
0
230
-1
40
0.50076
41
2.14239667752675
42
2.26362110578637
0
ELLIPSE
5
223
100
AcDbEntity
8
1
62
256
6
ByLayer
370
18
48
1
60
0
100
AcDbEllipse
10
7.5
20
-32.74526
30
0
11
-5
21
6.12303176911189E-16
31
0
210
0
220
0
230
1
40
0.96363
41
1.04918428166409
42
1.15053644700383
0
ELLIPSE
5
224
100
AcDbEntity
8
1
62
256
6
ByLayer
370
18
48
1
60
0
100
AcDbEllipse
10
8.5
20
-30.59221
30
0
11
-4.36725515944537E-16
21
7.13250449144545
31
0
210
0
220
0
230
-1
40
0.701016
41
2.7904017915973
42
3.14159265358979
0
ELLIPSE
5
225
100
AcDbEntity
8
1
62
256
6
ByLayer
370
18
48
1
60
0
100
AcDbEllipse
10
8.5
20
-32.74526
30
0
11
-5
21
6.12303176911189E-16
31
0
210
0
220
0
230
1
40
0.96363
41
1.99105620658596
42
2.09240837192571
0
ELLIPSE
5
226
100
AcDbEntity
8
1
62
256
6
ByLayer
370
18
48
1
60
0
100
AcDbEllipse
10
8.5
20
-34.711757
30
0
11
5.00000000360983
21
-1.70865260784297E-09
31
0
210
0
220
0
230
-1
40
0.50076
41
0.877971547774789
42
0.999195976029841
0
ELLIPSE
5
227
100
AcDbEntity
8
1
62
256
6
ByLayer
370
18
48
1
60
0
100
AcDbEllipse
10
8.5
20
-31.286516
30
0
11
-4.36725515767927E-16
21
7.13250448856109
31
0
210
0
220
0
230
-1
40
0.701016
41
2.2639466618747
42
2.36108316980352
0
ELLIPSE
5
228
100
AcDbEntity
8
1
62
256
6
ByLayer
370
18
48
1
60
0
100
AcDbEllipse
10
8.5
20
-32.74526
30
0
11
-5
21
6.12303176911189E-16
31
0
210
0
220
0
230
1
40
0.96363
41
2.48176215195082
42
2.53871269702118
0
ELLIPSE
5
229
100
AcDbEntity
8
1
62
256
6
ByLayer
370
18
48
1
60
0
100
AcDbEllipse
10
8.5
20
-34.017451
30
0
11
5.00000003212971
21
-1.07554759662273E-08
31
0
210
0
220
0
230
-1
40
0.50076
41
0.488661949716956
42
0.571668840072628
0
ELLIPSE
5
22A
100
AcDbEntity
8
1
62
256
6
ByLayer
370
18
48
1
60
0
100
AcDbEllipse
10
8.5
20
-31.980821
30
0
11
8.08048988184527E-09
21
7.13250448194776
31
0
210
0
220
0
230
-1
40
0.701016
41
1.9166114972631
42
1.99385911611944
0
ELLIPSE
5
22B
100
AcDbEntity
8
1
62
256
6
ByLayer
370
18
48
1
60
0
100
AcDbEllipse
10
8.5
20
-32.74526
30
0
11
5
21
0
31
0
210
0
220
0
230
1
40
0.96363
41
-0.31833214919846
42
-0.270296371526119
0
ELLIPSE
5
22C
100
AcDbEntity
8
1
62
256
6
ByLayer
370
18
48
1
60
0
100
AcDbEllipse
10
8.5
20
-33.323146
30
0
11
5.00000000921416
21
-1.18294424306094E-09
31
0
210
0
220
0
230
-1
40
0.50076
41
0.170266360038416
42
0.243433488760876
0
ELLIPSE
5
22D
100
AcDbEntity
8
1
62
256
6
ByLayer
370
18
48
1
60
0
100
AcDbEllipse
10
8.5
20
-32.675127
30
0
11
-4.36725516499028E-16
21
7.13250450050127
31
0
210
0
220
0
230
-1
40
0.701016
41
1.60976989530188
42
1.68157791957147
0
ELLIPSE
5
22E
100
AcDbEntity
8
1
62
256
6
ByLayer
370
18
48
1
60
0
100
AcDbEllipse
10
7.5
20
-34.433232
30
0
11
-3.10920307045044E-16
21
5.07788165682083
31
0
210
0
220
0
230
-1
40
0.984663
41
3.14159265358979
42
-1.5707963267949
0
ELLIPSE
5
22F
100
AcDbEntity
8
1
62
256
6
ByLayer
370
18
48
1
60
0
100
AcDbEllipse
10
8.5
20
-32.74526
30
0
11
5
21
0
31
0
210
0
220
0
230
1
40
0.96363
41
-0.0129833055330014
42
-2.94944215418823E-15
0
ELLIPSE
5
230
100
AcDbEntity
8
1
62
256
6
ByLayer
370
18
48
1
60
0
100
AcDbEllipse
10
7.5
20
-30.59221
30
0
11
-4.36725515943957E-16
21
7.13250449143598
31
0
210
0
220
0
230
-1
40
0.701016
41
3.14159265358979
42
-2.79040179159706
0
ELLIPSE
5
231
100
AcDbEntity
8
1
62
256
6
ByLayer
370
18
48
1
60
0
100
AcDbEllipse
10
8
20
-19.763649
30
0
11
2.25
21
0
31
0
210
0
220
0
230
1
40
0.688355
41
-2.77324120676465
42
-0.36845016248615
0
ELLIPSE
5
232
100
AcDbEntity
8
1
62
256
6
ByLayer
370
18
48
1
60
0
100
AcDbEllipse
10
8
20
-19.219618
30
0
11
3
21
0
31
0
210
0
220
0
230
1
40
0.688355
41
-2.63304738297812
42
-1.89172964328383
0
ELLIPSE
5
233
100
AcDbEntity
8
1
62
256
6
ByLayer
370
18
48
1
60
0
100
AcDbEllipse
10
8
20
-19.219618
30
0
11
3
21
0
31
0
210
0
220
0
230
1
40
0.688355
41
-1.24996118291012
42
-0.508643374495399
0
ELLIPSE
5
234
100
AcDbEntity
8
1
62
256
6
ByLayer
370
18
48
1
60
0
100
AcDbEllipse
10
8
20
17.348964
30
0
11
-0.686
21
8.40079958722151E-17
31
0
210
0
220
0
230
1
40
0.566406
41
-1.449182285578
42
-0.779534991873649
0
ELLIPSE
5
235
100
AcDbEntity
8
1
62
256
6
ByLayer
370
18
48
1
60
0
100
AcDbEllipse
10
8
20
-34.614184
30
0
11
5.41554549010217
21
0
31
0
210
0
220
0
230
1
40
0.996917
41
-2.77853075241466
42
-2.71925639136748
0
ELLIPSE
5
236
100
AcDbEntity
8
1
62
256
6
ByLayer
370
18
48
1
60
0
100
AcDbEllipse
10
8
20
-34.614184
30
0
11
5.41554549010217
21
0
31
0
210
0
220
0
230
1
40
0.996917
41
-1.99313258901721
42
-1.93385822797003
0
ELLIPSE
5
237
100
AcDbEntity
8
1
62
256
6
ByLayer
370
18
48
1
60
0
100
AcDbEllipse
10
8
20
-34.614184
30
0
11
5.41554549010217
21
0
31
0
210
0
220
0
230
1
40
0.996917
41
-0.422336262222315
42
-0.363061901175135
0
ELLIPSE
5
238
100
AcDbEntity
8
1
62
256
6
ByLayer
370
18
48
1
60
0
100
AcDbEllipse
10
6.100029
20
-33.618984
30
0
11
3.38047337036308
21
2.67709028340559
31
0
210
0
220
0
230
-1
40
0.694562
41
3.03458919997863
42
-2.27088275457669
0
ELLIPSE
5
239
100
AcDbEntity
8
1
62
256
6
ByLayer
370
18
48
1
60
0
100
AcDbEllipse
10
2.1
20
16.288418
30
0
11
0.393999529375002
21
0.099933080344756
31
0
210
0
220
0
230
-1
40
0.690706
41
1.27340272590893
42
1.74422546626364
0
ELLIPSE
5
23A
100
AcDbEntity
8
1
62
256
6
ByLayer
370
18
48
1
60
0
100
AcDbEllipse
10
6.656518
20
-34.958325
30
0
11
2.12682272693838
21
4.36406207804909
31
0
210
0
220
0
230
-1
40
0.670288
41
2.75766151207365
42
-2.30576439561416
0
ELLIPSE
5
23B
100
AcDbEntity
8
1
62
256
6
ByLayer
370
18
48
1
60
0
100
AcDbEllipse
10
9.343482
20
-34.958325
30
0
11
2.12682272693991
21
-4.36406207805063
31
0
210
0
220
0
230
-1
40
0.670288
41
-0.835828257975345
42
0.383931141516154
0
ELLIPSE
5
23C
100
AcDbEntity
8
1
62
256
6
ByLayer
370
18
48
1
60
0
100
AcDbEllipse
10
8
20
-35.513098
30
0
11
-3.0984326300671E-16
21
5.06029161190603
31
0
210
0
220
0
230
-1
40
0.663567
41
2.53171295384396
42
-2.53171295384397
0
ELLIPSE
5
23D
100
AcDbEntity
8
1
62
256
6
ByLayer
370
18
48
1
60
0
100
AcDbEllipse
10
8
20
-34.614184
30
0
11
5.41554549010217
21
0
31
0
210
0
220
0
230
1
40
0.996917
41
-1.20773442561976
42
-1.14846006457258
0
ELLIPSE
5
23E
100
AcDbEntity
8
1
62
256
6
ByLayer
370
18
48
1
60
0
100
AcDbEllipse
10
8
20
34.905079
30
0
11
3.00752396831598
21
0
31
0
210
0
220
0
230
1
40
0.996917
41
-0.375911330399783
42
0
0
ELLIPSE
5
23F
100
AcDbEntity
8
1
62
256
6
ByLayer
370
18
48
1
60
0
100
AcDbEllipse
10
8
20
34.905079
30
0
11
3.00752396831598
21
0
31
0
210
0
220
0
230
1
40
0.996917
41
1.83940248191527
42
-2.76401249379382
0
ELLIPSE
5
240
100
AcDbEntity
8
1
62
256
6
ByLayer
370
13
48
1
60
0
100
AcDbEllipse
10
8
20
34.905079
30
0
11
3.00752396831598
21
0
31
0
210
0
220
0
230
1
40
0.996917
41
1.12606456840353
42
1.83940248191527
0
ELLIPSE
5
241
100
AcDbEntity
8
1
62
256
6
ByLayer
370
18
48
1
60
0
100
AcDbEllipse
10
8
20
34.905079
30
0
11
3.00752396831598
21
0
31
0
210
0
220
0
230
1
40
0.996917
41
0
42
1.12606445577106
0
ELLIPSE
5
242
100
AcDbEntity
8
1
62
256
6
ByLayer
370
13
48
1
60
0
100
AcDbEllipse
10
8
20
34.890752
30
0
11
-2.92865569377185
21
3.58645037075109E-16
31
0
210
0
220
0
230
1
40
0.996917
41
0
42
0.371787944007057
0
ELLIPSE
5
243
100
AcDbEntity
8
1
62
256
6
ByLayer
370
13
48
1
60
0
100
AcDbEllipse
10
8
20
34.890752
30
0
11
-2.92865569377185
21
3.58645037075109E-16
31
0
210
0
220
0
230
1
40
0.996917
41
2.7693138988646
42
0
0
ELLIPSE
5
244
100
AcDbEntity
8
1
62
256
6
ByLayer
370
18
48
1
60
0
100
AcDbEllipse
10
8
20
34.987649
30
0
11
3.08111510185448
21
0
31
0
210
0
220
0
230
1
40
0.996917
41
-0.400651358470717
42
0
0
ELLIPSE
5
245
100
AcDbEntity
8
1
62
256
6
ByLayer
370
18
48
1
60
0
100
AcDbEllipse
10
8
20
34.987649
30
0
11
3.08111510185448
21
0
31
0
210
0
220
0
230
1
40
0.996917
41
0
42
-2.73838874395383
0
ELLIPSE
5
246
100
AcDbEntity
8
1
62
256
6
ByLayer
370
18
48
1
60
0
100
AcDbEllipse
10
8
20
34.987649
30
0
11
-6
21
7.34763812293426E-16
31
0
210
0
220
0
230
1
40
0.996917
41
0
42
0.546637136361988
0
ELLIPSE
5
247
100
AcDbEntity
8
1
62
256
6
ByLayer
370
18
48
1
60
0
100
AcDbEllipse
10
8
20
34.987649
30
0
11
-6
21
7.34763812293426E-16
31
0
210
0
220
0
230
1
40
0.996917
41
2.5950536861643
42
0
0
ELLIPSE
5
248
100
AcDbEntity
8
1
62
256
6
ByLayer
370
18
48
1
60
0
100
AcDbEllipse
10
2.61018
20
25.304714
30
0
11
0.0484705760913206
21
-0.169561111330632
31
0
210
0
220
0
230
-1
40
0.251859
41
2.4247369903398
42
-2.8166476687085
0
ELLIPSE
5
249
100
AcDbEntity
8
1
62
256
6
ByLayer
370
18
48
1
60
0
100
AcDbEllipse
10
13.38982
20
25.304714
30
0
11
0.0484705760912777
21
0.169561111330558
31
0
210
0
220
0
230
-1
40
0.251859
41
-0.324944984881536
42
0.716855663250171
0
ELLIPSE
5
24A
100
AcDbEntity
8
1
62
256
6
ByLayer
370
18
48
1
60
0
100
AcDbEllipse
10
13.9
20
-3.961664
30
0
11
0.399580468102464
21
-0.0756102696983712
31
0
210
0
220
0
230
-1
40
0.242233
41
3.0957884368525
42
-1.61660054353181
0
ELLIPSE
5
24B
100
AcDbEntity
8
1
62
256
6
ByLayer
370
18
48
1
60
0
100
AcDbEllipse
10
2.1
20
-3.961664
30
0
11
0.399580468102631
21
0.0756102696984402
31
0
210
0
220
0
230
-1
40
0.242233
41
-1.52499211005754
42
0.0458042167372516
0
ELLIPSE
5
24C
100
AcDbEntity
8
1
62
256
6
ByLayer
370
18
48
1
60
0
100
AcDbEllipse
10
13.9
20
16.288418
30
0
11
0.393999529374834
21
-0.0999330803448701
31
0
210
0
220
0
230
-1
40
0.690706
41
1.39736718732552
42
1.86818992768038
0
ELLIPSE
5
24D
100
AcDbEntity
8
1
62
256
6
ByLayer
370
18
48
1
60
0
100
AcDbEllipse
10
13.9
20
-20.250083
30
0
11
0.359486646998206
21
-0.186670070322528
31
0
210
0
220
0
230
-1
40
0.93969
41
2.6876304516208
42
-2.02475852876316
0
ELLIPSE
5
24E
100
AcDbEntity
8
1
62
256
6
ByLayer
370
18
48
1
60
0
100
AcDbEllipse
10
2.1
20
-20.250083
30
0
11
0.359486646998109
21
0.18667007032295
31
0
210
0
220
0
230
-1
40
0.93969
41
-1.11683412482549
42
0.453962201969898
0
ELLIPSE
5
24F
100
AcDbEntity
8
1
62
256
6
ByLayer
370
18
48
1
60
0
100
AcDbEllipse
10
7.5
20
20.906171
30
0
11
4.99999999999996
21
5.05319527541177E-15
31
0
210
0
220
0
230
-1
40
0.577007
41
-2.63618879471312
42
-2.05766945338029
0
ELLIPSE
5
250
100
AcDbEntity
8
1
62
256
6
ByLayer
370
18
48
1
60
0
100
AcDbEllipse
10
7.5
20
20.906171
30
0
11
4.99999999999996
21
5.05319527541177E-15
31
0
210
0
220
0
230
-1
40
0.577007
41
3.14159265358979
42
-2.72231264956665
0
ELLIPSE
5
251
100
AcDbEntity
8
1
62
256
6
ByLayer
370
18
48
1
60
0
100
AcDbEllipse
10
8.5
20
30.980352
30
0
11
4.9999999999705
21
5.053195275382E-15
31
0
210
0
220
0
230
-1
40
0.50076
41
1.21960546480272
42
1.5707963267949
0
ELLIPSE
5
252
100
AcDbEntity
8
1
62
256
6
ByLayer
370
18
48
1
60
0
100
AcDbEllipse
10
8.5
20
25.333361
30
0
11
-5
21
6.12303176911189E-16
31
0
210
0
220
0
230
1
40
0.71325
41
-2.09240837192571
42
-1.99105620658596
0
ELLIPSE
5
253
100
AcDbEntity
8
1
62
256
6
ByLayer
370
18
48
1
60
0
100
AcDbEllipse
10
8.5
20
20.175659
30
0
11
-5.90033987830312E-16
21
9.63630453147058
31
0
210
0
220
0
230
-1
40
0.518871
41
0.571600350318957
42
0.692824778645663
0
ELLIPSE
5
254
100
AcDbEntity
8
1
62
256
6
ByLayer
370
18
48
1
60
0
100
AcDbEllipse
10
8.5
20
29.159336
30
0
11
4.99999999081757
21
3.97870019700738E-09
31
0
210
0
220
0
230
-1
40
0.50076
41
0.693150336012966
42
0.790286844015475
0
ELLIPSE
5
255
100
AcDbEntity
8
1
62
256
6
ByLayer
370
18
48
1
60
0
100
AcDbEllipse
10
8.5
20
25.333361
30
0
11
-5
21
6.12303176911189E-16
31
0
210
0
220
0
230
1
40
0.71325
41
-2.53871269702118
42
-2.48176215195082
0
ELLIPSE
5
256
100
AcDbEntity
8
1
62
256
6
ByLayer
370
18
48
1
60
0
100
AcDbEllipse
10
8.5
20
21.996674
30
0
11
-5.90033987637965E-16
21
9.63630452832921
31
0
210
0
220
0
230
-1
40
0.518871
41
0.999127483773026
42
1.08213437447147
0
ELLIPSE
5
257
100
AcDbEntity
8
1
62
256
6
ByLayer
370
18
48
1
60
0
100
AcDbEllipse
10
8.5
20
27.33832
30
0
11
5.00000000348451
21
5.0531952789334E-15
31
0
210
0
220
0
230
-1
40
0.50076
41
0.345815171630118
42
0.423062790361955
0
ELLIPSE
5
258
100
AcDbEntity
8
1
62
256
6
ByLayer
370
18
48
1
60
0
100
AcDbEllipse
10
8.5
20
25.333361
30
0
11
5
21
0
31
0
210
0
220
0
230
1
40
0.71325
41
0.270296371526119
42
0.31833214919846
0
ELLIPSE
5
259
100
AcDbEntity
8
1
62
256
6
ByLayer
370
18
48
1
60
0
100
AcDbEllipse
10
8.5
20
23.81769
30
0
11
-5.90033987820164E-16
21
9.63630453130485
31
0
210
0
220
0
230
-1
40
0.518871
41
1.32736283767453
42
1.40052996647184
0
ELLIPSE
5
25A
100
AcDbEntity
8
1
62
256
6
ByLayer
370
18
48
1
60
0
100
AcDbEllipse
10
8.5
20
25.517305
30
0
11
5.00000001455069
21
5.05319529011731E-15
31
0
210
0
220
0
230
-1
40
0.50076
41
0.0389735684992863
42
0.110781592754302
0
ELLIPSE
5
25B
100
AcDbEntity
8
1
62
256
6
ByLayer
370
18
48
1
60
0
100
AcDbEllipse
10
8.5
20
25.333361
30
0
11
5
21
0
31
0
210
0
220
0
230
1
40
0.71325
41
0
42
0.0129833055330004
0
ELLIPSE
5
25C
100
AcDbEntity
8
1
62
256
6
ByLayer
370
18
48
1
60
0
100
AcDbEllipse
10
7.5
20
25.333361
30
0
11
5
21
0
31
0
210
0
220
0
230
1
40
0.71325
41
3.12860934805679
42
3.14159265358979
0
ELLIPSE
5
25D
100
AcDbEntity
8
1
62
256
6
ByLayer
370
18
48
1
60
0
100
AcDbEllipse
10
7.5
20
25.517305
30
0
11
5.00000000575507
21
5.05319528122811E-15
31
0
210
0
220
0
230
-1
40
0.50076
41
3.03081106073814
42
3.10261908505682
0
ELLIPSE
5
25E
100
AcDbEntity
8
1
62
256
6
ByLayer
370
18
48
1
60
0
100
AcDbEllipse
10
7.5
20
23.81769
30
0
11
-5.90033988191272E-16
21
9.6363045373657
31
0
210
0
220
0
230
-1
40
0.518871
41
-1.4005299665667
42
-1.32736283781725
0
ELLIPSE
5
25F
100
AcDbEntity
8
1
62
256
6
ByLayer
370
18
48
1
60
0
100
AcDbEllipse
10
7.5
20
25.333361
30
0
11
5
21
0
31
0
210
0
220
0
230
1
40
0.71325
41
2.82326050439133
42
2.87129628206367
0
ELLIPSE
5
260
100
AcDbEntity
8
1
62
256
6
ByLayer
370
18
48
1
60
0
100
AcDbEllipse
10
7.5
20
27.33832
30
0
11
4.99999997456605
21
-6.30867515958468E-09
31
0
210
0
220
0
230
-1
40
0.50076
41
2.71852986141385
42
2.79577748039021
0
ELLIPSE
5
261
100
AcDbEntity
8
1
62
256
6
ByLayer
370
18
48
1
60
0
100
AcDbEllipse
10
7.5
20
21.996674
30
0
11
-5.90033988318062E-16
21
9.6363045394364
31
0
210
0
220
0
230
-1
40
0.518871
41
-1.08213437469857
42
-0.999127484109487
0
ELLIPSE
5
262
100
AcDbEntity
8
1
62
256
6
ByLayer
370
18
48
1
60
0
100
AcDbEllipse
10
7.5
20
25.333361
30
0
11
-5
21
6.12303176911189E-16
31
0
210
0
220
0
230
1
40
0.71325
41
-0.659830501638973
42
-0.602879956568611
0
ELLIPSE
5
263
100
AcDbEntity
8
1
62
256
6
ByLayer
370
18
48
1
60
0
100
AcDbEllipse
10
7.5
20
29.159336
30
0
11
4.99999999693754
21
-1.33665017692954E-09
31
0
210
0
220
0
230
-1
40
0.50076
41
2.35130581027315
42
2.44844231819866
0
ELLIPSE
5
264
100
AcDbEntity
8
1
62
256
6
ByLayer
370
18
48
1
60
0
100
AcDbEllipse
10
7.5
20
20.175659
30
0
11
-5.90033987513777E-16
21
9.636304526301
31
0
210
0
220
0
230
-1
40
0.518871
41
-0.692824778736443
42
-0.571600350355219
0
ELLIPSE
5
265
100
AcDbEntity
8
1
62
256
6
ByLayer
370
18
48
1
60
0
100
AcDbEllipse
10
7.5
20
25.333361
30
0
11
-5
21
6.12303176911189E-16
31
0
210
0
220
0
230
1
40
0.71325
41
-1.15053644700383
42
-1.04918428166409
0
ELLIPSE
5
266
100
AcDbEntity
8
1
62
256
6
ByLayer
370
18
48
1
60
0
100
AcDbEllipse
10
7.5
20
30.980352
30
0
11
4.9999999999672
21
5.05319527537867E-15
31
0
210
0
220
0
230
-1
40
0.50076
41
1.5707963267949
42
1.92198718878731
0
POINT
5
6C
100
AcDbEntity
8
81
62
256
6
ByLayer
370
18
48
1
60
0
100
AcDbPoint
10
14
20
41
30
0
39
0
210
0
220
0
230
1
50
360
0
POINT
5
6E
100
AcDbEntity
8
80
62
256
6
ByLayer
370
18
48
1
60
0
100
AcDbPoint
10
0
20
0
30
0
39
0
210
0
220
0
230
1
50
360
0
SPLINE
5
267
100
AcDbEntity
8
1
62
256
6
ByLayer
370
18
48
1
60
0
100
AcDbSpline
70
4
71
3
72
20
73
16
40
0
40
0
40
0
40
0
40
0.124999999999996
40
0.124999999999996
40
0.249999999999991
40
0.249999999999991
40
0.374999999999987
40
0.374999999999987
40
0.499999999999983
40
0.499999999999983
40
0.624999999999978
40
0.624999999999978
40
0.749999999999974
40
0.749999999999974
40
1
40
1
40
1
40
1
41
1
10
7.15770169633964
20
18.0630433343653
30
0
41
1
10
7.17228475827898
20
18.0678429940248
30
0
41
1
10
7.18746976390713
20
18.0724599185572
30
0
41
1
10
7.21903431851661
20
18.0813382403718
30
0
41
1
10
7.23549587407081
20
18.0856113372651
30
0
41
1
10
7.26812977143373
20
18.0934462216529
30
0
41
1
10
7.28448143767787
20
18.097061700217
30
0
41
1
10
7.3172444243923
20
18.1037410176725
30
0
41
1
10
7.33376349693157
20
18.1068179140111
30
0
41
1
10
7.36549836590728
20
18.1122241886003
30
0
41
1
10
7.38087812904234
20
18.1145902380905
30
0
41
1
10
7.41070993860933
20
18.1187326756228
30
0
41
1
10
7.42528030885302
20
18.1205205294278
30
0
41
1
10
7.46662144190321
20
18.1249616242754
30
0
41
1
10
7.49089117294682
20
18.1267155300778
30
0
41
1
10
7.51208902263602
20
18.1275200648175
30
0
0
SPLINE
5
268
100
AcDbEntity
8
1
62
256
6
ByLayer
370
18
48
1
60
0
100
AcDbSpline
70
4
71
3
72
18
73
14
40
0
40
0
40
0
40
0
40
0.250000000000006
40
0.250000000000006
40
0.500000000000012
40
0.500000000000012
40
0.625000000000009
40
0.625000000000009
40
0.750000000000006
40
0.750000000000006
40
0.875000000000003
40
0.875000000000003
40
1
40
1
40
1
40
1
41
1
10
8.48791097736392
20
18.1275200648175
30
0
41
1
10
8.50905730513449
20
18.1267174855202
30
0
41
1
10
8.53330695629813
20
18.1249690966475
30
0
41
1
10
8.5885510310851
20
18.1190349092392
30
0
41
1
10
8.61848684683019
20
18.1149553453317
30
0
41
1
10
8.66651239061059
20
18.1067694468651
30
0
41
1
10
8.68268169949772
20
18.1037546081789
30
0
41
1
10
8.7153377679266
20
18.0971000173988
30
0
41
1
10
8.73198553115668
20
18.0934209432738
30
0
41
1
10
8.76476620912888
20
18.085545983431
30
0
41
1
10
8.78082642998896
20
18.0813744893167
30
0
41
1
10
8.8122728934448
20
18.0725351850626
30
0
41
1
10
8.8277754632843
20
18.067823173564
30
0
41
1
10
8.8422983036603
20
18.0630433343653
30
0
0
SPLINE
5
269
100
AcDbEntity
8
1
62
256
6
ByLayer
370
18
48
1
60
0
100
AcDbSpline
70
4
71
3
72
16
73
12
40
0
40
0
40
0
40
0
40
0.249999999999995
40
0.249999999999995
40
0.499999999999991
40
0.499999999999991
40
0.624999999999989
40
0.624999999999989
40
0.749999999999987
40
0.749999999999987
40
1
40
1
40
1
40
1
41
1
10
8.48791097736392
20
18.1275200648175
30
0
41
1
10
8.46232436681424
20
18.1284911688379
30
0
41
1
10
8.43438472221948
20
18.1299243555138
30
0
41
1
10
8.37455347097222
20
18.1333492179414
30
0
41
1
10
8.3426651663944
20
18.1353393303046
30
0
41
1
10
8.2914317887068
20
18.1384028408778
30
0
41
1
10
8.27368693394391
20
18.1394411710164
30
0
41
1
10
8.23754318502097
20
18.1414367590106
30
0
41
1
10
8.21913035305158
20
18.1423951075241
30
0
41
1
10
8.16281836998559
20
18.1450434153238
30
0
41
1
10
8.12385708259222
20
18.1465048314647
30
0
41
1
10
8.08322173651726
20
18.147382933373
30
0
0
SPLINE
5
26A
100
AcDbEntity
8
1
62
256
6
ByLayer
370
18
48
1
60
0
100
AcDbSpline
70
4
71
3
72
14
73
10
40
0
40
0
40
0
40
0
40
0.25
40
0.25
40
0.5
40
0.5
40
0.75
40
0.75
40
1
40
1
40
1
40
1
41
1
10
7.91677826348268
20
18.147382933373
30
0
41
1
10
7.8761341869531
20
18.1465046428055
30
0
41
1
10
7.83641969843842
20
18.1450130912056
30
0
41
1
10
7.76116389379706
20
18.1414627269656
30
0
41
1
10
7.72526978199289
20
18.1394025209655
30
0
41
1
10
7.65656231117373
20
18.1352921139918
30
0
41
1
10
7.62468329515946
20
18.1333035559593
30
0
41
1
10
7.56524786452781
20
18.1299053347803
30
0
41
1
10
7.53766701829255
20
18.1284908418716
30
0
41
1
10
7.51208902263602
20
18.1275200648175
30
0
0
SPLINE
5
26B
100
AcDbEntity
8
1
62
256
6
ByLayer
370
18
48
1
60
0
100
AcDbSpline
70
4
71
3
72
18
73
14
40
0
40
0
40
0
40
0
40
0.250000000000006
40
0.250000000000006
40
0.500000000000012
40
0.500000000000012
40
0.625000000000009
40
0.625000000000009
40
0.750000000000006
40
0.750000000000006
40
0.875000000000003
40
0.875000000000003
40
1
40
1
40
1
40
1
41
1
10
9.46086539218533
20
17.4914289356158
30
0
41
1
10
9.48966006818762
20
17.4742603079294
30
0
41
1
10
9.5171610377605
20
17.4555824240474
30
0
41
1
10
9.5690349360703
20
17.4147051177932
30
0
41
1
10
9.59238646746638
20
17.3932913585046
30
0
41
1
10
9.62247288038344
20
17.3597928811468
30
0
41
1
10
9.63145250719572
20
17.3486359460487
30
0
41
1
10
9.6472522943551
20
17.3263090590215
30
0
41
1
10
9.65412354414474
20
17.315029941922
30
0
41
1
10
9.66517465200013
20
17.2930336607217
30
0
41
1
10
9.66936787342115
20
17.2823456055273
30
0
41
1
10
9.67504176223139
20
17.2615819787768
30
0
41
1
10
9.67649999999998
20
17.251434680048
30
0
41
1
10
9.67649999999998
20
17.2420110071803
30
0
0
SPLINE
5
26C
100
AcDbEntity
8
1
62
256
6
ByLayer
370
18
48
1
60
0
100
AcDbSpline
70
4
71
3
72
28
73
24
40
0
40
0
40
0
40
0
40
0.125000000000002
40
0.125000000000002
40
0.250000000000005
40
0.250000000000005
40
0.312500000000007
40
0.312500000000007
40
0.37500000000001
40
0.37500000000001
40
0.500000000000015
40
0.500000000000015
40
0.562500000000014
40
0.562500000000014
40
0.625000000000014
40
0.625000000000014
40
0.750000000000014
40
0.750000000000014
40
0.81250000000001
40
0.81250000000001
40
0.875000000000006
40
0.875000000000006
40
1
40
1
40
1
40
1
41
1
10
9.46086539218533
20
17.4914289356159
30
0
41
1
10
9.42006762999824
20
17.5157543209536
30
0
41
1
10
9.3797562187973
20
17.5415751014408
30
0
41
1
10
9.30210051579968
20
17.5945634090845
30
0
41
1
10
9.26472017514698
20
17.6217234591437
30
0
41
1
10
9.21086278357723
20
17.6631068019451
30
0
41
1
10
9.19318656921735
20
17.6770885949655
30
0
41
1
10
9.15940437141171
20
17.7045618999015
30
0
41
1
10
9.14323072834048
20
17.7181005511885
30
0
41
1
10
9.09692036240426
20
17.7579687173533
30
0
41
1
10
9.06874089710288
20
17.7838047302906
30
0
41
1
10
9.03366040621808
20
17.8183592002092
30
0
41
1
10
9.02305557363906
20
17.82927193596
30
0
41
1
10
9.00400639929666
20
17.8499214797241
30
0
41
1
10
8.99551661343651
20
17.85971643704
30
0
41
1
10
8.97369293668328
20
17.8869881025958
30
0
41
1
10
8.96412834281404
20
17.9021148609194
30
0
41
1
10
8.95631271661523
20
17.9214367498882
30
0
41
1
10
8.95481222174919
20
17.9273350227649
30
0
41
1
10
8.95397746014055
20
17.9379368403187
30
0
41
1
10
8.95462414466215
20
17.9426622658912
30
0
41
1
10
8.95952535043472
20
17.9553895369454
30
0
41
1
10
8.96671274532923
20
17.9619634198352
30
0
41
1
10
8.97764446770879
20
17.9670213515847
30
0
0
SPLINE
5
26D
100
AcDbEntity
8
1
62
256
6
ByLayer
370
18
48
1
60
0
100
AcDbSpline
70
4
71
3
72
18
73
14
40
0
40
0
40
0
40
0
40
0.250000000000005
40
0.250000000000005
40
0.500000000000009
40
0.500000000000009
40
0.625000000000007
40
0.625000000000007
40
0.750000000000004
40
0.750000000000004
40
0.875000000000002
40
0.875000000000002
40
1
40
1
40
1
40
1
41
1
10
7.02235553229121
20
17.9670213515847
30
0
41
1
10
7.0146341668281
20
17.9705939029329
30
0
41
1
10
7.01126804027479
20
17.9756603892522
30
0
41
1
10
7.01420771658923
20
17.9887334690577
30
0
41
1
10
7.02048306441691
20
17.9964888867959
30
0
41
1
10
7.03787601452041
20
18.0097198488566
30
0
41
1
10
7.04488435169679
20
18.0142965683976
30
0
41
1
10
7.0613696253717
20
18.0237469526132
30
0
41
1
10
7.07094870124087
20
18.0286672226691
30
0
41
1
10
7.09231182379386
20
18.0385626096019
30
0
41
1
10
7.10400172469508
20
18.0435038929685
30
0
41
1
10
7.12942170087865
20
18.0533522414506
30
0
41
1
10
7.14330401715125
20
18.0583046889232
30
0
41
1
10
7.15770169633964
20
18.0630433343653
30
0
0
SPLINE
5
26E
100
AcDbEntity
8
1
62
256
6
ByLayer
370
18
48
1
60
0
100
AcDbSpline
70
4
71
3
72
20
73
16
40
0
40
0
40
0
40
0
40
0.124999999999999
40
0.124999999999999
40
0.249999999999999
40
0.249999999999999
40
0.374999999999998
40
0.374999999999998
40
0.499999999999997
40
0.499999999999997
40
0.624999999999997
40
0.624999999999997
40
0.749999999999996
40
0.749999999999996
40
1
40
1
40
1
40
1
41
1
10
8.8422983036603
20
18.0630433343653
30
0
41
1
10
8.85673359425789
20
18.0582923100439
30
0
41
1
10
8.87034361991073
20
18.0534396850443
30
0
41
1
10
8.89591688261658
20
18.0435388609833
30
0
41
1
10
8.90787402410683
20
18.0384799892938
30
0
41
1
10
8.9291010371287
20
18.0286406808932
30
0
41
1
10
8.9385299348898
20
18.0238017040692
30
0
41
1
10
8.95509274133121
20
18.0143125059668
30
0
41
1
10
8.96223384419858
20
18.0096404678329
30
0
41
1
10
8.97370664661611
20
18.000904596974
30
0
41
1
10
8.9781376834195
20
17.9967895771277
30
0
41
1
10
8.98454862377355
20
17.9890795133304
30
0
41
1
10
8.98652913759128
20
17.9854567557915
30
0
41
1
10
8.98872819441078
20
17.9756768094151
30
0
41
1
10
8.98538475731095
20
17.970602658827
30
0
41
1
10
8.97764446770879
20
17.9670213515847
30
0
0
SPLINE
5
26F
100
AcDbEntity
8
1
62
256
6
ByLayer
370
18
48
1
60
0
100
AcDbSpline
70
4
71
3
72
28
73
24
40
0
40
0
40
0
40
0
40
0.124999999999995
40
0.124999999999995
40
0.24999999999999
40
0.24999999999999
40
0.312499999999987
40
0.312499999999987
40
0.374999999999985
40
0.374999999999985
40
0.499999999999987
40
0.499999999999987
40
0.562499999999989
40
0.562499999999989
40
0.624999999999991
40
0.624999999999991
40
0.749999999999995
40
0.749999999999995
40
0.812499999999997
40
0.812499999999997
40
0.874999999999998
40
0.874999999999998
40
1
40
1
40
1
40
1
41
1
10
7.02235553229121
20
17.9670213515847
30
0
41
1
10
7.0332950188328
20
17.9619598274826
30
0
41
1
10
7.04058148581447
20
17.9552770217177
30
0
41
1
10
7.04703454719896
20
17.9381867488506
30
0
41
1
10
7.04628167131273
20
17.9278155836149
30
0
41
1
10
7.03843453014008
20
17.9084685105161
30
0
41
1
10
7.03465141502477
20
17.9013297480664
30
0
41
1
10
7.02480350432114
20
17.8858617239306
30
0
41
1
10
7.01874309313376
20
17.8775173253792
30
0
41
1
10
6.99701249205134
20
17.8504186732472
30
0
41
1
10
6.97742212898009
20
17.8292389902026
30
0
41
1
10
6.94221787913528
20
17.7946182900963
30
0
41
1
10
6.9294869457795
20
17.782563656842
30
0
41
1
10
6.90204700264917
20
17.7574579972034
30
0
41
1
10
6.88723541423775
20
17.7443194341237
30
0
41
1
10
6.84049123091461
20
17.7041057063677
30
0
41
1
10
6.80685920398838
20
17.6767177801153
30
0
41
1
10
6.75301922348547
20
17.6353574065188
30
0
41
1
10
6.7343966129352
20
17.6214502532013
30
0
41
1
10
6.69671976562432
20
17.5941484368503
30
0
41
1
10
6.67762882848416
20
17.5807207854855
30
0
41
1
10
6.61959757085367
20
17.5411567579255
30
0
41
1
10
6.5799034136403
20
17.5157370559221
30
0
41
1
10
6.53913460781467
20
17.4914289356159
30
0
0
SPLINE
5
270
100
AcDbEntity
8
1
62
256
6
ByLayer
370
18
48
1
60
0
100
AcDbSpline
70
4
71
3
72
20
73
16
40
0
40
0
40
0
40
0
40
0.125000000000001
40
0.125000000000001
40
0.250000000000003
40
0.250000000000003
40
0.375000000000004
40
0.375000000000004
40
0.500000000000005
40
0.500000000000005
40
0.625000000000007
40
0.625000000000007
40
0.750000000000008
40
0.750000000000008
40
1
40
1
40
1
40
1
41
1
10
6.32349999999997
20
17.2420110071803
30
0
41
1
10
6.32349999999997
20
17.2514673867968
30
0
41
1
10
6.32492142583897
20
17.2614089148121
30
0
41
1
10
6.33060023641065
20
17.282266793534
30
0
41
1
10
6.33490698348891
20
17.2932150561505
30
0
41
1
10
6.34592927980719
20
17.3151159441786
30
0
41
1
10
6.35266820949977
20
17.3261895565612
30
0
41
1
10
6.36851771695439
20
17.3486009856018
30
0
41
1
10
6.3777081718232
20
17.3600026823976
30
0
41
1
10
6.39761855667206
20
17.3821545589589
30
0
41
1
10
6.40840956241237
20
17.3930212743306
30
0
41
1
10
6.43154737026077
20
17.4143934787147
30
0
41
1
10
6.44401221162502
20
17.4249880306875
30
0
41
1
10
6.48280333205196
20
17.4555511577144
30
0
41
1
10
6.51026794396802
20
17.4742173856719
30
0
41
1
10
6.53913460781467
20
17.4914289356159
30
0
0
SPLINE
5
271
100
AcDbEntity
8
1
62
256
6
ByLayer
370
18
48
1
60
0
100
AcDbSpline
70
4
71
3
72
18
73
14
40
0
40
0
40
0
40
0
40
0.250000000000012
40
0.250000000000012
40
0.500000000000024
40
0.500000000000024
40
0.625000000000018
40
0.625000000000018
40
0.750000000000012
40
0.750000000000012
40
0.875000000000006
40
0.875000000000006
40
1
40
1
40
1
40
1
41
1
10
6.53913460781467
20
17.172159999557
30
0
41
1
10
6.51033993181238
20
17.1638296601484
30
0
41
1
10
6.4828389622395
20
17.1588390095798
30
0
41
1
10
6.43096506392965
20
17.1559744073554
30
0
41
1
10
6.40761353253362
20
17.1581757338217
30
0
41
1
10
6.3775271196165
20
17.1672467788049
30
0
41
1
10
6.36854749280428
20
17.1711766054968
30
0
41
1
10
6.35274770564484
20
17.1808532239456
30
0
41
1
10
6.34587645585526
20
17.1866690511368
30
0
41
1
10
6.33482534799981
20
17.1999075638146
30
0
41
1
10
6.33063212657879
20
17.2072896665629
30
0
41
1
10
6.32495823776861
20
17.2235848719324
30
0
41
1
10
6.32349999999997
20
17.2325873343125
30
0
41
1
10
6.32349999999997
20
17.2420110071803
30
0
0
SPLINE
5
272
100
AcDbEntity
8
1
62
256
6
ByLayer
370
18
48
1
60
0
100
AcDbSpline
70
4
71
3
72
20
73
16
40
0
40
0
40
0
40
0
40
0.125000000000001
40
0.125000000000001
40
0.250000000000003
40
0.250000000000003
40
0.375000000000004
40
0.375000000000004
40
0.500000000000006
40
0.500000000000006
40
0.625000000000007
40
0.625000000000007
40
0.750000000000008
40
0.750000000000008
40
1
40
1
40
1
40
1
41
1
10
9.67649999999998
20
17.2420110071803
30
0
41
1
10
9.67649999999998
20
17.2325546275638
30
0
41
1
10
9.67507857416098
20
17.2237289832122
30
0
41
1
10
9.66939976358935
20
17.2073433259661
30
0
41
1
10
9.66509301651109
20
17.1997907165909
30
0
41
1
10
9.65407072019275
20
17.1866250587238
30
0
41
1
10
9.64733179050023
20
17.1809092548226
30
0
41
1
10
9.63148228304556
20
17.1711875489576
30
0
41
1
10
9.6222918281768
20
17.16718352133
30
0
41
1
10
9.60238144332794
20
17.1611979806169
30
0
41
1
10
9.59159043758757
20
17.1591560684773
30
0
41
1
10
9.56845262973923
20
17.1568983267779
30
0
41
1
10
9.55598778837498
20
17.1566930610458
30
0
41
1
10
9.51719666794799
20
17.1588407334465
30
0
41
1
10
9.48973205603198
20
17.1638088339659
30
0
41
1
10
9.46086539218533
20
17.172159999557
30
0
0
SPLINE
5
273
100
AcDbEntity
8
1
62
256
6
ByLayer
370
18
48
1
60
0
100
AcDbSpline
70
4
71
3
72
28
73
24
40
0
40
0
40
0
40
0
40
0.124999999999996
40
0.124999999999996
40
0.249999999999993
40
0.249999999999993
40
0.312499999999993
40
0.312499999999993
40
0.374999999999993
40
0.374999999999993
40
0.49999999999999
40
0.49999999999999
40
0.562499999999992
40
0.562499999999992
40
0.624999999999993
40
0.624999999999993
40
0.749999999999996
40
0.749999999999996
40
0.812499999999995
40
0.812499999999995
40
0.874999999999994
40
0.874999999999994
40
1
40
1
40
1
40
1
41
1
10
6.53913460781467
20
17.172159999557
30
0
41
1
10
6.57993237000176
20
17.1839628483233
30
0
41
1
10
6.6202437812027
20
17.1927951382623
30
0
41
1
10
6.69789948420026
20
17.2031211198887
30
0
41
1
10
6.73527982485297
20
17.204689113502
30
0
41
1
10
6.78913721642277
20
17.2003396297659
30
0
41
1
10
6.8068134307826
20
17.1977294885785
30
0
41
1
10
6.84059562858829
20
17.1900631308924
30
0
41
1
10
6.85676927165952
20
17.1850152609142
30
0
41
1
10
6.90307963759574
20
17.1659286760993
30
0
41
1
10
6.93125910289712
20
17.1475487135197
30
0
41
1
10
6.96633959378187
20
17.1128876731705
30
0
41
1
10
6.97694442636089
20
17.1001400120142
30
0
41
1
10
6.99599360070334
20
17.0722992808086
30
0
41
1
10
7.00448338656344
20
17.0571000498219
30
0
41
1
10
7.02630706331672
20
17.0087631874437
30
0
41
1
10
7.03587165718597
20
16.9735301947291
30
0
41
1
10
7.04368728338477
20
16.9171676333584
30
0
41
1
10
7.04518777825075
20
16.8976793220651
30
0
41
1
10
7.04602253985945
20
16.8583683896067
30
0
41
1
10
7.0453758553378
20
16.8385070254433
30
0
41
1
10
7.04047464956528
20
16.7784294115527
30
0
41
1
10
7.03328725467077
20
16.7377281083388
30
0
41
1
10
7.02235553229121
20
16.6965675835882
30
0
0
SPLINE
5
274
100
AcDbEntity
8
1
62
256
6
ByLayer
370
18
48
1
60
0
100
AcDbSpline
70
4
71
3
72
20
73
16
40
0
40
0
40
0
40
0
40
0.125
40
0.125
40
0.25
40
0.25
40
0.375
40
0.375
40
0.5
40
0.5
40
0.625
40
0.625
40
0.75
40
0.75
40
1
40
1
40
1
40
1
41
1
10
7.1577016963397
20
16.4209786799952
30
0
41
1
10
7.14326640574211
20
16.4257297043167
30
0
41
1
10
7.12965638008927
20
16.431698212914
30
0
41
1
10
7.10408311738342
20
16.4460712586056
30
0
41
1
10
7.09212597589311
20
16.4545257834266
30
0
41
1
10
7.0708989628713
20
16.4731003216998
30
0
41
1
10
7.0614700651102
20
16.4832971069472
30
0
41
1
10
7.04490725866873
20
16.5054760286417
30
0
41
1
10
7.03776615580136
20
16.5175457357975
30
0
41
1
10
7.02629335338389
20
16.54244794186
30
0
41
1
10
7.02186231658044
20
16.5553877648075
30
0
41
1
10
7.01545137622645
20
16.5822122916382
30
0
41
1
10
7.01347086240872
20
16.5962243362046
30
0
41
1
10
7.01127180558916
20
16.6387150803793
30
0
41
1
10
7.01461524268905
20
16.6674235593726
30
0
41
1
10
7.02235553229121
20
16.6965675835882
30
0
0
SPLINE
5
275
100
AcDbEntity
8
1
62
256
6
ByLayer
370
18
48
1
60
0
100
AcDbSpline
70
4
71
3
72
18
73
14
40
0
40
0
40
0
40
0
40
0.250000000000012
40
0.250000000000012
40
0.500000000000024
40
0.500000000000024
40
0.625000000000018
40
0.625000000000018
40
0.750000000000012
40
0.750000000000012
40
0.875000000000006
40
0.875000000000006
40
1
40
1
40
1
40
1
41
1
10
8.97764446770879
20
16.6965675835881
30
0
41
1
10
8.9853658331719
20
16.6674948132397
30
0
41
1
10
8.98873195972516
20
16.6387863122897
30
0
41
1
10
8.98579228341077
20
16.5819881718059
30
0
41
1
10
8.97951693558304
20
16.555021377148
30
0
41
1
10
8.96212398547959
20
16.5173264248454
30
0
41
1
10
8.95511564830315
20
16.5055188516946
30
0
41
1
10
8.93863037462825
20
16.4834195455281
30
0
41
1
10
8.92905129875913
20
16.4730422986083
30
0
41
1
10
8.90768817620614
20
16.4543778193696
30
0
41
1
10
8.89599827530486
20
16.4461309747492
30
0
41
1
10
8.87057829912135
20
16.4318163125424
30
0
41
1
10
8.85669598284875
20
16.4257173254374
30
0
41
1
10
8.8422983036603
20
16.4209786799952
30
0
0
SPLINE
5
276
100
AcDbEntity
8
1
62
256
6
ByLayer
370
18
48
1
60
0
100
AcDbSpline
70
4
71
3
72
28
73
24
40
0
40
0
40
0
40
0
40
0.125000000000007
40
0.125000000000007
40
0.250000000000014
40
0.250000000000014
40
0.312500000000014
40
0.312500000000014
40
0.375000000000014
40
0.375000000000014
40
0.500000000000016
40
0.500000000000016
40
0.562500000000014
40
0.562500000000014
40
0.625000000000013
40
0.625000000000013
40
0.750000000000012
40
0.750000000000012
40
0.81250000000001
40
0.81250000000001
40
0.875000000000008
40
0.875000000000008
40
1
40
1
40
1
40
1
41
1
10
8.97764446770879
20
16.6965675835882
30
0
41
1
10
8.96670498116714
20
16.7377573422485
30
0
41
1
10
8.95941851418553
20
16.7790932184167
30
0
41
1
10
8.95296545280104
20
16.8594977812713
30
0
41
1
10
8.95371832868727
20
16.898596990092
30
0
41
1
10
8.96156546985986
20
16.954977921731
30
0
41
1
10
8.96534858497523
20
16.9734883359487
30
0
41
1
10
8.97519649567886
20
17.0087633074824
30
0
41
1
10
8.98125690686624
20
17.0255984872963
30
0
41
1
10
9.00298750794866
20
17.0734787204811
30
0
41
1
10
9.02257787101985
20
17.1021144538114
30
0
41
1
10
9.05778212086472
20
17.1366285831768
30
0
41
1
10
9.0705130542205
20
17.1468482908995
30
0
41
1
10
9.09795299735083
20
17.1647627630448
30
0
41
1
10
9.11276458576225
20
17.1724970527745
30
0
41
1
10
9.15950876908533
20
17.1916455830642
30
0
41
1
10
9.19314079601162
20
17.1989272745586
30
0
41
1
10
9.24698077651453
20
17.2032469762447
30
0
41
1
10
9.26560338706474
20
17.2035640913545
30
0
41
1
10
9.30328023437562
20
17.2021567921519
30
0
41
1
10
9.32237117151578
20
17.2004485047055
30
0
41
1
10
9.38040242914633
20
17.1926621891687
30
0
41
1
10
9.42009658635965
20
17.183954471208
30
0
41
1
10
9.46086539218533
20
17.172159999557
30
0
0
SPLINE
5
277
100
AcDbEntity
8
1
62
256
6
ByLayer
370
18
48
1
60
0
100
AcDbSpline
70
4
71
3
72
18
73
14
40
0
40
0
40
0
40
0
40
0.250000000000003
40
0.250000000000003
40
0.500000000000006
40
0.500000000000006
40
0.625000000000004
40
0.625000000000004
40
0.750000000000003
40
0.750000000000003
40
0.875000000000002
40
0.875000000000002
40
1
40
1
40
1
40
1
41
1
10
7.51208902263602
20
16.5389354592292
30
0
41
1
10
7.49094269486551
20
16.5138954936251
30
0
41
1
10
7.46669304370187
20
16.4916654815844
30
0
41
1
10
7.41144896891484
20
16.453204666844
30
0
41
1
10
7.38151315316981
20
16.4377476816382
30
0
41
1
10
7.33348760938935
20
16.4210589900259
30
0
41
1
10
7.31731830050228
20
16.4167172346415
30
0
41
1
10
7.28466223207335
20
16.4104955107694
30
0
41
1
10
7.26801446884326
20
16.4086139323865
30
0
41
1
10
7.23523379087106
20
16.4075639035984
30
0
41
1
10
7.21917357001104
20
16.408367330995
30
0
41
1
10
7.1877271065552
20
16.4126538198918
30
0
41
1
10
7.1722245367157
20
16.4161988407966
30
0
41
1
10
7.1577016963397
20
16.4209786799952
30
0
0
SPLINE
5
278
100
AcDbEntity
8
1
62
256
6
ByLayer
370
18
48
1
60
0
100
AcDbSpline
70
4
71
3
72
20
73
16
40
0
40
0
40
0
40
0
40
0.124999999999998
40
0.124999999999998
40
0.249999999999996
40
0.249999999999996
40
0.374999999999995
40
0.374999999999995
40
0.499999999999993
40
0.499999999999993
40
0.624999999999991
40
0.624999999999991
40
0.749999999999989
40
0.749999999999989
40
1
40
1
40
1
40
1
41
1
10
8.8422983036603
20
16.4209786799952
30
0
41
1
10
8.82771524172102
20
16.4161790203358
30
0
41
1
10
8.81253023609281
20
16.4127007626054
30
0
41
1
10
8.78096568148339
20
16.4083745964177
30
0
41
1
10
8.76450412592919
20
16.4075622117766
30
0
41
1
10
8.73187022856627
20
16.4086278299396
30
0
41
1
10
8.71551856232213
20
16.4104677156593
30
0
41
1
10
8.6827555756077
20
16.4166965607212
30
0
41
1
10
8.66623650306843
20
16.421147733599
30
0
41
1
10
8.63450163409266
20
16.4321897917912
30
0
41
1
10
8.61912187095766
20
16.4387961599666
30
0
41
1
10
8.58929006139067
20
16.4540744905357
30
0
41
1
10
8.57471969114698
20
16.4628346986253
30
0
41
1
10
8.53337855809679
20
16.491614272342
30
0
41
1
10
8.50910882705313
20
16.513834485062
30
0
41
1
10
8.48791097736392
20
16.5389354592292
30
0
0
SPLINE
5
279
100
AcDbEntity
8
1
62
256
6
ByLayer
370
18
48
1
60
0
100
AcDbSpline
70
4
71
3
72
16
73
12
40
0
40
0
40
0
40
0
40
0.250000000000003
40
0.250000000000003
40
0.500000000000006
40
0.500000000000006
40
0.625000000000003
40
0.625000000000003
40
0.75
40
0.75
40
1
40
1
40
1
40
1
41
1
10
7.51208902263602
20
16.5389354592292
30
0
41
1
10
7.53767563318576
20
16.5692332894266
30
0
41
1
10
7.56561527778052
20
16.5979980337893
30
0
41
1
10
7.62544652902773
20
16.6508997112122
30
0
41
1
10
7.6573348336056
20
16.6750942801096
30
0
41
1
10
7.70856821129314
20
16.7073806168945
30
0
41
1
10
7.72631306605609
20
16.7175143945802
30
0
41
1
10
7.76245681497903
20
16.7359503842714
30
0
41
1
10
7.78086964694842
20
16.7442739681871
30
0
41
1
10
7.83718163001441
20
16.7664030782325
30
0
41
1
10
7.87614291740778
20
16.7773959590088
30
0
41
1
10
7.91677826348268
20
16.7838999892239
30
0
0
SPLINE
5
27A
100
AcDbEntity
8
1
62
256
6
ByLayer
370
18
48
1
60
0
100
AcDbSpline
70
4
71
3
72
14
73
10
40
0
40
0
40
0
40
0
40
0.25
40
0.25
40
0.5
40
0.5
40
0.75
40
0.75
40
1
40
1
40
1
40
1
41
1
10
8.08322173651726
20
16.7838999892239
30
0
41
1
10
8.1238658130469
20
16.7773945616258
30
0
41
1
10
8.16358030156158
20
16.7661687923565
30
0
41
1
10
8.23883610620294
20
16.7364635135955
30
0
41
1
10
8.27473021800711
20
16.7179520271434
30
0
41
1
10
8.34343768882627
20
16.6745602825461
30
0
41
1
10
8.37531670484054
20
16.6502751102372
30
0
41
1
10
8.43475213547219
20
16.5976219731301
30
0
41
1
10
8.46233298170745
20
16.5692230882876
30
0
41
1
10
8.48791097736392
20
16.5389354592292
30
0
0
SPLINE
5
27B
100
AcDbEntity
8
1
62
256
6
ByLayer
370
18
48
1
60
0
100
AcDbSpline
70
4
71
3
72
14
73
10
40
0
40
0
40
0
40
0
40
0.25
40
0.25
40
0.5
40
0.5
40
0.75
40
0.75
40
1
40
1
40
1
40
1
41
1
10
2.50042140963643
20
-7.42815192311144
30
0
41
1
10
2.50059315633763
20
-7.43146383188423
30
0
41
1
10
2.50081354412606
20
-7.4363670813982
30
0
41
1
10
2.50133845997118
20
-7.44926147911201
30
0
41
1
10
2.50164304192759
20
-7.45727877315755
30
0
41
1
10
2.50227534457918
20
-7.47556347727289
30
0
41
1
10
2.50261168978625
20
-7.48610276228874
30
0
41
1
10
2.50324214479213
20
-7.50857064536234
30
0
41
1
10
2.50353900214867
20
-7.52054323520099
30
0
41
1
10
2.50379686697715
20
-7.53328831275644
30
0
0
SPLINE
5
27C
100
AcDbEntity
8
1
62
256
6
ByLayer
370
18
48
1
60
0
100
AcDbSpline
70
4
71
3
72
22
73
18
40
0
40
0
40
0
40
0
40
0.125
40
0.125
40
0.25
40
0.25
40
0.375
40
0.375
40
0.5
40
0.5
40
0.625
40
0.625
40
0.75
40
0.75
40
0.875
40
0.875
40
1
40
1
40
1
40
1
41
1
10
2.53065003787179
20
-8.22316516668997
30
0
41
1
10
2.5314875861385
20
-8.23767628925526
30
0
41
1
10
2.53251189791655
20
-8.25132601587939
30
0
41
1
10
2.53497159681825
20
-8.27695911966208
30
0
41
1
10
2.53640842605012
20
-8.2888441646864
30
0
41
1
10
2.53958716902764
20
-8.30953646938582
30
0
41
1
10
2.54137441192643
20
-8.31861726796382
30
0
41
1
10
2.54515470141649
20
-8.33311157365478
30
0
41
1
10
2.5471783013017
20
-8.33868690156328
30
0
41
1
10
2.55137782829843
20
-8.34607821844389
30
0
41
1
10
2.55350902562907
20
-8.34785859379599
30
0
41
1
10
2.55782123341675
20
-8.34759752823055
30
0
41
1
10
2.55995869522309
20
-8.34551570581573
30
0
41
1
10
2.56401952167579
20
-8.33765723490723
30
0
41
1
10
2.56597909113719
20
-8.33176592624073
30
0
41
1
10
2.56945417094278
20
-8.31679770952553
30
0
41
1
10
2.57100991017762
20
-8.30760676344966
30
0
41
1
10
2.57230165757864
20
-8.29688921768764
30
0
0
SPLINE
5
27D
100
AcDbEntity
8
1
62
256
6
ByLayer
370
18
48
1
60
0
100
AcDbSpline
70
4
71
3
72
14
73
10
40
0
40
0
40
0
40
0
40
0.25
40
0.25
40
0.5
40
0.5
40
0.75
40
0.75
40
1
40
1
40
1
40
1
41
1
10
2.64741949197003
20
-7.78626299755234
30
0
41
1
10
2.6490892308546
20
-7.77667250508262
30
0
41
1
10
2.65111063335826
20
-7.76858362300129
30
0
41
1
10
2.65586147807699
20
-7.75525295731524
30
0
41
1
10
2.6585891745824
20
-7.75010354374348
30
0
41
1
10
2.66448677889969
20
-7.74324949152009
30
0
41
1
10
2.66773819057715
20
-7.74146758332915
30
0
41
1
10
2.67444621304514
20
-7.74133513350381
30
0
41
1
10
2.67792602250972
20
-7.74291058868477
30
0
41
1
10
2.68154098781389
20
-7.74617724114063
30
0
0
SPLINE
5
27E
100
AcDbEntity
8
1
62
256
6
ByLayer
370
18
48
1
60
0
100
AcDbSpline
70
4
71
3
72
14
73
10
40
0
40
0
40
0
40
0
40
0.25
40
0.25
40
0.5
40
0.5
40
0.75
40
0.75
40
1
40
1
40
1
40
1
41
1
10
2.79600274202358
20
-7.9088583188381
30
0
41
1
10
2.79356180840898
20
-7.89580141094552
30
0
41
1
10
2.79065013375049
20
-7.88362905107402
30
0
41
1
10
2.78399849986408
20
-7.86091547613336
30
0
41
1
10
2.78026267666559
20
-7.85046686469406
30
0
41
1
10
2.77242358376787
20
-7.83233796649739
30
0
41
1
10
2.76821619675013
20
-7.82442812164641
30
0
41
1
10
2.75977481608243
20
-7.81181083040042
30
0
41
1
10
2.75551067166549
20
-7.80699236713383
30
0
41
1
10
2.75120626163363
20
-7.8037219291931
30
0
0
SPLINE
5
27F
100
AcDbEntity
8
1
62
256
6
ByLayer
370
18
48
1
60
0
100
AcDbSpline
70
4
71
3
72
22
73
18
40
0
40
0
40
0
40
0
40
0.125
40
0.125
40
0.25
40
0.25
40
0.375
40
0.375
40
0.5
40
0.5
40
0.625
40
0.625
40
0.75
40
0.75
40
0.875
40
0.875
40
1
40
1
40
1
40
1
41
1
10
3.08519105759126
20
-8.67245922376935
30
0
41
1
10
3.08102508536581
20
-8.683636751015
30
0
41
1
10
3.07607703226472
20
-8.69287378725267
30
0
41
1
10
3.06486792318043
20
-8.70793944794701
30
0
41
1
10
3.05861617465854
20
-8.71366468422275
30
0
41
1
10
3.04556628873672
20
-8.72125927145441
30
0
41
1
10
3.03861087382052
20
-8.72321326662814
30
0
41
1
10
3.02463704943608
20
-8.72338965115165
30
0
41
1
10
3.01754067303591
20
-8.72166190301704
30
0
41
1
10
3.00333053778445
20
-8.71454702379964
30
0
41
1
10
2.99641768684734
20
-8.70927631540138
30
0
41
1
10
2.98296287368868
20
-8.69529990723083
30
0
41
1
10
2.9763903092595
20
-8.68648305265845
30
0
41
1
10
2.96434488257927
20
-8.66611101100307
30
0
41
1
10
2.9587228348671
20
-8.65435099296127
30
0
41
1
10
2.94868995617435
20
-8.62811861877395
30
0
41
1
10
2.94438337550304
20
-8.61398306952663
30
0
41
1
10
2.94082112633936
20
-8.59873517277163
30
0
0
SPLINE
5
280
100
AcDbEntity
8
1
62
256
6
ByLayer
370
18
48
1
60
0
100
AcDbSpline
70
4
71
3
72
14
73
10
40
0
40
0
40
0
40
0
40
0.25
40
0.25
40
0.5
40
0.5
40
0.75
40
0.75
40
1
40
1
40
1
40
1
41
1
10
3.3814697568439
20
-8.12174724722229
30
0
41
1
10
3.37290144151291
20
-8.11863071793124
30
0
41
1
10
3.36454508029021
20
-8.11703845479894
30
0
41
1
10
3.34824416312546
20
-8.11690466326701
30
0
41
1
10
3.340198840776
20
-8.11840964293822
30
0
41
1
10
3.32512811965944
20
-8.12481222982859
30
0
41
1
10
3.31811718084299
20
-8.12963941151696
30
0
41
1
10
3.30526947291673
20
-8.14310602662084
30
0
41
1
10
3.29964816996545
20
-8.15153462058976
30
0
41
1
10
3.29500378950354
20
-8.16183300363406
30
0
0
SPLINE
5
281
100
AcDbEntity
8
1
62
256
6
ByLayer
370
18
48
1
60
0
100
AcDbSpline
70
4
71
3
72
14
73
10
40
0
40
0
40
0
40
0
40
0.25
40
0.25
40
0.5
40
0.5
40
0.75
40
0.75
40
1
40
1
40
1
40
1
41
1
10
3.5495192877483
20
-8.17929193527482
30
0
41
1
10
3.55924693853478
20
-8.18243128115165
30
0
41
1
10
3.56888145130603
20
-8.18700800072412
30
0
41
1
10
3.58796021072652
20
-8.19897329798039
30
0
41
1
10
3.59750840255162
20
-8.20647190184548
30
0
41
1
10
3.61565255454519
20
-8.22407487919264
30
0
41
1
10
3.62428801755703
20
-8.23415369653299
30
0
41
1
10
3.64044359359684
20
-8.25742532217009
30
0
41
1
10
3.64770518176806
20
-8.27025103172662
30
0
41
1
10
3.65381557128734
20
-8.28442832491976
30
0
0
SPLINE
5
282
100
AcDbEntity
8
1
62
256
6
ByLayer
370
18
48
1
60
0
100
AcDbSpline
70
4
71
3
72
22
73
18
40
0
40
0
40
0
40
0
40
0.125
40
0.125
40
0.25
40
0.25
40
0.375
40
0.375
40
0.5
40
0.5
40
0.625
40
0.625
40
0.75
40
0.75
40
0.875
40
0.875
40
1
40
1
40
1
40
1
41
1
10
3.9817923657119
20
-8.97430517885334
30
0
41
1
10
3.99102165064909
20
-8.99191935136588
30
0
41
1
10
4.00197772386554
20
-9.00719265190173
30
0
41
1
10
4.02641475755394
20
-9.03441998046634
30
0
41
1
10
4.03968842849702
20
-9.04603982392825
30
0
41
1
10
4.06714678623695
20
-9.06557899665989
30
0
41
1
10
4.08161231453317
20
-9.07367311426083
30
0
41
1
10
4.11082832210235
20
-9.08640782626577
30
0
41
1
10
4.12556512023622
20
-9.09108417780499
30
0
41
1
10
4.15529064044154
20
-9.09735340139787
30
0
41
1
10
4.17041696891999
20
-9.09893809488921
30
0
41
1
10
4.20016429324846
20
-9.09880729581954
30
0
41
1
10
4.21475581603187
20
-9.09713271599537
30
0
41
1
10
4.24327508068802
20
-9.09023731820622
30
0
41
1
10
4.25737947127493
20
-9.08493984711953
30
0
41
1
10
4.28370522683031
20
-9.07001192581652
30
0
41
1
10
4.29586653599949
20
-9.06054228113186
30
0
41
1
10
4.30643380496952
20
-9.04802922985101
30
0
0
SPLINE
5
283
100
AcDbEntity
8
1
62
256
6
ByLayer
370
18
48
1
60
0
100
AcDbSpline
70
4
71
3
72
12
73
8
40
0
40
0
40
0
40
0
40
0.250000000000011
40
0.250000000000011
40
0.500000000000022
40
0.500000000000022
40
1
40
1
40
1
40
1
41
1
10
4.79510653191926
20
-8.53740300971572
30
0
41
1
10
4.80893548647504
20
-8.52471402657255
30
0
41
1
10
4.82482185648553
20
-8.5159956956262
30
0
41
1
10
4.85889519674618
20
-8.50276510988186
30
0
41
1
10
4.87686050785845
20
-8.49850765519011
30
0
41
1
10
4.93157494977947
20
-8.49065525372487
30
0
41
1
10
4.96995353723395
20
-8.49175512959545
30
0
41
1
10
5.00860772348773
20
-8.497317253304
30
0
0
SPLINE
5
284
100
AcDbEntity
8
1
62
256
6
ByLayer
370
18
48
1
60
0
100
AcDbSpline
70
4
71
3
72
12
73
8
40
0
40
0
40
0
40
0
40
0.249999999999993
40
0.249999999999993
40
0.499999999999986
40
0.499999999999986
40
1
40
1
40
1
40
1
41
1
10
5.77991886345626
20
-8.65999833100148
30
0
41
1
10
5.75563271466086
20
-8.64284970660827
30
0
41
1
10
5.72981735985559
20
-8.62972546674871
30
0
41
1
10
5.67706344234017
20
-8.60667463958464
30
0
41
1
10
5.64996612421663
20
-8.59696702547092
30
0
41
1
10
5.56888760333675
20
-8.57215938838669
30
0
41
1
10
5.51455885804518
20
-8.56096531207112
30
0
41
1
10
5.46001133674781
20
-8.55486194135648
30
0
0
SPLINE
5
285
100
AcDbEntity
8
1
62
256
6
ByLayer
370
18
48
1
60
0
100
AcDbSpline
70
4
71
3
72
12
73
8
40
0
40
0
40
0
40
0
40
0.500000000000005
40
0.500000000000005
40
0.750000000000002
40
0.750000000000002
40
1
40
1
40
1
40
1
41
1
10
10.5399886632516
20
-8.55486194135648
30
0
41
1
10
10.4852759894192
20
-8.56098379113524
30
0
41
1
10
10.4310556593393
20
-8.57219960215076
30
0
41
1
10
10.3505414468796
20
-8.59680039850224
30
0
41
1
10
10.3238440800493
20
-8.60632559915985
30
0
41
1
10
10.2709667032166
20
-8.62933686628458
30
0
41
1
10
10.2444875486577
20
-8.64276478781335
30
0
41
1
10
10.2200811365431
20
-8.65999833100148
30
0
0
SPLINE
5
286
100
AcDbEntity
8
1
62
256
6
ByLayer
370
18
48
1
60
0
100
AcDbSpline
70
4
71
3
72
12
73
8
40
0
40
0
40
0
40
0
40
0.5
40
0.5
40
0.75
40
0.75
40
1
40
1
40
1
40
1
41
1
10
10.9913922765117
20
-8.497317253304
30
0
41
1
10
11.0300399508742
20
-8.49175606662061
30
0
41
1
10
11.0678191085201
20
-8.49061597633175
30
0
41
1
10
11.1228783302601
20
-8.49844669652856
30
0
41
1
10
11.1409348008864
20
-8.50272644937075
30
0
41
1
10
11.1748446563162
20
-8.51583925588699
30
0
41
1
10
11.1910998894384
20
-8.52474648632028
30
0
41
1
10
11.2048934680801
20
-8.53740300971572
30
0
0
SPLINE
5
287
100
AcDbEntity
8
1
62
256
6
ByLayer
370
18
48
1
60
0
100
AcDbSpline
70
4
71
3
72
22
73
18
40
0
40
0
40
0
40
0
40
0.125
40
0.125
40
0.25
40
0.25
40
0.375
40
0.375
40
0.5
40
0.5
40
0.625
40
0.625
40
0.75
40
0.75
40
0.875
40
0.875
40
1
40
1
40
1
40
1
41
1
10
11.6935661950299
20
-9.04802922985101
30
0
41
1
10
11.7041387776904
20
-9.06054857324779
30
0
41
1
10
11.7162612822365
20
-9.06997641919645
30
0
41
1
10
11.7424127418999
20
-9.08483838647027
30
0
41
1
10
11.7565721301923
20
-9.09019169176844
30
0
41
1
10
11.7852014705636
20
-9.09713101467162
30
0
41
1
10
11.7998298590229
20
-9.09880815160591
30
0
41
1
10
11.829612868924
20
-9.09893734387703
30
0
41
1
10
11.844725410133
20
-9.09735228097014
30
0
41
1
10
11.8744822634732
20
-9.09107191487146
30
0
41
1
10
11.8892501751519
20
-9.08638378260054
30
0
41
1
10
11.9185608260623
20
-9.07358738599254
30
0
41
1
10
11.9329420074569
20
-9.06552508590175
30
0
41
1
10
11.9603982544492
20
-9.04596880730037
30
0
41
1
10
11.9737602057587
20
-9.03424209190729
30
0
41
1
10
11.998045260353
20
-9.00714985116502
30
0
41
1
10
12.0089726049717
20
-8.9919303145636
30
0
41
1
10
12.0182076342875
20
-8.97430517885334
30
0
0
SPLINE
5
288
100
AcDbEntity
8
1
62
256
6
ByLayer
370
18
48
1
60
0
100
AcDbSpline
70
4
71
3
72
14
73
10
40
0
40
0
40
0
40
0
40
0.25
40
0.25
40
0.5
40
0.5
40
0.75
40
0.75
40
1
40
1
40
1
40
1
41
1
10
12.346184428712
20
-8.28442832491976
30
0
41
1
10
12.3522968117876
20
-8.27024640628787
30
0
41
1
10
12.3594921336738
20
-8.25754496243121
30
0
41
1
10
12.3755055054056
20
-8.2344245165566
30
0
41
1
10
12.384289398256
20
-8.22413786324677
30
0
41
1
10
12.4024459621288
20
-8.20650954579821
30
0
41
1
10
12.4119924483369
20
-8.1990059264528
30
0
41
1
10
12.431109639395
20
-8.18701065837649
30
0
41
1
10
12.440753788318
20
-8.18243104657864
30
0
41
1
10
12.4504807122511
20
-8.17929193527482
30
0
0
SPLINE
5
289
100
AcDbEntity
8
1
62
256
6
ByLayer
370
18
48
1
60
0
100
AcDbSpline
70
4
71
3
72
14
73
10
40
0
40
0
40
0
40
0
40
0.25
40
0.25
40
0.5
40
0.5
40
0.75
40
0.75
40
1
40
1
40
1
40
1
41
1
10
12.7049962104958
20
-8.16183300363406
30
0
41
1
10
12.7003527042077
20
-8.15153655897012
30
0
41
1
10
12.6947863359955
20
-8.14319449282794
30
0
41
1
10
12.6820510183839
20
-8.1297862666276
30
0
41
1
10
12.6749248234527
20
-8.12484586087152
30
0
41
1
10
12.6598812515676
20
-8.11843262821316
30
0
41
1
10
12.6518190804066
20
-8.11690887168294
30
0
41
1
10
12.6354659782442
20
-8.11703365797069
30
0
41
1
10
12.6270965517442
20
-8.11863144783797
30
0
41
1
10
12.6185302431555
20
-8.12174724722229
30
0
0
SPLINE
5
28A
100
AcDbEntity
8
1
62
256
6
ByLayer
370
18
48
1
60
0
100
AcDbSpline
70
4
71
3
72
22
73
18
40
0
40
0
40
0
40
0
40
0.125
40
0.125
40
0.25
40
0.25
40
0.375
40
0.375
40
0.5
40
0.5
40
0.625
40
0.625
40
0.75
40
0.75
40
0.875
40
0.875
40
1
40
1
40
1
40
1
41
1
10
13.05917887366
20
-8.59873517277163
30
0
41
1
10
13.0556176030089
20
-8.61397888108877
30
0
41
1
10
13.0513202106442
20
-8.62807819747718
30
0
41
1
10
13.0413380873528
20
-8.65420544377997
30
0
41
1
10
13.0356764772017
20
-8.6660760634233
30
0
41
1
10
13.0235788820008
20
-8.68653398003511
30
0
41
1
10
13.0170063802161
20
-8.69533821149702
30
0
41
1
10
13.0035466677868
20
-8.70930694487265
30
0
41
1
10
12.996529674874
20
-8.71463659408721
30
0
41
1
10
12.9823693578004
20
-8.72168704930726
30
0
41
1
10
12.9753221761505
20
-8.72339996670871
30
0
41
1
10
12.961305744294
20
-8.72320128755518
30
0
41
1
10
12.954386582496
20
-8.72123588464518
30
0
41
1
10
12.9413922746649
20
-8.71366554887516
30
0
41
1
10
12.9351441043893
20
-8.70795321362925
30
0
41
1
10
12.9239261922743
20
-8.69288051798617
30
0
41
1
10
12.9189758332654
20
-8.68363921575371
30
0
41
1
10
12.9148089424081
20
-8.67245922376935
30
0
0
SPLINE
5
28B
100
AcDbEntity
8
1
62
256
6
ByLayer
370
18
48
1
60
0
100
AcDbSpline
70
4
71
3
72
14
73
10
40
0
40
0
40
0
40
0
40
0.250000000000006
40
0.250000000000006
40
0.500000000000004
40
0.500000000000004
40
0.750000000000002
40
0.750000000000002
40
1
40
1
40
1
40
1
41
1
10
13.2487937383657
20
-7.8037219291931
30
0
41
1
10
13.244489601877
20
-7.80699215929911
30
0
41
1
10
13.2402206009173
20
-7.81181415305508
30
0
41
1
10
13.2317601906731
20
-7.82446695455911
30
0
41
1
10
13.2275605631079
20
-7.83237237803991
30
0
41
1
10
13.2197382577272
20
-7.85046695890708
30
0
41
1
10
13.2160050025992
20
-7.86090440774655
30
0
41
1
10
13.2093502751835
20
-7.88362676359066
30
0
41
1
10
13.2064381207919
20
-7.89580178965679
30
0
41
1
10
13.2039972579758
20
-7.9088583188381
30
0
0
SPLINE
5
28C
100
AcDbEntity
8
1
62
256
6
ByLayer
370
18
48
1
60
0
100
AcDbSpline
70
4
71
3
72
8
73
4
40
0
40
0
40
0
40
0
40
1
40
1
40
1
40
1
41
1
10
13.3184590121855
20
-7.74617724114063
30
0
41
1
10
13.3219943683956
20
-7.74298252720166
30
0
41
1
10
13.3254068951409
20
-7.74139953512139
30
0
41
1
10
13.3287039103117
20
-7.74139934932373
30
0
0
SPLINE
5
28D
100
AcDbEntity
8
1
62
256
6
ByLayer
370
18
48
1
60
0
100
AcDbSpline
70
4
71
3
72
12
73
8
40
0
40
0
40
0
40
0
40
0.249145972043261
40
0.249145972043261
40
0.62457298602163
40
0.62457298602163
40
1
40
1
40
1
40
1
41
1
10
13.3322731684072
20
-7.74205510638046
30
0
41
1
10
13.3344378746856
20
-7.74286426942649
30
0
41
1
10
13.3365218654675
20
-7.74441795632248
30
0
41
1
10
13.3414180149896
20
-7.75011759206842
30
0
41
1
10
13.3441508523321
20
-7.75528270218018
30
0
41
1
10
13.3488911419235
20
-7.76859347256351
30
0
41
1
10
13.3509108350403
20
-7.77667288356736
30
0
41
1
10
13.3525805080293
20
-7.7862629975524
30
0
0
SPLINE
5
28E
100
AcDbEntity
8
1
62
256
6
ByLayer
370
18
48
1
60
0
100
AcDbSpline
70
4
71
3
72
22
73
18
40
0
40
0
40
0
40
0
40
0.125
40
0.125
40
0.25
40
0.25
40
0.375
40
0.375
40
0.5
40
0.5
40
0.625
40
0.625
40
0.75
40
0.75
40
0.875
40
0.875
40
1
40
1
40
1
40
1
41
1
10
13.4276983424207
20
-8.29688921768764
30
0
41
1
10
13.4289901997354
20
-8.3076076753967
30
0
41
1
10
13.4305254590739
20
-8.31669641244491
30
0
41
1
10
13.4340130840207
20
-8.33174567058518
30
0
41
1
10
13.4359648979459
20
-8.33761521037451
30
0
41
1
10
13.4400216511577
20
-8.34548944320665
30
0
41
1
10
13.442182674466
20
-8.3475917979801
30
0
41
1
10
13.4464671135589
20
-8.3478630883522
30
0
41
1
10
13.448622010736
20
-8.34607969740125
30
0
41
1
10
13.452825618844
20
-8.33867880524326
30
0
41
1
10
13.4548235599971
20
-8.33318658199482
30
0
41
1
10
13.4586256978819
20
-8.31862514089943
30
0
41
1
10
13.4603971566178
20
-8.30962370288393
30
0
41
1
10
13.4635789554571
20
-8.28894097487887
30
0
41
1
10
13.4650227384033
20
-8.27700258243704
30
0
41
1
10
13.4674747829172
20
-8.25148026913428
30
0
41
1
10
13.4685123626312
20
-8.23767717684615
30
0
41
1
10
13.4693499621276
20
-8.22316516668997
30
0
0
SPLINE
5
28F
100
AcDbEntity
8
1
62
256
6
ByLayer
370
18
48
1
60
0
100
AcDbSpline
70
4
71
3
72
14
73
10
40
0
40
0
40
0
40
0
40
0.25
40
0.25
40
0.5
40
0.5
40
0.75
40
0.75
40
1
40
1
40
1
40
1
41
1
10
13.4962031330222
20
-7.53328831275644
30
0
41
1
10
13.496460997324
20
-7.52054326123391
30
0
41
1
10
13.4967585085041
20
-7.50854075401918
30
0
41
1
10
13.4973920597705
20
-7.48597579272109
30
0
41
1
10
13.4977269681813
20
-7.47549286291411
30
0
41
1
10
13.4983591256675
20
-7.45721985271155
30
0
41
1
10
13.4986647587768
20
-7.44917994111347
30
0
41
1
10
13.4991868773968
20
-7.4363592145038
30
0
41
1
10
13.4994068435486
20
-7.43146383406634
30
0
41
1
10
13.4995785903629
20
-7.42815192311144
30
0
0
SPLINE
5
290
100
AcDbEntity
8
1
62
256
6
ByLayer
370
18
48
1
60
0
100
AcDbSpline
70
4
71
3
72
18
73
14
40
0
40
0
40
0
40
0
40
0.25
40
0.25
40
0.5
40
0.5
40
0.625
40
0.625
40
0.75
40
0.75
40
0.875
40
0.875
40
1
40
1
40
1
40
1
41
1
10
6.53913460781467
20
34.6832936385873
30
0
41
1
10
6.51033993181238
20
34.6922854488882
30
0
41
1
10
6.4828389622395
20
34.7054573809973
30
0
41
1
10
6.43096506392965
20
34.7409921572876
30
0
41
1
10
6.40761353253362
20
34.762688854147
30
0
41
1
10
6.37752711961656
20
34.8013144051241
30
0
41
1
10
6.36854749280423
20
34.8149353399737
30
0
41
1
10
6.35274770564484
20
34.8437017917316
30
0
41
1
10
6.34587645585526
20
34.8590060420662
30
0
41
1
10
6.33482534799981
20
34.8904308600453
30
0
41
1
10
6.33063212657879
20
34.9064906426069
30
0
41
1
10
6.32495823776861
20
34.9393165035771
30
0
41
1
10
6.32349999999997
20
34.9562235051731
30
0
41
1
10
6.32349999999997
20
34.9728098741373
30
0
0
SPLINE
5
291
100
AcDbEntity
8
1
62
256
6
ByLayer
370
18
48
1
60
0
100
AcDbSpline
70
4
71
3
72
20
73
16
40
0
40
0
40
0
40
0
40
0.201940251626194
40
0.201940251626194
40
0.403880503252388
40
0.403880503252388
40
0.504850629065494
40
0.504850629065494
40
0.6058207548786
40
0.6058207548786
40
0.807761006504814
40
0.807761006504814
40
0.908731132317933
40
0.908731132317933
40
1
40
1
40
1
40
1
41
1
10
6.53913460781467
20
34.6832936385873
30
0
41
1
10
6.57993237000176
20
34.6705535842017
30
0
41
1
10
6.6202437812027
20
34.653953543165
30
0
41
1
10
6.69789948420026
20
34.6133952532423
30
0
41
1
10
6.73527982485297
20
34.5895057920002
30
0
41
1
10
6.78913721642277
20
34.5474963316836
30
0
41
1
10
6.8068134307826
20
34.5323535028201
30
0
41
1
10
6.84059562858829
20
34.5004864476945
30
0
41
1
10
6.85676927165952
20
34.4837254410678
30
0
41
1
10
6.90307963759574
20
34.4308538237899
30
0
41
1
10
6.93125910289712
20
34.3915871937425
30
0
41
1
10
6.96633959378187
20
34.3306800295848
30
0
41
1
10
6.97694442636089
20
34.3099453406163
30
0
41
1
10
6.99507847379829
20
34.2696479847668
30
0
41
1
10
7.00284242844066
20
34.2500478405099
30
0
41
1
10
7.00962762122748
20
34.2303239519899
30
0
0
SPLINE
5
292
100
AcDbEntity
8
1
62
256
6
ByLayer
370
18
48
1
60
0
100
AcDbSpline
70
4
71
3
72
20
73
16
40
0
40
0
40
0
40
0
40
0.199199643404268
40
0.199199643404268
40
0.299299687978722
40
0.299299687978722
40
0.399399732553175
40
0.399399732553175
40
0.599599821702103
40
0.599599821702103
40
0.699699866276576
40
0.699699866276576
40
0.799799910851048
40
0.799799910851048
40
1
40
1
40
1
40
1
41
1
10
8.98871800832205
20
34.2254545953167
30
0
41
1
10
9.00318339989099
20
34.2685695193062
30
0
41
1
10
9.02269515349161
20
34.3118222074555
30
0
41
1
10
9.05778212086472
20
34.3724658066773
30
0
41
1
10
9.0705130542205
20
34.3921554045884
30
0
41
1
10
9.09795299735083
20
34.4303570395982
30
0
41
1
10
9.11276458576225
20
34.4489831814182
30
0
41
1
10
9.15950876908533
20
34.5022269206711
30
0
41
1
10
9.19314079601162
20
34.5336945652309
30
0
41
1
10
9.24698077651453
20
34.5756579267717
30
0
41
1
10
9.26560338706474
20
34.5888227194831
30
0
41
1
10
9.30328023437562
20
34.6129774564479
30
0
41
1
10
9.32237117151578
20
34.6240114265406
30
0
41
1
10
9.38040242914633
20
34.6542309432189
30
0
41
1
10
9.42009658635965
20
34.670562626502
30
0
41
1
10
9.46086539218533
20
34.6832936385873
30
0
0
SPLINE
5
293
100
AcDbEntity
8
1
62
256
6
ByLayer
370
18
48
1
60
0
100
AcDbSpline
70
4
71
3
72
20
73
16
40
0
40
0
40
0
40
0
40
0.125
40
0.125
40
0.25
40
0.25
40
0.375
40
0.375
40
0.5
40
0.5
40
0.625
40
0.625
40
0.75
40
0.75
40
1
40
1
40
1
40
1
41
1
10
9.67649999999998
20
34.9728098741373
30
0
41
1
10
9.67649999999998
20
34.9561659388494
30
0
41
1
10
9.67507857416098
20
34.9395970078395
30
0
41
1
10
9.66939976358935
20
34.9066084196872
30
0
41
1
10
9.66509301651109
20
34.8901653227756
30
0
41
1
10
9.65407072019275
20
34.8588896421696
30
0
41
1
10
9.64733179050023
20
34.8438592889671
30
0
41
1
10
9.63148228304556
20
34.8149768803706
30
0
41
1
10
9.6222918281768
20
34.8010671275488
30
0
41
1
10
9.60238144332794
20
34.7755356082931
30
0
41
1
10
9.59159043758757
20
34.7637554605646
30
0
41
1
10
9.56845262973923
20
34.7420503495747
30
0
41
1
10
9.55598778837498
20
34.7320515617682
30
0
41
1
10
9.51719666794799
20
34.7054878198689
30
0
41
1
10
9.48973205603198
20
34.6923079287744
30
0
41
1
10
9.46086539218533
20
34.6832936385873
30
0
0
SPLINE
5
294
100
AcDbEntity
8
1
62
256
6
ByLayer
370
18
48
1
60
0
100
AcDbSpline
70
4
71
3
72
18
73
14
40
0
40
0
40
0
40
0
40
0.25
40
0.25
40
0.5
40
0.5
40
0.625
40
0.625
40
0.75
40
0.75
40
0.875
40
0.875
40
1
40
1
40
1
40
1
41
1
10
9.46086539218533
20
35.2452308414819
30
0
41
1
10
9.48966006818762
20
35.2386666034727
30
0
41
1
10
9.5171610377605
20
35.2277479813977
30
0
41
1
10
9.56903493607035
20
35.1963775559458
30
0
41
1
10
9.59238646746638
20
35.1765099359036
30
0
41
1
10
9.62247288038344
20
35.1402099441449
30
0
41
1
10
9.63145250719572
20
35.1272770500323
30
0
41
1
10
9.6472522943551
20
35.0997149388804
30
0
41
1
10
9.65412354414474
20
35.0849308088766
30
0
41
1
10
9.66517465200013
20
35.0543397547172
30
0
41
1
10
9.66936787342115
20
35.0385947079849
30
0
41
1
10
9.67504176223139
20
35.0061942531063
30
0
41
1
10
9.67649999999998
20
34.9893962431015
30
0
41
1
10
9.67649999999998
20
34.9728098741373
30
0
0
SPLINE
5
295
100
AcDbEntity
8
1
62
256
6
ByLayer
370
18
48
1
60
0
100
AcDbSpline
70
4
71
3
72
18
73
14
40
0
40
0
40
0
40
0
40
0.250000000000001
40
0.250000000000001
40
0.500000000000002
40
0.500000000000002
40
0.625000000000002
40
0.625000000000002
40
0.750000000000001
40
0.750000000000001
40
0.875000000000001
40
0.875000000000001
40
1
40
1
40
1
40
1
41
1
10
7.02235553229121
20
36.0823090591327
30
0
41
1
10
7.0146341668281
20
36.1122520085981
30
0
41
1
10
7.01126804027484
20
36.1431006529053
30
0
41
1
10
7.01420771658923
20
36.2066713127401
30
0
41
1
10
7.02048306441691
20
36.2381426460855
30
0
41
1
10
7.03787601452041
20
36.2841238746995
30
0
41
1
10
7.04488435169679
20
36.2988868635351
30
0
41
1
10
7.0613696253717
20
36.3272538769406
30
0
41
1
10
7.07094870124087
20
36.3409760235211
30
0
41
1
10
7.09231182379386
20
36.3665271945654
30
0
41
1
10
7.10400172469508
20
36.3782905896017
30
0
41
1
10
7.12942170087865
20
36.3997675452004
30
0
41
1
10
7.14330401715125
20
36.4095477977247
30
0
41
1
10
7.15770169633964
20
36.4178881680662
30
0
0
SPLINE
5
296
100
AcDbEntity
8
1
62
256
6
ByLayer
370
18
48
1
60
0
100
AcDbSpline
70
4
71
3
72
28
73
24
40
0
40
0
40
0
40
0
40
0.124999999999982
40
0.124999999999982
40
0.249999999999965
40
0.249999999999965
40
0.312499999999956
40
0.312499999999956
40
0.374999999999947
40
0.374999999999947
40
0.499999999999946
40
0.499999999999946
40
0.562499999999955
40
0.562499999999955
40
0.624999999999963
40
0.624999999999963
40
0.749999999999978
40
0.749999999999978
40
0.812499999999985
40
0.812499999999985
40
0.874999999999991
40
0.874999999999991
40
1
40
1
40
1
40
1
41
1
10
7.02235553229121
20
36.0823090591327
30
0
41
1
10
7.0332950188328
20
36.0398864469332
30
0
41
1
10
7.04058148581447
20
35.9959786772357
30
0
41
1
10
7.04703454719896
20
35.9071657285086
30
0
41
1
10
7.04628167131273
20
35.8622624549445
30
0
41
1
10
7.03843453014008
20
35.7938561162933
30
0
41
1
10
7.03465141502477
20
35.770742575411
30
0
41
1
10
7.02480350432114
20
35.7251440037759
30
0
41
1
10
7.01874309313376
20
35.7025808603838
30
0
41
1
10
6.99701249205134
20
35.6356074057483
30
0
41
1
10
6.97742212898009
20
35.5914130583819
30
0
41
1
10
6.94221787913528
20
35.5305768963563
30
0
41
1
10
6.9294869457795
20
35.5110619884379
30
0
41
1
10
6.90204700264917
20
35.4735449743949
30
0
41
1
10
6.88723541423775
20
35.4554333343659
30
0
41
1
10
6.84049123091461
20
35.4041950602558
30
0
41
1
10
6.80685920398838
20
35.374641584933
30
0
41
1
10
6.75301922348547
20
35.336204597949
30
0
41
1
10
6.7343966129352
20
35.3243336145151
30
0
41
1
10
6.69671976562432
20
35.3029120648662
30
0
41
1
10
6.67762882848416
20
35.2933190780702
30
0
41
1
10
6.61959757085367
20
35.2676074452003
30
0
41
1
10
6.5799034136403
20
35.25452478682
30
0
41
1
10
6.53913460781467
20
35.2452308414819
30
0
0
SPLINE
5
297
100
AcDbEntity
8
1
62
256
6
ByLayer
370
18
48
1
60
0
100
AcDbSpline
70
4
71
3
72
20
73
16
40
0
40
0
40
0
40
0
40
0.125000000000001
40
0.125000000000001
40
0.250000000000001
40
0.250000000000001
40
0.375000000000002
40
0.375000000000002
40
0.500000000000002
40
0.500000000000002
40
0.625000000000003
40
0.625000000000003
40
0.750000000000004
40
0.750000000000004
40
1
40
1
40
1
40
1
41
1
10
6.32349999999997
20
34.9728098741373
30
0
41
1
10
6.32349999999997
20
34.9894538094252
30
0
41
1
10
6.32492142583897
20
35.0059165052197
30
0
41
1
10
6.33060023641065
20
35.0384793255008
30
0
41
1
10
6.33490698348891
20
35.054599146819
30
0
41
1
10
6.34592927980719
20
35.0850432093198
30
0
41
1
10
6.35266820949977
20
35.0995634843155
30
0
41
1
10
6.36851771695439
20
35.1272377961191
30
0
41
1
10
6.3777081718232
20
35.1404432703468
30
0
41
1
10
6.39761855667206
20
35.1644357096541
30
0
41
1
10
6.40840956241243
20
35.1753757116729
30
0
41
1
10
6.43154737026077
20
35.1952610728742
30
0
41
1
10
6.44401221162497
20
35.2042707718555
30
0
41
1
10
6.48280333205196
20
35.2277203550506
30
0
41
1
10
6.51026794396802
20
35.2386501926145
30
0
41
1
10
6.53913460781467
20
35.2452308414819
30
0
0
SPLINE
5
298
100
AcDbEntity
8
1
62
256
6
ByLayer
370
18
48
1
60
0
100
AcDbSpline
70
4
71
3
72
20
73
16
40
0
40
0
40
0
40
0
40
0.125
40
0.125
40
0.25
40
0.25
40
0.375
40
0.375
40
0.5
40
0.5
40
0.625
40
0.625
40
0.75
40
0.75
40
1
40
1
40
1
40
1
41
1
10
8.8422983036603
20
36.4178881680662
30
0
41
1
10
8.85673359425789
20
36.4095260099714
30
0
41
1
10
8.87034361991073
20
36.399949890191
30
0
41
1
10
8.89591688261658
20
36.3783750932467
30
0
41
1
10
8.90787402410683
20
36.3663211612495
30
0
41
1
10
8.9291010371287
20
36.3409001047217
30
0
41
1
10
8.9385299348898
20
36.3274130327993
30
0
41
1
10
8.95509274133121
20
36.2989398548659
30
0
41
1
10
8.96223384419858
20
36.283854353734
30
0
41
1
10
8.97370664661611
20
36.2534820483456
30
0
41
1
10
8.9781376834195
20
36.2380530761445
30
0
41
1
10
8.98454862377355
20
36.2067514702056
30
0
41
1
10
8.98652913759128
20
36.1907376405238
30
0
41
1
10
8.98872819441078
20
36.1431803991222
30
0
41
1
10
8.98538475731095
20
36.1123253951697
30
0
41
1
10
8.97764446770879
20
36.0823090591327
30
0
0
SPLINE
5
299
100
AcDbEntity
8
1
62
256
6
ByLayer
370
18
48
1
60
0
100
AcDbSpline
70
4
71
3
72
28
73
24
40
0
40
0
40
0
40
0
40
0.125
40
0.125
40
0.25
40
0.25
40
0.3125
40
0.3125
40
0.375000000000001
40
0.375000000000001
40
0.500000000000014
40
0.500000000000014
40
0.562500000000013
40
0.562500000000013
40
0.625000000000012
40
0.625000000000012
40
0.750000000000008
40
0.750000000000008
40
0.812500000000006
40
0.812500000000006
40
0.875000000000004
40
0.875000000000004
40
1
40
1
40
1
40
1
41
1
10
9.46086539218533
20
35.2452308414819
30
0
41
1
10
9.42006762999824
20
35.254531387917
30
0
41
1
10
9.3797562187973
20
35.267832360671
30
0
41
1
10
9.30210051579968
20
35.3023629548944
30
0
41
1
10
9.26472017514698
20
35.3235174268112
30
0
41
1
10
9.21086278357723
20
35.3620011611727
30
0
41
1
10
9.19318656921735
20
35.3760613772857
30
0
41
1
10
9.15940437141171
20
35.4060427561741
30
0
41
1
10
9.14323072834048
20
35.4219954169034
30
0
41
1
10
9.09692036240426
20
35.4728885700783
30
0
41
1
10
9.06874089710288
20
35.5114453634807
30
0
41
1
10
9.03366040621808
20
35.5723626734386
30
0
41
1
10
9.02305557363906
20
35.5932720523879
30
0
41
1
10
9.00400639929666
20
35.6362876179315
30
0
41
1
10
8.99551661343651
20
35.658540689101
30
0
41
1
10
8.97369293668328
20
35.7260817532856
30
0
41
1
10
8.96412834281404
20
35.7713573017907
30
0
41
1
10
8.95631271661523
20
35.8397256352923
30
0
41
1
10
8.95481222174919
20
35.8627136832348
30
0
41
1
10
8.95397746014055
20
35.9080053631495
30
0
41
1
10
8.95462414466215
20
35.9303631490742
30
0
41
1
10
8.95952535043472
20
35.996688111949
30
0
41
1
10
8.96671274532923
20
36.0399165558451
30
0
41
1
10
8.97764446770879
20
36.0823090591327
30
0
0
SPLINE
5
29A
100
AcDbEntity
8
1
62
256
6
ByLayer
370
18
48
1
60
0
100
AcDbSpline
70
4
71
3
72
20
73
16
40
0
40
0
40
0
40
0
40
0.125000000000001
40
0.125000000000001
40
0.250000000000001
40
0.250000000000001
40
0.375000000000002
40
0.375000000000002
40
0.500000000000003
40
0.500000000000003
40
0.625000000000003
40
0.625000000000003
40
0.750000000000004
40
0.750000000000004
40
1
40
1
40
1
40
1
41
1
10
7.15770169633964
20
36.4178881680662
30
0
41
1
10
7.17228475827898
20
36.4263359279929
30
0
41
1
10
7.18746976390713
20
36.4334057889527
30
0
41
1
10
7.21903431851661
20
36.444809543209
30
0
41
1
10
7.23549587407081
20
36.4491202224137
30
0
41
1
10
7.26812977143373
20
36.4546537535524
30
0
41
1
10
7.28448143767787
20
36.4559566587516
30
0
41
1
10
7.3172444243923
20
36.4557386448899
30
0
41
1
10
7.33376349693157
20
36.4541708836302
30
0
41
1
10
7.36549836590728
20
36.4484282199144
30
0
41
1
10
7.38087812904234
20
36.4442694814164
30
0
41
1
10
7.41070993860933
20
36.4335450237079
30
0
41
1
10
7.42528030885302
20
36.426906988882
30
0
41
1
10
7.46662144190321
20
36.4039068676133
30
0
41
1
10
7.49089117294682
20
36.3847545510326
30
0
41
1
10
7.51208902263602
20
36.3621396377745
30
0
0
SPLINE
5
29B
100
AcDbEntity
8
1
62
256
6
ByLayer
370
18
48
1
60
0
100
AcDbSpline
70
4
71
3
72
18
73
14
40
0
40
0
40
0
40
0
40
0.249999999999996
40
0.249999999999996
40
0.499999999999991
40
0.499999999999991
40
0.624999999999994
40
0.624999999999994
40
0.749999999999996
40
0.749999999999996
40
0.874999999999998
40
0.874999999999998
40
1
40
1
40
1
40
1
41
1
10
8.48791097736392
20
36.3621396377745
30
0
41
1
10
8.50905730513449
20
36.3846995849045
30
0
41
1
10
8.53330695629813
20
36.4038655842061
30
0
41
1
10
8.5885510310851
20
36.4346034960367
30
0
41
1
10
8.61848684683019
20
36.4455460189828
30
0
41
1
10
8.66651239061059
20
36.4542128598122
30
0
41
1
10
8.68268169949772
20
36.4557307801866
30
0
41
1
10
8.7153377679266
20
36.4559627715315
30
0
41
1
10
8.73198553115668
20
36.4546456028287
30
0
41
1
10
8.76476620912888
20
36.4490642501295
30
0
41
1
10
8.78082642998896
20
36.4448464578237
30
0
41
1
10
8.8122728934448
20
36.4335119893832
30
0
41
1
10
8.8277754632843
20
36.4263010424996
30
0
41
1
10
8.8422983036603
20
36.4178881680662
30
0
0
SPLINE
5
29C
100
AcDbEntity
8
1
62
256
6
ByLayer
370
18
48
1
60
0
100
AcDbSpline
70
4
71
3
72
16
73
12
40
0
40
0
40
0
40
0
40
0.249999999999997
40
0.249999999999997
40
0.499999999999994
40
0.499999999999994
40
0.624999999999992
40
0.624999999999992
40
0.74999999999999
40
0.74999999999999
40
1
40
1
40
1
40
1
41
1
10
8.48791097736392
20
36.3621396377745
30
0
41
1
10
8.46232436681424
20
36.3348425776181
30
0
41
1
10
8.43438472221948
20
36.3093523215685
30
0
41
1
10
8.37455347097222
20
36.2631296530955
30
0
41
1
10
8.3426651663944
20
36.2423424740138
30
0
41
1
10
8.2914317887068
20
36.2149425925949
30
0
41
1
10
8.27368693394391
20
36.2064064508634
30
0
41
1
10
8.23754318502097
20
36.1909657112582
30
0
41
1
10
8.21913035305153
20
36.1840421958747
30
0
41
1
10
8.16281836998559
20
36.1657189220938
30
0
41
1
10
8.12385708259222
20
36.1567380350451
30
0
41
1
10
8.08322173651726
20
36.1514356080651
30
0
0
SPLINE
5
29D
100
AcDbEntity
8
1
62
256
6
ByLayer
370
18
48
1
60
0
100
AcDbSpline
70
4
71
3
72
14
73
10
40
0
40
0
40
0
40
0
40
0.250000000000004
40
0.250000000000004
40
0.500000000000002
40
0.500000000000002
40
0.750000000000001
40
0.750000000000001
40
1
40
1
40
1
40
1
41
1
10
7.91677826348268
20
36.1514356080651
30
0
41
1
10
7.8761341869531
20
36.1567391742651
30
0
41
1
10
7.83641969843842
20
36.1659110118691
30
0
41
1
10
7.76116389379706
20
36.190511329261
30
0
41
1
10
7.72526978199289
20
36.2059683122343
30
0
41
1
10
7.65656231117373
20
36.2427985263009
30
0
41
1
10
7.62468329515946
20
36.2636710465011
30
0
41
1
10
7.56524786452781
20
36.3096853364746
30
0
41
1
10
7.53766701829255
20
36.3348517684117
30
0
41
1
10
7.51208902263602
20
36.3621396377745
30
0
0
SPLINE
5
29E
100
AcDbEntity
8
1
62
256
6
ByLayer
370
18
48
1
60
0
100
AcDbSpline
70
2053
71
3
72
127
73
123
40
0
40
0
40
0
40
0
40
0.0312499999999988
40
0.0312499999999988
40
0.0468749999999981
40
0.0468749999999981
40
0.0624999999999975
40
0.0624999999999975
40
0.0937499999999961
40
0.0937499999999961
40
0.101562499999996
40
0.101562499999996
40
0.109374999999996
40
0.109374999999996
40
0.124999999999995
40
0.124999999999995
40
0.156249999999994
40
0.156249999999994
40
0.164062499999994
40
0.164062499999994
40
0.171874999999994
40
0.171874999999994
40
0.187499999999993
40
0.203124999999992
40
0.203124999999992
40
0.210937499999992
40
0.210937499999992
40
0.218749999999992
40
0.218749999999992
40
0.249999999999992
40
0.249999999999992
40
0.265624999999992
40
0.265624999999992
40
0.273437499999992
40
0.273437499999992
40
0.281249999999992
40
0.281249999999992
40
0.312499999999993
40
0.312499999999993
40
0.320312499999993
40
0.320312499999993
40
0.328124999999994
40
0.328124999999994
40
0.343749999999994
40
0.343749999999994
40
0.374999999999994
40
0.374999999999994
40
0.406249999999994
40
0.406249999999994
40
0.421874999999994
40
0.421874999999994
40
0.429687499999994
40
0.429687499999994
40
0.437499999999994
40
0.437499999999994
40
0.468749999999994
40
0.468749999999994
40
0.476562499999994
40
0.476562499999994
40
0.484374999999994
40
0.484374999999994
40
0.499999999999994
40
0.499999999999994
40
0.531249999999994
40
0.531249999999994
40
0.539062499999994
40
0.539062499999994
40
0.546874999999995
40
0.546874999999995
40
0.562499999999995
40
0.578124999999996
40
0.578124999999996
40
0.585937499999996
40
0.585937499999996
40
0.593749999999996
40
0.593749999999996
40
0.624999999999997
40
0.624999999999997
40
0.640624999999998
40
0.640624999999998
40
0.648437499999998
40
0.648437499999998
40
0.656249999999998
40
0.656249999999998
40
0.687499999999999
40
0.687499999999999
40
0.703124999999999
40
0.703124999999999
40
0.718749999999999
40
0.718749999999999
40
0.75
40
0.75
40
0.781250000000001
40
0.781250000000001
40
0.796875000000001
40
0.796875000000001
40
0.804687500000002
40
0.804687500000002
40
0.812500000000002
40
0.812500000000002
40
0.843750000000003
40
0.843750000000003
40
0.851562500000003
40
0.851562500000003
40
0.859375000000003
40
0.859375000000003
40
0.875000000000002
40
0.875000000000002
40
0.906250000000002
40
0.906250000000002
40
0.914062500000002
40
0.914062500000002
40
0.921875000000002
40
0.921875000000002
40
0.937500000000002
40
0.953125000000001
40
0.953125000000001
40
0.960937500000001
40
0.960937500000001
40
0.968750000000001
40
0.968750000000001
40
1
40
1
40
1
40
1
41
1
10
10.2295085345386
20
11.4050505509384
30
0
41
1
10
10.3627385096378
20
11.2620256278571
30
0
41
1
10
10.4791944212897
20
11.1090575816331
30
0
41
1
10
10.6297421709249
20
10.8655759400327
30
0
41
1
10
10.6758721144299
20
10.7820589037041
30
0
41
1
10
10.7598404682979
20
10.6102450503635
30
0
41
1
10
10.7977025784842
20
10.5217212599322
30
0
41
1
10
10.8962695170376
20
10.2548347650348
30
0
41
1
10
10.9431005860815
20
10.0733566284136
30
0
41
1
10
10.9782909090087
20
9.84224663602623
30
0
41
1
10
10.9841510810829
20
9.79580921073699
30
0
41
1
10
10.9934792173407
20
9.70249865521168
30
0
41
1
10
10.9969507689103
20
9.6554941798654
30
0
41
1
10
11.0036506815575
20
9.51507268958892
30
0
41
1
10
11.003216163749
20
9.42215666051169
30
0
41
1
10
10.9876874951752
20
9.14543671574847
30
0
41
1
10
10.9585031141205
20
8.96364785953637
30
0
41
1
10
10.8979821021155
20
8.73976078581762
30
0
41
1
10
10.8846359736775
20
8.69508302508791
30
0
41
1
10
10.8557931541586
20
8.60700899061374
30
0
41
1
10
10.840270865357
20
8.56350249299163
30
0
41
1
10
10.7904606690241
20
8.43453848329762
30
0
41
1
10
10.7154134620507
20
8.26672714505122
30
0
41
1
10
10.6233377479761
20
8.10698833174564
30
0
41
1
10
10.5477958518466
20
7.99021552380378
30
0
41
1
10
10.5215324110404
20
7.95179732076053
30
0
41
1
10
10.4667984633657
20
7.87598441409756
30
0
41
1
10
10.4383262921291
20
7.8386020782508
30
0
41
1
10
10.2919944125425
20
7.65626456687681
30
0
41
1
10
10.1611695019259
20
7.52322597528462
30
0
41
1
10
9.94459685633842
20
7.3421817384795
30
0
41
1
10
9.86899226066231
20
7.2849418674773
30
0
41
1
10
9.75027114721775
20
7.20386237092669
30
0
41
1
10
9.70984492706702
20
7.1776675677844
30
0
41
1
10
9.62811469303051
20
7.12745003257993
30
0
41
1
10
9.58670258979123
20
7.103351694526
30
0
41
1
10
9.37694230947437
20
6.98782387374416
30
0
41
1
10
9.20057258708886
20
6.91113850154312
30
0
41
1
10
8.96918289387645
20
6.83504427516567
30
0
41
1
10
8.92235366929833
20
6.82082283564694
30
0
41
1
10
8.82756642703089
20
6.79441575836194
30
0
41
1
10
8.77969918983831
20
6.78226284477034
30
0
41
1
10
8.636031536171
20
6.74926015025773
30
0
41
1
10
8.53966061395033
20
6.73171262680285
30
0
41
1
10
8.24880697963209
20
6.69210840147093
30
0
41
1
10
8.05260019412509
20
6.68295637630484
30
0
41
1
10
7.65537329709451
20
6.70061508658705
30
0
41
1
10
7.46077856056496
20
6.72718049135284
30
0
41
1
10
7.17562671152723
20
6.7924471685763
30
0
41
1
10
7.08165021139672
20
6.81847478497173
30
0
41
1
10
6.94232583174318
20
6.86407653314166
30
0
41
1
10
6.89604364141826
20
6.88041708109739
30
0
41
1
10
6.80461297843556
20
6.91511835156228
30
0
41
1
10
6.75955969745917
20
6.93343577953937
30
0
41
1
10
6.53752864172156
20
7.02976671032184
30
0
41
1
10
6.37016392204674
20
7.1218704209499
30
0
41
1
10
6.17355640536221
20
7.25582189607672
30
0
41
1
10
6.13487058524743
20
7.28356206818182
30
0
41
1
10
6.05878809514837
20
7.34097872205388
30
0
41
1
10
6.02131908012888
20
7.37072175782032
30
0
41
1
10
5.91199213734092
20
7.46197477802923
30
0
41
1
10
5.84288210657667
20
7.52572440447329
30
0
41
1
10
5.64652137565275
20
7.72555402495425
30
0
41
1
10
5.53013297169383
20
7.87013093074404
30
0
41
1
10
5.40326488746348
20
8.06577517599516
30
0
41
1
10
5.3788270357453
20
8.10567969390598
30
0
41
1
10
5.33236425999257
20
8.18613565708029
30
0
41
1
10
5.3102675758272
20
8.22679305850875
30
0
41
1
10
5.24732655381524
20
8.35004277339903
30
0
41
1
10
5.17232006960802
20
8.51777702802002
30
0
41
1
10
5.11495796004101
20
8.6923358832309
30
0
41
1
10
5.07867844716264
20
8.82589040206341
30
0
41
1
10
5.06771098171754
20
8.87084851619039
30
0
41
1
10
5.0480742648968
20
8.96166650655681
30
0
41
1
10
5.03941469223008
20
9.00752492709358
30
0
41
1
10
5.0023574030086
20
9.23651402203694
30
0
41
1
10
4.99202723434234
20
9.42078473318304
30
0
41
1
10
5.00502959398432
20
9.69881341554304
30
0
41
1
10
5.01414689572573
20
9.79176054207062
30
0
41
1
10
5.03525434339355
20
9.93159245380355
30
0
41
1
10
5.04353154694871
20
9.97821872524236
30
0
41
1
10
5.06238017031967
20
10.0705560743212
30
0
41
1
10
5.07296963990166
20
10.1163969062235
30
0
41
1
10
5.13165527238488
20
10.3439791453256
30
0
41
1
10
5.196802936506
20
10.5209065923252
30
0
41
1
10
5.32214040395081
20
10.7782939804289
30
0
41
1
10
5.36884458558376
20
10.8631577030219
30
0
41
1
10
5.46984348928561
20
11.0267660801479
30
0
41
1
10
5.52421713530799
20
11.1057899191339
30
0
41
1
10
5.69870575820437
20
11.3346382149847
30
0
41
1
10
5.8302214771868
20
11.4764518912671
30
0
41
1
10
6.12407124732232
20
11.736456494292
30
0
41
1
10
6.28175757619368
20
11.8505819866771
30
0
41
1
10
6.53380890591006
20
11.9986305244413
30
0
41
1
10
6.62043226785204
20
12.0440953686949
30
0
41
1
10
6.75437236917213
20
12.1062961160491
30
0
41
1
10
6.79980537978491
20
12.1260751385279
30
0
41
1
10
6.89144560541058
20
12.1633421588854
30
0
41
1
10
6.93755887845975
20
12.180799717717
30
0
41
1
10
7.16956271670597
20
12.2623130209231
30
0
41
1
10
7.3597246630336
20
12.3092061558776
30
0
41
1
10
7.60309799429746
20
12.3449441088528
30
0
41
1
10
7.65205876122434
20
12.3509377491495
30
0
41
1
10
7.75056228245251
20
12.3605764224474
30
0
41
1
10
7.80024302598974
20
12.3642253367831
30
0
41
1
10
7.94880862346889
20
12.3715110648653
30
0
41
1
10
8.04735778651519
20
12.3715410082798
30
0
41
1
10
8.34156528085072
20
12.3575757586029
30
0
41
1
10
8.53579736629462
20
12.3296558007891
30
0
41
1
10
8.77613884802764
20
12.2709080143438
30
0
41
1
10
8.82417103584817
20
12.2579236881399
30
0
41
1
10
8.91896035715263
20
12.2298166360431
30
0
41
1
10
8.96583108894771
20
12.214670788647
30
0
41
1
10
9.10489910727648
20
12.166018378668
30
0
41
1
10
9.28621247515855
20
12.0925903771479
30
0
41
1
10
9.45941401567075
20
12.0023307210214
30
0
41
1
10
9.58622547224297
20
11.9282506129184
30
0
41
1
10
9.6279800878126
20
11.9024911513916
30
0
41
1
10
9.71043791279311
20
11.848804140899
30
0
41
1
10
9.7511300231148
20
11.820874931068
30
0
41
1
10
9.95003387944126
20
11.6771157702251
30
0
41
1
10
10.0962785594394
20
11.5480754740196
30
0
41
1
10
10.2295085345386
20
11.4050505509384
30
0
0
SPLINE
5
29F
100
AcDbEntity
8
1
62
256
6
ByLayer
370
18
48
1
60
0
100
AcDbSpline
70
4
71
3
72
12
73
8
40
0
40
0
40
0
40
0
40
0.250000000000002
40
0.250000000000002
40
0.500000000000003
40
0.500000000000003
40
1
40
1
40
1
40
1
41
1
10
5.77991886345626
20
-37.2893728368908
30
0
41
1
10
5.75563271466086
20
-37.2766799378546
30
0
41
1
10
5.72981735985559
20
-37.2644008243585
30
0
41
1
10
5.67706344234017
20
-37.2398690291004
30
0
41
1
10
5.64996612421663
20
-37.2276225334511
30
0
41
1
10
5.56888760333675
20
-37.1913990599343
30
0
41
1
10
5.51455885804518
20
-37.1676405614012
30
0
41
1
10
5.46001133674781
20
-37.1441506908341
30
0
0
SPLINE
5
2A0
100
AcDbEntity
8
1
62
256
6
ByLayer
370
18
48
1
60
0
100
AcDbSpline
70
4
71
3
72
14
73
10
40
0
40
0
40
0
40
0
40
0.25
40
0.25
40
0.5
40
0.5
40
0.75
40
0.75
40
1
40
1
40
1
40
1
41
1
10
2.50042140963643
20
-32.8078136513953
30
0
41
1
10
2.50059315633763
20
-32.8205601011917
30
0
41
1
10
2.50081354412606
20
-32.8334830608915
30
0
41
1
10
2.50133845997118
20
-32.8596716589708
30
0
41
1
10
2.50164304192759
20
-32.8728814356725
30
0
41
1
10
2.50227534457918
20
-32.8981270099148
30
0
41
1
10
2.50261168978625
20
-32.910518982122
30
0
41
1
10
2.50324214479213
20
-32.9331954927222
30
0
41
1
10
2.50353900214867
20
-32.9436022721201
30
0
41
1
10
2.50379686697715
20
-32.953035797452
30
0
0
SPLINE
5
2A1
100
AcDbEntity
8
1
62
256
6
ByLayer
370
18
48
1
60
0
100
AcDbSpline
70
4
71
3
72
22
73
18
40
0
40
0
40
0
40
0
40
0.125
40
0.125
40
0.25
40
0.25
40
0.375
40
0.375
40
0.5
40
0.5
40
0.625
40
0.625
40
0.75
40
0.75
40
0.875
40
0.875
40
1
40
1
40
1
40
1
41
1
10
2.53065003787179
20
-33.4636620175873
30
0
41
1
10
2.5314875861385
20
-33.4744027166312
30
0
41
1
10
2.53251189791655
20
-33.4862730655599
30
0
41
1
10
2.53497159681825
20
-33.5121916033841
30
0
41
1
10
2.53640842605012
20
-33.5262107933181
30
0
41
1
10
2.53958716902764
20
-33.5548548693525
30
0
41
1
10
2.54137441192643
20
-33.5698751463907
30
0
41
1
10
2.54515470141649
20
-33.5994139209171
30
0
41
1
10
2.5471783013017
20
-33.6141901540821
30
0
41
1
10
2.55137782829843
20
-33.6427889015808
30
0
41
1
10
2.55350902562907
20
-33.6563278078491
30
0
41
1
10
2.55782123341675
20
-33.6818897891327
30
0
41
1
10
2.55995869522309
20
-33.6936360884052
30
0
41
1
10
2.56401952167579
20
-33.7143201659217
30
0
41
1
10
2.56597909113719
20
-33.7234270915121
30
0
41
1
10
2.56945417094278
20
-33.7379905843175
30
0
41
1
10
2.57100991017762
20
-33.7436393956076
30
0
41
1
10
2.57230165757864
20
-33.7474016913825
30
0
0
SPLINE
5
2A2
100
AcDbEntity
8
1
62
256
6
ByLayer
370
18
48
1
60
0
100
AcDbSpline
70
4
71
3
72
14
73
10
40
0
40
0
40
0
40
0
40
0.25
40
0.25
40
0.5
40
0.5
40
0.75
40
0.75
40
1
40
1
40
1
40
1
41
1
10
2.64741949197003
20
-33.9266523251808
30
0
41
1
10
2.6490892308546
20
-33.9300189792731
30
0
41
1
10
2.65111063335826
20
-33.9350149639595
30
0
41
1
10
2.65586147807699
20
-33.9480891039743
30
0
41
1
10
2.6585891745824
20
-33.9561816599439
30
0
41
1
10
2.66448677889969
20
-33.974537216609
30
0
41
1
10
2.66773819057715
20
-33.9850556651506
30
0
41
1
10
2.67444621304514
20
-34.0073633005154
30
0
41
1
10
2.67792602250972
20
-34.0192164417386
30
0
41
1
10
2.68154098781389
20
-34.0317887148258
30
0
0
SPLINE
5
2A3
100
AcDbEntity
8
1
62
256
6
ByLayer
370
18
48
1
60
0
100
AcDbSpline
70
4
71
3
72
14
73
10
40
0
40
0
40
0
40
0
40
0.25
40
0.25
40
0.5
40
0.5
40
0.75
40
0.75
40
1
40
1
40
1
40
1
41
1
10
2.79600274202358
20
-34.398481477265
30
0
41
1
10
2.79356180840898
20
-34.3888171444412
30
0
41
1
10
2.79065013375049
20
-34.3781882347854
30
0
41
1
10
2.78399849986408
20
-34.3551332857424
30
0
41
1
10
2.78026267666559
20
-34.3427395312254
30
0
41
1
10
2.77242358376787
20
-34.3175287632818
30
0
41
1
10
2.76821619675013
20
-34.3043779906958
30
0
41
1
10
2.75977481608243
20
-34.2785890121852
30
0
41
1
10
2.75551067166549
20
-34.265846173384
30
0
41
1
10
2.75120626163363
20
-34.2532593312083
30
0
0
SPLINE
5
2A4
100
AcDbEntity
8
1
62
256
6
ByLayer
370
18
48
1
60
0
100
AcDbSpline
70
4
71
3
72
22
73
18
40
0
40
0
40
0
40
0
40
0.125
40
0.125
40
0.25
40
0.25
40
0.375
40
0.375
40
0.5
40
0.5
40
0.625
40
0.625
40
0.75
40
0.75
40
0.875
40
0.875
40
1
40
1
40
1
40
1
41
1
10
3.08519105759126
20
-35.1928473711955
30
0
41
1
10
3.08102508536581
20
-35.1889236031553
30
0
41
1
10
3.07607703226472
20
-35.1831040460938
30
0
41
1
10
3.06486792318043
20
-35.1681132270662
30
0
41
1
10
3.05861617465854
20
-35.158925725177
30
0
41
1
10
3.04556628873672
20
-35.138287932775
30
0
41
1
10
3.03861087382052
20
-35.1265857906595
30
0
41
1
10
3.02463704943608
20
-35.1017393702797
30
0
41
1
10
3.01754067303591
20
-35.0884736200545
30
0
41
1
10
3.00333053778445
20
-35.0605799750123
30
0
41
1
10
2.99641768684734
20
-35.0463521815897
30
0
41
1
10
2.98296287368868
20
-35.0173398048603
30
0
41
1
10
2.9763903092595
20
-35.0024614391836
30
0
41
1
10
2.96434488257927
20
-34.9737856648929
30
0
41
1
10
2.9587228348671
20
-34.9596494730673
30
0
41
1
10
2.94868995617435
20
-34.9328035174111
30
0
41
1
10
2.94438337550304
20
-34.92039373467
30
0
41
1
10
2.94082112633936
20
-34.9091076974003
30
0
0
SPLINE
5
2A5
100
AcDbEntity
8
1
62
256
6
ByLayer
370
18
48
1
60
0
100
AcDbSpline
70
4
71
3
72
14
73
10
40
0
40
0
40
0
40
0
40
0.25
40
0.25
40
0.5
40
0.5
40
0.75
40
0.75
40
1
40
1
40
1
40
1
41
1
10
3.3814697568439
20
-35.4772343946387
30
0
41
1
10
3.37290144151291
20
-35.4652398963379
30
0
41
1
10
3.36454508029021
20
-35.4538335352737
30
0
41
1
10
3.34824416312546
20
-35.432205057407
30
0
41
1
10
3.340198840776
20
-35.4218589353953
30
0
41
1
10
3.32512811965944
20
-35.40329212916
30
0
41
1
10
3.31811718084299
20
-35.3950745822764
30
0
41
1
10
3.30526947291673
20
-35.3811663615434
30
0
41
1
10
3.29964816996545
20
-35.3757131575554
30
0
41
1
10
3.29500378950354
20
-35.3720980049938
30
0
0
SPLINE
5
2A6
100
AcDbEntity
8
1
62
256
6
ByLayer
370
18
48
1
60
0
100
AcDbSpline
70
4
71
3
72
14
73
10
40
0
40
0
40
0
40
0
40
0.25
40
0.25
40
0.5
40
0.5
40
0.75
40
0.75
40
1
40
1
40
1
40
1
41
1
10
3.5495192877483
20
-35.6987050110212
30
0
41
1
10
3.55924693853478
20
-35.7107873228714
30
0
41
1
10
3.56888145130603
20
-35.7230488119159
30
0
41
1
10
3.58796021072652
20
-35.7479283068217
30
0
41
1
10
3.59750840255162
20
-35.7606909292397
30
0
41
1
10
3.61565255454519
20
-35.7856932084602
30
0
41
1
10
3.62428801755703
20
-35.7979724353709
30
0
41
1
10
3.64044359359684
20
-35.8220345338448
30
0
41
1
10
3.64770518176806
20
-35.8334335485538
30
0
41
1
10
3.65381557128734
20
-35.8439271570779
30
0
0
SPLINE
5
2A7
100
AcDbEntity
8
1
62
256
6
ByLayer
370
18
48
1
60
0
100
AcDbSpline
70
4
71
3
72
22
73
18
40
0
40
0
40
0
40
0
40
0.125
40
0.125
40
0.25
40
0.25
40
0.375
40
0.375
40
0.5
40
0.5
40
0.625
40
0.625
40
0.75
40
0.75
40
0.875
40
0.875
40
1
40
1
40
1
40
1
41
1
10
3.9817923657119
20
-36.3545533772132
30
0
41
1
10
3.99102165064909
20
-36.3675908610476
30
0
41
1
10
4.00197772386554
20
-36.3814471427942
30
0
41
1
10
4.02641475755394
20
-36.4102197634976
30
0
41
1
10
4.03968842849702
20
-36.424861388436
30
0
41
1
10
4.06714678623695
20
-36.4536252785281
30
0
41
1
10
4.08161231453317
20
-36.4680345675928
30
0
41
1
10
4.11082832210241
20
-36.4958375057062
30
0
41
1
10
4.12556512023627
20
-36.5092335554816
30
0
41
1
10
4.15529064044154
20
-36.5350870841676
30
0
41
1
10
4.17041696891999
20
-36.5476506569746
30
0
41
1
10
4.20016429324846
20
-36.5711770576993
30
0
41
1
10
4.21475581603187
20
-36.5821309820532
30
0
41
1
10
4.24327508068802
20
-36.6022938547171
30
0
41
1
10
4.25737947127493
20
-36.6116142434084
30
0
41
1
10
4.28370522683031
20
-36.6274169544894
30
0
41
1
10
4.29586653599949
20
-36.6339004595503
30
0
41
1
10
4.30643380496952
20
-36.6382930510084
30
0
0
SPLINE
5
2A8
100
AcDbEntity
8
1
62
256
6
ByLayer
370
18
48
1
60
0
100
AcDbSpline
70
4
71
3
72
12
73
8
40
0
40
0
40
0
40
0
40
0.24999999999999
40
0.24999999999999
40
0.49999999999998
40
0.49999999999998
40
1
40
1
40
1
40
1
41
1
10
4.79510653191926
20
-36.8175436848067
30
0
41
1
10
4.80893548647504
20
-36.8219980355254
30
0
41
1
10
4.82482185648553
20
-36.8286428686638
30
0
41
1
10
4.85889519674618
20
-36.8441219168302
30
0
41
1
10
4.87686050785845
20
-36.85290220815
30
0
41
1
10
4.93157494977947
20
-36.8806073583438
30
0
41
1
10
4.96995353723395
20
-36.9012732859572
30
0
41
1
10
5.00860772348773
20
-36.9226800744517
30
0
0
SPLINE
5
2A9
100
AcDbEntity
8
1
62
256
6
ByLayer
370
18
48
1
60
0
100
AcDbSpline
70
4
71
3
72
12
73
8
40
0
40
0
40
0
40
0
40
0.499999999999993
40
0.499999999999993
40
0.749999999999996
40
0.749999999999996
40
1
40
1
40
1
40
1
41
1
10
10.5399886632516
20
-37.1441506908341
30
0
41
1
10
10.4852759894192
20
-37.1677116812538
30
0
41
1
10
10.4310556593393
20
-37.191426852303
30
0
41
1
10
10.3505414468796
20
-37.227394554742
30
0
41
1
10
10.3238440800493
20
-37.2394551203904
30
0
41
1
10
10.2709667032166
20
-37.2640283624594
30
0
41
1
10
10.2444875486577
20
-37.2766170835016
30
0
41
1
10
10.2200811365431
20
-37.2893728368908
30
0
0
SPLINE
5
2AA
100
AcDbEntity
8
1
62
256
6
ByLayer
370
18
48
1
60
0
100
AcDbSpline
70
4
71
3
72
12
73
8
40
0
40
0
40
0
40
0
40
0.499999999999976
40
0.499999999999976
40
0.749999999999988
40
0.749999999999988
40
1
40
1
40
1
40
1
41
1
10
10.9913922765117
20
-36.9226800744517
30
0
41
1
10
11.0300399508742
20
-36.9012768922594
30
0
41
1
10
11.0678191085201
20
-36.8809233535699
30
0
41
1
10
11.1228783302601
20
-36.8530299343905
30
0
41
1
10
11.1409348008864
20
-36.8442054302174
30
0
41
1
10
11.1748446563162
20
-36.8287881763226
30
0
41
1
10
11.1910998894384
20
-36.8219866408298
30
0
41
1
10
11.2048934680801
20
-36.8175436848067
30
0
0
SPLINE
5
2AB
100
AcDbEntity
8
1
62
256
6
ByLayer
370
18
48
1
60
0
100
AcDbSpline
70
4
71
3
72
22
73
18
40
0
40
0
40
0
40
0
40
0.125
40
0.125
40
0.25
40
0.25
40
0.375
40
0.375
40
0.5
40
0.5
40
0.625
40
0.625
40
0.75
40
0.75
40
0.875
40
0.875
40
1
40
1
40
1
40
1
41
1
10
11.6935661950299
20
-36.6382930510084
30
0
41
1
10
11.7041387776904
20
-36.633898250761
30
0
41
1
10
11.7162612822365
20
-36.6274318622819
30
0
41
1
10
11.7424127418999
20
-36.6117441210853
30
0
41
1
10
11.7565721301923
20
-36.6023988973812
30
0
41
1
10
11.7852014705636
20
-36.5821641377141
30
0
41
1
10
11.7998298590229
20
-36.5711820019617
30
0
41
1
10
11.829612868924
20
-36.547626739283
30
0
41
1
10
11.8447254101329
20
-36.5350739570288
30
0
41
1
10
11.8744822634732
20
-36.5091915093914
30
0
41
1
10
11.8892501751519
20
-36.4957664485465
30
0
41
1
10
11.9185608260623
20
-36.4678661262749
30
0
41
1
10
11.9329420074569
20
-36.4535353879599
30
0
41
1
10
11.9603982544492
20
-36.4247674391354
30
0
41
1
10
11.9737602057587
20
-36.4100190466093
30
0
41
1
10
11.998045260353
20
-36.3814147492882
30
0
41
1
10
12.0089726049717
20
-36.3675989756788
30
0
41
1
10
12.0182076342875
20
-36.3545533772132
30
0
0
SPLINE
5
2AC
100
AcDbEntity
8
1
62
256
6
ByLayer
370
18
48
1
60
0
100
AcDbSpline
70
4
71
3
72
14
73
10
40
0
40
0
40
0
40
0
40
0.25
40
0.25
40
0.5
40
0.5
40
0.75
40
0.75
40
1
40
1
40
1
40
1
41
1
10
12.346184428712
20
-35.8439271570779
30
0
41
1
10
12.3522968117876
20
-35.8334301249424
30
0
41
1
10
12.3594921336738
20
-35.8221369620698
30
0
41
1
10
12.3755055054056
20
-35.7982733738212
30
0
41
1
10
12.384289398256
20
-35.7857746951004
30
0
41
1
10
12.4024459621287
20
-35.760752323571
30
0
41
1
10
12.4119924483369
20
-35.7479906507319
30
0
41
1
10
12.431109639395
20
-35.7230598224385
30
0
41
1
10
12.440753788318
20
-35.7107864200769
30
0
41
1
10
12.4504807122511
20
-35.6987050110212
30
0
0
SPLINE
5
2AD
100
AcDbEntity
8
1
62
256
6
ByLayer
370
18
48
1
60
0
100
AcDbSpline
70
4
71
3
72
14
73
10
40
0
40
0
40
0
40
0
40
0.25
40
0.25
40
0.5
40
0.5
40
0.75
40
0.75
40
1
40
1
40
1
40
1
41
1
10
12.7049962104958
20
-35.3720980049938
30
0
41
1
10
12.7003527042077
20
-35.3757124771049
30
0
41
1
10
12.6947863359955
20
-35.3811134281719
30
0
41
1
10
12.6820510183839
20
-35.3948851471258
30
0
41
1
10
12.6749248234527
20
-35.4032294461377
30
0
41
1
10
12.6598812515676
20
-35.421757743951
30
0
41
1
10
12.6518190804066
20
-35.4321221384588
30
0
41
1
10
12.6354659782442
20
-35.4538178728262
30
0
41
1
10
12.6270965517442
20
-35.4652427055093
30
0
41
1
10
12.6185302431555
20
-35.4772343946387
30
0
0
SPLINE
5
2AE
100
AcDbEntity
8
1
62
256
6
ByLayer
370
18
48
1
60
0
100
AcDbSpline
70
4
71
3
72
22
73
18
40
0
40
0
40
0
40
0
40
0.125
40
0.125
40
0.25
40
0.25
40
0.375
40
0.375
40
0.5
40
0.5
40
0.625
40
0.625
40
0.75
40
0.75
40
0.875
40
0.875
40
1
40
1
40
1
40
1
41
1
10
13.05917887366
20
-34.9091076974003
30
0
41
1
10
13.0556176030089
20
-34.9203906345135
30
0
41
1
10
13.0513202106442
20
-34.9327720514277
30
0
41
1
10
13.0413380873528
20
-34.959490688915
30
0
41
1
10
13.0356764772017
20
-34.9737352073805
30
0
41
1
10
13.0235788820008
20
-35.0025343909161
30
0
41
1
10
13.0170063802161
20
-35.0174083552532
30
0
41
1
10
13.0035466677868
20
-35.046426778791
30
0
41
1
10
12.996529674874
20
-35.0608614659864
30
0
41
1
10
12.9823693578004
20
-35.0886430112502
30
0
41
1
10
12.9753221761505
20
-35.1018157170774
30
0
41
1
10
12.961305744294
20
-35.126730168067
30
0
41
1
10
12.954386582496
20
-35.1383638155706
30
0
41
1
10
12.9413922746649
20
-35.1589110081083
30
0
41
1
10
12.9351441043893
20
-35.168096402449
30
0
41
1
10
12.9239261922743
20
-35.1831004718659
30
0
41
1
10
12.9189758332654
20
-35.1889227379314
30
0
41
1
10
12.9148089424081
20
-35.1928473711955
30
0
0
SPLINE
5
2AF
100
AcDbEntity
8
1
62
256
6
ByLayer
370
18
48
1
60
0
100
AcDbSpline
70
4
71
3
72
14
73
10
40
0
40
0
40
0
40
0
40
0.25
40
0.25
40
0.5
40
0.5
40
0.75
40
0.75
40
1
40
1
40
1
40
1
41
1
10
13.2487937383657
20
-34.2532593312083
30
0
41
1
10
13.244489601877
20
-34.2658453734964
30
0
41
1
10
13.2402206009173
20
-34.2786023629443
30
0
41
1
10
13.2317601906731
20
-34.3044507814647
30
0
41
1
10
13.2275605631079
20
-34.3175792741054
30
0
41
1
10
13.2197382577272
20
-34.3427370004083
30
0
41
1
10
13.2160050025992
20
-34.3551213608846
30
0
41
1
10
13.2093502751835
20
-34.3781866026353
30
0
41
1
10
13.2064381207919
20
-34.3888174247519
30
0
41
1
10
13.2039972579758
20
-34.398481477265
30
0
0
SPLINE
5
2B0
100
AcDbEntity
8
1
62
256
6
ByLayer
370
18
48
1
60
0
100
AcDbSpline
70
4
71
3
72
14
73
10
40
0
40
0
40
0
40
0
40
0.25
40
0.25
40
0.5
40
0.5
40
0.75
40
0.75
40
1
40
1
40
1
40
1
41
1
10
13.3184590121855
20
-34.0317887148258
30
0
41
1
10
13.3220737810994
20
-34.0192171247525
30
0
41
1
10
13.3255601404763
20
-34.0073411319107
30
0
41
1
10
13.3322916845217
20
-33.984957360509
30
0
41
1
10
13.3355319237361
20
-33.9744778668621
30
0
41
1
10
13.3414180149896
20
-33.9561604284502
30
0
41
1
10
13.3441508523321
20
-33.9480540323004
30
0
41
1
10
13.3488911419235
20
-33.9350112207105
30
0
41
1
10
13.3509108350403
20
-33.9300188464096
30
0
41
1
10
13.3525805080293
20
-33.9266523251808
30
0
0
SPLINE
5
2B1
100
AcDbEntity
8
1
62
256
6
ByLayer
370
18
48
1
60
0
100
AcDbSpline
70
4
71
3
72
22
73
18
40
0
40
0
40
0
40
0
40
0.125
40
0.125
40
0.25
40
0.25
40
0.375
40
0.375
40
0.5
40
0.5
40
0.625
40
0.625
40
0.75
40
0.75
40
0.875
40
0.875
40
1
40
1
40
1
40
1
41
1
10
13.4276983424207
20
-33.7474016913825
30
0
41
1
10
13.4289901997354
20
-33.7436390754769
30
0
41
1
10
13.4305254590739
20
-33.7380712087857
30
0
41
1
10
13.4340130840207
20
-33.723464588776
30
0
41
1
10
13.4359648979459
20
-33.7143945886043
30
0
41
1
10
13.4400216511577
20
-33.6937410896311
30
0
41
1
10
13.442182674466
20
-33.6818638138733
30
0
41
1
10
13.4464671135589
20
-33.6564720473706
30
0
41
1
10
13.448622010736
20
-33.6427905849699
30
0
41
1
10
13.452825618844
20
-33.6141628701705
30
0
41
1
10
13.4548235599971
20
-33.5995798509827
30
0
41
1
10
13.4586256978819
20
-33.5698781989443
30
0
41
1
10
13.4603971566178
20
-33.5549898577321
30
0
41
1
10
13.4635789554571
20
-33.5263307001507
30
0
41
1
10
13.4650227384033
20
-33.5122456571735
30
0
41
1
10
13.4674747829172
20
-33.4864190074206
30
0
41
1
10
13.4685123626312
20
-33.4744033735994
30
0
41
1
10
13.4693499621276
20
-33.4636620175873
30
0
0
SPLINE
5
2B2
100
AcDbEntity
8
1
62
256
6
ByLayer
370
18
48
1
60
0
100
AcDbSpline
70
4
71
3
72
14
73
10
40
0
40
0
40
0
40
0
40
0.25
40
0.25
40
0.5
40
0.5
40
0.75
40
0.75
40
1
40
1
40
1
40
1
41
1
10
13.4962031330222
20
-32.953035797452
30
0
41
1
10
13.496460997324
20
-32.9436022913889
30
0
41
1
10
13.4967585085041
20
-32.9331732768799
30
0
41
1
10
13.4973920597705
20
-32.9103828250387
30
0
41
1
10
13.4977269681813
20
-32.8980393991262
30
0
41
1
10
13.4983591256675
20
-32.8727901282754
30
0
41
1
10
13.4986647587768
20
-32.8595198910898
30
0
41
1
10
13.4991868773968
20
-32.8334531501333
30
0
41
1
10
13.4994068435486
20
-32.82056010959
30
0
41
1
10
13.4995785903629
20
-32.8078136513953
30
0
0
SPLINE
5
2B3
100
AcDbEntity
8
1
62
256
6
ByLayer
370
18
48
1
60
0
100
AcDbSpline
70
4
71
3
72
68
73
64
40
0
40
0
40
0
40
0
40
0.0585830224070372
40
0.0585830224070372
40
0.0749378575016532
40
0.0749378575016532
40
0.0912926925962691
40
0.0912926925962691
40
0.124002362785501
40
0.156712032974733
40
0.156712032974733
40
0.173066868069348
40
0.173066868069348
40
0.189421703163964
40
0.189421703163964
40
0.254841043542428
40
0.254841043542428
40
0.287550713731661
40
0.287550713731661
40
0.303905548826278
40
0.303905548826278
40
0.320260383920894
40
0.320260383920894
40
0.38567972429936
40
0.38567972429936
40
0.402034559393976
40
0.402034559393976
40
0.418389394488593
40
0.418389394488593
40
0.451099064677827
40
0.451099064677827
40
0.516518405056293
40
0.516518405056293
40
0.58193774543476
40
0.58193774543476
40
0.614647415623993
40
0.614647415623993
40
0.63100225071861
40
0.63100225071861
40
0.647357085813227
40
0.647357085813227
40
0.712776426191694
40
0.712776426191694
40
0.729131261286311
40
0.729131261286311
40
0.745486096380928
40
0.745486096380928
40
0.77819576657016
40
0.77819576657016
40
0.843615106948624
40
0.843615106948624
40
0.85996994204324
40
0.85996994204324
40
0.876324777137857
40
0.876324777137857
40
0.90903444732709
40
0.941744117516324
40
0.941744117516324
40
0.958098952610941
40
0.958098952610941
40
0.974453787705558
40
0.974453787705558
40
1
40
1
40
1
40
1
41
1
10
10.9941770458348
20
-20.1308348197714
30
0
41
1
10
10.9813779395615
20
-20.2650943339528
30
0
41
1
10
10.9534435598097
20
-20.3994194599268
30
0
41
1
10
10.8979821021155
20
-20.571212775456
30
0
41
1
10
10.8846359736775
20
-20.6087618107608
30
0
41
1
10
10.8557931541586
20
-20.6830506288674
30
0
41
1
10
10.840270865357
20
-20.7198822448288
30
0
41
1
10
10.7904606690241
20
-20.8294436945113
30
0
41
1
10
10.7154134620507
20
-20.9730410259886
30
0
41
1
10
10.6233377479761
20
-21.1115884563525
30
0
41
1
10
10.5477958518466
20
-21.213507693769
30
0
41
1
10
10.5215324110404
20
-21.2471481790515
30
0
41
1
10
10.4667984633657
20
-21.313738553896
30
0
41
1
10
10.4383262921291
20
-21.346678265973
30
0
41
1
10
10.2919944125425
20
-21.50782321051
30
0
41
1
10
10.1611695019259
20
-21.6269408240403
30
0
41
1
10
9.94459685633842
20
-21.7905098155865
30
0
41
1
10
9.86899226066231
20
-21.8424971147594
30
0
41
1
10
9.75027114721775
20
-21.9164495320837
30
0
41
1
10
9.70984492706702
20
-21.94039739072
30
0
41
1
10
9.62811469303051
20
-21.9863999629449
30
0
41
1
10
9.58670258979123
20
-22.008523576656
30
0
41
1
10
9.37694230947432
20
-22.1147800975829
30
0
41
1
10
9.20057258708886
20
-22.1859481857869
30
0
41
1
10
8.96918289387645
20
-22.2568363866703
30
0
41
1
10
8.92235366929833
20
-22.2701028255262
30
0
41
1
10
8.82756642703089
20
-22.2947617680329
30
0
41
1
10
8.77969918983831
20
-22.3061237500032
30
0
41
1
10
8.636031536171
20
-22.3370042149382
30
0
41
1
10
8.53966061395033
20
-22.353459636519
30
0
41
1
10
8.24880697963209
20
-22.3906263504878
30
0
41
1
10
8.05260019412509
20
-22.3992461912437
30
0
41
1
10
7.65537329709451
20
-22.3826495709909
30
0
41
1
10
7.46077856056496
20
-22.3576653506834
30
0
41
1
10
7.17562671152723
20
-22.2965936874428
30
0
41
1
10
7.08165021139672
20
-22.2722745048672
30
0
41
1
10
6.94232583174318
20
-22.2297893413031
30
0
41
1
10
6.89604364141826
20
-22.2145835699072
30
0
41
1
10
6.80461297843556
20
-22.1823417926345
30
0
41
1
10
6.75955969745917
20
-22.1653459352335
30
0
41
1
10
6.53752864172156
20
-22.0761156836148
30
0
41
1
10
6.37016392204674
20
-21.9912443398079
30
0
41
1
10
6.17355640536221
20
-21.8690549448905
30
0
41
1
10
6.13487058524743
20
-21.843804914036
30
0
41
1
10
6.05878809514837
20
-21.7916707606303
30
0
41
1
10
6.02131908012888
20
-21.7647267745505
30
0
41
1
10
5.91199213734092
20
-21.6822755895901
30
0
41
1
10
5.84288210657667
20
-21.6249519579351
30
0
41
1
10
5.64652137565275
20
-21.4462935230113
30
0
41
1
10
5.53013297169383
20
-21.3183363409293
30
0
41
1
10
5.40326488746348
20
-21.1475547393517
30
0
41
1
10
5.3788270357453
20
-21.1128324325061
30
0
41
1
10
5.33236425999257
20
-21.0430599365936
30
0
41
1
10
5.3102675758272
20
-21.0079170099549
30
0
41
1
10
5.24732641040231
20
-20.9017471680256
30
0
41
1
10
5.17232006960802
20
-20.7582162061559
30
0
41
1
10
5.11495796004101
20
-20.6109358494717
30
0
41
1
10
5.07867844716264
20
-20.4990883619477
30
0
41
1
10
5.06771098171754
20
-20.4615741127911
30
0
41
1
10
5.0480742648968
20
-20.3860783703647
30
0
41
1
10
5.03941469223008
20
-20.3480991744787
30
0
41
1
10
5.02042655541555
20
-20.2512927774118
30
0
41
1
10
5.01179531742866
20
-20.1924840137544
30
0
41
1
10
5.00609062883291
20
-20.1338883198618
30
0
0
SPLINE
5
2B4
100
AcDbEntity
8
1
62
256
6
ByLayer
370
18
48
1
60
0
100
AcDbSpline
70
4
71
3
72
38
73
34
40
0
40
0
40
0
40
0
40
0.124999999999999
40
0.124999999999999
40
0.187499999999999
40
0.187499999999999
40
0.218749999999999
40
0.218749999999999
40
0.25
40
0.25
40
0.374999999999999
40
0.374999999999999
40
0.40625
40
0.40625
40
0.4375
40
0.4375
40
0.500000000000001
40
0.500000000000001
40
0.562500000000001
40
0.562500000000001
40
0.593750000000002
40
0.593750000000002
40
0.625000000000002
40
0.625000000000002
40
0.750000000000005
40
0.750000000000005
40
0.781250000000006
40
0.781250000000006
40
0.812500000000006
40
0.812500000000006
40
0.875000000000004
40
0.875000000000004
40
1
40
1
40
1
40
1
41
1
10
8.5
20
1.34110778810623
30
0
41
1
10
8.84481652124879
20
1.34110778810623
30
0
41
1
10
9.18356992213796
20
1.34543738151655
30
0
41
1
10
9.68294666609876
20
1.3592713646251
30
0
41
1
10
9.84793435276123
20
1.36513640042779
30
0
41
1
10
10.0931404436017
20
1.37621338770617
30
0
41
1
10
10.1746544643346
20
1.38029881493315
30
0
41
1
10
10.335071084395
20
1.38921860731642
30
0
41
1
10
10.4141777036265
20
1.39406055639245
30
0
41
1
10
10.8042948527794
20
1.42034531580009
30
0
41
1
10
11.0992220640667
20
1.44787337442051
30
0
41
1
10
11.446197359083
20
1.49437267978232
30
0
41
1
10
11.5145496405685
20
1.5042943664925
30
0
41
1
10
11.6488033714386
20
1.52547103960978
30
0
41
1
10
11.7142006950572
20
1.53664561862735
30
0
41
1
10
11.9053287348921
20
1.57205286418366
30
0
41
1
10
12.0260066744975
20
1.59816507469731
30
0
41
1
10
12.2542481474312
20
1.65615933824222
30
0
41
1
10
12.3618102401735
20
1.6880403932048
30
0
41
1
10
12.5133336211968
20
1.74085877985027
30
0
41
1
10
12.5622022561891
20
1.7592988854077
30
0
41
1
10
12.6566341734061
20
1.79797488787176
30
0
41
1
10
12.7022228222823
20
1.81823462182348
30
0
41
1
10
12.9193621452183
20
1.92308736163466
30
0
41
1
10
13.0609805248686
20
2.01917056459854
30
0
41
1
10
13.2014801817153
20
2.15690745099664
30
0
41
1
10
13.2277408544472
20
2.18533836001256
30
0
41
1
10
13.2766258010469
20
2.24403515446977
30
0
41
1
10
13.2992945786136
20
2.27437048616952
30
0
41
1
10
13.3615501295516
20
2.36771767249906
30
0
41
1
10
13.3952775407205
20
2.43281098861183
30
0
41
1
10
13.4751188121147
20
2.63679328088819
30
0
41
1
10
13.5
20
2.78437459028214
30
0
41
1
10
13.5
20
2.94397036279832
30
0
0
SPLINE
5
2B5
100
AcDbEntity
8
1
62
256
6
ByLayer
370
18
48
1
60
0
100
AcDbSpline
70
4
71
3
72
38
73
34
40
0
40
0
40
0
40
0
40
0.125000000000001
40
0.125000000000001
40
0.187500000000002
40
0.187500000000002
40
0.218750000000003
40
0.218750000000003
40
0.250000000000005
40
0.250000000000005
40
0.375000000000003
40
0.375000000000003
40
0.406250000000003
40
0.406250000000003
40
0.437500000000003
40
0.437500000000003
40
0.5
40
0.5
40
0.624999999999997
40
0.624999999999997
40
0.656249999999997
40
0.656249999999997
40
0.687499999999997
40
0.687499999999997
40
0.749999999999997
40
0.749999999999997
40
0.812499999999997
40
0.812499999999997
40
0.843749999999997
40
0.843749999999997
40
0.874999999999998
40
0.874999999999998
40
1
40
1
40
1
40
1
41
1
10
2.5
20
2.94397036279844
30
0
41
1
10
2.5
20
2.78500876853633
30
0
41
1
10
2.52467766785708
20
2.63776488255314
30
0
41
1
10
2.60418636640389
20
2.43395750767559
30
0
41
1
10
2.63779919604548
20
2.36886717280896
30
0
41
1
10
2.69992569585958
20
2.27545498525552
30
0
41
1
10
2.72257663450921
20
2.24506564680706
30
0
41
1
10
2.77136487946922
20
2.18634175162526
30
0
41
1
10
2.79755723726078
20
2.15791986873535
30
0
41
1
10
2.93757222653807
20
2.02032067387256
30
0
41
1
10
3.07836207897009
20
1.92463781947077
30
0
41
1
10
3.29309349769517
20
1.8203902162835
30
0
41
1
10
3.33798975770753
20
1.80031061853168
30
0
41
1
10
3.43180901615278
20
1.76163304361023
30
0
41
1
10
3.48085918536179
20
1.74299122078003
30
0
41
1
10
3.63339483456923
20
1.68951204798424
30
0
41
1
10
3.74137289428467
20
1.65739067988733
30
0
41
1
10
4.08379485635277
20
1.57003471331359
30
0
41
1
10
4.33655256617988
20
1.52373895775588
30
0
41
1
10
4.68431948430822
20
1.47682341097686
30
0
41
1
10
4.75566046125124
20
1.46797587016175
30
0
41
1
10
4.8999683906257
20
1.45148923419026
30
0
41
1
10
4.9730804950442
20
1.44382684735177
30
0
41
1
10
5.19523956664801
20
1.42239994379628
30
0
41
1
10
5.34710209019488
20
1.41018814823207
30
0
41
1
10
5.65824396304822
20
1.38913899877156
30
0
41
1
10
5.8175229603205
20
1.38030267716124
30
0
41
1
10
6.06210859668602
20
1.36917527368655
30
0
41
1
10
6.14469424117902
20
1.36581839544323
30
0
41
1
10
6.31131915096728
20
1.35978695467008
30
0
41
1
10
6.39493413458126
20
1.35712653031459
30
0
41
1
10
6.81449623978637
20
1.3454420315424
30
0
41
1
10
7.1548553587927
20
1.34110778810606
30
0
41
1
10
7.49999999999983
20
1.34110778810606
30
0
0
SPLINE
5
2B6
100
AcDbEntity
8
1
62
256
6
ByLayer
370
18
48
1
60
0
100
AcDbSpline
70
4
71
3
72
18
73
14
40
0
40
0
40
0
40
0
40
0.25
40
0.25
40
0.500000000000001
40
0.500000000000001
40
0.750000000000001
40
0.750000000000001
40
0.875000000000001
40
0.875000000000001
40
0.937500000000001
40
0.937500000000001
40
1
40
1
40
1
40
1
41
1
10
7.5
20
-8.35475567202911
30
0
41
1
10
7.39333283134545
20
-8.35475567202911
30
0
41
1
10
7.28678256680905
20
-8.35359114063442
30
0
41
1
10
7.07391302825874
20
-8.35014218005199
30
0
41
1
10
6.96787331918569
20
-8.34785421696319
30
0
41
1
10
6.75699113469386
20
-8.34579972942561
30
0
41
1
10
6.65209774529745
20
-8.34583609799336
30
0
41
1
10
6.49583573568549
20
-8.35379402983671
30
0
41
1
10
6.44371861580868
20
-8.35779634624026
30
0
41
1
10
6.36684918742316
20
-8.36795297099326
30
0
41
1
10
6.34145079284627
20
-8.37203599870946
30
0
41
1
10
6.29130154873309
20
-8.3824534783522
30
0
41
1
10
6.26653465577317
20
-8.38871951679704
30
0
41
1
10
6.24234349290271
20
-8.39719338478432
30
0
0
SPLINE
5
2B7
100
AcDbEntity
8
1
62
256
6
ByLayer
370
18
48
1
60
0
100
AcDbSpline
70
4
71
3
72
8
73
4
40
0
40
0
40
0
40
0
40
1
40
1
40
1
40
1
41
1
10
6.24234349290271
20
-8.39719338478432
30
0
41
1
10
6.16429212895628
20
-8.42453382136648
30
0
41
1
10
6.08829087448839
20
-8.45390095377832
30
0
41
1
10
6.01416828023798
20
-8.48512529082632
30
0
0
SPLINE
5
2B8
100
AcDbEntity
8
1
62
256
6
ByLayer
370
18
48
1
60
0
100
AcDbSpline
70
4
71
3
72
10
73
6
40
0
40
0
40
0
40
0
40
0.853638658248139
40
0.853638658248139
40
1
40
1
40
1
40
1
41
1
10
4.46782600363503
20
-8.78522428363385
30
0
41
1
10
4.47860624301569
20
-8.80159432790595
30
0
41
1
10
4.49124919428721
20
-8.81515330356001
30
0
41
1
10
4.50739441917716
20
-8.82907990654456
30
0
41
1
10
4.50979107715614
20
-8.83106422453557
30
0
41
1
10
4.51221684175277
20
-8.83299520057454
30
0
0
SPLINE
5
2B9
100
AcDbEntity
8
1
62
256
6
ByLayer
370
18
48
1
60
0
100
AcDbSpline
70
4
71
3
72
8
73
4
40
0
40
0
40
0
40
0
40
1
40
1
40
1
40
1
41
1
10
4.46782600363503
20
-8.78522428363391
30
0
41
1
10
4.32099988717152
20
-8.56226541027905
30
0
41
1
10
4.18806773479713
20
-8.33179538316216
30
0
41
1
10
4.06619341675656
20
-8.09534742970078
30
0
0
SPLINE
5
2BA
100
AcDbEntity
8
1
62
256
6
ByLayer
370
18
48
1
60
0
100
AcDbSpline
70
4
71
3
72
20
73
16
40
0
40
0
40
0
40
0
40
0.124999999999996
40
0.124999999999996
40
0.249999999999992
40
0.249999999999992
40
0.374999999999988
40
0.374999999999988
40
0.499999999999984
40
0.499999999999984
40
0.62499999999998
40
0.62499999999998
40
0.749999999999976
40
0.749999999999976
40
1
40
1
40
1
40
1
41
1
10
4.06619341675662
20
-8.09534742970084
30
0
41
1
10
4.05756861268594
20
-8.07861447640659
30
0
41
1
10
4.04735572486891
20
-8.06399476480641
30
0
41
1
10
4.02478983234317
20
-8.0376867177286
30
0
41
1
10
4.01253077652604
20
-8.0262188214918
30
0
41
1
10
3.98741637238635
20
-8.00670638770714
30
0
41
1
10
3.97432150151565
20
-7.99847072236105
30
0
41
1
10
3.9477821837221
20
-7.98511837467976
30
0
41
1
10
3.93447781124752
20
-7.98004984233376
30
0
41
1
10
3.9078149126193
20
-7.97299763178631
30
0
41
1
10
3.8943682106115
20
-7.97103688707369
30
0
41
1
10
3.86839248025893
20
-7.97056752276262
30
0
41
1
10
3.855753916597
20
-7.97200389143478
30
0
41
1
10
3.81898302702757
20
-7.98210963978551
30
0
41
1
10
3.79598522051162
20
-7.99666889175757
30
0
41
1
10
3.77932779387055
20
-8.02162337869981
30
0
0
SPLINE
5
2BB
100
AcDbEntity
8
1
62
256
6
ByLayer
370
18
48
1
60
0
100
AcDbSpline
70
4
71
3
72
8
73
4
40
0
40
0
40
0
40
0
40
1
40
1
40
1
40
1
41
1
10
3.77932779387231
20
-8.02162337870266
30
0
41
1
10
3.758488355005
20
-8.05284293718017
30
0
41
1
10
3.73801474375432
20
-8.0841736537908
30
0
41
1
10
3.71789615205273
20
-8.11561224446149
30
0
0
SPLINE
5
2BC
100
AcDbEntity
8
1
62
256
6
ByLayer
370
18
48
1
60
0
100
AcDbSpline
70
4
71
3
72
10
73
6
40
0
40
0
40
0
40
0
40
0.807042898212253
40
0.807042898212253
40
1
40
1
40
1
40
1
41
1
10
3.15606526292788
20
-8.40965427755219
30
0
41
1
10
3.15997636257248
20
-8.42333530263636
30
0
41
1
10
3.1647211675047
20
-8.43587541172485
30
0
41
1
10
3.17152441898531
20
-8.45018460189158
30
0
41
1
10
3.17287763324663
20
-8.45287971520287
30
0
41
1
10
3.17426702096032
20
-8.45550467465682
30
0
0
SPLINE
5
2BD
100
AcDbEntity
8
1
62
256
6
ByLayer
370
18
48
1
60
0
100
AcDbSpline
70
4
71
3
72
8
73
4
40
0
40
0
40
0
40
0
40
1
40
1
40
1
40
1
41
1
10
3.15606526292788
20
-8.40965427755219
30
0
41
1
10
3.09075217940563
20
-8.18118913598562
30
0
41
1
10
3.03199500269426
20
-7.9511608089872
30
0
41
1
10
2.97892086026485
20
-7.71977742361861
30
0
0
SPLINE
5
2BE
100
AcDbEntity
8
1
62
256
6
ByLayer
370
18
48
1
60
0
100
AcDbSpline
70
4
71
3
72
22
73
18
40
0
40
0
40
0
40
0
40
0.125
40
0.125
40
0.25
40
0.25
40
0.375
40
0.375
40
0.5
40
0.5
40
0.625
40
0.625
40
0.75
40
0.75
40
0.875
40
0.875
40
1
40
1
40
1
40
1
41
1
10
2.97892086026485
20
-7.71977742361861
30
0
41
1
10
2.97547775729964
20
-7.70476678409068
30
0
41
1
10
2.97130861194523
20
-7.69086339641291
30
0
41
1
10
2.96172088556153
20
-7.66503679620212
30
0
41
1
10
2.95631651088223
20
-7.65324249020523
30
0
41
1
10
2.94493260392494
20
-7.63282593631578
30
0
41
1
10
2.93881654721002
20
-7.62396891658608
30
0
41
1
10
2.92647568212186
20
-7.60981247894182
30
0
41
1
10
2.92015308272744
20
-7.60436268719485
30
0
41
1
10
2.9075290743782
20
-7.59703018077488
30
0
41
1
10
2.90136158501485
20
-7.59519657984066
30
0
41
1
10
2.88930718738953
20
-7.59521941958832
30
0
41
1
10
2.88343981140758
20
-7.59714310466535
30
0
41
1
10
2.87263175452131
20
-7.60472034464794
30
0
41
1
10
2.86753520325908
20
-7.61048192433071
30
0
41
1
10
2.85851577915037
20
-7.6256415146932
30
0
41
1
10
2.85460488631378
20
-7.63491881349808
30
0
41
1
10
2.85131807602738
20
-7.646053372621
30
0
0
SPLINE
5
2BF
100
AcDbEntity
8
1
62
256
6
ByLayer
370
18
48
1
60
0
100
AcDbSpline
70
4
71
3
72
8
73
4
40
0
40
0
40
0
40
0
40
1
40
1
40
1
40
1
41
1
10
2.85131807602738
20
-7.646053372621
30
0
41
1
10
2.84196899496504
20
-7.67772477643285
30
0
41
1
10
2.83284258398737
20
-7.7094253853025
30
0
41
1
10
2.82393399304721
20
-7.74115456310545
30
0
0
SPLINE
5
2C0
100
AcDbEntity
8
1
62
256
6
ByLayer
370
18
48
1
60
0
100
AcDbSpline
70
4
71
3
72
8
73
4
40
0
40
0
40
0
40
0
40
1
40
1
40
1
40
1
41
1
10
9.98505480207132
20
-8.4847981090594
30
0
41
1
10
9.91117807928475
20
-8.4536957902302
30
0
41
1
10
9.83543520082594
20
-8.42443830832963
30
0
41
1
10
9.75765650709707
20
-8.3971933847842
30
0
0
SPLINE
5
2C1
100
AcDbEntity
8
1
62
256
6
ByLayer
370
18
48
1
60
0
100
AcDbSpline
70
4
71
3
72
19
73
15
40
0
40
0
40
0
40
0
40
0.078013754826184
40
0.078013754826184
40
0.156027509652368
40
0.156027509652368
40
0.312055019304736
40
0.468082528957104
40
0.468082528957104
40
0.624110038609472
40
0.624110038609472
40
0.936165057914209
40
0.936165057914209
40
1
40
1
40
1
40
1
41
1
10
2.5
20
-6.98416648631758
30
0
41
1
10
2.5
20
-6.99349072731326
30
0
41
1
10
2.50041948617258
20
-7.0039524481756
30
0
41
1
10
2.50207626198278
20
-7.02680474932612
30
0
41
1
10
2.50331091803025
20
-7.03920865736166
30
0
41
1
10
2.50818399235248
20
-7.07923404606566
30
0
41
1
10
2.51779561735867
20
-7.14009609635804
30
0
41
1
10
2.5331897047775
20
-7.21487468396504
30
0
41
1
10
2.55129817430907
20
-7.29618592103213
30
0
41
1
10
2.5615695235544
20
-7.33948118728853
30
0
41
1
10
2.59547790729135
20
-7.47594663100904
30
0
41
1
10
2.62221109753239
20
-7.57576457488597
30
0
41
1
10
2.65834177425006
20
-7.70441688589619
30
0
41
1
10
2.66461897272131
20
-7.7265724724038
30
0
41
1
10
2.67102783157327
20
-7.74900870166295
30
0
0
SPLINE
5
2C2
100
AcDbEntity
8
1
62
256
6
ByLayer
370
18
48
1
60
0
100
AcDbSpline
70
4
71
3
72
16
73
12
40
0
40
0
40
0
40
0
40
0.0566951177271146
40
0.0566951177271146
40
0.371130078484744
40
0.371130078484744
40
0.528347558863558
40
0.528347558863558
40
0.685565039242372
40
0.685565039242372
40
1
40
1
40
1
40
1
41
1
10
13.3312406126287
20
-7.74105869454996
30
0
41
1
10
13.3368856549423
20
-7.72125889042741
30
0
41
1
10
13.3424301895535
20
-7.70166934933116
30
0
41
1
10
13.3779738977156
20
-7.57509896193056
30
0
41
1
10
13.4047076356879
20
-7.47522708555721
30
0
41
1
10
13.4385146066308
20
-7.33912890630791
30
0
41
1
10
13.4487287988263
20
-7.29606054815667
30
0
41
1
10
13.4667422974446
20
-7.21518425733518
30
0
41
1
10
13.4745503025337
20
-7.17728095177978
30
0
41
1
10
13.4933596734253
20
-7.07516472988772
30
0
41
1
10
13.5
20
-7.02153452587419
30
0
41
1
10
13.5
20
-6.98416648631758
30
0
0
SPLINE
5
2C3
100
AcDbEntity
8
1
62
256
6
ByLayer
370
18
48
1
60
0
100
AcDbSpline
70
4
71
3
72
8
73
4
40
0
40
0
40
0
40
0
40
1
40
1
40
1
40
1
41
1
10
13.1760660069528
20
-7.74115456310551
30
0
41
1
10
13.1671574160126
20
-7.70942538530255
30
0
41
1
10
13.158031005035
20
-7.67772477643291
30
0
41
1
10
13.1486819239726
20
-7.646053372621
30
0
0
SPLINE
5
2C4
100
AcDbEntity
8
1
62
256
6
ByLayer
370
18
48
1
60
0
100
AcDbSpline
70
4
71
3
72
22
73
18
40
0
40
0
40
0
40
0
40
0.125
40
0.125
40
0.25
40
0.25
40
0.375
40
0.375
40
0.5
40
0.5
40
0.625
40
0.625
40
0.75
40
0.75
40
0.875
40
0.875
40
1
40
1
40
1
40
1
41
1
10
13.1486819239726
20
-7.646053372621
30
0
41
1
10
13.145395859962
20
-7.63492134161834
30
0
41
1
10
13.1414853301966
20
-7.62564356418096
30
0
41
1
10
13.1324645952338
20
-7.61048140073308
30
0
41
1
10
13.1273703310041
20
-7.60471672154318
30
0
41
1
10
13.1165197901071
20
-7.59711988556722
30
0
41
1
10
13.1106326336989
20
-7.59520910775729
30
0
41
1
10
13.0985996661473
20
-7.59520678842671
30
0
41
1
10
13.0923472528674
20
-7.59708002327437
30
0
41
1
10
13.0797339464233
20
-7.60445071285892
30
0
41
1
10
13.0734817014368
20
-7.60984920591596
30
0
41
1
10
13.0611011217991
20
-7.62407564247638
30
0
41
1
10
13.0550182286693
20
-7.63290761763676
30
0
41
1
10
13.0436787779962
20
-7.65325746868234
30
0
41
1
10
13.0382650557258
20
-7.66507187447365
30
0
41
1
10
13.028690698945
20
-7.69086804887218
30
0
41
1
10
13.0245231426797
20
-7.70476286051769
30
0
41
1
10
13.0210791397352
20
-7.71977742361861
30
0
0
SPLINE
5
2C5
100
AcDbEntity
8
1
62
256
6
ByLayer
370
18
48
1
60
0
100
AcDbSpline
70
4
71
3
72
8
73
4
40
0
40
0
40
0
40
0
40
1
40
1
40
1
40
1
41
1
10
13.0210791397352
20
-7.71977742361861
30
0
41
1
10
12.9680049973057
20
-7.9511608089872
30
0
41
1
10
12.9092478205944
20
-8.18118913598562
30
0
41
1
10
12.8439347370721
20
-8.40965427755219
30
0
0
SPLINE
5
2C6
100
AcDbEntity
8
1
62
256
6
ByLayer
370
18
48
1
60
0
100
AcDbSpline
70
4
71
3
72
10
73
6
40
0
40
0
40
0
40
0
40
0.192656595105351
40
0.192656595105351
40
1
40
1
40
1
40
1
41
1
10
12.8255777125545
20
-8.45580446460633
30
0
41
1
10
12.8269563838094
20
-8.45320696699986
30
0
41
1
10
12.8283027073113
20
-8.45053433090959
30
0
41
1
10
12.8351203897798
20
-8.43626236754483
30
0
41
1
10
12.8400105666261
20
-8.42338102433047
30
0
41
1
10
12.84393473708
20
-8.40965427756112
30
0
0
SPLINE
5
2C7
100
AcDbEntity
8
1
62
256
6
ByLayer
370
18
48
1
60
0
100
AcDbSpline
70
4
71
3
72
8
73
4
40
0
40
0
40
0
40
0
40
1
40
1
40
1
40
1
41
1
10
12.2821038479475
20
-8.11561224446183
30
0
41
1
10
12.2619852562459
20
-8.08417365379114
30
0
41
1
10
12.2415116449952
20
-8.05284293718051
30
0
41
1
10
12.2206722061279
20
-8.021623378703
30
0
0
SPLINE
5
2C8
100
AcDbEntity
8
1
62
256
6
ByLayer
370
18
48
1
60
0
100
AcDbSpline
70
4
71
3
72
22
73
18
40
0
40
0
40
0
40
0
40
0.125
40
0.125
40
0.25
40
0.25
40
0.375
40
0.375
40
0.5
40
0.5
40
0.625
40
0.625
40
0.75
40
0.75
40
0.875
40
0.875
40
1
40
1
40
1
40
1
41
1
10
12.220672206128
20
-8.02162337870311
30
0
41
1
10
12.2123465551695
20
-8.00915072295555
30
0
41
1
10
12.2025956817871
20
-7.99946161232248
30
0
41
1
10
12.1808867785982
20
-7.98422295219041
30
0
41
1
10
12.1690472815018
20
-7.9788555779063
30
0
41
1
10
12.1445820160274
20
-7.97206154000202
30
0
41
1
10
12.1316983008701
20
-7.97056583126675
30
0
41
1
10
12.1055398406503
20
-7.97103859966984
30
0
41
1
10
12.0923191480476
20
-7.97297050139269
30
0
41
1
10
12.06559845739
20
-7.98002140691659
30
0
41
1
10
12.0521223477671
20
-7.98516939381466
30
0
41
1
10
12.0258466249484
20
-7.99838315611805
30
0
41
1
10
12.0129255530538
20
-8.00646700087754
30
0
41
1
10
11.9876283261573
20
-8.02606945397167
30
0
41
1
10
11.9753820982707
20
-8.03752054004997
30
0
41
1
10
11.9528804549388
20
-8.06368577052734
30
0
41
1
10
11.942413783406
20
-8.078648629675
30
0
41
1
10
11.9338065832386
20
-8.09534742969498
30
0
0
SPLINE
5
2C9
100
AcDbEntity
8
1
62
256
6
ByLayer
370
18
48
1
60
0
100
AcDbSpline
70
4
71
3
72
8
73
4
40
0
40
0
40
0
40
0
40
1
40
1
40
1
40
1
41
1
10
11.9338065832437
20
-8.09534742970033
30
0
41
1
10
11.811932265203
20
-8.33179538316182
30
0
41
1
10
11.6790001128286
20
-8.56226541027888
30
0
41
1
10
11.532173996365
20
-8.78522428363385
30
0
0
SPLINE
5
2CA
100
AcDbEntity
8
1
62
256
6
ByLayer
370
18
48
1
60
0
100
AcDbSpline
70
4
71
3
72
10
73
6
40
0
40
0
40
0
40
0
40
0.154055935819536
40
0.154055935819536
40
1
40
1
40
1
40
1
41
1
10
11.4869005709037
20
-8.83369375060425
30
0
41
1
10
11.4894922053656
20
-8.83165073255361
30
0
41
1
10
11.4920504930876
20
-8.82954799067141
30
0
41
1
10
11.5084016499678
20
-8.81550825690488
30
0
41
1
10
11.5214030147386
20
-8.80158026979666
30
0
41
1
10
11.5321739963674
20
-8.78522428363647
30
0
0
SPLINE
5
2CB
100
AcDbEntity
8
1
62
256
6
ByLayer
370
18
48
1
60
0
100
AcDbSpline
70
4
71
3
72
18
73
14
40
0
40
0
40
0
40
0
40
0.0625000000000017
40
0.0625000000000017
40
0.125000000000003
40
0.125000000000003
40
0.250000000000003
40
0.250000000000003
40
0.500000000000002
40
0.500000000000002
40
0.750000000000001
40
0.750000000000001
40
1
40
1
40
1
40
1
41
1
10
9.75765650709701
20
-8.3971933847842
30
0
41
1
10
9.73337095864292
20
-8.38868645468335
30
0
41
1
10
9.70855099367475
20
-8.38241709441616
30
0
41
1
10
9.65834251697044
20
-8.37199885641957
30
0
41
1
10
9.63293880936033
20
-8.36792105149237
30
0
41
1
10
9.55610375592386
20
-8.35778073841351
30
0
41
1
10
9.50390680516102
20
-8.35377287429458
30
0
41
1
10
9.34710589477322
20
-8.34581173116732
30
0
41
1
10
9.24209397510339
20
-8.34580117108663
30
0
41
1
10
9.03130786036934
20
-8.34786972747503
30
0
41
1
10
8.92552918745531
20
-8.35015193444406
30
0
41
1
10
8.71327956511635
20
-8.35358941523856
30
0
41
1
10
8.60680843585828
20
-8.35475567202923
30
0
41
1
10
8.50000000000006
20
-8.35475567202923
30
0
0
SPLINE
5
2CC
100
AcDbEntity
8
1
62
256
6
ByLayer
370
18
48
1
60
0
100
AcDbSpline
70
4
71
3
72
16
73
12
40
0
40
0
40
0
40
0
40
0.0064094203809614
40
0.0064094203809614
40
0.193518568978589
40
0.193518568978589
40
0.380627717576217
40
0.380627717576217
40
0.754846014771474
40
0.754846014771474
40
1
40
1
40
1
40
1
41
1
10
13.4811420485151
20
25.4290611733485
30
0
41
1
10
13.4810357355197
20
25.4297450260114
30
0
41
1
10
13.4809289929158
20
25.4304279511781
30
0
41
1
10
13.4776931754476
20
25.4510194272638
30
0
41
1
10
13.4741971166968
20
25.4701356844868
30
0
41
1
10
13.4664890657508
20
25.5068225464526
30
0
41
1
10
13.4622736268367
20
25.5243907477507
30
0
41
1
10
13.4487512279053
20
25.5742835261958
30
0
41
1
10
13.438527420317
20
25.6040325773529
30
0
41
1
10
13.4198600918346
20
25.6481974756353
30
0
41
1
10
13.412021222532
20
25.6643703454944
30
0
41
1
10
13.4037610863319
20
25.6793190797914
30
0
0
SPLINE
5
2CD
100
AcDbEntity
8
1
62
256
6
ByLayer
370
18
48
1
60
0
100
AcDbSpline
70
4
71
3
72
14
73
10
40
0
40
0
40
0
40
0
40
0.241395908364061
40
0.241395908364061
40
0.494263938909374
40
0.494263938909374
40
0.747131969454687
40
0.747131969454687
40
1
40
1
40
1
40
1
41
1
10
13.0851829138998
20
26.4955438949345
30
0
41
1
10
13.0791668027593
20
26.5052806481447
30
0
41
1
10
13.0732009286235
20
26.5136890103977
30
0
41
1
10
13.0611019249695
20
26.5281893865827
30
0
41
1
10
13.0550184420616
20
26.5340562225568
30
0
41
1
10
13.0436790945183
20
26.5420808703031
30
0
41
1
10
13.0382658701894
20
26.5443405941687
30
0
41
1
10
13.0286907729384
20
26.544799771853
30
0
41
1
10
13.0245231124758
20
26.5430763183393
30
0
41
1
10
13.0210791397352
20
26.5391751201278
30
0
0
SPLINE
5
2CE
100
AcDbEntity
8
1
62
256
6
ByLayer
370
18
48
1
60
0
100
AcDbSpline
70
4
71
3
72
8
73
4
40
0
40
0
40
0
40
0
40
1
40
1
40
1
40
1
41
1
10
13.0210791397352
20
26.5391751201278
30
0
41
1
10
12.9961637536884
20
26.510951941025
30
0
41
1
10
12.9699959489337
20
26.4828063538238
30
0
41
1
10
12.9424854219403
20
26.4547439531569
30
0
0
SPLINE
5
2CF
100
AcDbEntity
8
1
62
256
6
ByLayer
370
18
48
1
60
0
100
AcDbSpline
70
4
71
3
72
14
73
10
40
0
40
0
40
0
40
0
40
0.243737324690594
40
0.243737324690594
40
0.495824883127063
40
0.495824883127063
40
0.747912441563531
40
0.747912441563531
40
1
40
1
40
1
40
1
41
1
10
12.077630463911
20
27.565430487367
30
0
41
1
10
12.0647062400524
20
27.5747438567661
30
0
41
1
10
12.0516861641737
20
27.5829688263173
30
0
41
1
10
12.0258451583568
20
27.5969597921091
30
0
41
1
10
12.0129245783611
20
27.6027304451882
30
0
41
1
10
11.9876298314163
20
27.611189879639
30
0
41
1
10
11.9753814763578
20
27.6138104624723
30
0
41
1
10
11.9528804695447
20
27.614906486846
30
0
41
1
10
11.9424138610752
20
27.6133896805543
30
0
41
1
10
11.9338065832388
20
27.609050793867
30
0
0
SPLINE
5
2D0
100
AcDbEntity
8
1
62
256
6
ByLayer
370
18
48
1
60
0
100
AcDbSpline
70
4
71
3
72
8
73
4
40
0
40
0
40
0
40
0
40
1
40
1
40
1
40
1
41
1
10
11.9338065832437
20
27.6090507938591
30
0
41
1
10
11.8765740231614
20
27.5802001400548
30
0
41
1
10
11.81690291103
20
27.5516920186259
30
0
41
1
10
11.7544995366501
20
27.5235676857155
30
0
0
SPLINE
5
2D1
100
AcDbEntity
8
1
62
256
6
ByLayer
370
18
48
1
60
0
100
AcDbSpline
70
4
71
3
72
8
73
4
40
0
40
0
40
0
40
0
40
1
40
1
40
1
40
1
41
1
10
8.68261037626843
20
28.6386157710634
30
0
41
1
10
8.62185126631073
20
28.6401386976962
30
0
41
1
10
8.56098058333936
20
28.6408644129702
30
0
41
1
10
8.50000000000006
20
28.6408644129702
30
0
0
SPLINE
5
2D2
100
AcDbEntity
8
1
62
256
6
ByLayer
370
18
48
1
60
0
100
AcDbSpline
70
4
71
3
72
38
73
34
40
0
40
0
40
0
40
0
40
0.124999999999997
40
0.124999999999997
40
0.187499999999995
40
0.187499999999995
40
0.218749999999995
40
0.218749999999995
40
0.249999999999994
40
0.249999999999994
40
0.374999999999992
40
0.374999999999992
40
0.406249999999992
40
0.406249999999992
40
0.437499999999992
40
0.437499999999992
40
0.499999999999991
40
0.499999999999991
40
0.562499999999991
40
0.562499999999991
40
0.593749999999991
40
0.593749999999991
40
0.62499999999999
40
0.62499999999999
40
0.749999999999989
40
0.749999999999989
40
0.781249999999991
40
0.781249999999991
40
0.812499999999992
40
0.812499999999992
40
0.874999999999994
40
0.874999999999994
40
1
40
1
40
1
40
1
41
1
10
8.5
20
34.2568539804427
30
0
41
1
10
8.84481652124879
20
34.2568539804427
30
0
41
1
10
9.18356992213796
20
34.2283099237126
30
0
41
1
10
9.68294666609876
20
34.1449563387692
30
0
41
1
10
9.84793435276123
20
34.1103708339708
30
0
41
1
10
10.0931404436017
20
34.0481839930573
30
0
41
1
10
10.1746544643346
20
34.0256777191193
30
0
41
1
10
10.335071084395
20
33.977754471272
30
0
41
1
10
10.4141777036265
20
33.9522930839094
30
0
41
1
10
10.8042948527794
20
33.8177409370844
30
0
41
1
10
11.0992220640667
20
33.6870848472666
30
0
41
1
10
11.446197359083
20
33.4972101478342
30
0
41
1
10
11.5145496405685
20
33.4578658356348
30
0
41
1
10
11.6488033714386
20
33.3766459826186
30
0
41
1
10
11.7142006950572
20
33.3350788694893
30
0
41
1
10
11.9053287348921
20
33.2076935228451
30
0
41
1
10
12.0260066744975
20
33.1191973249756
30
0
41
1
10
12.2542481474312
20
32.9358869617653
30
0
41
1
10
12.3618102401735
20
32.8410709443788
30
0
41
1
10
12.5133336211968
20
32.6945962282614
30
0
41
1
10
12.5622022561891
20
32.6450616984647
30
0
41
1
10
12.656634173406
20
32.5446426429503
30
0
41
1
10
12.7022228222823
20
32.4937112066164
30
0
41
1
10
12.9193621452183
20
32.2388496295875
30
0
41
1
10
13.0609805248686
20
32.0320777178539
30
0
41
1
10
13.2014801817153
20
31.7733116171696
30
0
41
1
10
13.2277408544472
20
31.7215397039423
30
0
41
1
10
13.2766258010469
20
31.6180289956945
30
0
41
1
10
13.2992945786136
20
31.5661763507951
30
0
41
1
10
13.3615501295516
20
31.4116223058777
30
0
41
1
10
13.3952775407205
20
31.3103222222221
30
0
41
1
10
13.4751188121147
20
31.0119514648877
30
0
41
1
10
13.5
20
30.8204130357039
30
0
41
1
10
13.5
20
30.6370072102734
30
0
0
SPLINE
5
2D3
100
AcDbEntity
8
1
62
256
6
ByLayer
370
18
48
1
60
0
100
AcDbSpline
70
4
71
3
72
8
73
4
40
0
40
0
40
0
40
0
40
1
40
1
40
1
40
1
41
1
10
7.5
20
28.6408644129699
30
0
41
1
10
7.40507328059346
20
28.6408644129699
30
0
41
1
10
7.31023914716474
20
28.6391067521518
30
0
41
1
10
7.21549660673628
20
28.635297837805
30
0
0
SPLINE
5
2D4
100
AcDbEntity
8
1
62
256
6
ByLayer
370
18
48
1
60
0
100
AcDbSpline
70
4
71
3
72
8
73
4
40
0
40
0
40
0
40
0
40
1
40
1
40
1
40
1
41
1
10
4.24510206422985
20
27.5237472606045
30
0
41
1
10
4.18284310591037
20
27.5518133669152
30
0
41
1
10
4.1233041697165
20
27.5802615424296
30
0
41
1
10
4.06619341675656
20
27.609050793859
30
0
0
SPLINE
5
2D5
100
AcDbEntity
8
1
62
256
6
ByLayer
370
18
48
1
60
0
100
AcDbSpline
70
4
71
3
72
14
73
10
40
0
40
0
40
0
40
0
40
0.254347741609955
40
0.254347741609955
40
0.50869548321991
40
0.50869548321991
40
0.763043224829865
40
0.763043224829865
40
1
40
1
40
1
40
1
41
1
10
4.06619341675662
20
27.609050793859
30
0
41
1
10
4.0575686032405
20
27.6133985201973
30
0
41
1
10
4.04735571225808
20
27.614893139617
30
0
41
1
10
4.0247898342023
20
27.6138432142503
30
0
41
1
10
4.01253076444976
20
27.6112239956169
30
0
41
1
10
3.98741636077585
20
27.6028636725451
30
0
41
1
10
3.97432150863097
20
27.5970477835837
30
0
41
1
10
3.94868948447623
20
27.5831742987567
30
0
41
1
10
3.93629700526941
20
27.5753782000896
30
0
41
1
10
3.92388057852702
20
27.5665144416117
30
0
0
SPLINE
5
2D6
100
AcDbEntity
8
1
62
256
6
ByLayer
370
18
48
1
60
0
100
AcDbSpline
70
4
71
3
72
8
73
4
40
0
40
0
40
0
40
0
40
1
40
1
40
1
40
1
41
1
10
3.05758038416866
20
26.4546768297182
30
0
41
1
10
3.03004577975332
20
26.4827614721568
30
0
41
1
10
3.00385611168667
20
26.5109294383018
30
0
41
1
10
2.97892086026485
20
26.5391751201278
30
0
0
SPLINE
5
2D7
100
AcDbEntity
8
1
62
256
6
ByLayer
370
18
48
1
60
0
100
AcDbSpline
70
4
71
3
72
14
73
10
40
0
40
0
40
0
40
0
40
0.251565059712763
40
0.251565059712763
40
0.503130119425527
40
0.503130119425527
40
0.754695179138291
40
0.754695179138291
40
1
40
1
40
1
40
1
41
1
10
2.97892086026485
20
26.5391751201278
30
0
41
1
10
2.97547777590722
20
26.5430753120136
30
0
41
1
10
2.97130865974964
20
26.5448016147576
30
0
41
1
10
2.96172101566822
20
26.5443380924936
30
0
41
1
10
2.95631667813706
20
26.5420826725963
30
0
41
1
10
2.94493286361944
20
26.5340169462349
30
0
41
1
10
2.93881685485223
20
26.5281012865604
30
0
41
1
10
2.92662962458843
20
26.5134768300956
30
0
41
1
10
2.92046811742353
20
26.5047573055168
30
0
41
1
10
2.91431280123101
20
26.4947247929959
30
0
0
SPLINE
5
2D8
100
AcDbEntity
8
1
62
256
6
ByLayer
370
18
48
1
60
0
100
AcDbSpline
70
4
71
3
72
14
73
10
40
0
40
0
40
0
40
0
40
0.243136359017525
40
0.243136359017525
40
0.617056659975995
40
0.617056659975995
40
0.990976960934465
40
0.990976960934465
40
1
40
1
40
1
40
1
41
1
10
2.59603071814655
20
25.6789412720772
30
0
41
1
10
2.58784533742727
20
25.6640948884348
30
0
41
1
10
2.58007623366439
20
25.6480468157938
30
0
41
1
10
2.561486118826
20
25.6040646291969
30
0
41
1
10
2.55127719765795
20
25.5743635625024
30
0
41
1
10
2.53327447462965
20
25.5079895747792
30
0
41
1
10
2.52546039663139
20
25.4710794545062
30
0
41
1
10
2.51903275566656
20
25.4301847249274
30
0
41
1
10
2.51888216732686
20
25.4292193293097
30
0
41
1
10
2.51873244212317
20
25.4282521107327
30
0
0
SPLINE
5
2D9
100
AcDbEntity
8
1
62
256
6
ByLayer
370
18
48
1
60
0
100
AcDbSpline
70
4
71
3
72
38
73
34
40
0
40
0
40
0
40
0
40
0.125000000000002
40
0.125000000000002
40
0.187500000000003
40
0.187500000000003
40
0.218750000000004
40
0.218750000000004
40
0.250000000000004
40
0.250000000000004
40
0.375000000000002
40
0.375000000000002
40
0.406250000000001
40
0.406250000000001
40
0.4375
40
0.4375
40
0.500000000000001
40
0.500000000000001
40
0.625000000000001
40
0.625000000000001
40
0.65625
40
0.65625
40
0.6875
40
0.6875
40
0.75
40
0.75
40
0.8125
40
0.8125
40
0.843750000000001
40
0.843750000000001
40
0.875000000000001
40
0.875000000000001
40
1
40
1
40
1
40
1
41
1
10
2.5
20
30.6370072102734
30
0
41
1
10
2.5
20
30.819684369109
30
0
41
1
10
2.52467770459003
20
31.0106606415354
30
0
41
1
10
2.60418637785341
20
31.3085808835796
30
0
41
1
10
2.63779918519037
20
31.4097964420958
30
0
41
1
10
2.6999256061282
20
31.564342865113
30
0
41
1
10
2.72257657583896
20
31.6162500188353
30
0
41
1
10
2.77136486728722
20
31.7197331217359
30
0
41
1
10
2.7975572480936
20
31.7714516247743
30
0
41
1
10
2.93757234276171
20
32.0297530583109
30
0
41
1
10
3.07836225070156
20
32.2355158421455
30
0
41
1
10
3.29309355166123
20
32.4883696385948
30
0
41
1
10
3.33798977859334
20
32.538719169676
30
0
41
1
10
3.43180894709883
20
32.6388762132912
30
0
41
1
10
3.48085899993583
20
32.6888059782059
30
0
41
1
10
3.63339478680052
20
32.8367614961247
30
0
41
1
10
3.74137291872609
20
32.9321504420764
30
0
41
1
10
4.08379500639273
20
33.2078105796889
30
0
41
1
10
4.33655268073397
20
33.3776846991375
30
0
41
1
10
4.68431928620873
20
33.5687806435071
30
0
41
1
10
4.75566024698793
20
33.6060108154755
30
0
41
1
10
4.8999682761434
20
33.6773972838853
30
0
41
1
10
4.97308042136245
20
33.7116429360039
30
0
41
1
10
5.19523958615576
20
33.8100185608612
30
0
41
1
10
5.34710213294778
20
33.8697960576224
30
0
41
1
10
5.65824396316219
20
33.9774281926819
30
0
41
1
10
5.81752289462133
20
34.0252841588809
30
0
41
1
10
6.06210835473291
20
34.087669532552
30
0
41
1
10
6.14469382971481
20
34.1069188340205
30
0
41
1
10
6.31131884391152
20
34.142070066692
30
0
41
1
10
6.3949338741977
20
34.1578873985404
30
0
41
1
10
6.8144961849141
20
34.2282514332525
30
0
41
1
10
7.15485538016912
20
34.2568539804436
30
0
41
1
10
7.49999999999983
20
34.2568539804437
30
0
0
SPLINE
5
2DA
100
AcDbEntity
8
1
62
256
6
ByLayer
370
18
48
1
60
0
100
AcDbSpline
70
4
71
3
72
18
73
14
40
0
40
0
40
0
40
0
40
0.25
40
0.25
40
0.5
40
0.5
40
0.5625
40
0.5625
40
0.625
40
0.625
40
0.75
40
0.75
40
1
40
1
40
1
40
1
41
1
10
0.692723117508308
20
18.4982764729724
30
0
41
1
10
0.610296297723892
20
18.7113610052301
30
0
41
1
10
0.583020365642483
20
18.9237466242755
30
0
41
1
10
0.637987399519886
20
19.3471299571481
30
0
41
1
10
0.720202232592555
20
19.5581280274963
30
0
41
1
10
0.887643537793281
20
19.8210560338977
30
0
41
1
10
0.924354206918281
20
19.8736007984176
30
0
41
1
10
1.00408517025869
20
19.9786103671789
30
0
41
1
10
1.04706140585739
20
20.0310085862768
30
0
41
1
10
1.1845238262664
20
20.1873806001889
30
0
41
1
10
1.28769636690322
20
20.2907411377977
30
0
41
1
10
1.62867372320926
20
20.5984014688987
30
0
41
1
10
1.89786887828052
20
20.8002853216145
30
0
41
1
10
2.20125181416699
20
20.9995379299634
30
0
0
SPLINE
5
2DB
100
AcDbEntity
8
1
62
256
6
ByLayer
370
18
48
1
60
0
100
AcDbSpline
70
4
71
3
72
8
73
4
40
0
40
0
40
0
40
0
40
1
40
1
40
1
40
1
41
1
10
0.8570032950729
20
18.605941618421
30
0
41
1
10
0.802148878508035
20
18.5700903749386
30
0
41
1
10
0.747387735052826
20
18.5342023158826
30
0
41
1
10
0.692723117508763
20
18.4982764729724
30
0
0
SPLINE
5
2DC
100
AcDbEntity
8
1
62
256
6
ByLayer
370
18
48
1
60
0
100
AcDbSpline
70
4
71
3
72
8
73
4
40
0
40
0
40
0
40
0
40
1
40
1
40
1
40
1
41
1
10
2.10704321706322
20
19.822322313792
30
0
41
1
10
1.69030000018432
20
19.4169230097024
30
0
41
1
10
1.27361601364726
20
19.0114666233754
30
0
41
1
10
0.8570032950729
20
18.605941618421
30
0
0
SPLINE
5
2DD
100
AcDbEntity
8
1
62
256
6
ByLayer
370
18
48
1
60
0
100
AcDbSpline
70
4
71
3
72
8
73
4
40
0
40
0
40
0
40
0
40
1
40
1
40
1
40
1
41
1
10
2.5
20
20.1833134503259
30
0
41
1
10
2.36901232041583
20
20.0629849805142
30
0
41
1
10
2.23802668717934
20
19.9426546372417
30
0
41
1
10
2.10704321706322
20
19.822322313792
30
0
0
SPLINE
5
2DE
100
AcDbEntity
8
1
62
256
6
ByLayer
370
18
48
1
60
0
100
AcDbSpline
70
4
71
3
72
8
73
4
40
0
40
0
40
0
40
0
40
1
40
1
40
1
40
1
41
1
10
2.10000000000002
20
16.3116048464806
30
0
41
1
10
2.10555249923658
20
16.3551326018569
30
0
41
1
10
2.11148469351372
20
16.3987268524514
30
0
41
1
10
2.11785724716515
20
16.4424117940437
30
0
0
SPLINE
5
2DF
100
AcDbEntity
8
1
62
256
6
ByLayer
370
18
48
1
60
0
100
AcDbSpline
70
4
71
3
72
14
73
10
40
0
40
0
40
0
40
0
40
0.5
40
0.5
40
0.75
40
0.75
40
0.875
40
0.875
40
1
40
1
40
1
40
1
41
1
10
2.20125181416699
20
13.0264988499935
30
0
41
1
10
2.09941553445736
20
13.5668910905387
30
0
41
1
10
2.03827479953452
20
14.1111264357222
30
0
41
1
10
2.0120042474303
20
14.9336593654173
30
0
41
1
10
2.01413594656225
20
15.2088652744357
30
0
41
1
10
2.03402490760226
20
15.623250400046
30
0
41
1
10
2.04344873759328
20
15.7616706261786
30
0
41
1
10
2.06769583810939
20
16.037244848298
30
0
41
1
10
2.08252641273845
20
16.1746240024568
30
0
41
1
10
2.10000000000002
20
16.3116048464806
30
0
0
SPLINE
5
2E0
100
AcDbEntity
8
1
62
256
6
ByLayer
370
18
48
1
60
0
100
AcDbSpline
70
4
71
3
72
18
73
14
40
0
40
0
40
0
40
0
40
0.25
40
0.25
40
0.5
40
0.5
40
0.5625
40
0.5625
40
0.625
40
0.625
40
0.75
40
0.75
40
1
40
1
40
1
40
1
41
1
10
0.692723117508308
20
3.39996449276344
30
0
41
1
10
0.610296298229969
20
4.22005691150878
30
0
41
1
10
0.583020365722405
20
5.03745944528168
30
0
41
1
10
0.63798739893781
20
6.66692292621298
30
0
41
1
10
0.720202231790324
20
7.47898524550141
30
0
41
1
10
0.887643538002976
20
8.49090884720567
30
0
41
1
10
0.924354207393606
20
8.69313640040451
30
0
41
1
10
1.00408517141523
20
9.09728376621797
30
0
41
1
10
1.0470614067724
20
9.29894731135096
30
0
41
1
10
1.18452382694295
20
9.90077186527179
30
0
41
1
10
1.28769636741066
20
10.2985726476415
30
0
41
1
10
1.62867372328571
20
11.4826562767425
30
0
41
1
10
1.89786887817934
20
12.2596409610204
30
0
41
1
10
2.20125181416699
20
13.0264988499935
30
0
0
SPLINE
5
2E1
100
AcDbEntity
8
1
62
256
6
ByLayer
370
18
48
1
60
0
100
AcDbSpline
70
4
71
3
72
8
73
4
40
0
40
0
40
0
40
0
40
1
40
1
40
1
40
1
41
1
10
0.8570032950729
20
3.2955056811939
30
0
41
1
10
0.802148878508035
20
3.3302892527189
30
0
41
1
10
0.747387735052826
20
3.3651085434272
30
0
41
1
10
0.69272311750882
20
3.39996449276344
30
0
0
SPLINE
5
2E2
100
AcDbEntity
8
1
62
256
6
ByLayer
370
18
48
1
60
0
100
AcDbSpline
70
4
71
3
72
8
73
4
40
0
40
0
40
0
40
0
40
1
40
1
40
1
40
1
41
1
10
2.10704321706328
20
3.6312639768986
30
0
41
1
10
1.69030000018432
20
3.51936136290692
30
0
41
1
10
1.27361601364726
20
3.40744299247098
30
0
41
1
10
0.8570032950729
20
3.2955056811939
30
0
0
SPLINE
5
2E3
100
AcDbEntity
8
1
62
256
6
ByLayer
370
18
48
1
60
0
100
AcDbSpline
70
4
71
3
72
44
73
40
40
0
40
0
40
0
40
0
40
0.125000000000012
40
0.125000000000012
40
0.250000000000024
40
0.250000000000024
40
0.31250000000003
40
0.31250000000003
40
0.375000000000036
40
0.375000000000036
40
0.406250000000038
40
0.406250000000038
40
0.437500000000041
40
0.437500000000041
40
0.468750000000043
40
0.468750000000043
40
0.484375000000044
40
0.484375000000044
40
0.500000000000045
40
0.500000000000045
40
0.507812500000045
40
0.507812500000045
40
0.515625000000044
40
0.515625000000044
40
0.531250000000043
40
0.531250000000043
40
0.56250000000004
40
0.56250000000004
40
0.593750000000037
40
0.593750000000037
40
0.625000000000034
40
0.625000000000034
40
0.687500000000028
40
0.687500000000028
40
0.750000000000022
40
0.750000000000022
40
0.875000000000011
40
0.875000000000011
40
1
40
1
40
1
40
1
41
1
10
2.10000000000002
20
-3.43540806139867
30
0
41
1
10
2.11066299058746
20
-3.31994672457267
30
0
41
1
10
2.12272626461299
20
-3.20464396705739
30
0
41
1
10
2.15051266026688
20
-2.97504930601957
30
0
41
1
10
2.16618907016999
20
-2.86074888355944
30
0
41
1
10
2.19388108530575
20
-2.69071625130744
30
0
41
1
10
2.20381566248102
20
-2.63427846510388
30
0
41
1
10
2.22568791790269
20
-2.52214762274241
30
0
41
1
10
2.23760899467658
20
-2.46636748698938
30
0
41
1
10
2.25795578699865
20
-2.38396126159501
30
0
41
1
10
2.26514633554632
20
-2.35673768723552
30
0
41
1
10
2.28074860869543
20
-2.30304818292194
30
0
41
1
10
2.28914981760585
20
-2.27652742805725
30
0
41
1
10
2.30806019873785
20
-2.22503731800856
30
0
41
1
10
2.31835933464936
20
-2.20005235059051
30
0
41
1
10
2.33769075777911
20
-2.16617055349116
30
0
41
1
10
2.34467229303976
20
-2.15562738077551
30
0
41
1
10
2.36130630772794
20
-2.13855606539005
30
0
41
1
10
2.37137912270072
20
-2.13196737634934
30
0
41
1
10
2.38752919332825
20
-2.1342943343675
30
0
41
1
10
2.39274746772873
20
-2.13714759657023
30
0
41
1
10
2.40199794707417
20
-2.14552350880314
30
0
41
1
10
2.40609390557375
20
-2.1509887340024
30
0
41
1
10
2.41684793254547
20
-2.16864064848471
30
0
41
1
10
2.42233445029842
20
-2.1823305190249
30
0
41
1
10
2.43631745363126
20
-2.22374458540048
30
0
41
1
10
2.44268549846902
20
-2.25288102240944
30
0
41
1
10
2.45353515258722
20
-2.31151065933523
30
0
41
1
10
2.45780439460651
20
-2.34090643744156
30
0
41
1
10
2.46519667323957
20
-2.39977689768045
30
0
41
1
10
2.46828904691421
20
-2.42925376425438
30
0
41
1
10
2.47644032759064
20
-2.51776041427348
30
0
41
1
10
2.4803952473107
20
-2.57686469014237
30
0
41
1
10
2.48681357613424
20
-2.69516831169261
30
0
41
1
10
2.48924210922598
20
-2.75439276738968
30
0
41
1
10
2.4950945347457
20
-2.93157291532077
30
0
41
1
10
2.49713372821447
20
-3.04927681248114
30
0
41
1
10
2.49961045378257
20
-3.28415802567167
30
0
41
1
10
2.50000000000006
20
-3.40132842476697
30
0
41
1
10
2.50000000000006
20
-3.51829459633984
30
0
0
SPLINE
5
2E4
100
AcDbEntity
8
1
62
256
6
ByLayer
370
18
48
1
60
0
100
AcDbSpline
70
4
71
3
72
14
73
10
40
0
40
0
40
0
40
0
40
0.500000000000001
40
0.500000000000001
40
0.75
40
0.75
40
0.875
40
0.875
40
1
40
1
40
1
40
1
41
1
10
2.20125181416699
20
-7.97303907997002
30
0
41
1
10
2.09944584616414
20
-7.22683158333308
30
0
41
1
10
2.0382990718166
20
-6.47523451280989
30
0
41
1
10
2.01200644503712
20
-5.33916616905395
30
0
41
1
10
2.01412875032878
20
-4.95903366072343
30
0
41
1
10
2.03400668953748
20
-4.38662196353278
30
0
41
1
10
2.04342172210977
20
-4.19550857925248
30
0
41
1
10
2.06766663608431
20
-3.81476628078383
30
0
41
1
10
2.08250391900458
20
-3.62485968703498
30
0
41
1
10
2.09999999999997
20
-3.43540806139862
30
0
0
SPLINE
5
2E5
100
AcDbEntity
8
1
62
256
6
ByLayer
370
18
48
1
60
0
100
AcDbSpline
70
4
71
3
72
18
73
14
40
0
40
0
40
0
40
0
40
0.25
40
0.25
40
0.500000000000001
40
0.500000000000001
40
0.562500000000001
40
0.562500000000001
40
0.625
40
0.625
40
0.75
40
0.75
40
1
40
1
40
1
40
1
41
1
10
0.69272311750882
20
-15.098311980209
30
0
41
1
10
0.61029633630659
20
-14.4913043728134
30
0
41
1
10
0.583020371733141
20
-13.8862875943546
30
0
41
1
10
0.637987355144162
20
-12.6802074407334
30
0
41
1
10
0.720202171435005
20
-12.0791430500757
30
0
41
1
10
0.887643553786461
20
-11.330147116579
30
0
41
1
10
0.924354243161417
20
-11.1804642522343
30
0
41
1
10
1.0040852584363
20
-10.8813262882048
30
0
41
1
10
1.04706147561757
20
-10.732061043789
30
0
41
1
10
1.18452387784555
20
-10.2866085888995
30
0
41
1
10
1.2876964055917
20
-9.99216838780018
30
0
41
1
10
1.6286737290385
20
-9.11574518679112
30
0
41
1
10
1.89786887056505
20
-8.54064437477348
30
0
41
1
10
2.20125181416699
20
-7.97303907997002
30
0
0
SPLINE
5
2E6
100
AcDbEntity
8
1
62
256
6
ByLayer
370
18
48
1
60
0
100
AcDbSpline
70
4
71
3
72
8
73
4
40
0
40
0
40
0
40
0
40
1
40
1
40
1
40
1
41
1
10
0.8570032950729
20
-15.3104359372271
30
0
41
1
10
0.802148878508035
20
-15.2398011222197
30
0
41
1
10
0.747387735052826
20
-15.1690937724555
30
0
41
1
10
0.69272311750882
20
-15.098311980209
30
0
0
SPLINE
5
2E7
100
AcDbEntity
8
1
62
256
6
ByLayer
370
18
48
1
60
0
100
AcDbSpline
70
4
71
3
72
8
73
4
40
0
40
0
40
0
40
0
40
1
40
1
40
1
40
1
41
1
10
2.10704321706328
20
-16.1910583368934
30
0
41
1
10
1.69030000018432
20
-15.8975616467955
30
0
41
1
10
1.27361601364726
20
-15.6040236309045
30
0
41
1
10
0.8570032950729
20
-15.3104359372271
30
0
0
SPLINE
5
2E8
100
AcDbEntity
8
1
62
256
6
ByLayer
370
18
48
1
60
0
100
AcDbSpline
70
4
71
3
72
8
73
4
40
0
40
0
40
0
40
0
40
1
40
1
40
1
40
1
41
1
10
2.21132888193773
20
-16.2750367336785
30
0
41
1
10
2.17656684274851
20
-16.2470440558362
30
0
41
1
10
2.14180495372943
20
-16.2190512574907
30
0
41
1
10
2.10704321706328
20
-16.1910583368934
30
0
0
SPLINE
5
2E9
100
AcDbEntity
8
1
62
256
6
ByLayer
370
18
48
1
60
0
100
AcDbSpline
70
4
71
3
72
44
73
40
40
0
40
0
40
0
40
0
40
0.125000000000036
40
0.125000000000036
40
0.250000000000073
40
0.250000000000073
40
0.31250000000009
40
0.31250000000009
40
0.375000000000107
40
0.375000000000107
40
0.406250000000114
40
0.406250000000114
40
0.437500000000122
40
0.437500000000122
40
0.46875000000013
40
0.46875000000013
40
0.484375000000133
40
0.484375000000133
40
0.500000000000136
40
0.500000000000136
40
0.507812500000135
40
0.507812500000135
40
0.515625000000135
40
0.515625000000135
40
0.531250000000132
40
0.531250000000132
40
0.562500000000124
40
0.562500000000124
40
0.593750000000116
40
0.593750000000116
40
0.625000000000108
40
0.625000000000108
40
0.68750000000009
40
0.68750000000009
40
0.750000000000072
40
0.750000000000072
40
0.875000000000037
40
0.875000000000037
40
1
40
1
40
1
40
1
41
1
10
2.10000000000002
20
-19.7470129078792
30
0
41
1
10
2.11066296627661
20
-19.7151421182213
30
0
41
1
10
2.12272620972067
20
-19.6836751349576
30
0
41
1
10
2.15051252510602
20
-19.6225851900397
30
0
41
1
10
2.16618888598742
20
-19.5929180181161
30
0
41
1
10
2.19388079858197
20
-19.5513475474984
30
0
41
1
10
2.20381533670144
20
-19.5379873091646
30
0
41
1
10
2.22568749567449
20
-19.5128948947719
30
0
41
1
10
2.23760851485389
20
-19.501113017712
30
0
41
1
10
2.25795519190433
20
-19.485795992436
30
0
41
1
10
2.26514569670206
20
-19.4810947016566
30
0
41
1
10
2.2807478602308
20
-19.4729669219333
30
0
41
1
10
2.28914900078377
20
-19.4695087710327
30
0
41
1
10
2.30805920476308
20
-19.4649715329035
30
0
41
1
10
2.31835824222134
20
-19.4637021642693
30
0
41
1
10
2.33768932066448
20
-19.4666012714272
30
0
41
1
10
2.3446707564591
20
-19.4683351240666
30
0
41
1
10
2.36130431738269
20
-19.4757718520791
30
0
41
1
10
2.37137662378126
20
-19.4818152686557
30
0
41
1
10
2.38752690794001
20
-19.4968326605222
30
0
41
1
10
2.3927452504991
20
-19.5025532928507
30
0
41
1
10
2.40199605158881
20
-19.514063209231
30
0
41
1
10
2.40609215571288
20
-19.5198839424488
30
0
41
1
10
2.4168465775212
20
-19.5365229947136
30
0
41
1
10
2.42233324561067
20
-19.5469349182847
30
0
41
1
10
2.43631661117189
20
-19.5761204352091
30
0
41
1
10
2.44268474279716
20
-19.5935874266046
30
0
41
1
10
2.45353457247774
20
-19.6269185120489
30
0
41
1
10
2.45780386897292
20
-19.6425595280665
30
0
41
1
10
2.46519623819467
20
-19.6727705214119
30
0
41
1
10
2.46828864599831
20
-19.6873147325053
30
0
41
1
10
2.47644001435361
20
-19.7298384281052
30
0
41
1
10
2.48039497300107
20
-19.7567272958368
30
0
41
1
10
2.48681336754032
20
-19.8088131275211
30
0
41
1
10
2.48924192671734
20
-19.8339891743836
30
0
41
1
10
2.49509443289185
20
-19.9074299088631
30
0
41
1
10
2.49713366855116
20
-19.9537453886532
30
0
41
1
10
2.49961044421417
20
-20.0430619861962
30
0
41
1
10
2.50000000000006
20
-20.0860184219595
30
0
41
1
10
2.50000000000006
20
-20.1276992919997
30
0
0
SPLINE
5
2EA
100
AcDbEntity
8
1
62
256
6
ByLayer
370
18
48
1
60
0
100
AcDbSpline
70
4
71
3
72
14
73
10
40
0
40
0
40
0
40
0
40
0.5
40
0.5
40
0.75
40
0.75
40
0.875
40
0.875
40
1
40
1
40
1
40
1
41
1
10
2.20125181416699
20
-20.9995379299634
30
0
41
1
10
2.09943994687785
20
-20.7935498898208
30
0
41
1
10
2.0382993856515
20
-20.586088245794
30
0
41
1
10
2.01200731328817
20
-20.2725255250922
30
0
41
1
10
2.01412827005657
20
-20.1676102332635
30
0
41
1
10
2.03399804803871
20
-20.0096326430224
30
0
41
1
10
2.04341194269654
20
-19.9568720166712
30
0
41
1
10
2.06765895751175
20
-19.8517549611288
30
0
41
1
10
2.08249892233226
20
-19.7993222888401
30
0
41
1
10
2.09999999999997
20
-19.7470129078792
30
0
0
SPLINE
5
2EB
100
AcDbEntity
8
1
62
256
6
ByLayer
370
18
48
1
60
0
100
AcDbSpline
70
4
71
3
72
10
73
6
40
0
40
0
40
0
40
0
40
0.194157690942794
40
0.194157690942794
40
1
40
1
40
1
40
1
41
1
10
1.24446889258451
20
-20.24446948974
30
0
41
1
10
1.29425149813545
20
-20.2942712596322
30
0
41
1
10
1.34658598100157
20
-20.3438766256441
30
0
41
1
10
1.62867372320926
20
-20.5984014688987
30
0
41
1
10
1.89786887828058
20
-20.8002853216145
30
0
41
1
10
2.20125181416699
20
-20.9995379299634
30
0
0
SPLINE
5
2EC
100
AcDbEntity
8
1
62
256
6
ByLayer
370
18
48
1
60
0
100
AcDbSpline
70
4
71
3
72
8
73
4
40
0
40
0
40
0
40
0
40
1
40
1
40
1
40
1
41
1
10
2.5
20
3.67582524168245
30
0
41
1
10
2.36901232041583
20
3.66097172240831
30
0
41
1
10
2.23802668717934
20
3.64611797187143
30
0
41
1
10
2.10704321706328
20
3.6312639768986
30
0
0
SPLINE
5
2ED
100
AcDbEntity
8
1
62
256
6
ByLayer
370
18
48
1
60
0
100
AcDbSpline
70
4
71
3
72
8
73
4
40
0
40
0
40
0
40
0
40
1
40
1
40
1
40
1
41
1
10
13.798748185833
20
-20.9995379299634
30
0
41
1
10
14.1744668000605
20
-20.7527774664214
30
0
41
1
10
14.4963619341398
20
-20.5029221461138
30
0
41
1
10
14.7508465537162
20
-20.2491907128845
30
0
0
SPLINE
5
2EE
100
AcDbEntity
8
1
62
256
6
ByLayer
370
18
48
1
60
0
100
AcDbSpline
70
4
71
3
72
14
73
10
40
0
40
0
40
0
40
0
40
0.250000000000001
40
0.250000000000001
40
0.375
40
0.375
40
0.5
40
0.5
40
1
40
1
40
1
40
1
41
1
10
13.9
20
-19.7470129078792
30
0
41
1
10
13.9348141374038
20
-19.8510696986011
30
0
41
1
10
13.9590763278998
20
-19.955564647971
30
0
41
1
10
13.979062621334
20
-20.1129883553598
30
0
41
1
10
13.9829914827388
20
-20.1655803103582
30
0
41
1
10
13.9853011554091
20
-20.2709789369062
30
0
41
1
10
13.9836772560154
20
-20.3235517135034
30
0
41
1
10
13.961871246615
20
-20.585792346937
30
0
41
1
10
13.9005419754627
20
-20.7935864649445
30
0
41
1
10
13.798748185833
20
-20.9995379299634
30
0
0
SPLINE
5
2EF
100
AcDbEntity
8
1
62
256
6
ByLayer
370
18
48
1
60
0
100
AcDbSpline
70
4
71
3
72
46
73
42
40
0
40
0
40
0
40
0
40
0.124999999999998
40
0.124999999999998
40
0.249999999999995
40
0.249999999999995
40
0.312499999999994
40
0.312499999999994
40
0.374999999999993
40
0.374999999999993
40
0.406249999999992
40
0.406249999999992
40
0.43749999999999
40
0.43749999999999
40
0.453124999999989
40
0.453124999999989
40
0.468749999999988
40
0.468749999999988
40
0.484374999999988
40
0.484374999999988
40
0.492187499999988
40
0.492187499999988
40
0.499999999999989
40
0.499999999999989
40
0.50781249999999
40
0.50781249999999
40
0.515624999999991
40
0.515624999999991
40
0.531249999999991
40
0.531249999999991
40
0.562499999999992
40
0.562499999999992
40
0.624999999999993
40
0.624999999999993
40
0.687499999999994
40
0.687499999999994
40
0.749999999999994
40
0.749999999999994
40
0.874999999999997
40
0.874999999999997
40
1
40
1
40
1
40
1
41
1
10
13.5
20
-20.1276992919996
30
0
41
1
10
13.5
20
-20.0855810358701
30
0
41
1
10
13.5003977691264
20
-20.0421288247096
30
0
41
1
10
13.5029378908438
20
-19.9518222649678
30
0
41
1
10
13.5050299413475
20
-19.9050110345875
30
0
41
1
10
13.5110472881183
20
-19.8308279992511
30
0
41
1
10
13.5135410626258
20
-19.8054319713467
30
0
41
1
10
13.520172662191
20
-19.7527018499913
30
0
41
1
10
13.524278913594
20
-19.7253538283745
30
0
41
1
10
13.5328147218839
20
-19.6820299705996
30
0
41
1
10
13.5360605261294
20
-19.6672042015998
30
0
41
1
10
13.5438669315635
20
-19.6363624538883
30
0
41
1
10
13.5484084201075
20
-19.6203270622124
30
0
41
1
10
13.5570849163005
20
-19.5948414907424
30
0
41
1
10
13.5602914887683
20
-19.5861033898011
30
0
41
1
10
13.5677609027895
20
-19.567829491427
30
0
41
1
10
13.5720177346984
20
-19.5582742034566
30
0
41
1
10
13.5824201439713
20
-19.5380932522631
30
0
41
1
10
13.5885933056728
20
-19.5272586587351
30
0
41
1
10
13.6011386037702
20
-19.5099790722719
30
0
41
1
10
13.6058049189506
20
-19.5041891402473
30
0
41
1
10
13.6161842846528
20
-19.4931389121741
30
0
41
1
10
13.6216841268435
20
-19.4881680473502
30
0
41
1
10
13.6320564305851
20
-19.4802134844961
30
0
41
1
10
13.636917312823
20
-19.4771789837203
30
0
41
1
10
13.6458320204512
20
-19.4724413986066
30
0
41
1
10
13.6499482593227
20
-19.4707019279913
30
0
41
1
10
13.6613379871684
20
-19.4667073552317
30
0
41
1
10
13.6678993990873
20
-19.4655350544358
30
0
41
1
10
13.6861257252261
20
-19.4640051704626
30
0
41
1
10
13.6960019166188
20
-19.4656482575239
30
0
41
1
10
13.7232061746861
20
-19.4732959341644
30
0
41
1
10
13.7378801738161
20
-19.4823646373221
30
0
41
1
10
13.7643797283279
20
-19.502962355949
30
0
41
1
10
13.7760439828768
20
-19.5147104426438
30
0
41
1
10
13.7975105916003
20
-19.5397054940924
30
0
41
1
10
13.8072827721619
20
-19.5529845432888
30
0
41
1
10
13.8345515637561
20
-19.5942686275978
30
0
41
1
10
13.8500303092044
20
-19.6236884274897
30
0
41
1
10
13.877496120365
20
-19.6842567063779
30
0
41
1
10
13.8894354069477
20
-19.7154361482555
30
0
41
1
10
13.9
20
-19.7470129078792
30
0
0
SPLINE
5
2F0
100
AcDbEntity
8
1
62
256
6
ByLayer
370
18
48
1
60
0
100
AcDbSpline
70
4
71
3
72
8
73
4
40
0
40
0
40
0
40
0
40
1
40
1
40
1
40
1
41
1
10
13.8929567829367
20
-16.1910583368934
30
0
41
1
10
13.8581950462706
20
-16.2190512574907
30
0
41
1
10
13.8234331572515
20
-16.2470440558362
30
0
41
1
10
13.7886711180623
20
-16.2750367336785
30
0
0
SPLINE
5
2F1
100
AcDbEntity
8
1
62
256
6
ByLayer
370
18
48
1
60
0
100
AcDbSpline
70
4
71
3
72
8
73
4
40
0
40
0
40
0
40
0
40
1
40
1
40
1
40
1
41
1
10
15.1429967049271
20
-15.3104359372271
30
0
41
1
10
14.7263839863527
20
-15.6040236309045
30
0
41
1
10
14.3096999998157
20
-15.8975616467955
30
0
41
1
10
13.8929567829367
20
-16.1910583368934
30
0
0
SPLINE
5
2F2
100
AcDbEntity
8
1
62
256
6
ByLayer
370
18
48
1
60
0
100
AcDbSpline
70
4
71
3
72
8
73
4
40
0
40
0
40
0
40
0
40
1
40
1
40
1
40
1
41
1
10
15.3072768824912
20
-15.098311980209
30
0
41
1
10
15.2526122649472
20
-15.1690937724555
30
0
41
1
10
15.197851121492
20
-15.2398011222197
30
0
41
1
10
15.1429967049271
20
-15.3104359372271
30
0
0
SPLINE
5
2F3
100
AcDbEntity
8
1
62
256
6
ByLayer
370
18
48
1
60
0
100
AcDbSpline
70
4
71
3
72
16
73
12
40
0
40
0
40
0
40
0
40
0.500000000000001
40
0.500000000000001
40
0.750000000000001
40
0.750000000000001
40
0.812500000000001
40
0.812500000000001
40
0.875
40
0.875
40
1
40
1
40
1
40
1
41
1
10
13.798748185833
20
-7.97303907997002
30
0
41
1
10
14.405097804812
20
-9.10747086492273
30
0
41
1
10
14.8712653212638
20
-10.2648643351542
30
0
41
1
10
15.2745796838533
20
-12.0494287045723
30
0
41
1
10
15.3595778726013
20
-12.6523817047844
30
0
41
1
10
15.3958856626085
20
-13.4175290467891
30
0
41
1
10
15.3996311636426
20
-13.5707020121019
30
0
41
1
10
15.40006791869
20
-13.8766713601942
30
0
41
1
10
15.3967644264646
20
-14.0295727067298
30
0
41
1
10
15.3763386817469
20
-14.4880279548789
30
0
41
1
10
15.3486906153224
20
-14.7933328155188
30
0
41
1
10
15.3072768824912
20
-15.098311980209
30
0
0
SPLINE
5
2F4
100
AcDbEntity
8
1
62
256
6
ByLayer
370
18
48
1
60
0
100
AcDbSpline
70
4
71
3
72
14
73
10
40
0
40
0
40
0
40
0
40
0.25
40
0.25
40
0.375
40
0.375
40
0.5
40
0.5
40
1
40
1
40
1
40
1
41
1
10
13.9
20
-3.43540806139862
30
0
41
1
10
13.9348457404803
20
-3.81272582657311
30
0
41
1
10
13.959127738988
20
-4.19171228412932
30
0
41
1
10
13.9791039219444
20
-4.76278997736671
30
0
41
1
10
13.9830221477101
20
-4.95387180618002
30
0
41
1
10
13.9852929955234
20
-5.33529197920518
30
0
41
1
10
13.9836558759158
20
-5.52556114868645
30
0
41
1
10
13.9618071093348
20
-6.47473414517822
30
0
41
1
10
13.900516818025
20
-7.22710524373355
30
0
41
1
10
13.798748185833
20
-7.97303907997002
30
0
0
SPLINE
5
2F5
100
AcDbEntity
8
1
62
256
6
ByLayer
370
18
48
1
60
0
100
AcDbSpline
70
4
71
3
72
48
73
44
40
0
40
0
40
0
40
0
40
0.125000000000002
40
0.125000000000002
40
0.250000000000003
40
0.250000000000003
40
0.312500000000004
40
0.312500000000004
40
0.375000000000004
40
0.375000000000004
40
0.406250000000004
40
0.406250000000004
40
0.437500000000005
40
0.437500000000005
40
0.453125000000005
40
0.453125000000005
40
0.468750000000005
40
0.468750000000005
40
0.484375000000005
40
0.484375000000005
40
0.492187500000005
40
0.492187500000005
40
0.500000000000005
40
0.500000000000005
40
0.507812500000005
40
0.507812500000005
40
0.515625000000005
40
0.515625000000005
40
0.531250000000005
40
0.531250000000005
40
0.562500000000004
40
0.562500000000004
40
0.593750000000003
40
0.593750000000003
40
0.625000000000003
40
0.625000000000003
40
0.687500000000002
40
0.687500000000002
40
0.750000000000002
40
0.750000000000002
40
0.875000000000001
40
0.875000000000001
40
1
40
1
40
1
40
1
41
1
10
13.5
20
-3.51829459633984
30
0
41
1
10
13.5
20
-3.40042932438661
30
0
41
1
10
13.5003957249787
20
-3.28227225303073
30
0
41
1
10
13.5029186753019
20
-3.04563758941492
30
0
41
1
10
13.5049965614238
20
-2.9271532587789
30
0
41
1
10
13.510963461242
20
-2.74905392046912
30
0
41
1
10
13.5134355110792
20
-2.68962472332521
30
0
41
1
10
13.5200021517671
20
-2.57059130181852
30
0
41
1
10
13.5240664071689
20
-2.51088742941755
30
0
41
1
10
13.5324951151315
20
-2.42156052456789
30
0
41
1
10
13.5356979821606
20
-2.39182868201561
30
0
41
1
10
13.5433863058321
20
-2.33250784524904
30
0
41
1
10
13.5478537647841
20
-2.30283841954838
30
0
41
1
10
13.556353995122
20
-2.25895178567225
30
0
41
1
10
13.5594911533594
20
-2.24442257380355
30
0
41
1
10
13.5667717868027
20
-2.21569201915457
30
0
41
1
10
13.57090271512
20
-2.20145101721562
30
0
41
1
10
13.5809953557869
20
-2.1741373494512
30
0
41
1
10
13.5868093705953
20
-2.1610569975573
30
0
41
1
10
13.5986690434409
20
-2.14488746478526
30
0
41
1
10
13.603214780737
20
-2.14014319868284
30
0
41
1
10
13.6133551451343
20
-2.13399495502426
30
0
41
1
10
13.61881709667
20
-2.13279344606514
30
0
41
1
10
13.6293584239551
20
-2.13418928215333
30
0
41
1
10
13.6343976360512
20
-2.13666830536999
30
0
41
1
10
13.643566196661
20
-2.14337732523319
30
0
41
1
10
13.6478148991183
20
-2.14766218156336
30
0
41
1
10
13.6595435250038
20
-2.16163963129372
30
0
41
1
10
13.6663068477392
20
-2.17267764301181
30
0
41
1
10
13.6847942626861
20
-2.20722780148588
30
0
41
1
10
13.6947935246629
20
-2.23222997586328
30
0
41
1
10
13.7131586352716
20
-2.28357966422692
30
0
41
1
10
13.7214080661854
20
-2.31009568574507
30
0
41
1
10
13.7367392018564
20
-2.36371352385987
30
0
41
1
10
13.7438009279897
20
-2.39080584591829
30
0
41
1
10
13.7637762580907
20
-2.47263165022088
30
0
41
1
10
13.7755003266806
20
-2.52790378787586
30
0
41
1
10
13.7970782709077
20
-2.63923083689758
30
0
41
1
10
13.8069017454778
20
-2.69530095047588
30
0
41
1
10
13.8343141204311
20
-2.86430860718537
30
0
41
1
10
13.8498816742361
20
-2.97809636862866
30
0
41
1
10
13.8774441264369
20
-3.20626751481132
30
0
41
1
10
13.8894091597339
20
-3.32072798499814
30
0
41
1
10
13.9
20
-3.43540806139862
30
0
0
SPLINE
5
2F6
100
AcDbEntity
8
1
62
256
6
ByLayer
370
18
48
1
60
0
100
AcDbSpline
70
4
71
3
72
8
73
4
40
0
40
0
40
0
40
0
40
1
40
1
40
1
40
1
41
1
10
15.1429967049271
20
3.2955056811939
30
0
41
1
10
14.7263839863527
20
3.40744299247098
30
0
41
1
10
14.3096999998157
20
3.51936136290692
30
0
41
1
10
13.8929567829367
20
3.6312639768986
30
0
0
SPLINE
5
2F7
100
AcDbEntity
8
1
62
256
6
ByLayer
370
18
48
1
60
0
100
AcDbSpline
70
4
71
3
72
8
73
4
40
0
40
0
40
0
40
0
40
1
40
1
40
1
40
1
41
1
10
15.3072768824912
20
3.39996449276344
30
0
41
1
10
15.2526122649472
20
3.3651085434272
30
0
41
1
10
15.197851121492
20
3.3302892527189
30
0
41
1
10
15.1429967049271
20
3.2955056811939
30
0
0
SPLINE
5
2F8
100
AcDbEntity
8
1
62
256
6
ByLayer
370
18
48
1
60
0
100
AcDbSpline
70
4
71
3
72
16
73
12
40
0
40
0
40
0
40
0
40
0.5
40
0.5
40
0.75
40
0.75
40
0.8125
40
0.8125
40
0.875
40
0.875
40
1
40
1
40
1
40
1
41
1
10
13.798748185833
20
13.0264988499935
30
0
41
1
10
14.4050977873146
20
11.4938352746409
30
0
41
1
10
14.8712652943544
20
9.93014952756522
30
0
41
1
10
15.2745796623924
20
7.51913033816254
30
0
41
1
10
15.3595778562283
20
6.70451626313468
30
0
41
1
10
15.3958856572721
20
5.67077102310378
30
0
41
1
10
15.3996311609417
20
5.46382809975097
30
0
41
1
10
15.4000679209321
20
5.05045101774056
30
0
41
1
10
15.3967644309952
20
4.84387504933613
30
0
41
1
10
15.3763386906792
20
4.22448325288622
30
0
41
1
10
15.3486906238743
20
3.81200387069276
30
0
41
1
10
15.3072768824912
20
3.39996449276344
30
0
0
SPLINE
5
2F9
100
AcDbEntity
8
1
62
256
6
ByLayer
370
18
48
1
60
0
100
AcDbSpline
70
4
71
3
72
14
73
10
40
0
40
0
40
0
40
0
40
0.249999999999999
40
0.249999999999999
40
0.375
40
0.375
40
0.5
40
0.5
40
1
40
1
40
1
40
1
41
1
10
13.9
20
16.3116048464806
30
0
41
1
10
13.9347327116114
20
16.0393243993947
30
0
41
1
10
13.9590020549893
20
15.765598623031
30
0
41
1
10
13.9790266694745
20
15.3527474339635
30
0
41
1
10
13.9829727892734
20
15.2147374501117
30
0
41
1
10
13.9853063673856
20
14.9380141593272
30
0
41
1
10
13.9836885174545
20
14.8000031475903
30
0
41
1
10
13.9618944774298
20
14.1116737563136
30
0
41
1
10
13.9005188844882
20
13.5665430859468
30
0
41
1
10
13.798748185833
20
13.0264988499935
30
0
0
SPLINE
5
2FA
100
AcDbEntity
8
1
62
256
6
ByLayer
370
18
48
1
60
0
100
AcDbSpline
70
4
71
3
72
8
73
4
40
0
40
0
40
0
40
0
40
1
40
1
40
1
40
1
41
1
10
13.8797893109618
20
16.4584146603759
30
0
41
1
10
13.8870619590933
20
16.4093689197091
30
0
41
1
10
13.8937688371091
20
16.3604528557233
30
0
41
1
10
13.9
20
16.3116048464806
30
0
0
SPLINE
5
2FB
100
AcDbEntity
8
1
62
256
6
ByLayer
370
18
48
1
60
0
100
AcDbSpline
70
4
71
3
72
8
73
4
40
0
40
0
40
0
40
0
40
1
40
1
40
1
40
1
41
1
10
13.8929567829368
20
19.822322313792
30
0
41
1
10
13.7619733128207
20
19.9426546372417
30
0
41
1
10
13.6309876795842
20
20.0629849805142
30
0
41
1
10
13.5
20
20.1833134503259
30
0
0
SPLINE
5
2FC
100
AcDbEntity
8
1
62
256
6
ByLayer
370
18
48
1
60
0
100
AcDbSpline
70
4
71
3
72
8
73
4
40
0
40
0
40
0
40
0
40
1
40
1
40
1
40
1
41
1
10
15.1429967049271
20
18.605941618421
30
0
41
1
10
14.7263839863527
20
19.0114666233754
30
0
41
1
10
14.3096999998157
20
19.4169230097024
30
0
41
1
10
13.8929567829368
20
19.822322313792
30
0
0
SPLINE
5
2FD
100
AcDbEntity
8
1
62
256
6
ByLayer
370
18
48
1
60
0
100
AcDbSpline
70
4
71
3
72
8
73
4
40
0
40
0
40
0
40
0
40
1
40
1
40
1
40
1
41
1
10
15.3072768824912
20
18.4982764729724
30
0
41
1
10
15.2526122649472
20
18.5342023158826
30
0
41
1
10
15.197851121492
20
18.5700903749386
30
0
41
1
10
15.1429967049271
20
18.605941618421
30
0
0
SPLINE
5
2FE
100
AcDbEntity
8
1
62
256
6
ByLayer
370
18
48
1
60
0
100
AcDbSpline
70
4
71
3
72
16
73
12
40
0
40
0
40
0
40
0
40
0.5
40
0.5
40
0.75
40
0.75
40
0.8125
40
0.8125
40
0.875
40
0.875
40
1
40
1
40
1
40
1
41
1
10
13.798748185833
20
20.9995379299634
30
0
41
1
10
14.405097787082
20
20.6013061069799
30
0
41
1
10
14.8712652939968
20
20.1950137962337
30
0
41
1
10
15.2745796621072
20
19.5685589222062
30
0
41
1
10
15.3595778560106
20
19.3568978288427
30
0
41
1
10
15.3958856572012
20
19.0882999068694
30
0
41
1
10
15.3996311609058
20
19.034529947845
30
0
41
1
10
15.4000679209619
20
18.9271222220288
30
0
41
1
10
15.3967644310555
20
18.8734476088267
30
0
41
1
10
15.3763386907979
20
18.7125111002621
30
0
41
1
10
15.348690623988
20
18.6053366235272
30
0
41
1
10
15.3072768824912
20
18.4982764729724
30
0
0
SPLINE
5
2FF
100
AcDbEntity
8
1
62
256
6
ByLayer
370
18
48
1
60
0
100
AcDbSpline
70
4
71
3
72
8
73
4
40
0
40
0
40
0
40
0
40
1
40
1
40
1
40
1
41
1
10
13.8929567829367
20
3.6312639768986
30
0
41
1
10
13.7619733128207
20
3.64611797187143
30
0
41
1
10
13.6309876795842
20
3.66097172240831
30
0
41
1
10
13.5
20
3.67582524168245
30
0
0
SPLINE
5
300
100
AcDbEntity
8
1
62
256
6
ByLayer
370
18
48
1
60
0
100
AcDbSpline
70
4
71
3
72
38
73
34
40
0
40
0
40
0
40
0
40
0.124999999999997
40
0.124999999999997
40
0.187499999999995
40
0.187499999999995
40
0.218749999999995
40
0.218749999999995
40
0.249999999999995
40
0.249999999999995
40
0.374999999999996
40
0.374999999999996
40
0.406249999999996
40
0.406249999999996
40
0.437499999999997
40
0.437499999999997
40
0.499999999999998
40
0.499999999999998
40
0.562499999999998
40
0.562499999999998
40
0.593749999999999
40
0.593749999999999
40
0.624999999999999
40
0.624999999999999
40
0.749999999999999
40
0.749999999999999
40
0.781249999999999
40
0.781249999999999
40
0.812499999999999
40
0.812499999999999
40
0.874999999999999
40
0.874999999999999
40
1
40
1
40
1
40
1
41
1
10
8.5
20
-32.9157461923365
30
0
41
1
10
8.84481652124884
20
-32.9157461923365
30
0
41
1
10
9.18356992213796
20
-32.8828725421961
30
0
41
1
10
9.68294666609876
20
-32.7856849741442
30
0
41
1
10
9.84793435276123
20
-32.7452344335432
30
0
41
1
10
10.0931404436017
20
-32.6719706053512
30
0
41
1
10
10.1746544643346
20
-32.6453789041863
30
0
41
1
10
10.335071084395
20
-32.5885358639557
30
0
41
1
10
10.4141777036265
20
-32.558232527517
30
0
41
1
10
10.8042948527794
20
-32.3973956212843
30
0
41
1
10
11.0992220640667
20
-32.2392114728461
30
0
41
1
10
11.446197359083
20
-32.0028374680518
30
0
41
1
10
11.5145496405685
20
-31.9535714691424
30
0
41
1
10
11.6488033714386
20
-31.8511749430088
30
0
41
1
10
11.7142006950572
20
-31.7984332508621
30
0
41
1
10
11.9053287348921
20
-31.6356406586615
30
0
41
1
10
12.0260066744975
20
-31.5210322502783
30
0
41
1
10
12.2542481474312
20
-31.2797276235232
30
0
41
1
10
12.3618102401735
20
-31.153030551174
30
0
41
1
10
12.5133336211968
20
-30.9537374484112
30
0
41
1
10
12.5622022561891
20
-30.8857628130571
30
0
41
1
10
12.656634173406
20
-30.7466677550786
30
0
41
1
10
12.7022228222823
20
-30.675476584793
30
0
41
1
10
12.9193621452183
20
-30.3157622679529
30
0
41
1
10
13.0609805248686
20
-30.0129071532554
30
0
41
1
10
13.2014801817153
20
-29.616404166173
30
0
41
1
10
13.2277408544472
20
-29.5362013439298
30
0
41
1
10
13.2766258010469
20
-29.3739938412248
30
0
41
1
10
13.2992945786136
20
-29.2918058646256
30
0
41
1
10
13.3615501295516
20
-29.0439046333787
30
0
41
1
10
13.3952775407205
20
-28.8775112336103
30
0
41
1
10
13.4751188121147
20
-28.3751581839995
30
0
41
1
10
13.5
20
-28.0360384454218
30
0
41
1
10
13.5
20
-27.6930368474752
30
0
0
SPLINE
5
301
100
AcDbEntity
8
1
62
256
6
ByLayer
370
18
48
1
60
0
100
AcDbSpline
70
4
71
3
72
38
73
34
40
0
40
0
40
0
40
0
40
0.125000000000002
40
0.125000000000002
40
0.187500000000003
40
0.187500000000003
40
0.218750000000003
40
0.218750000000003
40
0.250000000000004
40
0.250000000000004
40
0.375000000000001
40
0.375000000000001
40
0.406250000000002
40
0.406250000000002
40
0.437500000000002
40
0.437500000000002
40
0.500000000000001
40
0.500000000000001
40
0.625000000000001
40
0.625000000000001
40
0.656250000000001
40
0.656250000000001
40
0.687500000000001
40
0.687500000000001
40
0.750000000000001
40
0.750000000000001
40
0.812500000000002
40
0.812500000000002
40
0.843750000000002
40
0.843750000000002
40
0.875000000000001
40
0.875000000000001
40
1
40
1
40
1
40
1
41
1
10
2.5
20
-27.693036847475
30
0
41
1
10
2.5
20
-28.0346757840377
30
0
41
1
10
2.52467771643006
20
-28.3728959637707
30
0
41
1
10
2.60418638154573
20
-28.8746234105953
30
0
41
1
10
2.63779918169422
20
-29.0409292135212
30
0
41
1
10
2.6999255772102
20
-29.2888876422671
30
0
41
1
10
2.72257655692778
20
-29.3711842333619
30
0
41
1
10
2.7713648633603
20
-29.5333913475657
30
0
41
1
10
2.79755725158492
20
-29.6135317800839
30
0
41
1
10
2.93757238022329
20
-30.0094325904733
30
0
41
1
10
3.07836230605562
20
-30.3108782129409
30
0
41
1
10
3.29309356906009
20
-30.6679794737355
30
0
41
1
10
3.33798978533048
20
-30.7384085687463
30
0
41
1
10
3.43180892484816
20
-30.8772431092643
30
0
41
1
10
3.48085894016907
20
-30.9458146086305
30
0
41
1
10
3.63339477140391
20
-31.1472494207773
30
0
41
1
10
3.74137292660464
20
-31.2747597801846
30
0
41
1
10
4.08379505475614
20
-31.637775949109
30
0
41
1
10
4.33655271766156
20
-31.8539457735405
30
0
41
1
10
4.68431922236607
20
-32.0919571642539
30
0
41
1
10
4.75566017792704
20
-32.1380348764526
30
0
41
1
10
4.89996823924452
20
-32.2259080164765
30
0
41
1
10
4.97308039761464
20
-32.2678160681976
30
0
41
1
10
5.19523959244589
20
-32.387618623422
30
0
41
1
10
5.34710214673112
20
-32.459607918435
30
0
41
1
10
5.65824396320426
20
-32.5882891934838
30
0
41
1
10
5.81752287345177
20
-32.6449814690347
30
0
41
1
10
6.06210827675551
20
-32.7184942260876
30
0
41
1
10
6.14469369709326
20
-32.7411003878203
30
0
41
1
10
6.31131874494258
20
-32.7822830795308
30
0
41
1
10
6.39493379027192
20
-32.8007608427878
30
0
41
1
10
6.81449616722796
20
-32.8828094038206
30
0
41
1
10
7.15485538705911
20
-32.9157461923377
30
0
41
1
10
7.49999999999983
20
-32.9157461923377
30
0
0
SPLINE
5
302
100
AcDbEntity
8
1
62
256
6
ByLayer
370
18
48
1
60
0
100
AcDbSpline
70
4
71
3
72
18
73
14
40
0
40
0
40
0
40
0
40
0.250000000000002
40
0.250000000000002
40
0.500000000000004
40
0.500000000000004
40
0.750000000000006
40
0.750000000000006
40
0.875000000000006
40
0.875000000000006
40
0.937500000000003
40
0.937500000000003
40
1
40
1
40
1
40
1
41
1
10
7.5
20
-36.9956200849989
30
0
41
1
10
7.39333312801989
20
-36.9956200849989
30
0
41
1
10
7.28678315950708
20
-36.9922362543241
30
0
41
1
10
7.07391421172917
20
-36.9790769806078
30
0
41
1
10
6.96787492201059
20
-36.969312421667
30
0
41
1
10
6.75699419447358
20
-36.944634374796
30
0
41
1
10
6.65210180856798
20
-36.9296555397373
30
0
41
1
10
6.4958421089317
20
-36.9052309757938
30
0
41
1
10
6.44372576394755
20
-36.8967288211362
30
0
41
1
10
6.36685315108696
20
-36.8843705446899
30
0
41
1
10
6.34145377836433
20
-36.8803218007927
30
0
41
1
10
6.29130281980548
20
-36.8726885698651
30
0
41
1
10
6.26653518511733
20
-36.8690789680153
30
0
41
1
10
6.24234349290992
20
-36.8661042295779
30
0
0
SPLINE
5
303
100
AcDbEntity
8
1
62
256
6
ByLayer
370
18
48
1
60
0
100
AcDbSpline
70
4
71
3
72
10
73
6
40
0
40
0
40
0
40
0
40
0.5
40
0.5
40
1
40
1
40
1
40
1
41
1
10
6.2423434929089
20
-36.8661042295778
30
0
41
1
10
6.05667839752897
20
-36.8432738673626
30
0
41
1
10
5.88261400610668
20
-36.8164177928206
30
0
41
1
10
5.55307097993972
20
-36.7562559567145
30
0
41
1
10
5.39763465950472
20
-36.7229355111072
30
0
41
1
10
5.2501559351723
20
-36.6868535957787
30
0
0
SPLINE
5
304
100
AcDbEntity
8
1
62
256
6
ByLayer
370
18
48
1
60
0
100
AcDbSpline
70
4
71
3
72
12
73
8
40
0
40
0
40
0
40
0
40
0.500000000000014
40
0.500000000000014
40
0.750000000000007
40
0.750000000000007
40
1
40
1
40
1
40
1
41
1
10
5.00680066883416
20
-36.5817172061336
30
0
41
1
10
5.04902519753341
20
-36.6051269229283
30
0
41
1
10
5.09081966108039
20
-36.6259386130551
30
0
41
1
10
5.15273007015452
20
-36.6531386684187
30
0
41
1
10
5.17341221944957
20
-36.6615881408602
30
0
41
1
10
5.21336297556917
20
-36.6762760456303
30
0
41
1
10
5.2325778884699
20
-36.6825529782108
30
0
41
1
10
5.2501559351723
20
-36.6868535957787
30
0
0
SPLINE
5
305
100
AcDbEntity
8
1
62
256
6
ByLayer
370
18
48
1
60
0
100
AcDbSpline
70
4
71
3
72
8
73
4
40
0
40
0
40
0
40
0
40
1
40
1
40
1
40
1
41
1
10
5.0068006688341
20
-36.5817172061337
30
0
41
1
10
4.88266799367568
20
-36.5128967631365
30
0
41
1
10
4.7618268389889
20
-36.4390731786253
30
0
41
1
10
4.64427711454323
20
-36.3602465897514
30
0
0
SPLINE
5
306
100
AcDbEntity
8
1
62
256
6
ByLayer
370
18
48
1
60
0
100
AcDbSpline
70
4
71
3
72
12
73
8
40
0
40
0
40
0
40
0
40
0.249999999999999
40
0.249999999999999
40
0.499999999999997
40
0.499999999999997
40
1
40
1
40
1
40
1
41
1
10
4.46782600363503
20
-36.2150244436946
30
0
41
1
10
4.47860513741324
20
-36.2271398183456
30
0
41
1
10
4.49124761669947
20
-36.239626799878
30
0
41
1
10
4.51881278101445
20
-36.2649362406848
30
0
41
1
10
4.53373815436368
20
-36.2777093269086
30
0
41
1
10
4.57925973824331
20
-36.3146546512787
30
0
41
1
10
4.6116067283499
20
-36.3383384558713
30
0
41
1
10
4.64427711454306
20
-36.360246589752
30
0
0
SPLINE
5
307
100
AcDbEntity
8
1
62
256
6
ByLayer
370
18
48
1
60
0
100
AcDbSpline
70
4
71
3
72
8
73
4
40
0
40
0
40
0
40
0
40
1
40
1
40
1
40
1
41
1
10
4.46782600363497
20
-36.2150244436946
30
0
41
1
10
4.32099989288776
20
-36.0499969584772
30
0
41
1
10
4.18806773919545
20
-35.8794099352928
30
0
41
1
10
4.06619341675633
20
-35.7043982235593
30
0
0
SPLINE
5
308
100
AcDbEntity
8
1
62
256
6
ByLayer
370
18
48
1
60
0
100
AcDbSpline
70
4
71
3
72
20
73
16
40
0
40
0
40
0
40
0
40
0.124999999999998
40
0.124999999999998
40
0.249999999999996
40
0.249999999999996
40
0.374999999999994
40
0.374999999999994
40
0.499999999999992
40
0.499999999999992
40
0.624999999999994
40
0.624999999999994
40
0.749999999999996
40
0.749999999999996
40
1
40
1
40
1
40
1
41
1
10
4.06619341675633
20
-35.7043982235593
30
0
41
1
10
4.05756940971929
20
-35.6920141363836
30
0
41
1
10
4.04735682005168
20
-35.6788892577246
30
0
41
1
10
4.02478984753321
20
-35.6515299253502
30
0
41
1
10
4.01253197648202
20
-35.6374441836988
30
0
41
1
10
3.9874176358515
20
-35.6095714355325
30
0
41
1
10
3.97432130955241
20
-35.595518311683
30
0
41
1
10
3.94778344230724
20
-35.5678028958922
30
0
41
1
10
3.93447918736422
20
-35.5542791193852
30
0
41
1
10
3.90781533979998
20
-35.5278613275468
30
0
41
1
10
3.89436906607102
20
-35.5148917637359
30
0
41
1
10
3.86839453940462
20
-35.4905958947916
30
0
41
1
10
3.85575576723272
20
-35.4791536183737
30
0
41
1
10
3.8189818958171
20
-35.447327838236
30
0
41
1
10
3.79598549394819
20
-35.4294187364734
30
0
41
1
10
3.77932779387135
20
-35.4206585497627
30
0
0
SPLINE
5
309
100
AcDbEntity
8
1
62
256
6
ByLayer
370
18
48
1
60
0
100
AcDbSpline
70
4
71
3
72
8
73
4
40
0
40
0
40
0
40
0
40
1
40
1
40
1
40
1
41
1
10
3.77932779387231
20
-35.4206585497641
30
0
41
1
10
3.66772709503937
20
-35.3619683972036
30
0
41
1
10
3.56661791469958
20
-35.3021591669647
30
0
41
1
10
3.47434031809615
20
-35.2414079159658
30
0
0
SPLINE
5
30A
100
AcDbEntity
8
1
62
256
6
ByLayer
370
18
48
1
60
0
100
AcDbSpline
70
4
71
3
72
14
73
10
40
0
40
0
40
0
40
0
40
0.25
40
0.25
40
0.5
40
0.5
40
0.75
40
0.75
40
1
40
1
40
1
40
1
41
1
10
3.38089663164266
20
-35.1362715263208
30
0
41
1
10
3.38962429915176
20
-35.1484961366531
30
0
41
1
10
3.39826633200522
20
-35.1600310147987
30
0
41
1
10
3.41537848780644
20
-35.1817734588647
30
0
41
1
10
3.42396065357525
20
-35.1921040245774
30
0
41
1
10
3.44022536574175
20
-35.2104905479288
30
0
41
1
10
3.44791797712367
20
-35.2185807818816
30
0
41
1
10
3.46224591626958
20
-35.2322589792174
30
0
41
1
10
3.46884588021533
20
-35.2377906352151
30
0
41
1
10
3.47434031810468
20
-35.2414079159813
30
0
0
SPLINE
5
30B
100
AcDbEntity
8
1
62
256
6
ByLayer
370
18
48
1
60
0
100
AcDbSpline
70
4
71
3
72
8
73
4
40
0
40
0
40
0
40
0
40
1
40
1
40
1
40
1
41
1
10
3.38089663164266
20
-35.1362715263208
30
0
41
1
10
3.32912710611299
20
-35.0637593372364
30
0
41
1
10
3.27945649765365
20
-34.989935788209
30
0
41
1
10
3.23188475713226
20
-34.9148009099356
30
0
0
SPLINE
5
30C
100
AcDbEntity
8
1
62
256
6
ByLayer
370
18
48
1
60
0
100
AcDbSpline
70
4
71
3
72
14
73
10
40
0
40
0
40
0
40
0
40
0.25
40
0.25
40
0.5
40
0.5
40
0.75
40
0.75
40
1
40
1
40
1
40
1
41
1
10
3.15606526292783
20
-34.7695787638817
30
0
41
1
10
3.15997599623108
20
-34.7797041010899
30
0
41
1
10
3.16472060670884
20
-34.790758664191
30
0
41
1
10
3.1757022111895
20
-34.8144538986401
30
0
41
1
10
3.18190026142707
20
-34.8269838134042
30
0
41
1
10
3.19508396074229
20
-34.8521981479705
30
0
41
1
10
3.20219840044632
20
-34.8651246766198
30
0
41
1
10
3.21672166990635
20
-34.8902877305087
30
0
41
1
10
3.2242362000855
20
-34.9027207674732
30
0
41
1
10
3.23188475713238
20
-34.9148009099357
30
0
0
SPLINE
5
30D
100
AcDbEntity
8
1
62
256
6
ByLayer
370
18
48
1
60
0
100
AcDbSpline
70
4
71
3
72
8
73
4
40
0
40
0
40
0
40
0
40
1
40
1
40
1
40
1
41
1
10
3.15606526292788
20
-34.7695787638817
30
0
41
1
10
3.0907521796754
20
-34.6004756978435
30
0
41
1
10
3.03199500290333
20
-34.4302156079651
30
0
41
1
10
2.97892086026485
20
-34.2589525437464
30
0
0
SPLINE
5
30E
100
AcDbEntity
8
1
62
256
6
ByLayer
370
18
48
1
60
0
100
AcDbSpline
70
4
71
3
72
22
73
18
40
0
40
0
40
0
40
0
40
0.125
40
0.125
40
0.25
40
0.25
40
0.375
40
0.375
40
0.5
40
0.5
40
0.625
40
0.625
40
0.75
40
0.75
40
0.875
40
0.875
40
1
40
1
40
1
40
1
41
1
10
2.97892086026485
20
-34.2589525437464
30
0
41
1
10
2.97547802835783
20
-34.2478429918504
30
0
41
1
10
2.97130903246767
20
-34.2356662096188
30
0
41
1
10
2.96172090584827
20
-34.2093748903745
30
0
41
1
10
2.95631691503576
20
-34.1953261152836
30
0
41
1
10
2.94493288835804
20
-34.1668433504009
30
0
41
1
10
2.93881679376307
20
-34.1520704818287
30
0
41
1
10
2.92647618140722
20
-34.1231056835694
30
0
41
1
10
2.92015275498784
20
-34.1086725685787
30
0
41
1
10
2.90752958594123
20
-34.0806273951744
30
0
41
1
10
2.90136213358102
20
-34.0673028371665
30
0
41
1
10
2.88930713860856
20
-34.0420635352057
30
0
41
1
10
2.88344023559472
20
-34.0302074200679
30
0
41
1
10
2.87263216720515
20
-34.009351334535
30
0
41
1
10
2.86753513246725
20
-34.0000513133947
30
0
41
1
10
2.85851618567574
20
-33.984940616373
30
0
41
1
10
2.85460515962188
20
-33.9791218794463
30
0
41
1
10
2.85131807602738
20
-33.9752128699511
30
0
0
SPLINE
5
30F
100
AcDbEntity
8
1
62
256
6
ByLayer
370
18
48
1
60
0
100
AcDbSpline
70
4
71
3
72
8
73
4
40
0
40
0
40
0
40
0
40
1
40
1
40
1
40
1
41
1
10
2.85131807602738
20
-33.9752128699511
30
0
41
1
10
2.81452871160985
20
-33.9314628493954
30
0
41
1
10
2.78118735789064
20
-33.8875540757901
30
0
41
1
10
2.75099848178468
20
-33.8435001560476
30
0
0
SPLINE
5
310
100
AcDbEntity
8
1
62
256
6
ByLayer
370
18
48
1
60
0
100
AcDbSpline
70
4
71
3
72
18
73
14
40
0
40
0
40
0
40
0
40
0.125000000000002
40
0.125000000000002
40
0.250000000000004
40
0.250000000000004
40
0.499999999999999
40
0.499999999999999
40
0.624999999999996
40
0.624999999999996
40
0.749999999999994
40
0.749999999999994
40
1
40
1
40
1
40
1
41
1
10
2.75099848178468
20
-33.8435001560476
30
0
41
1
10
2.73331090470828
20
-33.7782111958158
30
0
41
1
10
2.71617244142629
20
-33.7119096452861
30
0
41
1
10
2.6831363879856
20
-33.5770183189116
30
0
41
1
10
2.66719699436169
20
-33.5082225520691
30
0
41
1
10
2.62202610228496
20
-33.3003092109096
30
0
41
1
10
2.5952923643128
20
-33.1592715405092
30
0
41
1
10
2.56148539336994
20
-32.9431928531371
30
0
41
1
10
2.55127120117436
20
-32.8704087173256
30
0
41
1
10
2.53325770255611
20
-32.7231052718864
30
0
41
1
10
2.52544969746697
20
-32.6482980805158
30
0
41
1
10
2.50664032657517
20
-32.4264933175879
30
0
41
1
10
2.50000000000028
20
-32.28052998779
30
0
41
1
10
2.5
20
-32.136712668874
30
0
0
SPLINE
5
311
100
AcDbEntity
8
1
62
256
6
ByLayer
370
18
48
1
60
0
100
AcDbSpline
70
4
71
3
72
22
73
18
40
0
40
0
40
0
40
0
40
0.0624999999999922
40
0.0624999999999922
40
0.124999999999984
40
0.124999999999984
40
0.249999999999981
40
0.249999999999981
40
0.374999999999977
40
0.374999999999977
40
0.437499999999975
40
0.437499999999975
40
0.499999999999973
40
0.499999999999973
40
0.749999999999986
40
0.749999999999986
40
1
40
1
40
1
40
1
41
1
10
13.5
20
-32.1367126688652
30
0
41
1
10
13.5
20
-32.1724828991675
30
0
41
1
10
13.4995842314039
20
-32.2088381653521
30
0
41
1
10
13.4979259113233
20
-32.2818614207286
30
0
41
1
10
13.4966891470388
20
-32.318421800169
30
0
41
1
10
13.491809122479
20
-32.428242844959
30
0
41
1
10
13.4869978077994
20
-32.5016432161623
30
0
41
1
10
13.4744976617108
20
-32.6487881256984
30
0
41
1
10
13.4668084910028
20
-32.7225327046133
30
0
41
1
10
13.453257554951
20
-32.8333908390189
30
0
41
1
10
13.4484033163886
20
-32.8703715569628
30
0
41
1
10
13.4381618061072
20
-32.9436191522746
30
0
41
1
10
13.4327623728283
20
-32.9799897514017
30
0
41
1
10
13.4044696500351
20
-33.1606656436734
30
0
41
1
10
13.3777288362192
20
-33.3014751925931
30
0
41
1
10
13.3178007180397
20
-33.5772372040735
30
0
41
1
10
13.284435613864
20
-33.7127046688163
30
0
41
1
10
13.2490015182153
20
-33.8435001560476
30
0
0
SPLINE
5
312
100
AcDbEntity
8
1
62
256
6
ByLayer
370
18
48
1
60
0
100
AcDbSpline
70
4
71
3
72
8
73
4
40
0
40
0
40
0
40
0
40
1
40
1
40
1
40
1
41
1
10
13.2490015182153
20
-33.8435001560475
30
0
41
1
10
13.2188126421094
20
-33.8875540757901
30
0
41
1
10
13.1854712883902
20
-33.9314628493954
30
0
41
1
10
13.1486819239726
20
-33.9752128699511
30
0
0
SPLINE
5
313
100
AcDbEntity
8
1
62
256
6
ByLayer
370
18
48
1
60
0
100
AcDbSpline
70
4
71
3
72
22
73
18
40
0
40
0
40
0
40
0
40
0.125
40
0.125
40
0.25
40
0.25
40
0.375
40
0.375
40
0.5
40
0.5
40
0.625
40
0.625
40
0.75
40
0.75
40
0.875
40
0.875
40
1
40
1
40
1
40
1
41
1
10
13.1486819239726
20
-33.9752128699511
30
0
41
1
10
13.1453955890167
20
-33.9791209891631
30
0
41
1
10
13.141484917084
20
-33.9849388148606
30
0
41
1
10
13.1324645973601
20
-34.0000517199624
30
0
41
1
10
13.1273699348591
20
-34.0093460361223
30
0
41
1
10
13.1165195285681
20
-34.0302863087337
30
0
41
1
10
13.1106324048654
20
-34.0421878177084
30
0
41
1
10
13.0985992019176
20
-34.0673861013555
30
0
41
1
10
13.0923475602753
20
-34.0808955568897
30
0
41
1
10
13.0797334613072
20
-34.1089302402203
30
0
41
1
10
13.0734812013382
20
-34.1232029482479
30
0
41
1
10
13.0611013133509
20
-34.1522654843076
30
0
41
1
10
13.0550178098031
20
-34.1669650643003
30
0
41
1
10
13.0436784430197
20
-34.1953393762138
30
0
41
1
10
13.0382651762184
20
-34.2094122831409
30
0
41
1
10
13.0286902848915
20
-34.2356688538332
30
0
41
1
10
13.0245228616066
20
-34.247840120056
30
0
41
1
10
13.0210791397352
20
-34.2589525437463
30
0
0
SPLINE
5
314
100
AcDbEntity
8
1
62
256
6
ByLayer
370
18
48
1
60
0
100
AcDbSpline
70
4
71
3
72
8
73
4
40
0
40
0
40
0
40
0
40
1
40
1
40
1
40
1
41
1
10
13.0210791397352
20
-34.2589525437463
30
0
41
1
10
12.9680049970967
20
-34.4302156079651
30
0
41
1
10
12.9092478203246
20
-34.6004756978435
30
0
41
1
10
12.8439347370721
20
-34.7695787638817
30
0
0
SPLINE
5
315
100
AcDbEntity
8
1
62
256
6
ByLayer
370
18
48
1
60
0
100
AcDbSpline
70
4
71
3
72
14
73
10
40
0
40
0
40
0
40
0
40
0.25
40
0.25
40
0.5
40
0.5
40
0.75
40
0.75
40
1
40
1
40
1
40
1
41
1
10
12.7681152428659
20
-34.9148009099384
30
0
41
1
10
12.7757808652892
20
-34.902693814395
30
0
41
1
10
12.7832232554901
20
-34.8903783493706
30
0
41
1
10
12.7976787531563
20
-34.8653422653707
30
0
41
1
10
12.8047891532853
20
-34.852434157601
30
0
41
1
10
12.8180310426118
20
-34.8271217640321
30
0
41
1
10
12.824112184096
20
-34.8148367096618
30
0
41
1
10
12.8351206346917
20
-34.7911183479668
30
0
41
1
10
12.8400107578614
20
-34.7797383962843
30
0
41
1
10
12.8439347370866
20
-34.7695787638647
30
0
0
SPLINE
5
316
100
AcDbEntity
8
1
62
256
6
ByLayer
370
18
48
1
60
0
100
AcDbSpline
70
4
71
3
72
8
73
4
40
0
40
0
40
0
40
0
40
1
40
1
40
1
40
1
41
1
10
12.7681152428659
20
-34.9148009099384
30
0
41
1
10
12.7205435023451
20
-34.9899357882109
30
0
41
1
10
12.6708728938863
20
-35.0637593372373
30
0
41
1
10
12.6191033683573
20
-35.1362715263208
30
0
0
SPLINE
5
317
100
AcDbEntity
8
1
62
256
6
ByLayer
370
18
48
1
60
0
100
AcDbSpline
70
4
71
3
72
14
73
10
40
0
40
0
40
0
40
0
40
0.25
40
0.25
40
0.5
40
0.5
40
0.75
40
0.75
40
1
40
1
40
1
40
1
41
1
10
12.5256596819038
20
-35.2414079159659
30
0
41
1
10
12.531145460143
20
-35.2377963363084
30
0
41
1
10
12.5375668783363
20
-35.2324235409461
30
0
41
1
10
12.5518753896508
20
-35.2187918150986
30
0
41
1
10
12.5597378432765
20
-35.2105302842832
30
0
41
1
10
12.5760029736565
20
-35.1921469882206
30
0
41
1
10
12.5845765549823
20
-35.181829663899
30
0
41
1
10
12.6017369104366
20
-35.1600278096878
30
0
41
1
10
12.6103863831027
20
-35.1484811743051
30
0
41
1
10
12.6191033683573
20
-35.1362715263208
30
0
0
SPLINE
5
318
100
AcDbEntity
8
1
62
256
6
ByLayer
370
18
48
1
60
0
100
AcDbSpline
70
4
71
3
72
8
73
4
40
0
40
0
40
0
40
0
40
1
40
1
40
1
40
1
41
1
10
12.5256596819038
20
-35.2414079159659
30
0
41
1
10
12.4333820853004
20
-35.3021591669647
30
0
41
1
10
12.3322729049607
20
-35.3619683972035
30
0
41
1
10
12.2206722061278
20
-35.420658549764
30
0
0
SPLINE
5
319
100
AcDbEntity
8
1
62
256
6
ByLayer
370
18
48
1
60
0
100
AcDbSpline
70
4
71
3
72
22
73
18
40
0
40
0
40
0
40
0
40
0.125
40
0.125
40
0.25
40
0.25
40
0.375
40
0.375
40
0.5
40
0.5
40
0.625
40
0.625
40
0.75
40
0.75
40
0.875
40
0.875
40
1
40
1
40
1
40
1
41
1
10
12.2206722061279
20
-35.420658549764
30
0
41
1
10
12.2123457704676
20
-35.425037373412
30
0
41
1
10
12.2025946079735
20
-35.4316129505382
30
0
41
1
10
12.1808868652015
20
-35.447972883239
30
0
41
1
10
12.1690461107231
20
-35.4576977815448
30
0
41
1
10
12.144580916683
20
-35.4788536227978
30
0
41
1
10
12.1316983034412
20
-35.4905090579231
30
0
41
1
10
12.1055386693284
20
-35.5149780597294
30
0
41
1
10
12.0923180022833
20
-35.527731073374
30
0
41
1
10
12.0655985907344
20
-35.554200216225
30
0
41
1
10
12.0521211942871
20
-35.5679031598182
30
0
41
1
10
12.025844974004
20
-35.5953439825132
30
0
41
1
10
12.0129243922794
20
-35.6091984306922
30
0
41
1
10
11.9876296634869
20
-35.6372583305672
30
0
41
1
10
11.9753812617788
20
-35.6513319222177
30
0
41
1
10
11.952880114109
20
-35.678592734454
30
0
41
1
10
11.9424135044174
20
-35.6920386717019
30
0
41
1
10
11.9338065832348
20
-35.7043982235643
30
0
0
SPLINE
5
31A
100
AcDbEntity
8
1
62
256
6
ByLayer
370
18
48
1
60
0
100
AcDbSpline
70
4
71
3
72
8
73
4
40
0
40
0
40
0
40
0
40
1
40
1
40
1
40
1
41
1
10
11.9338065832437
20
-35.7043982235593
30
0
41
1
10
11.8119322608046
20
-35.8794099352928
30
0
41
1
10
11.6790001071122
20
-36.0499969584772
30
0
41
1
10
11.5321739963651
20
-36.2150244436946
30
0
0
SPLINE
5
31B
100
AcDbEntity
8
1
62
256
6
ByLayer
370
18
48
1
60
0
100
AcDbSpline
70
4
71
3
72
12
73
8
40
0
40
0
40
0
40
0
40
0.500000000000008
40
0.500000000000008
40
0.750000000000004
40
0.750000000000004
40
1
40
1
40
1
40
1
41
1
10
11.3557228854567
20
-36.3602465897513
30
0
41
1
10
11.388404100211
20
-36.3383311944454
30
0
41
1
10
11.4200692820153
20
-36.3151652379481
30
0
41
1
10
11.4657203057627
20
-36.278165345703
30
0
41
1
10
11.4807373003028
20
-36.2653311148281
30
0
41
1
10
11.5084018346257
20
-36.2399663684469
30
0
41
1
10
11.521403466668
20
-36.2271301476583
30
0
41
1
10
11.5321739963693
20
-36.2150244436932
30
0
0
SPLINE
5
31C
100
AcDbEntity
8
1
62
256
6
ByLayer
370
18
48
1
60
0
100
AcDbSpline
70
4
71
3
72
8
73
4
40
0
40
0
40
0
40
0
40
1
40
1
40
1
40
1
41
1
10
11.3557228854568
20
-36.3602465897514
30
0
41
1
10
11.2381731610112
20
-36.4390731786253
30
0
41
1
10
11.1173320063244
20
-36.5128967631364
30
0
41
1
10
10.9931993311661
20
-36.5817172061335
30
0
0
SPLINE
5
31D
100
AcDbEntity
8
1
62
256
6
ByLayer
370
18
48
1
60
0
100
AcDbSpline
70
4
71
3
72
12
73
8
40
0
40
0
40
0
40
0
40
0.25
40
0.25
40
0.5
40
0.5
40
1
40
1
40
1
40
1
41
1
10
10.7498440648275
20
-36.6868535957788
30
0
41
1
10
10.7674219338389
20
-36.6825530216844
30
0
41
1
10
10.7866080911502
20
-36.6762844804245
30
0
41
1
10
10.8264623209714
20
-36.6616364601222
30
0
41
1
10
10.847186374673
20
-36.6531741530573
30
0
41
1
10
10.9091707178154
20
-36.6259452847008
30
0
41
1
10
10.9509848845323
20
-36.6051213333265
30
0
41
1
10
10.993199331166
20
-36.5817172061335
30
0
0
SPLINE
5
31E
100
AcDbEntity
8
1
62
256
6
ByLayer
370
18
48
1
60
0
100
AcDbSpline
70
4
71
3
72
10
73
6
40
0
40
0
40
0
40
0
40
0.5
40
0.5
40
1
40
1
40
1
40
1
41
1
10
10.7498440648275
20
-36.6868535957788
30
0
41
1
10
10.602365340496
20
-36.722935511107
30
0
41
1
10
10.4469290200619
20
-36.7562559567141
30
0
41
1
10
10.1173859938971
20
-36.81641779282
30
0
41
1
10
9.94332160247592
20
-36.843273867362
30
0
41
1
10
9.75765650709735
20
-36.866104229577
30
0
0
SPLINE
5
31F
100
AcDbEntity
8
1
62
256
6
ByLayer
370
18
48
1
60
0
100
AcDbSpline
70
4
71
3
72
18
73
14
40
0
40
0
40
0
40
0
40
0.0625000000000021
40
0.0625000000000021
40
0.125000000000004
40
0.125000000000004
40
0.250000000000004
40
0.250000000000004
40
0.500000000000002
40
0.500000000000002
40
0.750000000000001
40
0.750000000000001
40
1
40
1
40
1
40
1
41
1
10
9.75765650709729
20
-36.866104229577
30
0
41
1
10
9.73337001514102
20
-36.8690906250929
30
0
41
1
10
9.70854974205258
20
-36.8727101089535
30
0
41
1
10
9.65834135510437
20
-36.8803538906198
30
0
41
1
10
9.63293805951525
20
-36.8844038941974
30
0
41
1
10
9.55610499557844
20
-36.8967564634803
30
0
41
1
10
9.50391051014122
20
-36.9052713947687
30
0
41
1
10
9.34710775890881
20
-36.9297755657021
30
0
41
1
10
9.24209506238174
20
-36.944755136467
30
0
41
1
10
9.03130790402105
20
-36.9693937505528
30
0
41
1
10
8.92552897339624
20
-36.9791162999737
30
0
41
1
10
8.71327919800984
20
-36.9922274902278
30
0
41
1
10
8.60680817368808
20
-36.9956200849994
30
0
41
1
10
8.50000000000006
20
-36.9956200849994
30
0
0
SPLINE
5
320
100
AcDbEntity
8
1
62
256
6
ByLayer
370
18
48
1
60
0
100
AcDbSpline
70
4
71
3
72
12
73
8
40
0
40
0
40
0
40
0
40
0.500000000000011
40
0.500000000000011
40
0.750000000000005
40
0.750000000000005
40
1
40
1
40
1
40
1
41
1
10
10.5399886632516
20
28.5892887494777
30
0
41
1
10
10.4852759894192
20
28.6067278901186
30
0
41
1
10
10.4310556593393
20
28.6192272501524
30
0
41
1
10
10.3505414468796
20
28.6305941562399
30
0
41
1
10
10.3238440800493
20
28.6331295212306
30
0
41
1
10
10.2709667032166
20
28.634691496175
30
0
41
1
10
10.2444875486577
20
28.6338522956884
30
0
41
1
10
10.2200811365431
20
28.6293745058894
30
0
0
SPLINE
5
321
100
AcDbEntity
8
1
62
256
6
ByLayer
370
18
48
1
60
0
100
AcDbSpline
70
4
71
3
72
12
73
8
40
0
40
0
40
0
40
0
40
0.499999999999995
40
0.499999999999995
40
0.749999999999998
40
0.749999999999998
40
1
40
1
40
1
40
1
41
1
10
10.9913922765117
20
28.4253628211478
30
0
41
1
10
11.0300399508742
20
28.4095208256389
30
0
41
1
10
11.0678191085201
20
28.3903073772382
30
0
41
1
10
11.1228783302601
20
28.3545832378621
30
0
41
1
10
11.1409348008864
20
28.3414789808467
30
0
41
1
10
11.1748446563162
20
28.3129489204356
30
0
41
1
10
11.1910998894384
20
28.2972401545096
30
0
41
1
10
11.2048934680801
20
28.2801406750911
30
0
0
SPLINE
5
322
100
AcDbEntity
8
1
62
256
6
ByLayer
370
18
48
1
60
0
100
AcDbSpline
70
4
71
3
72
22
73
18
40
0
40
0
40
0
40
0
40
0.125
40
0.125
40
0.25
40
0.25
40
0.375
40
0.375
40
0.5
40
0.5
40
0.625
40
0.625
40
0.75
40
0.75
40
0.875
40
0.875
40
1
40
1
40
1
40
1
41
1
10
11.6935661950299
20
27.5902638211575
30
0
41
1
10
11.7041387776904
20
27.5733496775133
30
0
41
1
10
11.7162612822365
20
27.5574554430856
30
0
41
1
10
11.7424127418999
20
27.5269057346151
30
0
41
1
10
11.7565721301923
20
27.5122072056129
30
0
41
1
10
11.7852014705636
20
27.4850331230426
30
0
41
1
10
11.7998298590229
20
27.4723738503558
30
0
41
1
10
11.829612868924
20
27.448689395406
30
0
41
1
10
11.844725410133
20
27.4377216760588
30
0
41
1
10
11.8744822634732
20
27.41811959452
30
0
41
1
10
11.8892501751519
20
27.409382665946
30
0
41
1
10
11.9185608260623
20
27.3942787402825
30
0
41
1
10
11.9329420074569
20
27.3880103020581
30
0
41
1
10
11.9603982544492
20
27.3787986318351
30
0
41
1
10
11.9737602057587
20
27.3757769547021
30
0
41
1
10
11.998045260353
20
27.3742648981233
30
0
41
1
10
12.0089726049717
20
27.3756686611152
30
0
41
1
10
12.0182076342875
20
27.3802481983599
30
0
0
SPLINE
5
323
100
AcDbEntity
8
1
62
256
6
ByLayer
370
18
48
1
60
0
100
AcDbSpline
70
4
71
3
72
14
73
10
40
0
40
0
40
0
40
0
40
0.25
40
0.25
40
0.5
40
0.5
40
0.75
40
0.75
40
1
40
1
40
1
40
1
41
1
10
12.346184428712
20
27.5594988321582
30
0
41
1
10
12.3522968117876
20
27.5631837186546
30
0
41
1
10
12.3594921336738
20
27.5645919996387
30
0
41
1
10
12.3755055054056
20
27.5638488572646
30
0
41
1
10
12.384289398256
20
27.5616368318538
30
0
41
1
10
12.4024459621288
20
27.5542427777729
30
0
41
1
10
12.4119924483369
20
27.5489847242791
30
0
41
1
10
12.431109639395
20
27.5360491640621
30
0
41
1
10
12.440753788318
20
27.5283553734984
30
0
41
1
10
12.4504807122511
20
27.5194130757465
30
0
0
SPLINE
5
324
100
AcDbEntity
8
1
62
256
6
ByLayer
370
18
48
1
60
0
100
AcDbSpline
70
4
71
3
72
14
73
10
40
0
40
0
40
0
40
0
40
0.25
40
0.25
40
0.5
40
0.5
40
0.75
40
0.75
40
1
40
1
40
1
40
1
41
1
10
12.7049962104958
20
27.2102650013598
30
0
41
1
10
12.7003527042077
20
27.2241759181348
30
0
41
1
10
12.6947863359955
20
27.2379189353441
30
0
41
1
10
12.6820510183839
20
27.2650988804983
30
0
41
1
10
12.6749248234527
20
27.2783835852663
30
0
41
1
10
12.6598812515676
20
27.303325115738
30
0
41
1
10
12.6518190804066
20
27.315213266776
30
0
41
1
10
12.6354659782442
20
27.3367842148555
30
0
41
1
10
12.6270965517442
20
27.3466112576714
30
0
41
1
10
12.6185302431555
20
27.3554871474165
30
0
0
SPLINE
5
325
100
AcDbEntity
8
1
62
256
6
ByLayer
370
18
48
1
60
0
100
AcDbSpline
70
4
71
3
72
22
73
18
40
0
40
0
40
0
40
0
40
0.125
40
0.125
40
0.25
40
0.25
40
0.375
40
0.375
40
0.5
40
0.5
40
0.625
40
0.625
40
0.75
40
0.75
40
0.875
40
0.875
40
1
40
1
40
1
40
1
41
1
10
13.05917887366
20
26.3103725246287
30
0
41
1
10
13.0556176030089
20
26.3064117534248
30
0
41
1
10
13.0513202106442
20
26.3046938539506
30
0
41
1
10
13.0413380873528
20
26.3052852451351
30
0
41
1
10
13.0356764772017
20
26.3076591439573
30
0
41
1
10
13.0235788820008
20
26.3160004108811
30
0
41
1
10
13.0170063802161
20
26.3220701437563
30
0
41
1
10
13.0035466677868
20
26.3371198339185
30
0
41
1
10
12.996529674874
20
26.3462248718993
30
0
41
1
10
12.9823693578004
20
26.3669559619431
30
0
41
1
10
12.9753221761505
20
26.3784157503687
30
0
41
1
10
12.961305744294
20
26.4035288805118
30
0
41
1
10
12.954386582496
20
26.4171279309255
30
0
41
1
10
12.9413922746649
20
26.4452454592333
30
0
41
1
10
12.9351441043893
20
26.4601431888198
30
0
41
1
10
12.9239261922743
20
26.4902199538798
30
0
41
1
10
12.9189758332654
20
26.5052835221778
30
0
41
1
10
12.9148089424081
20
26.5203881474262
30
0
0
SPLINE
5
326
100
AcDbEntity
8
1
62
256
6
ByLayer
370
18
48
1
60
0
100
AcDbSpline
70
4
71
3
72
14
73
10
40
0
40
0
40
0
40
0
40
0.25
40
0.25
40
0.5
40
0.5
40
0.75
40
0.75
40
1
40
1
40
1
40
1
41
1
10
13.2487937383657
20
26.4495374020152
30
0
41
1
10
13.244489601877
20
26.4588532141974
30
0
41
1
10
13.2402206009173
20
26.4667882098893
30
0
41
1
10
13.2317601906731
20
26.4799838269056
30
0
41
1
10
13.2275605631079
20
26.4852068960655
30
0
41
1
10
13.2197382577272
20
26.4922700415013
30
0
41
1
10
13.2160050025992
20
26.4942169531381
30
0
41
1
10
13.2093502751835
20
26.4945598390447
30
0
41
1
10
13.2064381207919
20
26.4930156350952
30
0
41
1
10
13.2039972579758
20
26.4896231584269
30
0
0
SPLINE
5
327
100
AcDbEntity
8
1
62
256
6
ByLayer
370
18
48
1
60
0
100
AcDbSpline
70
4
71
3
72
14
73
10
40
0
40
0
40
0
40
0
40
0.25
40
0.25
40
0.5
40
0.5
40
0.75
40
0.75
40
1
40
1
40
1
40
1
41
1
10
13.3184590121855
20
26.2856114736852
30
0
41
1
10
13.3220737810994
20
26.2763063586004
30
0
41
1
10
13.3255601404763
20
26.2660118992863
30
0
41
1
10
13.3322916845217
20
26.2434831284492
30
0
41
1
10
13.3355319237361
20
26.2312123073881
30
0
41
1
10
13.3414180149896
20
26.2060428363818
30
0
41
1
10
13.3441508523321
20
26.1927713301203
30
0
41
1
10
13.3488911419235
20
26.1664177481471
30
0
41
1
10
13.3509108350403
20
26.1533459628422
30
0
41
1
10
13.3525805080293
20
26.1403893276285
30
0
0
SPLINE
5
328
100
AcDbEntity
8
1
62
256
6
ByLayer
370
18
48
1
60
0
100
AcDbSpline
70
4
71
3
72
22
73
18
40
0
40
0
40
0
40
0
40
0.14212388057986
40
0.14212388057986
40
0.284247761159721
40
0.284247761159721
40
0.426371641739581
40
0.426371641739581
40
0.568495522319442
40
0.568495522319442
40
0.710619402899302
40
0.710619402899302
40
0.852743283479163
40
0.852743283479163
40
0.994867164059023
40
0.994867164059023
40
1
40
1
40
1
40
1
41
1
10
13.4276983424207
20
25.450512473695
30
0
41
1
10
13.4289901997354
20
25.4360314000803
30
0
41
1
10
13.4305254590739
20
25.4213747963409
30
0
41
1
10
13.4340130840207
20
25.3917189181909
30
0
41
1
10
13.4359648979459
20
25.3767793782297
30
0
41
1
10
13.4400216511577
20
25.3482516464245
30
0
41
1
10
13.442182674466
20
25.3342720158933
30
0
41
1
10
13.4464671135589
20
25.3086089590184
30
0
41
1
10
13.448622010736
20
25.2967108875688
30
0
41
1
10
13.452825618844
20
25.2754840649274
30
0
41
1
10
13.4548235599971
20
25.2663932689879
30
0
41
1
10
13.4586256978819
20
25.2512530580449
30
0
41
1
10
13.4603971566178
20
25.2453661548482
30
0
41
1
10
13.4635789554571
20
25.2373897252719
30
0
41
1
10
13.4650227384033
20
25.2352430747366
30
0
41
1
10
13.4662930387301
20
25.2350854109218
30
0
41
1
10
13.4663370710125
20
25.2350824452056
30
0
41
1
10
13.466380856964
20
25.2350820114152
30
0
0
SPLINE
5
329
100
AcDbEntity
8
1
62
256
6
ByLayer
370
18
48
1
60
0
100
AcDbSpline
70
4
71
3
72
12
73
8
40
0
40
0
40
0
40
0
40
0.26222694957283
40
0.26222694957283
40
0.631113474786415
40
0.631113474786415
40
1
40
1
40
1
40
1
41
1
10
13.4973537152594
20
25.4239865400289
30
0
41
1
10
13.4975841559196
20
25.4231950747185
30
0
41
1
10
13.4978183589541
20
25.4215379808036
30
0
41
1
10
13.4983591256675
20
25.4155702755639
30
0
41
1
10
13.4986647587768
20
25.4103399499764
30
0
41
1
10
13.4991868773968
20
25.3970939356296
30
0
41
1
10
13.4994068435486
20
25.3890962755237
30
0
41
1
10
13.4995785903629
20
25.3796617282839
30
0
0
SPLINE
5
32A
100
AcDbEntity
8
1
62
256
6
ByLayer
370
18
48
1
60
0
100
AcDbSpline
70
4
71
3
72
12
73
8
40
0
40
0
40
0
40
0
40
0.387696963007908
40
0.387696963007908
40
0.775393926015816
40
0.775393926015816
40
1
40
1
40
1
40
1
41
1
10
2.50042140963643
20
25.3796617282839
30
0
41
1
10
2.50059315633763
20
25.3890962693075
30
0
41
1
10
2.50081354412606
20
25.3971159794933
30
0
41
1
10
2.50133845997118
20
25.4104101798589
30
0
41
1
10
2.50164304192759
20
25.415602662515
30
0
41
1
10
2.50214235049953
20
25.4210994323192
30
0
41
1
10
2.50233228537775
20
25.4225694492841
30
0
41
1
10
2.50252096523241
20
25.4234696939494
30
0
0
SPLINE
5
32B
100
AcDbEntity
8
1
62
256
6
ByLayer
370
18
48
1
60
0
100
AcDbSpline
70
4
71
3
72
22
73
18
40
0
40
0
40
0
40
0
40
0.0051876677935464
40
0.0051876677935464
40
0.147303715251611
40
0.147303715251611
40
0.289419762709676
40
0.289419762709676
40
0.431535810167741
40
0.431535810167741
40
0.573651857625806
40
0.573651857625806
40
0.71576790508387
40
0.71576790508387
40
0.857883952541935
40
0.857883952541935
40
1
40
1
40
1
40
1
41
1
10
2.53360788834203
20
25.2350818246516
30
0
41
1
10
2.53365223475276
20
25.2350819086284
30
0
41
1
10
2.53369685412349
20
25.2350845570962
30
0
41
1
10
2.53497159681825
20
25.2352324837221
30
0
41
1
10
2.53640842605012
20
25.2373666286318
30
0
41
1
10
2.53958716902764
20
25.2453183999668
30
0
41
1
10
2.54137441192643
20
25.2512578784269
30
0
41
1
10
2.54515470141649
20
25.2663023472625
30
0
41
1
10
2.5471783013017
20
25.2755032525189
30
0
41
1
10
2.55137782829843
20
25.296710683137
30
0
41
1
10
2.55350902562907
20
25.3084692140532
30
0
41
1
10
2.55782123341675
20
25.3342922609023
30
0
41
1
10
2.55995869522309
20
25.3481203825896
30
0
41
1
10
2.56401952167579
20
25.3766629310145
30
0
41
1
10
2.56597909113719
20
25.3916611652715
30
0
41
1
10
2.56945417094278
20
25.421192874792
30
0
41
1
10
2.57100991017762
20
25.436032632158
30
0
41
1
10
2.57230165757864
20
25.450512473695
30
0
0
SPLINE
5
32C
100
AcDbEntity
8
1
62
256
6
ByLayer
370
18
48
1
60
0
100
AcDbSpline
70
4
71
3
72
14
73
10
40
0
40
0
40
0
40
0
40
0.25
40
0.25
40
0.5
40
0.5
40
0.75
40
0.75
40
1
40
1
40
1
40
1
41
1
10
2.64741949197003
20
26.1403893276286
30
0
41
1
10
2.6490892308546
20
26.1533464741906
30
0
41
1
10
2.65111063335826
20
26.1664313409583
30
0
41
1
10
2.65586147807699
20
26.1928361466592
30
0
41
1
10
2.6585891745824
20
26.2060781162005
30
0
41
1
10
2.66448677889963
20
26.2312877250889
30
0
41
1
10
2.66773819057715
20
26.2435880818215
30
0
41
1
10
2.67444621304514
20
26.2660281670117
30
0
41
1
10
2.67792602250972
20
26.2763058530539
30
0
41
1
10
2.68154098781389
20
26.2856114736852
30
0
0
SPLINE
5
32D
100
AcDbEntity
8
1
62
256
6
ByLayer
370
18
48
1
60
0
100
AcDbSpline
70
4
71
3
72
14
73
10
40
0
40
0
40
0
40
0
40
0.25
40
0.25
40
0.5
40
0.5
40
0.75
40
0.75
40
1
40
1
40
1
40
1
41
1
10
2.79600274202358
20
26.4896231584269
30
0
41
1
10
2.79356180840898
20
26.4930157334957
30
0
41
1
10
2.79065013375049
20
26.4945591837114
30
0
41
1
10
2.78399849986408
20
26.4942178096092
30
0
41
1
10
2.78026267666559
20
26.4922726665314
30
0
41
1
10
2.77242358376787
20
26.4851907967844
30
0
41
1
10
2.76821619675013
20
26.4799498690494
30
0
41
1
10
2.75977481608243
20
26.4667781817848
30
0
41
1
10
2.75551067166549
20
26.4588538062503
30
0
41
1
10
2.75120626163363
20
26.4495374020152
30
0
0
SPLINE
5
32E
100
AcDbEntity
8
1
62
256
6
ByLayer
370
18
48
1
60
0
100
AcDbSpline
70
4
71
3
72
22
73
18
40
0
40
0
40
0
40
0
40
0.125
40
0.125
40
0.25
40
0.25
40
0.375
40
0.375
40
0.5
40
0.5
40
0.625
40
0.625
40
0.75
40
0.75
40
0.875
40
0.875
40
1
40
1
40
1
40
1
41
1
10
3.08519105759126
20
26.5203881474262
30
0
41
1
10
3.08102508536581
20
26.5052868521403
30
0
41
1
10
3.07607703226472
20
26.4902302588412
30
0
41
1
10
3.06486792318043
20
26.4601737791193
30
0
41
1
10
3.05861617465854
20
26.4452610409543
30
0
41
1
10
3.04556628873672
20
26.4170286613207
30
0
41
1
10
3.03861087382052
20
26.4033725240315
30
0
41
1
10
3.02463704943608
20
26.3783497191281
30
0
41
1
10
3.01754067303591
20
26.3668117170375
30
0
41
1
10
3.00333053778445
20
26.3460329512127
30
0
41
1
10
2.99641768684734
20
26.3370758661883
30
0
41
1
10
2.98296287368868
20
26.3220398976296
30
0
41
1
10
2.9763903092595
20
26.3159783865252
30
0
41
1
10
2.96434488257927
20
26.3076746538899
30
0
41
1
10
2.9587228348671
20
26.3052984801061
30
0
41
1
10
2.94868995617435
20
26.3046848986373
30
0
41
1
10
2.94438337550304
20
26.3064106651434
30
0
41
1
10
2.94082112633936
20
26.3103725246287
30
0
0
SPLINE
5
32F
100
AcDbEntity
8
1
62
256
6
ByLayer
370
18
48
1
60
0
100
AcDbSpline
70
4
71
3
72
14
73
10
40
0
40
0
40
0
40
0
40
0.25
40
0.25
40
0.5
40
0.5
40
0.75
40
0.75
40
1
40
1
40
1
40
1
41
1
10
3.3814697568439
20
27.3554871474165
30
0
41
1
10
3.37290144151291
20
27.3466091784068
30
0
41
1
10
3.36454508029021
20
27.3367950804748
30
0
41
1
10
3.34824416312546
20
27.3153003941401
30
0
41
1
10
3.340198840776
20
27.3034492924572
30
0
41
1
10
3.32512811965944
20
27.2784798993314
30
0
41
1
10
3.31811718084299
20
27.2654351707595
30
0
41
1
10
3.30526947291673
20
27.2380603349226
30
0
41
1
10
3.29964816996545
20
27.2241785369657
30
0
41
1
10
3.29500378950354
20
27.2102650013598
30
0
0
SPLINE
5
330
100
AcDbEntity
8
1
62
256
6
ByLayer
370
18
48
1
60
0
100
AcDbSpline
70
4
71
3
72
14
73
10
40
0
40
0
40
0
40
0
40
0.25
40
0.25
40
0.5
40
0.5
40
0.75
40
0.75
40
1
40
1
40
1
40
1
41
1
10
3.5495192877483
20
27.5194130757465
30
0
41
1
10
3.55924693853478
20
27.5283560417199
30
0
41
1
10
3.56888145130603
20
27.5360408111919
30
0
41
1
10
3.58796021072652
20
27.5489550088414
30
0
41
1
10
3.59750840255162
20
27.5542190273943
30
0
41
1
10
3.61565255454519
20
27.5616183292676
30
0
41
1
10
3.62428801755703
20
27.563818738838
30
0
41
1
10
3.64044359359684
20
27.5646092116748
30
0
41
1
10
3.64770518176806
20
27.5631825168273
30
0
41
1
10
3.65381557128734
20
27.5594988321582
30
0
0
SPLINE
5
331
100
AcDbEntity
8
1
62
256
6
ByLayer
370
18
48
1
60
0
100
AcDbSpline
70
4
71
3
72
22
73
18
40
0
40
0
40
0
40
0
40
0.125
40
0.125
40
0.25
40
0.25
40
0.375
40
0.375
40
0.5
40
0.5
40
0.625
40
0.625
40
0.75
40
0.75
40
0.875
40
0.875
40
1
40
1
40
1
40
1
41
1
10
3.9817923657119
20
27.3802481983599
30
0
41
1
10
3.99102165064909
20
27.3756715096818
30
0
41
1
10
4.00197772386554
20
27.3742544908925
30
0
41
1
10
4.02641475755394
20
27.3757997830313
30
0
41
1
10
4.03968842849702
20
27.3788215645078
30
0
41
1
10
4.06714678623695
20
27.3880462818682
30
0
41
1
10
4.08161231453317
20
27.3943614533321
30
0
41
1
10
4.11082832210241
20
27.4094296794405
30
0
41
1
10
4.12556512023627
20
27.4181493776767
30
0
41
1
10
4.15529064044154
20
27.4377336827698
30
0
41
1
10
4.17041696891999
20
27.4487125620855
30
0
41
1
10
4.20016429324846
20
27.4723697618799
30
0
41
1
10
4.21475581603187
20
27.484998266058
30
0
41
1
10
4.24327508068802
20
27.512056536511
30
0
41
1
10
4.25737947127493
20
27.526674396289
30
0
41
1
10
4.28370522683031
20
27.557405028673
30
0
41
1
10
4.29586653599949
20
27.5733581784186
30
0
41
1
10
4.30643380496952
20
27.5902638211575
30
0
0
SPLINE
5
332
100
AcDbEntity
8
1
62
256
6
ByLayer
370
18
48
1
60
0
100
AcDbSpline
70
4
71
3
72
12
73
8
40
0
40
0
40
0
40
0
40
0.249999999999996
40
0.249999999999996
40
0.499999999999993
40
0.499999999999993
40
1
40
1
40
1
40
1
41
1
10
4.79510653191926
20
28.2801406750911
30
0
41
1
10
4.80893548647504
20
28.2972840089529
30
0
41
1
10
4.82482185648553
20
28.3126471730377
30
0
41
1
10
4.85889519674618
20
28.3413568069485
30
0
41
1
10
4.87686050785845
20
28.35439455296
30
0
41
1
10
4.93157494977947
20
28.3899521046189
30
0
41
1
10
4.96995353723395
20
28.4095181563618
30
0
41
1
10
5.00860772348773
20
28.4253628211478
30
0
0
SPLINE
5
333
100
AcDbEntity
8
1
62
256
6
ByLayer
370
18
48
1
60
0
100
AcDbSpline
70
4
71
3
72
12
73
8
40
0
40
0
40
0
40
0
40
0.250000000000003
40
0.250000000000003
40
0.500000000000005
40
0.500000000000005
40
1
40
1
40
1
40
1
41
1
10
5.77991886345626
20
28.6293745058894
30
0
41
1
10
5.75563271466086
20
28.6338302312464
30
0
41
1
10
5.72981735985559
20
28.6346753576099
30
0
41
1
10
5.67706344234017
20
28.6331943895158
30
0
41
1
10
5.64996612421663
20
28.6306555079804
30
0
41
1
10
5.56888760333675
20
28.6192396715476
30
0
41
1
10
5.51455885804518
20
28.6066752493302
30
0
41
1
10
5.46001133674781
20
28.5892887494777
30
0
0
LINE
5
70
100
AcDbEntity
8
80
62
256
6
ByLayer
370
18
48
1
60
0
100
AcDbLine
10
0
20
0
30
0
11
-5
21
0
31
0
39
0
210
0
220
0
230
1
0
LINE
5
71
100
AcDbEntity
8
1
62
256
6
ByLayer
370
18
48
1
60
0
100
AcDbLine
10
8.954272
20
18.014267
30
0
11
8.954272
21
17.933671
31
0
39
0
210
0
220
0
230
1
0
LINE
5
73
100
AcDbEntity
8
1
62
256
6
ByLayer
370
18
48
1
60
0
100
AcDbLine
10
1.246045
20
20.246045
30
0
11
0.5
21
19.5
31
0
39
0
210
0
220
0
230
1
0
LINE
5
74
100
AcDbEntity
8
81
62
256
6
ByLayer
370
18
48
1
60
0
100
AcDbLine
10
14
20
41
30
0
11
19
21
41
31
0
39
0
210
0
220
0
230
1
0
LINE
5
75
100
AcDbEntity
8
1
62
256
6
ByLayer
370
18
48
1
60
0
100
AcDbLine
10
11.052146
20
-8.492539
30
0
11
4.945585
21
-8.492539
31
0
39
0
210
0
220
0
230
1
0
LINE
5
76
100
AcDbEntity
8
1
62
256
6
ByLayer
370
18
48
1
60
0
100
AcDbLine
10
2.28225
20
19.117485
30
0
11
2.021402
21
17.372925
31
0
39
0
210
0
220
0
230
1
0
LINE
5
77
100
AcDbEntity
8
1
62
256
6
ByLayer
370
18
48
1
60
0
100
AcDbLine
10
10.625
20
34.862967
30
0
11
10.625
21
34.951199
31
0
39
0
210
0
220
0
230
1
0
LINE
5
78
100
AcDbEntity
8
1
62
256
6
ByLayer
370
18
48
1
60
0
100
AcDbLine
10
5.375
20
34.951199
30
0
11
5.375
21
34.862967
31
0
39
0
210
0
220
0
230
1
0
LINE
5
79
100
AcDbEntity
8
1
62
256
6
ByLayer
370
18
48
1
60
0
100
AcDbLine
10
2.261362
20
-15.907837
30
0
11
2.010298
21
-17.750232
31
0
39
0
210
0
220
0
230
1
0
LINE
5
7A
100
AcDbEntity
8
1
62
256
6
ByLayer
370
18
48
1
60
0
100
AcDbLine
10
13.989702
20
-17.750232
30
0
11
13.738638
21
-15.907837
31
0
39
0
210
0
220
0
230
1
0
LINE
5
7B
100
AcDbEntity
8
1
62
256
6
ByLayer
370
18
48
1
60
0
100
AcDbLine
10
13.978598
20
17.372925
30
0
11
13.71775
21
19.117485
31
0
39
0
210
0
220
0
230
1
0
LINE
5
7C
100
AcDbEntity
8
1
62
256
6
ByLayer
370
18
48
1
60
0
100
AcDbLine
10
2.569507
20
-7.365829
30
0
11
2.5
21
-7.365829
31
0
39
0
210
0
220
0
230
1
0
LINE
5
7D
100
AcDbEntity
8
1
62
256
6
ByLayer
370
18
48
1
60
0
100
AcDbLine
10
13.5
20
-7.365829
30
0
11
13.430436
21
-7.365829
31
0
39
0
210
0
220
0
230
1
0
LINE
5
7E
100
AcDbEntity
8
1
62
256
6
ByLayer
370
18
48
1
60
0
100
AcDbLine
10
2.984522
20
-7.741399
30
0
11
2.671483
21
-7.741399
31
0
39
0
210
0
220
0
230
1
0
LINE
5
7F
100
AcDbEntity
8
1
62
256
6
ByLayer
370
18
48
1
60
0
100
AcDbLine
10
13.32857
20
-7.741399
30
0
11
13.01548
21
-7.741399
31
0
39
0
210
0
220
0
230
1
0
LINE
5
80
100
AcDbEntity
8
1
62
256
6
ByLayer
370
18
48
1
60
0
100
AcDbLine
10
4.078826
20
-8.116969
30
0
11
3.356501
21
-8.116969
31
0
39
0
210
0
220
0
230
1
0
LINE
5
81
100
AcDbEntity
8
1
62
256
6
ByLayer
370
18
48
1
60
0
100
AcDbLine
10
12.643676
20
-8.116969
30
0
11
11.921192
21
-8.116969
31
0
39
0
210
0
220
0
230
1
0
LINE
5
82
100
AcDbEntity
8
1
62
256
6
ByLayer
370
18
48
1
60
0
100
AcDbLine
10
10.625
20
17.469008
30
0
11
10.625
21
17.999894
31
0
39
0
210
0
220
0
230
1
0
LINE
5
83
100
AcDbEntity
8
1
62
256
6
ByLayer
370
18
48
1
60
0
100
AcDbLine
10
5.375
20
17.999894
30
0
11
5.375
21
17.469008
31
0
39
0
210
0
220
0
230
1
0
LINE
5
84
100
AcDbEntity
8
1
62
256
6
ByLayer
370
18
48
1
60
0
100
AcDbLine
10
8.954272
20
35.898916
30
0
11
8.954272
21
35.802058
31
0
39
0
210
0
220
0
230
1
0
LINE
5
85
100
AcDbEntity
8
1
62
256
6
ByLayer
370
18
48
1
60
0
100
AcDbLine
10
8.709611
20
-21.233403
30
0
11
8.946148
21
-21.17929
31
0
39
0
210
0
220
0
230
1
0
LINE
5
86
100
AcDbEntity
8
1
62
256
6
ByLayer
370
18
48
1
60
0
100
AcDbLine
10
7.053852
20
-21.17929
30
0
11
7.290389
21
-21.233403
31
0
39
0
210
0
220
0
230
1
0
LINE
5
87
100
AcDbEntity
8
1
62
256
6
ByLayer
370
18
48
1
60
0
100
AcDbLine
10
7.045728
20
17.931818
30
0
11
7.045728
21
18.013262
31
0
39
0
210
0
220
0
230
1
0
LINE
5
88
100
AcDbEntity
8
1
62
256
6
ByLayer
370
18
48
1
60
0
100
AcDbLine
10
8.954272
20
17.881725
30
0
11
8.954272
21
16.862486
31
0
39
0
210
0
220
0
230
1
0
LINE
5
89
100
AcDbEntity
8
1
62
256
6
ByLayer
370
18
48
1
60
0
100
AcDbLine
10
7.045728
20
16.864338
30
0
11
7.045728
21
17.881725
31
0
39
0
210
0
220
0
230
1
0
LINE
5
8A
100
AcDbEntity
8
1
62
256
6
ByLayer
370
18
48
1
60
0
100
AcDbLine
10
7.045728
20
35.802058
30
0
11
7.045728
21
35.899092
31
0
39
0
210
0
220
0
230
1
0
LINE
5
8B
100
AcDbEntity
8
4
62
256
6
ByLayer
370
18
48
0.05
60
0
100
AcDbLine
10
0
20
0
30
0
11
17
21
0
31
0
39
0
210
0
220
0
230
1
0
LINE
5
8D
100
AcDbEntity
8
SK4
62
256
6
ByLayer
370
18
48
0.05
60
0
100
AcDbLine
10
-3
20
0
30
0
11
17
21
0
31
0
39
0
210
0
220
0
230
1
0
LINE
5
8F
100
AcDbEntity
8
1
62
256
6
ByLayer
370
18
48
1
60
0
100
AcDbLine
10
0.5
20
-19.5
30
0
11
1.246045
21
-20.246045
31
0
39
0
210
0
220
0
230
1
0
LINE
5
90
100
AcDbEntity
8
1
62
256
6
ByLayer
370
18
48
1
60
0
100
AcDbLine
10
14.746455
20
-20.253545
30
0
11
15.5
21
-19.5
31
0
39
0
210
0
220
0
230
1
0
LINE
5
91
100
AcDbEntity
8
1
62
256
6
ByLayer
370
18
48
1
60
0
100
AcDbLine
10
15.5
20
19.5
30
0
11
14.746455
21
20.253545
31
0
39
0
210
0
220
0
230
1
0
LINE
5
92
100
AcDbEntity
8
1
62
256
6
ByLayer
370
18
48
1
60
0
100
AcDbLine
10
15.6
20
19.5
30
0
11
15.5
21
19.5
31
0
39
0
210
0
220
0
230
1
0
LINE
5
93
100
AcDbEntity
8
1
62
256
6
ByLayer
370
18
48
1
60
0
100
AcDbLine
10
15.5
20
-19.5
30
0
11
15.6
21
-19.5
31
0
39
0
210
0
220
0
230
1
0
LINE
5
94
100
AcDbEntity
8
1
62
256
6
ByLayer
370
18
48
1
60
0
100
AcDbLine
10
0.5
20
19.5
30
0
11
0.4
21
19.5
31
0
39
0
210
0
220
0
230
1
0
LINE
5
95
100
AcDbEntity
8
1
62
256
6
ByLayer
370
18
48
1
60
0
100
AcDbLine
10
0.4
20
-19.5
30
0
11
0.5
21
-19.5
31
0
39
0
210
0
220
0
230
1
0
LINE
5
96
100
AcDbEntity
8
1
62
256
6
ByLayer
370
18
48
1
60
0
100
AcDbLine
10
0.4
20
19.5
30
0
11
0
21
19.1
31
0
39
0
210
0
220
0
230
1
0
LINE
5
97
100
AcDbEntity
8
1
62
256
6
ByLayer
370
18
48
1
60
0
100
AcDbLine
10
0
20
-19.1
30
0
11
0.4
21
-19.5
31
0
39
0
210
0
220
0
230
1
0
LINE
5
98
100
AcDbEntity
8
1
62
256
6
ByLayer
370
18
48
1
60
0
100
AcDbLine
10
15.6
20
-19.5
30
0
11
16
21
-19.1
31
0
39
0
210
0
220
0
230
1
0
LINE
5
99
100
AcDbEntity
8
1
62
256
6
ByLayer
370
18
48
1
60
0
100
AcDbLine
10
16
20
19.1
30
0
11
15.6
21
19.5
31
0
39
0
210
0
220
0
230
1
0
LINE
5
9A
100
AcDbEntity
8
1
62
256
6
ByLayer
370
18
48
1
60
0
100
AcDbLine
10
10.284087
20
28.634152
30
0
11
5.71323
21
28.634152
31
0
39
0
210
0
220
0
230
1
0
LINE
5
9B
100
AcDbEntity
8
1
62
256
6
ByLayer
370
18
48
1
60
0
100
AcDbLine
10
12.366193
20
27.564277
30
0
11
11.833436
21
27.564277
31
0
39
0
210
0
220
0
230
1
0
LINE
5
9C
100
AcDbEntity
8
1
62
256
6
ByLayer
370
18
48
1
60
0
100
AcDbLine
10
4.166638
20
27.564277
30
0
11
3.634699
21
27.564277
31
0
39
0
210
0
220
0
230
1
0
LINE
5
9D
100
AcDbEntity
8
1
62
256
6
ByLayer
370
18
48
1
60
0
100
AcDbLine
10
13.212601
20
26.494401
30
0
11
12.976822
21
26.494401
31
0
39
0
210
0
220
0
230
1
0
LINE
5
9E
100
AcDbEntity
8
1
62
256
6
ByLayer
370
18
48
1
60
0
100
AcDbLine
10
3.023209
20
26.494401
30
0
11
2.787384
21
26.494401
31
0
39
0
210
0
220
0
230
1
0
LINE
5
9F
100
AcDbEntity
8
1
62
256
6
ByLayer
370
18
48
1
60
0
100
AcDbLine
10
13.497067
20
25.424525
30
0
11
13.430451
21
25.424525
31
0
39
0
210
0
220
0
230
1
0
LINE
5
A0
100
AcDbEntity
8
1
62
256
6
ByLayer
370
18
48
1
60
0
100
AcDbLine
10
2.569595
20
25.424525
30
0
11
2.502926
21
25.424525
31
0
39
0
210
0
220
0
230
1
0
LINE
5
A1
100
AcDbEntity
8
1
62
256
6
ByLayer
370
18
48
1
60
0
100
AcDbLine
10
2.5
20
10.732471
30
0
11
2.525094
21
10.732471
31
0
39
0
210
0
220
0
230
1
0
LINE
5
A2
100
AcDbEntity
8
1
62
256
6
ByLayer
370
18
48
1
60
0
100
AcDbLine
10
13.474906
20
10.732471
30
0
11
13.5
21
10.732471
31
0
39
0
210
0
220
0
230
1
0
LINE
5
A3
100
AcDbEntity
8
1
62
256
6
ByLayer
370
13
48
1
60
0
100
AcDbLine
10
8.977644
20
17.967021
30
0
11
8.977644
21
17.987798
31
0
39
0
210
0
220
0
230
1
0
LINE
5
A4
100
AcDbEntity
8
1
62
256
6
ByLayer
370
13
48
1
60
0
100
AcDbLine
10
7.022356
20
17.967021
30
0
11
7.022356
21
17.987019
31
0
39
0
210
0
220
0
230
1
0
LINE
5
A5
100
AcDbEntity
8
1
62
256
6
ByLayer
370
13
48
1
60
0
100
AcDbLine
10
6.539135
20
17.17216
30
0
11
6.539135
21
17.491438
31
0
39
0
210
0
220
0
230
1
0
LINE
5
A6
100
AcDbEntity
8
1
62
256
6
ByLayer
370
13
48
1
60
0
100
AcDbLine
10
9.460865
20
17.17216
30
0
11
9.460865
21
17.491438
31
0
39
0
210
0
220
0
230
1
0
LINE
5
A7
100
AcDbEntity
8
1
62
256
6
ByLayer
370
13
48
1
60
0
100
AcDbLine
10
7.512089
20
16.538935
30
0
11
7.512089
21
17.622099
31
0
39
0
210
0
220
0
230
1
0
LINE
5
A8
100
AcDbEntity
8
1
62
256
6
ByLayer
370
13
48
1
60
0
100
AcDbLine
10
8.487911
20
16.538935
30
0
11
8.487911
21
17.622099
31
0
39
0
210
0
220
0
230
1
0
LINE
5
A9
100
AcDbEntity
8
1
62
256
6
ByLayer
370
18
48
1
60
0
100
AcDbLine
10
8.083222
20
17.734649
30
0
11
8.083222
21
16.7839
31
0
39
0
210
0
220
0
230
1
0
LINE
5
AA
100
AcDbEntity
8
1
62
256
6
ByLayer
370
18
48
1
60
0
100
AcDbLine
10
2.5
20
-13.527061
30
0
11
2.5
21
-7.411899
31
0
39
0
210
0
220
0
230
1
0
LINE
5
AB
100
AcDbEntity
8
1
62
256
6
ByLayer
370
13
48
1
60
0
100
AcDbLine
10
7.5
20
-9.248163
30
0
11
7.5
21
-15.719906
31
0
39
0
210
0
220
0
230
1
0
LINE
5
AC
100
AcDbEntity
8
1
62
256
6
ByLayer
370
13
48
1
60
0
100
AcDbLine
10
10.220081
20
-8.659998
30
0
11
5.779919
21
-8.659998
31
0
39
0
210
0
220
0
230
1
0
LINE
5
AD
100
AcDbEntity
8
1
62
256
6
ByLayer
370
18
48
1
60
0
100
AcDbLine
10
7.5
20
-9.248163
30
0
11
8.5
21
-9.248163
31
0
39
0
210
0
220
0
230
1
0
LINE
5
AE
100
AcDbEntity
8
1
62
256
6
ByLayer
370
13
48
1
60
0
100
AcDbLine
10
8.5
20
-15.719906
30
0
11
8.5
21
-9.248163
31
0
39
0
210
0
220
0
230
1
0
LINE
5
AF
100
AcDbEntity
8
1
62
256
6
ByLayer
370
18
48
1
60
0
100
AcDbLine
10
7.5
20
-15.719906
30
0
11
8.5
21
-15.719906
31
0
39
0
210
0
220
0
230
1
0
LINE
5
B0
100
AcDbEntity
8
1
62
256
6
ByLayer
370
18
48
1
60
0
100
AcDbLine
10
2.5
20
13.684351
30
0
11
2.5
21
10.732471
31
0
39
0
210
0
220
0
230
1
0
LINE
5
B1
100
AcDbEntity
8
1
62
256
6
ByLayer
370
13
48
1
60
0
100
AcDbLine
10
10.539989
20
-8.554862
30
0
11
5.460011
21
-8.554862
31
0
39
0
210
0
220
0
230
1
0
LINE
5
B2
100
AcDbEntity
8
1
62
256
6
ByLayer
370
13
48
1
60
0
100
AcDbLine
10
10.991392
20
-8.497317
30
0
11
5.008608
21
-8.497317
31
0
39
0
210
0
220
0
230
1
0
LINE
5
B3
100
AcDbEntity
8
1
62
256
6
ByLayer
370
13
48
1
60
0
100
AcDbLine
10
12.018208
20
-8.974305
30
0
11
11.630199
21
-8.974305
31
0
39
0
210
0
220
0
230
1
0
LINE
5
B4
100
AcDbEntity
8
1
62
256
6
ByLayer
370
13
48
1
60
0
100
AcDbLine
10
4.369801
20
-8.974305
30
0
11
3.981792
21
-8.974305
31
0
39
0
210
0
220
0
230
1
0
LINE
5
B5
100
AcDbEntity
8
1
62
256
6
ByLayer
370
13
48
1
60
0
100
AcDbLine
10
12.346184
20
-8.284428
30
0
11
11.823692
21
-8.284428
31
0
39
0
210
0
220
0
230
1
0
LINE
5
B6
100
AcDbEntity
8
1
62
256
6
ByLayer
370
13
48
1
60
0
100
AcDbLine
10
4.176308
20
-8.284428
30
0
11
3.653816
21
-8.284428
31
0
39
0
210
0
220
0
230
1
0
LINE
5
B7
100
AcDbEntity
8
1
62
256
6
ByLayer
370
13
48
1
60
0
100
AcDbLine
10
12.450481
20
-8.179292
30
0
11
11.884852
21
-8.179292
31
0
39
0
210
0
220
0
230
1
0
LINE
5
B8
100
AcDbEntity
8
1
62
256
6
ByLayer
370
13
48
1
60
0
100
AcDbLine
10
4.115148
20
-8.179292
30
0
11
3.549519
21
-8.179292
31
0
39
0
210
0
220
0
230
1
0
LINE
5
B9
100
AcDbEntity
8
1
62
256
6
ByLayer
370
13
48
1
60
0
100
AcDbLine
10
4.081597
20
-8.121747
30
0
11
3.38147
21
-8.121747
31
0
39
0
210
0
220
0
230
1
0
LINE
5
BA
100
AcDbEntity
8
1
62
256
6
ByLayer
370
13
48
1
60
0
100
AcDbLine
10
12.61853
20
-8.121747
30
0
11
11.918403
21
-8.121747
31
0
39
0
210
0
220
0
230
1
0
LINE
5
BB
100
AcDbEntity
8
1
62
256
6
ByLayer
370
13
48
1
60
0
100
AcDbLine
10
13.059179
20
-8.598735
30
0
11
12.886937
21
-8.598735
31
0
39
0
210
0
220
0
230
1
0
LINE
5
BC
100
AcDbEntity
8
1
62
256
6
ByLayer
370
13
48
1
60
0
100
AcDbLine
10
3.113063
20
-8.598735
30
0
11
2.940821
21
-8.598735
31
0
39
0
210
0
220
0
230
1
0
LINE
5
BD
100
AcDbEntity
8
1
62
256
6
ByLayer
370
13
48
1
60
0
100
AcDbLine
10
13.203997
20
-7.908858
30
0
11
12.972503
21
-7.908858
31
0
39
0
210
0
220
0
230
1
0
LINE
5
BE
100
AcDbEntity
8
1
62
256
6
ByLayer
370
13
48
1
60
0
100
AcDbLine
10
3.027497
20
-7.908858
30
0
11
2.796003
21
-7.908858
31
0
39
0
210
0
220
0
230
1
0
LINE
5
BF
100
AcDbEntity
8
1
62
256
6
ByLayer
370
13
48
1
60
0
100
AcDbLine
10
13.248794
20
-7.803722
30
0
11
12.999502
21
-7.803722
31
0
39
0
210
0
220
0
230
1
0
LINE
5
C0
100
AcDbEntity
8
1
62
256
6
ByLayer
370
13
48
1
60
0
100
AcDbLine
10
3.000498
20
-7.803722
30
0
11
2.751206
21
-7.803722
31
0
39
0
210
0
220
0
230
1
0
LINE
5
C1
100
AcDbEntity
8
1
62
256
6
ByLayer
370
13
48
1
60
0
100
AcDbLine
10
2.985746
20
-7.746177
30
0
11
2.681541
21
-7.746177
31
0
39
0
210
0
220
0
230
1
0
LINE
5
C2
100
AcDbEntity
8
1
62
256
6
ByLayer
370
13
48
1
60
0
100
AcDbLine
10
13.318459
20
-7.746177
30
0
11
13.014254
21
-7.746177
31
0
39
0
210
0
220
0
230
1
0
LINE
5
C3
100
AcDbEntity
8
1
62
256
6
ByLayer
370
18
48
1
60
0
100
AcDbLine
10
13.5
20
-7.411899
30
0
11
13.5
21
-13.527061
31
0
39
0
210
0
220
0
230
1
0
LINE
5
C4
100
AcDbEntity
8
1
62
256
6
ByLayer
370
13
48
1
60
0
100
AcDbLine
10
13.46935
20
-8.223165
30
0
11
13.418507
21
-8.223165
31
0
39
0
210
0
220
0
230
1
0
LINE
5
C5
100
AcDbEntity
8
1
62
256
6
ByLayer
370
13
48
1
60
0
100
AcDbLine
10
2.581493
20
-8.223165
30
0
11
2.53065
21
-8.223165
31
0
39
0
210
0
220
0
230
1
0
LINE
5
C6
100
AcDbEntity
8
1
62
256
6
ByLayer
370
13
48
1
60
0
100
AcDbLine
10
13.496203
20
-7.533288
30
0
11
13.387947
21
-7.533288
31
0
39
0
210
0
220
0
230
1
0
LINE
5
C7
100
AcDbEntity
8
1
62
256
6
ByLayer
370
13
48
1
60
0
100
AcDbLine
10
2.611445
20
-7.533288
30
0
11
2.503797
21
-7.533288
31
0
39
0
210
0
220
0
230
1
0
LINE
5
C8
100
AcDbEntity
8
1
62
256
6
ByLayer
370
13
48
1
60
0
100
AcDbLine
10
2.584965
20
-7.428152
30
0
11
2.500421
21
-7.428152
31
0
39
0
210
0
220
0
230
1
0
LINE
5
C9
100
AcDbEntity
8
1
62
256
6
ByLayer
370
13
48
1
60
0
100
AcDbLine
10
13.499579
20
-7.428152
30
0
11
13.415653
21
-7.428152
31
0
39
0
210
0
220
0
230
1
0
LINE
5
CA
100
AcDbEntity
8
1
62
256
6
ByLayer
370
13
48
1
60
0
100
AcDbLine
10
13.5
20
-7.370607
30
0
11
13.429312
21
-7.370607
31
0
39
0
210
0
220
0
230
1
0
LINE
5
CB
100
AcDbEntity
8
1
62
256
6
ByLayer
370
13
48
1
60
0
100
AcDbLine
10
2.570688
20
-7.370607
30
0
11
2.5
21
-7.370607
31
0
39
0
210
0
220
0
230
1
0
LINE
5
CC
100
AcDbEntity
8
1
62
256
6
ByLayer
370
18
48
1
60
0
100
AcDbLine
10
2.5
20
-7.411899
30
0
11
2.5
21
-7.370607
31
0
39
0
210
0
220
0
230
1
0
LINE
5
CD
100
AcDbEntity
8
1
62
256
6
ByLayer
370
13
48
1
60
0
100
AcDbLine
10
13.5
20
-7.157718
30
0
11
13.477141
21
-7.157718
31
0
39
0
210
0
220
0
230
1
0
LINE
5
CE
100
AcDbEntity
8
1
62
256
6
ByLayer
370
13
48
1
60
0
100
AcDbLine
10
2.523031
20
-7.157718
30
0
11
2.5
21
-7.157718
31
0
39
0
210
0
220
0
230
1
0
LINE
5
CF
100
AcDbEntity
8
1
62
256
6
ByLayer
370
18
48
1
60
0
100
AcDbLine
10
13.5
20
-7.411899
30
0
11
13.5
21
-7.370607
31
0
39
0
210
0
220
0
230
1
0
LINE
5
D0
100
AcDbEntity
8
1
62
256
6
ByLayer
370
18
48
1
60
0
100
AcDbLine
10
13.5
20
-7.370607
30
0
11
13.5
21
-7.365829
31
0
39
0
210
0
220
0
230
1
0
LINE
5
D1
100
AcDbEntity
8
1
62
256
6
ByLayer
370
18
48
1
60
0
100
AcDbLine
10
2.5
20
-7.370607
30
0
11
2.5
21
-7.365829
31
0
39
0
210
0
220
0
230
1
0
LINE
5
D2
100
AcDbEntity
8
1
62
256
6
ByLayer
370
18
48
1
60
0
100
AcDbLine
10
2.5
20
-7.157718
30
0
11
2.5
21
-7.365835
31
0
39
0
210
0
220
0
230
1
0
LINE
5
D3
100
AcDbEntity
8
1
62
256
6
ByLayer
370
18
48
1
60
0
100
AcDbLine
10
13.5
20
-7.157718
30
0
11
13.5
21
-7.365835
31
0
39
0
210
0
220
0
230
1
0
LINE
5
D4
100
AcDbEntity
8
1
62
256
6
ByLayer
370
18
48
1
60
0
100
AcDbLine
10
2.5
20
-7.052582
30
0
11
2.5
21
-7.157718
31
0
39
0
210
0
220
0
230
1
0
LINE
5
D5
100
AcDbEntity
8
1
62
256
6
ByLayer
370
18
48
1
60
0
100
AcDbLine
10
13.5
20
-7.052582
30
0
11
13.5
21
-7.157718
31
0
39
0
210
0
220
0
230
1
0
LINE
5
D6
100
AcDbEntity
8
1
62
256
6
ByLayer
370
18
48
1
60
0
100
AcDbLine
10
13.5
20
13.684351
30
0
11
13.5
21
10.732471
31
0
39
0
210
0
220
0
230
1
0
LINE
5
D7
100
AcDbEntity
8
1
62
256
6
ByLayer
370
18
48
1
60
0
100
AcDbLine
10
2.5
20
-7.052582
30
0
11
2.5
21
-6.995037
31
0
39
0
210
0
220
0
230
1
0
LINE
5
D8
100
AcDbEntity
8
1
62
256
6
ByLayer
370
18
48
1
60
0
100
AcDbLine
10
13.5
20
-7.052582
30
0
11
13.5
21
-6.995037
31
0
39
0
210
0
220
0
230
1
0
LINE
5
D9
100
AcDbEntity
8
1
62
256
6
ByLayer
370
18
48
1
60
0
100
AcDbLine
10
5.780208
20
-39.538659
30
0
11
5.160706
21
-38.921066
31
0
39
0
210
0
220
0
230
1
0
LINE
5
DA
100
AcDbEntity
8
1
62
256
6
ByLayer
370
18
48
1
60
0
100
AcDbLine
10
3.125108
20
-36.891743
30
0
11
3.060298
21
-36.827133
31
0
39
0
210
0
220
0
230
1
0
LINE
5
DB
100
AcDbEntity
8
1
62
256
6
ByLayer
370
18
48
1
60
0
100
AcDbLine
10
2.5
20
-6.990259
30
0
11
2.5
21
-6.995037
31
0
39
0
210
0
220
0
230
1
0
LINE
5
DC
100
AcDbEntity
8
1
62
256
6
ByLayer
370
18
48
1
60
0
100
AcDbLine
10
13.5
20
-6.990259
30
0
11
13.5
21
-6.995037
31
0
39
0
210
0
220
0
230
1
0
LINE
5
DD
100
AcDbEntity
8
1
62
256
6
ByLayer
370
18
48
1
60
0
100
AcDbLine
10
2.5
20
-6.990265
30
0
11
2.5
21
-6.984174
31
0
39
0
210
0
220
0
230
1
0
LINE
5
DE
100
AcDbEntity
8
1
62
256
6
ByLayer
370
18
48
1
60
0
100
AcDbLine
10
13.5
20
-6.990265
30
0
11
13.5
21
-6.984174
31
0
39
0
210
0
220
0
230
1
0
LINE
5
DF
100
AcDbEntity
8
1
62
256
6
ByLayer
370
18
48
1
60
0
100
AcDbLine
10
2.5
20
31.969648
30
0
11
2.5
21
32.597117
31
0
39
0
210
0
220
0
230
1
0
LINE
5
E0
100
AcDbEntity
8
1
62
256
6
ByLayer
370
18
48
1
60
0
100
AcDbLine
10
13.5
20
31.969648
30
0
11
13.5
21
32.597117
31
0
39
0
210
0
220
0
230
1
0
LINE
5
E1
100
AcDbEntity
8
1
62
256
6
ByLayer
370
18
48
1
60
0
100
AcDbLine
10
13.062527
20
-14.424058
30
0
11
13.062527
21
-14.433192
31
0
39
0
210
0
220
0
230
1
0
LINE
5
E2
100
AcDbEntity
8
1
62
256
6
ByLayer
370
18
48
1
60
0
100
AcDbLine
10
12.939702
20
-14.560849
30
0
11
12.874892
21
-14.588751
31
0
39
0
210
0
220
0
230
1
0
LINE
5
E3
100
AcDbEntity
8
1
62
256
6
ByLayer
370
18
48
1
60
0
100
AcDbLine
10
10.839294
20
-15.465098
30
0
11
10.219792
21
-15.731801
31
0
39
0
210
0
220
0
230
1
0
LINE
5
E4
100
AcDbEntity
8
1
62
256
6
ByLayer
370
18
48
1
60
0
100
AcDbLine
10
9.923267
20
-15.784678
30
0
11
6.076733
21
-15.784678
31
0
39
0
210
0
220
0
230
1
0
LINE
5
E5
100
AcDbEntity
8
1
62
256
6
ByLayer
370
18
48
1
60
0
100
AcDbLine
10
5.780208
20
-15.731801
30
0
11
5.160706
21
-15.465098
31
0
39
0
210
0
220
0
230
1
0
LINE
5
E6
100
AcDbEntity
8
1
62
256
6
ByLayer
370
18
48
1
60
0
100
AcDbLine
10
3.125108
20
-14.588751
30
0
11
3.060298
21
-14.560849
31
0
39
0
210
0
220
0
230
1
0
LINE
5
E7
100
AcDbEntity
8
1
62
256
6
ByLayer
370
18
48
1
60
0
100
AcDbLine
10
2.937473
20
-14.433192
30
0
11
2.937473
21
-14.424058
31
0
39
0
210
0
220
0
230
1
0
LINE
5
E8
100
AcDbEntity
8
1
62
256
6
ByLayer
370
18
48
1
60
0
100
AcDbLine
10
9.923267
20
23.876427
30
0
11
6.076733
21
23.876427
31
0
39
0
210
0
220
0
230
1
0
LINE
5
E9
100
AcDbEntity
8
1
62
256
6
ByLayer
370
18
48
1
60
0
100
AcDbLine
10
13.5
20
-14.669045
30
0
11
13.5
21
-13.527091
31
0
39
0
210
0
220
0
230
1
0
LINE
5
EA
100
AcDbEntity
8
1
62
256
6
ByLayer
370
18
48
1
60
0
100
AcDbLine
10
2.5
20
-14.669045
30
0
11
2.5
21
-13.527091
31
0
39
0
210
0
220
0
230
1
0
LINE
5
EB
100
AcDbEntity
8
1
62
256
6
ByLayer
370
18
48
1
60
0
100
AcDbLine
10
2.5
20
30.637032
30
0
11
2.5
21
31.969639
31
0
39
0
210
0
220
0
230
1
0
LINE
5
EC
100
AcDbEntity
8
1
62
256
6
ByLayer
370
18
48
1
60
0
100
AcDbLine
10
13.5
20
30.637032
30
0
11
13.5
21
31.969639
31
0
39
0
210
0
220
0
230
1
0
LINE
5
ED
100
AcDbEntity
8
1
62
256
6
ByLayer
370
18
48
1
60
0
100
AcDbLine
10
13.5
20
-32.136718
30
0
11
13.5
21
-32.301956
31
0
39
0
210
0
220
0
230
1
0
LINE
5
EE
100
AcDbEntity
8
1
62
256
6
ByLayer
370
13
48
1
60
0
100
AcDbLine
10
9.460865
20
35.245231
30
0
11
9.460865
21
35.141974
31
0
39
0
210
0
220
0
230
1
0
LINE
5
EF
100
AcDbEntity
8
1
62
256
6
ByLayer
370
13
48
1
60
0
100
AcDbLine
10
6.539135
20
35.245231
30
0
11
6.539135
21
35.141974
31
0
39
0
210
0
220
0
230
1
0
LINE
5
F0
100
AcDbEntity
8
1
62
256
6
ByLayer
370
13
48
1
60
0
100
AcDbLine
10
7.512089
20
36.36214
30
0
11
7.512089
21
36.25902
31
0
39
0
210
0
220
0
230
1
0
LINE
5
F1
100
AcDbEntity
8
1
62
256
6
ByLayer
370
13
48
1
60
0
100
AcDbLine
10
8.487911
20
36.36214
30
0
11
8.487911
21
36.25902
31
0
39
0
210
0
220
0
230
1
0
LINE
5
F2
100
AcDbEntity
8
1
62
256
6
ByLayer
370
18
48
1
60
0
100
AcDbLine
10
7.916778
20
36.060922
30
0
11
7.916778
21
36.151436
31
0
39
0
210
0
220
0
230
1
0
LINE
5
F3
100
AcDbEntity
8
1
62
256
6
ByLayer
370
18
48
1
60
0
100
AcDbLine
10
8.083222
20
36.151436
30
0
11
8.083222
21
36.060922
31
0
39
0
210
0
220
0
230
1
0
LINE
5
F4
100
AcDbEntity
8
1
62
256
6
ByLayer
370
18
48
1
60
0
100
AcDbLine
10
2.201252
20
20.999538
30
0
11
2.500052
21
20.999538
31
0
39
0
210
0
220
0
230
1
0
LINE
5
F5
100
AcDbEntity
8
1
62
256
6
ByLayer
370
13
48
1
60
0
100
AcDbLine
10
12.018208
20
-36.354553
30
0
11
11.35106
21
-36.354553
31
0
39
0
210
0
220
0
230
1
0
LINE
5
F6
100
AcDbEntity
8
1
62
256
6
ByLayer
370
13
48
1
60
0
100
AcDbLine
10
4.64894
20
-36.354553
30
0
11
3.981792
21
-36.354553
31
0
39
0
210
0
220
0
230
1
0
LINE
5
F7
100
AcDbEntity
8
1
62
256
6
ByLayer
370
18
48
1
60
0
100
AcDbLine
10
13.499948
20
20.999538
30
0
11
13.798748
21
20.999538
31
0
39
0
210
0
220
0
230
1
0
LINE
5
F8
100
AcDbEntity
8
1
62
256
6
ByLayer
370
18
48
1
60
0
100
AcDbLine
10
2.525
20
-18.960489
30
0
11
2.525
21
-24.231379
31
0
39
0
210
0
220
0
230
1
0
LINE
5
F9
100
AcDbEntity
8
1
62
256
6
ByLayer
370
18
48
1
60
0
100
AcDbLine
10
13.475
20
-18.960489
30
0
11
13.475
21
-24.231379
31
0
39
0
210
0
220
0
230
1
0
LINE
5
FA
100
AcDbEntity
8
1
62
256
6
ByLayer
370
18
48
1
60
0
100
AcDbLine
10
8.866025
20
10.869056
30
0
11
9.732051
21
9.410501
31
0
39
0
210
0
220
0
230
1
0
LINE
5
FB
100
AcDbEntity
8
1
62
256
6
ByLayer
370
18
48
1
60
0
100
AcDbLine
10
8.866025
20
-20.796181
30
0
11
8.866025
21
-20.457522
31
0
39
0
210
0
220
0
230
1
0
LINE
5
FC
100
AcDbEntity
8
1
62
256
6
ByLayer
370
18
48
1
60
0
100
AcDbLine
10
7.133975
20
-20.796181
30
0
11
7.133975
21
-20.457522
31
0
39
0
210
0
220
0
230
1
0
LINE
5
FD
100
AcDbEntity
8
1
62
256
6
ByLayer
370
18
48
1
60
0
100
AcDbLine
10
6.267949
20
9.410501
30
0
11
7.133975
21
10.869056
31
0
39
0
210
0
220
0
230
1
0
LINE
5
FE
100
AcDbEntity
8
1
62
256
6
ByLayer
370
18
48
1
60
0
100
AcDbLine
10
7.133975
20
7.951946
30
0
11
6.267949
21
9.410501
31
0
39
0
210
0
220
0
230
1
0
LINE
5
FF
100
AcDbEntity
8
1
62
256
6
ByLayer
370
18
48
1
60
0
100
AcDbLine
10
7.133975
20
7.951946
30
0
11
8.866025
21
7.951946
31
0
39
0
210
0
220
0
230
1
0
LINE
5
100
100
AcDbEntity
8
1
62
256
6
ByLayer
370
18
48
1
60
0
100
AcDbLine
10
8.866025
20
7.951946
30
0
11
9.732051
21
9.410501
31
0
39
0
210
0
220
0
230
1
0
LINE
5
101
100
AcDbEntity
8
1
62
256
6
ByLayer
370
18
48
1
60
0
100
AcDbLine
10
8.866025
20
10.869056
30
0
11
7.133975
21
10.869056
31
0
39
0
210
0
220
0
230
1
0
LINE
5
102
100
AcDbEntity
8
1
62
256
6
ByLayer
370
18
48
1
60
0
100
AcDbLine
10
9.593433
20
9.17707
30
0
11
8.866025
21
10.402165
31
0
39
0
210
0
220
0
230
1
0
LINE
5
103
100
AcDbEntity
8
1
62
256
6
ByLayer
370
18
48
1
60
0
100
AcDbLine
10
8.866025
20
10.869056
30
0
11
8.866025
21
10.402165
31
0
39
0
210
0
220
0
230
1
0
LINE
5
104
100
AcDbEntity
8
1
62
256
6
ByLayer
370
18
48
1
60
0
100
AcDbLine
10
7.133975
20
10.402165
30
0
11
6.406567
21
9.17707
31
0
39
0
210
0
220
0
230
1
0
LINE
5
105
100
AcDbEntity
8
1
62
256
6
ByLayer
370
18
48
1
60
0
100
AcDbLine
10
13.475
20
4.834737
30
0
11
2.525
21
4.834737
31
0
39
0
210
0
220
0
230
1
0
LINE
5
106
100
AcDbEntity
8
1
62
256
6
ByLayer
370
18
48
1
60
0
100
AcDbLine
10
13.475
20
4.617726
30
0
11
13.475
21
4.834737
31
0
39
0
210
0
220
0
230
1
0
LINE
5
107
100
AcDbEntity
8
1
62
256
6
ByLayer
370
18
48
1
60
0
100
AcDbLine
10
2.525
20
13.542935
30
0
11
2.525
21
4.834737
31
0
39
0
210
0
220
0
230
1
0
LINE
5
108
100
AcDbEntity
8
1
62
256
6
ByLayer
370
18
48
1
60
0
100
AcDbLine
10
2.525
20
13.542935
30
0
11
13.475
21
13.542935
31
0
39
0
210
0
220
0
230
1
0
LINE
5
109
100
AcDbEntity
8
1
62
256
6
ByLayer
370
18
48
1
60
0
100
AcDbLine
10
2.525
20
4.617726
30
0
11
2.525
21
4.834737
31
0
39
0
210
0
220
0
230
1
0
LINE
5
10A
100
AcDbEntity
8
1
62
256
6
ByLayer
370
18
48
1
60
0
100
AcDbLine
10
13.475
20
13.542935
30
0
11
13.475
21
4.834737
31
0
39
0
210
0
220
0
230
1
0
LINE
5
10B
100
AcDbEntity
8
1
62
256
6
ByLayer
370
18
48
1
60
0
100
AcDbLine
10
2.525
20
13.71263
30
0
11
13.475
21
13.71263
31
0
39
0
210
0
220
0
230
1
0
LINE
5
10C
100
AcDbEntity
8
1
62
256
6
ByLayer
370
18
48
1
60
0
100
AcDbLine
10
2.5
20
-34.433232
30
0
11
2.5
21
-32.74526
31
0
39
0
210
0
220
0
230
1
0
LINE
5
10D
100
AcDbEntity
8
1
62
256
6
ByLayer
370
13
48
1
60
0
100
AcDbLine
10
7.5
20
-37.724715
30
0
11
7.5
21
-39.511114
31
0
39
0
210
0
220
0
230
1
0
LINE
5
10E
100
AcDbEntity
8
1
62
256
6
ByLayer
370
13
48
1
60
0
100
AcDbLine
10
8.5
20
-39.511114
30
0
11
8.5
21
-37.724715
31
0
39
0
210
0
220
0
230
1
0
LINE
5
10F
100
AcDbEntity
8
1
62
256
6
ByLayer
370
18
48
1
60
0
100
AcDbLine
10
13.5
20
-32.74526
30
0
11
13.5
21
-34.433232
31
0
39
0
210
0
220
0
230
1
0
LINE
5
110
100
AcDbEntity
8
1
62
256
6
ByLayer
370
18
48
1
60
0
100
AcDbLine
10
5.780208
20
23.806858
30
0
11
3.060298
21
22.266284
31
0
39
0
210
0
220
0
230
1
0
LINE
5
111
100
AcDbEntity
8
1
62
256
6
ByLayer
370
18
48
1
60
0
100
AcDbLine
10
12.939702
20
22.266284
30
0
11
10.219792
21
23.806858
31
0
39
0
210
0
220
0
230
1
0
LINE
5
112
100
AcDbEntity
8
1
62
256
6
ByLayer
370
13
48
1
60
0
100
AcDbLine
10
10.539989
20
-37.144151
30
0
11
5.460011
21
-37.144151
31
0
39
0
210
0
220
0
230
1
0
LINE
5
113
100
AcDbEntity
8
1
62
256
6
ByLayer
370
13
48
1
60
0
100
AcDbLine
10
10.220081
20
-37.289373
30
0
11
5.779919
21
-37.289373
31
0
39
0
210
0
220
0
230
1
0
LINE
5
114
100
AcDbEntity
8
1
62
256
6
ByLayer
370
13
48
1
60
0
100
AcDbLine
10
10.991392
20
-36.92268
30
0
11
9.371553
21
-36.92268
31
0
39
0
210
0
220
0
230
1
0
LINE
5
115
100
AcDbEntity
8
1
62
256
6
ByLayer
370
13
48
1
60
0
100
AcDbLine
10
6.619379
20
-36.92268
30
0
11
5.008608
21
-36.92268
31
0
39
0
210
0
220
0
230
1
0
LINE
5
116
100
AcDbEntity
8
1
62
256
6
ByLayer
370
13
48
1
60
0
100
AcDbLine
10
11.204893
20
-36.817544
30
0
11
10.079675
21
-36.817544
31
0
39
0
210
0
220
0
230
1
0
LINE
5
117
100
AcDbEntity
8
1
62
256
6
ByLayer
370
13
48
1
60
0
100
AcDbLine
10
5.918822
20
-36.817544
30
0
11
4.795107
21
-36.817544
31
0
39
0
210
0
220
0
230
1
0
LINE
5
118
100
AcDbEntity
8
1
62
256
6
ByLayer
370
13
48
1
60
0
100
AcDbLine
10
11.693566
20
-36.638293
30
0
11
10.874749
21
-36.638293
31
0
39
0
210
0
220
0
230
1
0
LINE
5
119
100
AcDbEntity
8
1
62
256
6
ByLayer
370
13
48
1
60
0
100
AcDbLine
10
5.125944
20
-36.638293
30
0
11
4.306434
21
-36.638293
31
0
39
0
210
0
220
0
230
1
0
LINE
5
11A
100
AcDbEntity
8
1
62
256
6
ByLayer
370
13
48
1
60
0
100
AcDbLine
10
12.346184
20
-35.843927
30
0
11
11.823963
21
-35.843927
31
0
39
0
210
0
220
0
230
1
0
LINE
5
11B
100
AcDbEntity
8
1
62
256
6
ByLayer
370
13
48
1
60
0
100
AcDbLine
10
4.176037
20
-35.843927
30
0
11
3.653816
21
-35.843927
31
0
39
0
210
0
220
0
230
1
0
LINE
5
11C
100
AcDbEntity
8
1
62
256
6
ByLayer
370
13
48
1
60
0
100
AcDbLine
10
3.852165
20
-35.477234
30
0
11
3.38147
21
-35.477234
31
0
39
0
210
0
220
0
230
1
0
LINE
5
11D
100
AcDbEntity
8
1
62
256
6
ByLayer
370
13
48
1
60
0
100
AcDbLine
10
12.61853
20
-35.477234
30
0
11
12.147431
21
-35.477234
31
0
39
0
210
0
220
0
230
1
0
LINE
5
11E
100
AcDbEntity
8
1
62
256
6
ByLayer
370
13
48
1
60
0
100
AcDbLine
10
12.450481
20
-35.698705
30
0
11
11.93798
21
-35.698705
31
0
39
0
210
0
220
0
230
1
0
LINE
5
11F
100
AcDbEntity
8
1
62
256
6
ByLayer
370
13
48
1
60
0
100
AcDbLine
10
4.068418
20
-35.698705
30
0
11
3.549519
21
-35.698705
31
0
39
0
210
0
220
0
230
1
0
LINE
5
120
100
AcDbEntity
8
1
62
256
6
ByLayer
370
13
48
1
60
0
100
AcDbLine
10
12.704996
20
-35.372098
30
0
11
12.303284
21
-35.372098
31
0
39
0
210
0
220
0
230
1
0
LINE
5
121
100
AcDbEntity
8
1
62
256
6
ByLayer
370
13
48
1
60
0
100
AcDbLine
10
3.696716
20
-35.372098
30
0
11
3.295004
21
-35.372098
31
0
39
0
210
0
220
0
230
1
0
LINE
5
122
100
AcDbEntity
8
1
62
256
6
ByLayer
370
13
48
1
60
0
100
AcDbLine
10
12.914809
20
-35.192847
30
0
11
12.574819
21
-35.192847
31
0
39
0
210
0
220
0
230
1
0
LINE
5
123
100
AcDbEntity
8
1
62
256
6
ByLayer
370
13
48
1
60
0
100
AcDbLine
10
3.42492
20
-35.192847
30
0
11
3.085191
21
-35.192847
31
0
39
0
210
0
220
0
230
1
0
LINE
5
124
100
AcDbEntity
8
1
62
256
6
ByLayer
370
13
48
1
60
0
100
AcDbLine
10
3.027345
20
-34.398481
30
0
11
2.796003
21
-34.398481
31
0
39
0
210
0
220
0
230
1
0
LINE
5
125
100
AcDbEntity
8
1
62
256
6
ByLayer
370
13
48
1
60
0
100
AcDbLine
10
13.248794
20
-34.253259
30
0
11
13.019454
21
-34.253259
31
0
39
0
210
0
220
0
230
1
0
LINE
5
126
100
AcDbEntity
8
1
62
256
6
ByLayer
370
18
48
1
60
0
100
AcDbLine
10
7.5
20
-37.724715
30
0
11
8.5
21
-37.724715
31
0
39
0
210
0
220
0
230
1
0
LINE
5
127
100
AcDbEntity
8
1
62
256
6
ByLayer
370
13
48
1
60
0
100
AcDbLine
10
13.203997
20
-34.398481
30
0
11
12.972655
21
-34.398481
31
0
39
0
210
0
220
0
230
1
0
LINE
5
128
100
AcDbEntity
8
1
62
256
6
ByLayer
370
13
48
1
60
0
100
AcDbLine
10
13.318459
20
-34.031789
30
0
11
13.115944
21
-34.031789
31
0
39
0
210
0
220
0
230
1
0
LINE
5
129
100
AcDbEntity
8
1
62
256
6
ByLayer
370
13
48
1
60
0
100
AcDbLine
10
2.883903
20
-34.031789
30
0
11
2.681541
21
-34.031789
31
0
39
0
210
0
220
0
230
1
0
LINE
5
12A
100
AcDbEntity
8
1
62
256
6
ByLayer
370
13
48
1
60
0
100
AcDbLine
10
3.228351
20
-34.909108
30
0
11
2.940821
21
-34.909108
31
0
39
0
210
0
220
0
230
1
0
LINE
5
12B
100
AcDbEntity
8
1
62
256
6
ByLayer
370
13
48
1
60
0
100
AcDbLine
10
2.980546
20
-34.253259
30
0
11
2.751206
21
-34.253259
31
0
39
0
210
0
220
0
230
1
0
LINE
5
12C
100
AcDbEntity
8
1
62
256
6
ByLayer
370
13
48
1
60
0
100
AcDbLine
10
13.352581
20
-33.926652
30
0
11
13.18565
21
-33.926652
31
0
39
0
210
0
220
0
230
1
0
LINE
5
12D
100
AcDbEntity
8
1
62
256
6
ByLayer
370
13
48
1
60
0
100
AcDbLine
10
2.81435
20
-33.926652
30
0
11
2.647419
21
-33.926652
31
0
39
0
210
0
220
0
230
1
0
LINE
5
12E
100
AcDbEntity
8
1
62
256
6
ByLayer
370
13
48
1
60
0
100
AcDbLine
10
2.726949
20
-33.747402
30
0
11
2.572302
21
-33.747402
31
0
39
0
210
0
220
0
230
1
0
LINE
5
12F
100
AcDbEntity
8
1
62
256
6
ByLayer
370
13
48
1
60
0
100
AcDbLine
10
13.427698
20
-33.747402
30
0
11
13.273884
21
-33.747402
31
0
39
0
210
0
220
0
230
1
0
LINE
5
130
100
AcDbEntity
8
1
62
256
6
ByLayer
370
13
48
1
60
0
100
AcDbLine
10
2.546429
20
-32.807814
30
0
11
2.500421
21
-32.807814
31
0
39
0
210
0
220
0
230
1
0
LINE
5
131
100
AcDbEntity
8
1
62
256
6
ByLayer
370
13
48
1
60
0
100
AcDbLine
10
2.566849
20
-32.953036
30
0
11
2.503797
21
-32.953036
31
0
39
0
210
0
220
0
230
1
0
LINE
5
132
100
AcDbEntity
8
1
62
256
6
ByLayer
370
13
48
1
60
0
100
AcDbLine
10
13.496203
20
-32.953036
30
0
11
13.433924
21
-32.953036
31
0
39
0
210
0
220
0
230
1
0
LINE
5
133
100
AcDbEntity
8
1
62
256
6
ByLayer
370
13
48
1
60
0
100
AcDbLine
10
13.499579
20
-32.807814
30
0
11
13.455762
21
-32.807814
31
0
39
0
210
0
220
0
230
1
0
LINE
5
134
100
AcDbEntity
8
1
62
256
6
ByLayer
370
13
48
1
60
0
100
AcDbLine
10
2.521857
20
-32.586343
30
0
11
2.5
21
-32.586343
31
0
39
0
210
0
220
0
230
1
0
LINE
5
135
100
AcDbEntity
8
1
62
256
6
ByLayer
370
13
48
1
60
0
100
AcDbLine
10
2.659168
20
-33.463662
30
0
11
2.53065
21
-33.463662
31
0
39
0
210
0
220
0
230
1
0
LINE
5
136
100
AcDbEntity
8
1
62
256
6
ByLayer
370
13
48
1
60
0
100
AcDbLine
10
13.46935
20
-33.463662
30
0
11
13.339501
21
-33.463662
31
0
39
0
210
0
220
0
230
1
0
LINE
5
137
100
AcDbEntity
8
1
62
256
6
ByLayer
370
18
48
1
60
0
100
AcDbLine
10
7.5
20
-39.511114
30
0
11
8.5
21
-39.511114
31
0
39
0
210
0
220
0
230
1
0
LINE
5
138
100
AcDbEntity
8
1
62
256
6
ByLayer
370
13
48
1
60
0
100
AcDbLine
10
13.059179
20
-34.909108
30
0
11
12.767712
21
-34.909108
31
0
39
0
210
0
220
0
230
1
0
LINE
5
139
100
AcDbEntity
8
1
62
256
6
ByLayer
370
18
48
1
60
0
100
AcDbLine
10
13.5
20
-32.74526
30
0
11
13.5
21
-32.586343
31
0
39
0
210
0
220
0
230
1
0
LINE
5
13A
100
AcDbEntity
8
1
62
256
6
ByLayer
370
18
48
1
60
0
100
AcDbLine
10
2.5
20
-32.74526
30
0
11
2.5
21
-32.586343
31
0
39
0
210
0
220
0
230
1
0
LINE
5
13B
100
AcDbEntity
8
1
62
256
6
ByLayer
370
18
48
1
60
0
100
AcDbLine
10
2.5
20
-32.481207
30
0
11
2.5
21
-32.586343
31
0
39
0
210
0
220
0
230
1
0
LINE
5
13C
100
AcDbEntity
8
1
62
256
6
ByLayer
370
18
48
1
60
0
100
AcDbLine
10
13.5
20
-32.481207
30
0
11
13.5
21
-32.586343
31
0
39
0
210
0
220
0
230
1
0
LINE
5
13D
100
AcDbEntity
8
1
62
256
6
ByLayer
370
18
48
1
60
0
100
AcDbLine
10
2.5
20
-32.301956
30
0
11
2.5
21
-32.481207
31
0
39
0
210
0
220
0
230
1
0
LINE
5
13E
100
AcDbEntity
8
1
62
256
6
ByLayer
370
18
48
1
60
0
100
AcDbLine
10
13.5
20
-32.301956
30
0
11
13.5
21
-32.481207
31
0
39
0
210
0
220
0
230
1
0
LINE
5
13F
100
AcDbEntity
8
1
62
256
6
ByLayer
370
18
48
1
60
0
100
AcDbLine
10
13.5
20
13.684351
30
0
11
13.5
21
14.873448
31
0
39
0
210
0
220
0
230
1
0
LINE
5
140
100
AcDbEntity
8
1
62
256
6
ByLayer
370
18
48
1
60
0
100
AcDbLine
10
2.525
20
13.542935
30
0
11
2.525
21
13.71263
31
0
39
0
210
0
220
0
230
1
0
LINE
5
141
100
AcDbEntity
8
1
62
256
6
ByLayer
370
18
48
1
60
0
100
AcDbLine
10
13.474997
20
13.684351
30
0
11
13.5
21
13.684351
31
0
39
0
210
0
220
0
230
1
0
LINE
5
142
100
AcDbEntity
8
1
62
256
6
ByLayer
370
13
48
1
60
0
100
AcDbLine
10
13.496203
20
25.419747
30
0
11
13.430995
21
25.419747
31
0
39
0
210
0
220
0
230
1
0
LINE
5
143
100
AcDbEntity
8
1
62
256
6
ByLayer
370
18
48
1
60
0
100
AcDbLine
10
13.475
20
13.542935
30
0
11
13.475
21
13.71263
31
0
39
0
210
0
220
0
230
1
0
LINE
5
144
100
AcDbEntity
8
1
62
256
6
ByLayer
370
18
48
1
60
0
100
AcDbLine
10
7.133975
20
-20.796181
30
0
11
6.831109
21
-20.435085
31
0
39
0
210
0
220
0
230
1
0
LINE
5
145
100
AcDbEntity
8
1
62
256
6
ByLayer
370
18
48
1
60
0
100
AcDbLine
10
7.133975
20
-20.796181
30
0
11
8.866025
21
-20.796181
31
0
39
0
210
0
220
0
230
1
0
LINE
5
146
100
AcDbEntity
8
1
62
256
6
ByLayer
370
18
48
1
60
0
100
AcDbLine
10
8.866025
20
-20.796181
30
0
11
9.168891
21
-20.435085
31
0
39
0
210
0
220
0
230
1
0
LINE
5
147
100
AcDbEntity
8
1
62
256
6
ByLayer
370
18
48
1
60
0
100
AcDbLine
10
7.916778
20
16.7839
30
0
11
7.916778
21
17.734649
31
0
39
0
210
0
220
0
230
1
0
LINE
5
148
100
AcDbEntity
8
1
62
256
6
ByLayer
370
18
48
1
60
0
100
AcDbLine
10
2.937473
20
-36.531522
30
0
11
2.937473
21
-36.510372
31
0
39
0
210
0
220
0
230
1
0
LINE
5
149
100
AcDbEntity
8
1
62
256
6
ByLayer
370
18
48
1
60
0
100
AcDbLine
10
12.939702
20
-36.827133
30
0
11
12.874892
21
-36.891743
31
0
39
0
210
0
220
0
230
1
0
LINE
5
14A
100
AcDbEntity
8
1
62
256
6
ByLayer
370
18
48
1
60
0
100
AcDbLine
10
10.839294
20
-38.921066
30
0
11
10.219792
21
-39.538659
31
0
39
0
210
0
220
0
230
1
0
LINE
5
14B
100
AcDbEntity
8
1
62
256
6
ByLayer
370
18
48
1
60
0
100
AcDbLine
10
9.923267
20
-39.661105
30
0
11
6.076733
21
-39.661105
31
0
39
0
210
0
220
0
230
1
0
LINE
5
14C
100
AcDbEntity
8
1
62
256
6
ByLayer
370
18
48
1
60
0
100
AcDbLine
10
13.062527
20
-36.510372
30
0
11
13.062527
21
-36.531522
31
0
39
0
210
0
220
0
230
1
0
LINE
5
14D
100
AcDbEntity
8
1
62
256
6
ByLayer
370
18
48
1
60
0
100
AcDbLine
10
7.133975
20
10.869056
30
0
11
7.133975
21
10.402165
31
0
39
0
210
0
220
0
230
1
0
LINE
5
14E
100
AcDbEntity
8
1
62
256
6
ByLayer
370
18
48
1
60
0
100
AcDbLine
10
7.133975
20
10.402165
30
0
11
8.866025
21
10.402165
31
0
39
0
210
0
220
0
230
1
0
LINE
5
14F
100
AcDbEntity
8
1
62
256
6
ByLayer
370
18
48
1
60
0
100
AcDbLine
10
2.5
20
4.469385
30
0
11
13.5
21
4.469385
31
0
39
0
210
0
220
0
230
1
0
LINE
5
150
100
AcDbEntity
8
1
62
256
6
ByLayer
370
13
48
1
60
0
100
AcDbLine
10
7.5
20
1.341108
30
0
11
7.5
21
-8.354756
31
0
39
0
210
0
220
0
230
1
0
LINE
5
151
100
AcDbEntity
8
1
62
256
6
ByLayer
370
18
48
1
60
0
100
AcDbLine
10
13.5
20
2.94397
30
0
11
13.5
21
4.469385
31
0
39
0
210
0
220
0
230
1
0
LINE
5
152
100
AcDbEntity
8
1
62
256
6
ByLayer
370
18
48
1
60
0
100
AcDbLine
10
7.5
20
1.341108
30
0
11
8.5
21
1.341108
31
0
39
0
210
0
220
0
230
1
0
LINE
5
153
100
AcDbEntity
8
1
62
256
6
ByLayer
370
18
48
1
60
0
100
AcDbLine
10
2.5
20
4.469385
30
0
11
2.5
21
2.94397
31
0
39
0
210
0
220
0
230
1
0
LINE
5
154
100
AcDbEntity
8
1
62
256
6
ByLayer
370
13
48
1
60
0
100
AcDbLine
10
8.5
20
-8.354756
30
0
11
8.5
21
1.341108
31
0
39
0
210
0
220
0
230
1
0
LINE
5
155
100
AcDbEntity
8
1
62
256
6
ByLayer
370
18
48
1
60
0
100
AcDbLine
10
2.5
20
-6.984166
30
0
11
2.5
21
2.94397
31
0
39
0
210
0
220
0
230
1
0
LINE
5
156
100
AcDbEntity
8
1
62
256
6
ByLayer
370
18
48
1
60
0
100
AcDbLine
10
13.5
20
2.94397
30
0
11
13.5
21
-6.984166
31
0
39
0
210
0
220
0
230
1
0
LINE
5
157
100
AcDbEntity
8
1
62
256
6
ByLayer
370
13
48
1
60
0
100
AcDbLine
10
9.757657
20
-8.397193
30
0
11
6.242343
21
-8.397193
31
0
39
0
210
0
220
0
230
1
0
LINE
5
158
100
AcDbEntity
8
1
62
256
6
ByLayer
370
13
48
1
60
0
100
AcDbLine
10
12.220672
20
-8.021623
30
0
11
11.993943
21
-8.021623
31
0
39
0
210
0
220
0
230
1
0
LINE
5
159
100
AcDbEntity
8
1
62
256
6
ByLayer
370
13
48
1
60
0
100
AcDbLine
10
4.001704
20
-8.021623
30
0
11
3.779328
21
-8.021623
31
0
39
0
210
0
220
0
230
1
0
LINE
5
15A
100
AcDbEntity
8
1
62
256
6
ByLayer
370
13
48
1
60
0
100
AcDbLine
10
13.148682
20
-7.646053
30
0
11
13.049409
21
-7.646053
31
0
39
0
210
0
220
0
230
1
0
LINE
5
15B
100
AcDbEntity
8
1
62
256
6
ByLayer
370
13
48
1
60
0
100
AcDbLine
10
2.951074
20
-7.646053
30
0
11
2.851318
21
-7.646053
31
0
39
0
210
0
220
0
230
1
0
LINE
5
15C
100
AcDbEntity
8
1
62
256
6
ByLayer
370
18
48
1
60
0
100
AcDbLine
10
8.5
20
-8.354756
30
0
11
7.5
21
-8.354756
31
0
39
0
210
0
220
0
230
1
0
LINE
5
15D
100
AcDbEntity
8
1
62
256
6
ByLayer
370
18
48
1
60
0
100
AcDbLine
10
2.5
20
4.723951
30
0
11
2.525094
21
4.723951
31
0
39
0
210
0
220
0
230
1
0
LINE
5
15E
100
AcDbEntity
8
1
62
256
6
ByLayer
370
18
48
1
60
0
100
AcDbLine
10
13.474906
20
4.723951
30
0
11
13.5
21
4.723951
31
0
39
0
210
0
220
0
230
1
0
LINE
5
15F
100
AcDbEntity
8
1
62
256
6
ByLayer
370
18
48
1
60
0
100
AcDbLine
10
2.5
20
4.723951
30
0
11
2.5
21
4.469385
31
0
39
0
210
0
220
0
230
1
0
LINE
5
160
100
AcDbEntity
8
1
62
256
6
ByLayer
370
18
48
1
60
0
100
AcDbLine
10
13.5
20
4.469385
30
0
11
13.5
21
4.723951
31
0
39
0
210
0
220
0
230
1
0
LINE
5
161
100
AcDbEntity
8
1
62
256
6
ByLayer
370
18
48
1
60
0
100
AcDbLine
10
13.5
20
30.637007
30
0
11
13.5
21
25.333375
31
0
39
0
210
0
220
0
230
1
0
LINE
5
162
100
AcDbEntity
8
1
62
256
6
ByLayer
370
13
48
1
60
0
100
AcDbLine
10
8.5
20
28.640864
30
0
11
8.5
21
34.256854
31
0
39
0
210
0
220
0
230
1
0
LINE
5
163
100
AcDbEntity
8
1
62
256
6
ByLayer
370
13
48
1
60
0
100
AcDbLine
10
7.5
20
34.256854
30
0
11
7.5
21
28.640864
31
0
39
0
210
0
220
0
230
1
0
LINE
5
164
100
AcDbEntity
8
1
62
256
6
ByLayer
370
18
48
1
60
0
100
AcDbLine
10
2.5
20
25.333375
30
0
11
2.5
21
30.637007
31
0
39
0
210
0
220
0
230
1
0
LINE
5
165
100
AcDbEntity
8
1
62
256
6
ByLayer
370
18
48
1
60
0
100
AcDbLine
10
8.5
20
28.640864
30
0
11
7.5
21
28.640864
31
0
39
0
210
0
220
0
230
1
0
LINE
5
166
100
AcDbEntity
8
1
62
256
6
ByLayer
370
18
48
1
60
0
100
AcDbLine
10
7.5
20
34.256854
30
0
11
8.5
21
34.256854
31
0
39
0
210
0
220
0
230
1
0
LINE
5
167
100
AcDbEntity
8
1
62
256
6
ByLayer
370
18
48
1
60
0
100
AcDbLine
10
0.5
20
-19.5
30
0
11
0.5
21
19.5
31
0
39
0
210
0
220
0
230
1
0
LINE
5
168
100
AcDbEntity
8
1
62
256
6
ByLayer
370
13
48
1
60
0
100
AcDbLine
10
13.9
20
-3.861512
30
0
11
13.9
21
-3.435408
31
0
39
0
210
0
220
0
230
1
0
LINE
5
169
100
AcDbEntity
8
1
62
256
6
ByLayer
370
13
48
1
60
0
100
AcDbLine
10
2.1
20
-3.435408
30
0
11
2.1
21
-3.861512
31
0
39
0
210
0
220
0
230
1
0
LINE
5
16A
100
AcDbEntity
8
1
62
256
6
ByLayer
370
13
48
1
60
0
100
AcDbLine
10
2.1
20
-3.861512
30
0
11
2.499998
21
-4.880611
31
0
39
0
210
0
220
0
230
1
0
LINE
5
16B
100
AcDbEntity
8
1
62
256
6
ByLayer
370
13
48
1
60
0
100
AcDbLine
10
13.500002
20
-4.880611
30
0
11
13.9
21
-3.861512
31
0
39
0
210
0
220
0
230
1
0
LINE
5
16C
100
AcDbEntity
8
1
62
256
6
ByLayer
370
18
48
1
60
0
100
AcDbLine
10
15.5
20
19.5
30
0
11
15.5
21
-19.5
31
0
39
0
210
0
220
0
230
1
0
LINE
5
16D
100
AcDbEntity
8
1
62
256
6
ByLayer
370
13
48
1
60
0
100
AcDbLine
10
7.5
20
-32.915746
30
0
11
7.5
21
-36.99562
31
0
39
0
210
0
220
0
230
1
0
LINE
5
16E
100
AcDbEntity
8
1
62
256
6
ByLayer
370
18
48
1
60
0
100
AcDbLine
10
7.5
20
-32.915746
30
0
11
8.5
21
-32.915746
31
0
39
0
210
0
220
0
230
1
0
LINE
5
16F
100
AcDbEntity
8
1
62
256
6
ByLayer
370
18
48
1
60
0
100
AcDbLine
10
2.5
20
-24.900289
30
0
11
2.5
21
-27.693037
31
0
39
0
210
0
220
0
230
1
0
LINE
5
170
100
AcDbEntity
8
1
62
256
6
ByLayer
370
18
48
1
60
0
100
AcDbLine
10
2.5
20
-24.900289
30
0
11
13.5
21
-24.900289
31
0
39
0
210
0
220
0
230
1
0
LINE
5
171
100
AcDbEntity
8
1
62
256
6
ByLayer
370
18
48
1
60
0
100
AcDbLine
10
13.5
20
-27.693037
30
0
11
13.5
21
-24.900289
31
0
39
0
210
0
220
0
230
1
0
LINE
5
172
100
AcDbEntity
8
1
62
256
6
ByLayer
370
18
48
1
60
0
100
AcDbLine
10
2.5
20
-32.136713
30
0
11
2.5
21
-27.693037
31
0
39
0
210
0
220
0
230
1
0
LINE
5
173
100
AcDbEntity
8
1
62
256
6
ByLayer
370
18
48
1
60
0
100
AcDbLine
10
13.5
20
-27.693037
30
0
11
13.5
21
-32.136713
31
0
39
0
210
0
220
0
230
1
0
LINE
5
174
100
AcDbEntity
8
1
62
256
6
ByLayer
370
13
48
1
60
0
100
AcDbLine
10
8.5
20
-36.99562
30
0
11
8.5
21
-32.915746
31
0
39
0
210
0
220
0
230
1
0
LINE
5
175
100
AcDbEntity
8
1
62
256
6
ByLayer
370
18
48
1
60
0
100
AcDbLine
10
2.201252
20
13.026499
30
0
11
2.500052
21
13.026499
31
0
39
0
210
0
220
0
230
1
0
LINE
5
176
100
AcDbEntity
8
1
62
256
6
ByLayer
370
18
48
1
60
0
100
AcDbLine
10
13.499948
20
13.026499
30
0
11
13.798748
21
13.026499
31
0
39
0
210
0
220
0
230
1
0
LINE
5
177
100
AcDbEntity
8
1
62
256
6
ByLayer
370
18
48
1
60
0
100
AcDbLine
10
13.499948
20
-7.973039
30
0
11
13.798748
21
-7.973039
31
0
39
0
210
0
220
0
230
1
0
LINE
5
178
100
AcDbEntity
8
1
62
256
6
ByLayer
370
18
48
1
60
0
100
AcDbLine
10
2.5
20
-23.950236
30
0
11
2.525094
21
-23.950236
31
0
39
0
210
0
220
0
230
1
0
LINE
5
179
100
AcDbEntity
8
1
62
256
6
ByLayer
370
18
48
1
60
0
100
AcDbLine
10
13.474906
20
-23.950236
30
0
11
13.5
21
-23.950236
31
0
39
0
210
0
220
0
230
1
0
LINE
5
17A
100
AcDbEntity
8
1
62
256
6
ByLayer
370
18
48
1
60
0
100
AcDbLine
10
8.5
20
-36.99562
30
0
11
7.5
21
-36.99562
31
0
39
0
210
0
220
0
230
1
0
LINE
5
17B
100
AcDbEntity
8
1
62
256
6
ByLayer
370
18
48
1
60
0
100
AcDbLine
10
0.692723
20
-15.098312
30
0
11
2.40902
21
-15.098312
31
0
39
0
210
0
220
0
230
1
0
LINE
5
17C
100
AcDbEntity
8
1
62
256
6
ByLayer
370
18
48
1
60
0
100
AcDbLine
10
13.59098
20
-15.098312
30
0
11
15.307277
21
-15.098312
31
0
39
0
210
0
220
0
230
1
0
LINE
5
17D
100
AcDbEntity
8
1
62
256
6
ByLayer
370
18
48
1
60
0
100
AcDbLine
10
16
20
19.1
30
0
11
16
21
-19.1
31
0
39
0
210
0
220
0
230
1
0
LINE
5
17E
100
AcDbEntity
8
1
62
256
6
ByLayer
370
18
48
1
60
0
100
AcDbLine
10
15.6
20
19.5
30
0
11
15.6
21
-19.5
31
0
39
0
210
0
220
0
230
1
0
LINE
5
17F
100
AcDbEntity
8
1
62
256
6
ByLayer
370
18
48
1
60
0
100
AcDbLine
10
13.5
20
-24.900289
30
0
11
13.5
21
-23.950236
31
0
39
0
210
0
220
0
230
1
0
LINE
5
180
100
AcDbEntity
8
1
62
256
6
ByLayer
370
18
48
1
60
0
100
AcDbLine
10
2.5
20
-23.950236
30
0
11
2.5
21
-24.900289
31
0
39
0
210
0
220
0
230
1
0
LINE
5
181
100
AcDbEntity
8
1
62
256
6
ByLayer
370
18
48
1
60
0
100
AcDbLine
10
0.4
20
19.5
30
0
11
0.4
21
-19.5
31
0
39
0
210
0
220
0
230
1
0
LINE
5
182
100
AcDbEntity
8
1
62
256
6
ByLayer
370
18
48
1
60
0
100
AcDbLine
10
2.201252
20
-7.973039
30
0
11
2.500052
21
-7.973039
31
0
39
0
210
0
220
0
230
1
0
LINE
5
183
100
AcDbEntity
8
1
62
256
6
ByLayer
370
18
48
1
60
0
100
AcDbLine
10
0.692723
20
3.399964
30
0
11
1.246021
21
3.399964
31
0
39
0
210
0
220
0
230
1
0
LINE
5
184
100
AcDbEntity
8
1
62
256
6
ByLayer
370
18
48
1
60
0
100
AcDbLine
10
14.753979
20
3.399964
30
0
11
15.307277
21
3.399964
31
0
39
0
210
0
220
0
230
1
0
LINE
5
185
100
AcDbEntity
8
1
62
256
6
ByLayer
370
13
48
1
60
0
100
AcDbLine
10
2.1
20
16.311605
30
0
11
2.1
21
16.003118
31
0
39
0
210
0
220
0
230
1
0
LINE
5
186
100
AcDbEntity
8
1
62
256
6
ByLayer
370
13
48
1
60
0
100
AcDbLine
10
2.1
20
16.003118
30
0
11
2.499998
21
15.265322
31
0
39
0
210
0
220
0
230
1
0
LINE
5
187
100
AcDbEntity
8
1
62
256
6
ByLayer
370
13
48
1
60
0
100
AcDbLine
10
13.500002
20
15.265322
30
0
11
13.9
21
16.003118
31
0
39
0
210
0
220
0
230
1
0
LINE
5
188
100
AcDbEntity
8
1
62
256
6
ByLayer
370
13
48
1
60
0
100
AcDbLine
10
13.9
20
16.003118
30
0
11
13.9
21
16.311605
31
0
39
0
210
0
220
0
230
1
0
LINE
5
189
100
AcDbEntity
8
1
62
256
6
ByLayer
370
18
48
1
60
0
100
AcDbLine
10
0
20
19.1
30
0
11
0
21
-19.1
31
0
39
0
210
0
220
0
230
1
0
LINE
5
18A
100
AcDbEntity
8
1
62
256
6
ByLayer
370
18
48
1
60
0
100
AcDbLine
10
2.107043
20
-16.191058
30
0
11
2.222877
21
-16.191058
31
0
39
0
210
0
220
0
230
1
0
LINE
5
18B
100
AcDbEntity
8
1
62
256
6
ByLayer
370
18
48
1
60
0
100
AcDbLine
10
13.777123
20
-16.191058
30
0
11
13.892957
21
-16.191058
31
0
39
0
210
0
220
0
230
1
0
LINE
5
18C
100
AcDbEntity
8
1
62
256
6
ByLayer
370
13
48
1
60
0
100
AcDbLine
10
13.9
20
-19.864631
30
0
11
13.9
21
-19.747013
31
0
39
0
210
0
220
0
230
1
0
LINE
5
18D
100
AcDbEntity
8
1
62
256
6
ByLayer
370
18
48
1
60
0
100
AcDbLine
10
13.5
20
-23.950236
30
0
11
13.5
21
-18.93394
31
0
39
0
210
0
220
0
230
1
0
LINE
5
18E
100
AcDbEntity
8
1
62
256
6
ByLayer
370
18
48
1
60
0
100
AcDbLine
10
2.5
20
-18.93394
30
0
11
2.5
21
-23.950236
31
0
39
0
210
0
220
0
230
1
0
LINE
5
18F
100
AcDbEntity
8
1
62
256
6
ByLayer
370
13
48
1
60
0
100
AcDbLine
10
2.1
20
-19.747013
30
0
11
2.1
21
-19.864631
31
0
39
0
210
0
220
0
230
1
0
LINE
5
190
100
AcDbEntity
8
1
62
256
6
ByLayer
370
13
48
1
60
0
100
AcDbLine
10
13.51195
20
-20.13753
30
0
11
13.9
21
-19.864631
31
0
39
0
210
0
220
0
230
1
0
LINE
5
191
100
AcDbEntity
8
1
62
256
6
ByLayer
370
13
48
1
60
0
100
AcDbLine
10
2.1
20
-19.864631
30
0
11
2.48805
21
-20.13753
31
0
39
0
210
0
220
0
230
1
0
LINE
5
192
100
AcDbEntity
8
1
62
256
6
ByLayer
370
18
48
1
60
0
100
AcDbLine
10
15.142997
20
-15.310436
30
0
11
13.633815
21
-15.310436
31
0
39
0
210
0
220
0
230
1
0
LINE
5
193
100
AcDbEntity
8
1
62
256
6
ByLayer
370
18
48
1
60
0
100
AcDbLine
10
2.366185
20
-15.310436
30
0
11
0.857003
21
-15.310436
31
0
39
0
210
0
220
0
230
1
0
LINE
5
194
100
AcDbEntity
8
1
62
256
6
ByLayer
370
18
48
1
60
0
100
AcDbLine
10
13.499948
20
-20.999538
30
0
11
13.798748
21
-20.999538
31
0
39
0
210
0
220
0
230
1
0
LINE
5
195
100
AcDbEntity
8
1
62
256
6
ByLayer
370
18
48
1
60
0
100
AcDbLine
10
2.5
20
20.24689
30
0
11
2.5
21
20.906171
31
0
39
0
210
0
220
0
230
1
0
LINE
5
196
100
AcDbEntity
8
1
62
256
6
ByLayer
370
18
48
1
60
0
100
AcDbLine
10
2.201252
20
-20.999538
30
0
11
2.500052
21
-20.999538
31
0
39
0
210
0
220
0
230
1
0
LINE
5
197
100
AcDbEntity
8
1
62
256
6
ByLayer
370
18
48
1
60
0
100
AcDbLine
10
13.475
20
-24.231379
30
0
11
2.525
21
-24.231379
31
0
39
0
210
0
220
0
230
1
0
LINE
5
198
100
AcDbEntity
8
1
62
256
6
ByLayer
370
13
48
1
60
0
100
AcDbLine
10
8.5
20
23.876496
30
0
11
8.5
21
28.476552
31
0
39
0
210
0
220
0
230
1
0
LINE
5
199
100
AcDbEntity
8
1
62
256
6
ByLayer
370
18
48
1
60
0
100
AcDbLine
10
13.5
20
20.24689
30
0
11
13.5
21
20.906171
31
0
39
0
210
0
220
0
230
1
0
LINE
5
19A
100
AcDbEntity
8
1
62
256
6
ByLayer
370
18
48
1
60
0
100
AcDbLine
10
13.468762
20
25.238276
30
0
11
13.46935
21
25.240497
31
0
39
0
210
0
220
0
230
1
0
LINE
5
19B
100
AcDbEntity
8
1
62
256
6
ByLayer
370
18
48
1
60
0
100
AcDbLine
10
13.496203
20
25.419747
30
0
11
13.497045
21
25.424525
31
0
39
0
210
0
220
0
230
1
0
LINE
5
19C
100
AcDbEntity
8
1
62
256
6
ByLayer
370
18
48
1
60
0
100
AcDbLine
10
13.5
20
25.333361
30
0
11
13.5
21
20.906171
31
0
39
0
210
0
220
0
230
1
0
LINE
5
19D
100
AcDbEntity
8
1
62
256
6
ByLayer
370
18
48
1
60
0
100
AcDbLine
10
2.5
20
20.906171
30
0
11
2.5
21
25.333361
31
0
39
0
210
0
220
0
230
1
0
LINE
5
19E
100
AcDbEntity
8
1
62
256
6
ByLayer
370
18
48
1
60
0
100
AcDbLine
10
2.502958
20
25.424525
30
0
11
2.503797
21
25.419747
31
0
39
0
210
0
220
0
230
1
0
LINE
5
19F
100
AcDbEntity
8
1
62
256
6
ByLayer
370
13
48
1
60
0
100
AcDbLine
10
7.5
20
28.476552
30
0
11
7.5
21
23.876496
31
0
39
0
210
0
220
0
230
1
0
LINE
5
1A0
100
AcDbEntity
8
1
62
256
6
ByLayer
370
18
48
1
60
0
100
AcDbLine
10
13.5
20
15.727936
30
0
11
13.5
21
14.873448
31
0
39
0
210
0
220
0
230
1
0
LINE
5
1A1
100
AcDbEntity
8
1
62
256
6
ByLayer
370
18
48
1
60
0
100
AcDbLine
10
2.5
20
15.727936
30
0
11
2.5
21
14.873448
31
0
39
0
210
0
220
0
230
1
0
LINE
5
1A2
100
AcDbEntity
8
1
62
256
6
ByLayer
370
18
48
1
60
0
100
AcDbLine
10
7.5
20
28.476552
30
0
11
8.5
21
28.476552
31
0
39
0
210
0
220
0
230
1
0
LINE
5
1A3
100
AcDbEntity
8
1
62
256
6
ByLayer
370
18
48
1
60
0
100
AcDbLine
10
2.5
20
13.684351
30
0
11
2.525003
21
13.684351
31
0
39
0
210
0
220
0
230
1
0
LINE
5
1A4
100
AcDbEntity
8
1
62
256
6
ByLayer
370
18
48
1
60
0
100
AcDbLine
10
2.5
20
13.684351
30
0
11
2.5
21
14.873448
31
0
39
0
210
0
220
0
230
1
0
LINE
5
1A5
100
AcDbEntity
8
1
62
256
6
ByLayer
370
13
48
1
60
0
100
AcDbLine
10
10.220081
20
28.629375
30
0
11
5.779919
21
28.629375
31
0
39
0
210
0
220
0
230
1
0
LINE
5
1A6
100
AcDbEntity
8
1
62
256
6
ByLayer
370
13
48
1
60
0
100
AcDbLine
10
12.018208
20
27.380248
30
0
11
11.963083
21
27.380248
31
0
39
0
210
0
220
0
230
1
0
LINE
5
1A7
100
AcDbEntity
8
1
62
256
6
ByLayer
370
13
48
1
60
0
100
AcDbLine
10
4.035034
20
27.380248
30
0
11
3.981792
21
27.380248
31
0
39
0
210
0
220
0
230
1
0
LINE
5
1A8
100
AcDbEntity
8
1
62
256
6
ByLayer
370
13
48
1
60
0
100
AcDbLine
10
12.346184
20
27.559499
30
0
11
11.822741
21
27.559499
31
0
39
0
210
0
220
0
230
1
0
LINE
5
1A9
100
AcDbEntity
8
1
62
256
6
ByLayer
370
13
48
1
60
0
100
AcDbLine
10
4.177259
20
27.559499
30
0
11
3.653816
21
27.559499
31
0
39
0
210
0
220
0
230
1
0
LINE
5
1AA
100
AcDbEntity
8
1
62
256
6
ByLayer
370
13
48
1
60
0
100
AcDbLine
10
13.059179
20
26.310373
30
0
11
13.043995
21
26.310373
31
0
39
0
210
0
220
0
230
1
0
LINE
5
1AB
100
AcDbEntity
8
1
62
256
6
ByLayer
370
13
48
1
60
0
100
AcDbLine
10
2.955239
20
26.310373
30
0
11
2.940821
21
26.310373
31
0
39
0
210
0
220
0
230
1
0
LINE
5
1AC
100
AcDbEntity
8
1
62
256
6
ByLayer
370
13
48
1
60
0
100
AcDbLine
10
13.203997
20
26.489623
30
0
11
12.972098
21
26.489623
31
0
39
0
210
0
220
0
230
1
0
LINE
5
1AD
100
AcDbEntity
8
1
62
256
6
ByLayer
370
13
48
1
60
0
100
AcDbLine
10
3.027902
20
26.489623
30
0
11
2.796003
21
26.489623
31
0
39
0
210
0
220
0
230
1
0
LINE
5
1AE
100
AcDbEntity
8
1
62
256
6
ByLayer
370
13
48
1
60
0
100
AcDbLine
10
2.569005
20
25.419747
30
0
11
2.503797
21
25.419747
31
0
39
0
210
0
220
0
230
1
0
LINE
5
1AF
100
AcDbEntity
8
1
62
256
6
ByLayer
370
18
48
1
60
0
100
AcDbLine
10
2.5
20
-32.136607
30
0
11
2.5
21
-32.301956
31
0
39
0
210
0
220
0
230
1
0
MTEXT
5
334
100
AcDbEntity
8
SK6
62
256
6
ByLayer
370
13
48
1
60
0
100
AcDbMText
10
-13.926316
20
-87.609577
30
0
210
0
220
0
230
1
1
\W0.7714;N331.32-082S27FMQ
40
3.5
41
0
44
1.084337
50
0
71
7
72
5
7
iso_b_vert
0
DIMENSION
5
343
100
AcDbEntity
8
2
62
256
6
ByLayer
370
13
48
1
60
0
100
AcDbDimension
2
DimnDraft3D1
10
49.35
20
-41
30
0
11
44.35
21
2.610526
31
0
70
33
71
5
72
1
41
1
210
0
220
0
230
1
3
Standard
100
AcDbAlignedDimension
13
15.5875
23
41
33
0
14
15.5875
24
-41
34
0
1001
ACAD
1000
DSTYLE
1002
{
1070
   279
1070
     0
1070
    74
1070
     0
1070
   173
1070
     1
1070
   340
1005
335
1070
   271
1070
     2
1070
   272
1070
     2
1070
    77
1070
     1
1070
    73
1070
     0
1070
   171
1070
     3
1070
   274
1070
     4
1070
   177
1070
     2
1070
   176
1070
     2
1070
   178
1070
     2
1070
    78
1070
     8
1070
    48
1040
-0.005
1070
    41
1041
3.5
1070
   147
1041
2.0
1070
    42
1041
1.5875
1070
    44
1041
2.0
1070
   140
1041
4.0
1070
   343
1005
0
1070
   344
1005
0
1002
}
0
DIMENSION
5
34F
100
AcDbEntity
8
SK2
62
256
6
ByLayer
370
13
48
1
60
0
100
AcDbDimension
2
DimnDraft3D2
10
-16.35
20
-13.5
30
0
11
-17.35
21
0.305263
31
0
70
33
71
5
72
1
41
1
210
0
220
0
230
1
3
Standard
100
AcDbAlignedDimension
13
-1.5875
23
13.5
33
0
14
-1.5875
24
-13.5
34
0
1001
ACAD
1000
DSTYLE
1002
{
1070
   279
1070
     0
1070
    74
1070
     0
1070
   173
1070
     1
1070
   340
1005
335
1070
   271
1070
     2
1070
   272
1070
     2
1070
    77
1070
     1
1070
    73
1070
     0
1070
   171
1070
     3
1070
   274
1070
     4
1070
   177
1070
     2
1070
   176
1070
     2
1070
   178
1070
     2
1070
    78
1070
     8
1070
    48
1040
-0.005
1070
    41
1041
3.5
1070
   147
1041
2.0
1070
    42
1041
1.5875
1070
    44
1041
2.0
1070
   140
1041
4.0
1070
   343
1005
0
1070
   344
1005
0
1002
}
0
DIMENSION
5
35A
100
AcDbEntity
8
SK2
62
256
6
ByLayer
370
13
48
1
60
0
100
AcDbDimension
2
DimnDraft3D3
10
-31.35
20
-19.5
30
0
11
-32.35
21
2.610526
31
0
70
33
71
5
72
1
41
1
210
0
220
0
230
1
3
Standard
100
AcDbAlignedDimension
13
-1.5875
23
19.5
33
0
14
-1.5875
24
-19.5
34
0
1001
ACAD
1000
DSTYLE
1002
{
1070
   279
1070
     0
1070
    74
1070
     0
1070
   173
1070
     1
1070
   340
1005
335
1070
   271
1070
     2
1070
   272
1070
     2
1070
    77
1070
     1
1070
    73
1070
     0
1070
   171
1070
     3
1070
   274
1070
     4
1070
   177
1070
     2
1070
   176
1070
     2
1070
   178
1070
     2
1070
    78
1070
     8
1070
    48
1040
-0.005
1070
    41
1041
3.5
1070
   147
1041
2.0
1070
    42
1041
1.5875
1070
    44
1041
2.0
1070
   140
1041
4.0
1070
   343
1005
0
1070
   344
1005
0
1002
}
0
DIMENSION
5
364
100
AcDbEntity
8
SK2
62
256
6
ByLayer
370
13
48
1
60
0
100
AcDbDimension
2
DimnDraft3D4
10
2
20
44
30
0
11
-3
21
44
31
0
70
32
71
5
72
1
41
1
210
0
220
0
230
1
3
Standard
100
AcDbAlignedDimension
13
14
23
42.5875
33
0
14
2
24
42.5875
34
0
50
0
100
AcDbRotatedDimension
1001
ACAD
1000
DSTYLE
1002
{
1070
   279
1070
     0
1070
   172
1070
     1
1070
   173
1070
     1
1070
   340
1005
335
1070
   271
1070
     2
1070
   272
1070
     2
1070
    77
1070
     1
1070
    73
1070
     0
1070
   171
1070
     3
1070
   274
1070
     4
1070
   177
1070
     2
1070
   176
1070
     2
1070
   178
1070
     2
1070
    78
1070
     8
1070
    48
1040
-0.005
1070
    41
1041
3.5
1070
   147
1041
2.0
1070
    42
1041
1.5875
1070
    44
1041
2.0
1070
   140
1041
4.0
1070
   343
1005
0
1070
   344
1005
0
1002
}
0
DIMENSION
5
36F
100
AcDbEntity
8
SK2
62
256
6
ByLayer
370
13
48
1
60
0
100
AcDbDimension
2
DimnDraft3D5
10
16
20
-55
30
0
11
-22
21
-55
31
0
70
32
71
5
72
1
41
1
210
0
220
0
230
1
3
Standard
100
AcDbAlignedDimension
13
0
23
-21.0875
33
0
14
16
24
-21.0875
34
0
50
0
100
AcDbRotatedDimension
1001
ACAD
1000
DSTYLE
1002
{
1070
   279
1070
     0
1070
   172
1070
     1
1070
   173
1070
     1
1070
   340
1005
335
1070
   271
1070
     2
1070
   272
1070
     2
1070
    77
1070
     1
1070
    73
1070
     0
1070
   171
1070
     3
1070
   274
1070
     4
1070
   177
1070
     2
1070
   176
1070
     2
1070
   178
1070
     2
1070
    78
1070
     8
1070
    48
1040
-0.005
1070
    41
1041
3.5
1070
   147
1041
2.0
1070
    42
1041
1.5875
1070
    44
1041
2.0
1070
   140
1041
4.0
1070
   343
1005
0
1070
   344
1005
0
1002
}
0
ENDSEC
0
SECTION
2
OBJECTS
0
DICTIONARY
5
3d9
330
0
100
AcDbDictionary
280
0
281
1
3
ACAD_GROUP
350
3da
3
ACAD_MLINESTYLE
350
3db
0
DICTIONARY
5
3da
330
0
100
AcDbDictionary
280
0
281
1
0
DICTIONARY
5
3db
330
0
100
AcDbDictionary
280
0
281
1
3
Standard
350
18
0
MLINESTYLE
5
18
330
3db
100
AcDbMlineStyle
2
Standard
70
0
3

62
256
51
90
52
90
71
2
49
-0.5
62
256
6
ByLayer
49
0.5
62
256
6
ByLayer
0
RASTERVARIABLES
5
3c8
330

100
AcDbRasterVariables
90
0
70
1
71
1
72
1
0
ENDSEC
0
EOF
