0
SECTION
2
HEADER
9
$ACADVER
1
AC1015
9
$DWGCODEPAGE
3
ANSI_1252
9
$HANDSEED
5
234
9
$ANGBASE
50
0
9
$ANGDIR
70
0
9
$ATTMODE
70
1
9
$AUNITS
70
0
9
$AUPREC
70
0
9
$CECOLOR
62
256
9
$CELTSCALE
40
1
9
$CELTYPE
6
ByLayer
9
$CELWEIGHT
370
18
9
$CLAYER
8
0
9
$CMLJUST
70
0
9
$CMLSCALE
40
1
9
$CMLSTYLE
2
Standard
9
$DIMSTYLE
2
Standard
9
$TEXTSIZE
40
0.2
9
$TEXTSTYLE
7
Standard
9
$LUNITS
70
2
9
$LUPREC
70
4
9
$EXTNAMES
290
1
9
$INSUNITS
70
4
9
$LTSCALE
40
1
9
$LWDISPLAY
290
1
9
$PDMODE
70
0
9
$PDSIZE
40
0
9
$PLINEGEN
70
0
0
ENDSEC
0
SECTION
2
CLASSES
0
CLASS
1
RASTERVARIABLES
2
AcDbRasterVariables
3
ISM
90
0
280
0
281
0
0
ENDSEC
0
SECTION
2
TABLES
0
TABLE
2
VPORT
5
22a
100
AcDbSymbolTable
0
VPORT
5
1
100
AcDbSymbolTableRecord
100
AcDbViewportTableRecord
2
*Active
70
0
10
0
20
0
11
1
21
1
12
-1
22
1
13
0
23
0
14
0.5
24
0.5
15
10
25
10
16
0
26
0
36
1
17
0
27
0
37
0
0
ENDTAB
0
TABLE
2
LTYPE
5
22b
100
AcDbSymbolTable
0
LTYPE
5
14
100
AcDbSymbolTableRecord
100
AcDbLinetypeTableRecord
70
0
2
ByBlock
3

72
65
73
0
40
0
0
LTYPE
5
15
100
AcDbSymbolTableRecord
100
AcDbLinetypeTableRecord
70
0
2
ByLayer
3

72
65
73
0
40
0
0
LTYPE
5
16
100
AcDbSymbolTableRecord
100
AcDbLinetypeTableRecord
70
0
2
CONTINUOUS
3
Solid line
72
65
73
0
40
0
0
LTYPE
5
6A
100
AcDbSymbolTableRecord
100
AcDbLinetypeTableRecord
70
0
2
CENTER
3
____ _ ____ _ ____ _ ____
72
65
73
4
40
47.5
49
22
74
0
49
-8.5
74
0
49
8.5
74
0
49
-8.5
74
0
0
LTYPE
5
6B
100
AcDbSymbolTableRecord
100
AcDbLinetypeTableRecord
70
0
2
DASHED
3
__ __ __ __ __ __ __ __ __
72
65
73
2
40
25.72
49
12.86
74
0
49
-12.86
74
0
0
ENDTAB
0
TABLE
2
LAYER
5
22c
100
AcDbSymbolTable
0
LAYER
5
10
100
AcDbSymbolTableRecord
100
AcDbLayerTableRecord
2
0
70
0
62
7
6
CONTINUOUS
290
1
370
-3
390
0
0
LAYER
5
6D
100
AcDbSymbolTableRecord
100
AcDbLayerTableRecord
2
2
70
0
62
7
6
CONTINUOUS
290
1
370
-3
390
0
0
LAYER
5
6F
100
AcDbSymbolTableRecord
100
AcDbLayerTableRecord
2
80
70
0
62
-6
6
CONTINUOUS
290
1
370
-3
390
0
0
LAYER
5
72
100
AcDbSymbolTableRecord
100
AcDbLayerTableRecord
2
81
70
0
62
-3
6
CONTINUOUS
290
1
370
-3
390
0
0
LAYER
5
76
100
AcDbSymbolTableRecord
100
AcDbLayerTableRecord
2
1
70
0
62
4
6
CONTINUOUS
290
1
370
-3
390
0
0
LAYER
5
217
100
AcDbSymbolTableRecord
100
AcDbLayerTableRecord
2
SK1
70
0
62
4
6
CONTINUOUS
290
1
370
-3
390
0
0
LAYER
5
218
100
AcDbSymbolTableRecord
100
AcDbLayerTableRecord
2
SK6
70
0
62
5
6
CONTINUOUS
290
1
370
-3
390
0
0
LAYER
5
219
100
AcDbSymbolTableRecord
100
AcDbLayerTableRecord
2
SK2
70
0
62
7
6
CONTINUOUS
290
1
370
-3
390
0
0
ENDTAB
0
TABLE
2
STYLE
5
22d
100
AcDbSymbolTable
0
STYLE
5
11
100
AcDbSymbolTableRecord
100
AcDbTextStyleTableRecord
2
Standard
3
txt
70
0
71
0
40
0
41
1
42
0
50
0
0
STYLE
5
15F
100
AcDbSymbolTableRecord
100
AcDbTextStyleTableRecord
2
iso_b_vert
3
simplex.shx
70
0
71
0
40
0
41
1
42
0
50
0
0
STYLE
5
160
100
AcDbSymbolTableRecord
100
AcDbTextStyleTableRecord
2
DWGDirectTextStyle
3
simplex
70
0
71
0
40
0
41
1
42
0
50
0
0
ENDTAB
0
TABLE
2
DIMSTYLE
5
22e
100
AcDbSymbolTable
100
AcDbDimStyleTable
0
DIMSTYLE
105
27
100
AcDbSymbolTableRecord
100
AcDbDimStyleTableRecord
2
Standard
70
0
3
<>
41
0.18
42
0.0625
44
0.18
140
0.18
147
0.09
73
0
74
0
77
1
271
2
275
0
278
52
280
0
340
11
0
ENDTAB
0
TABLE
2
VIEW
5
22f
100
AcDbSymbolTable
0
ENDTAB
0
TABLE
2
UCS
5
230
100
AcDbSymbolTable
0
ENDTAB
0
TABLE
2
APPID
5
231
100
AcDbSymbolTable
0
APPID
5
12
100
AcDbSymbolTableRecord
100
AcDbRegAppTableRecord
2
ACAD
70
0
0
ENDTAB
0
TABLE
2
BLOCK_RECORD
5
232
100
AcDbSymbolTable
0
BLOCK_RECORD
5
1F
100
AcDbSymbolTableRecord
100
AcDbBlockTableRecord
2
*Model_Space
340
0
70
0
0
BLOCK_RECORD
5
1B
100
AcDbSymbolTableRecord
100
AcDbBlockTableRecord
2
*Paper_Space
340
0
70
0
0
BLOCK_RECORD
5
23
100
AcDbSymbolTableRecord
100
AcDbBlockTableRecord
2
*Paper_Space0
340
0
70
0
0
BLOCK_RECORD
5
162
100
AcDbSymbolTableRecord
100
AcDbBlockTableRecord
2
DimnDraft3D1
340
0
70
0
0
BLOCK_RECORD
5
170
100
AcDbSymbolTableRecord
100
AcDbBlockTableRecord
2
_CLOSED
340
0
70
0
0
BLOCK_RECORD
5
177
100
AcDbSymbolTableRecord
100
AcDbBlockTableRecord
2
DimnDraft3D2
340
0
70
0
0
BLOCK_RECORD
5
185
100
AcDbSymbolTableRecord
100
AcDbBlockTableRecord
2
DimnDraft3D3
340
0
70
0
0
BLOCK_RECORD
5
194
100
AcDbSymbolTableRecord
100
AcDbBlockTableRecord
2
DimnDraft3D4
340
0
70
0
0
BLOCK_RECORD
5
1A2
100
AcDbSymbolTableRecord
100
AcDbBlockTableRecord
2
DimnDraft3D5
340
0
70
0
0
BLOCK_RECORD
5
1B0
100
AcDbSymbolTableRecord
100
AcDbBlockTableRecord
2
DimnDraft3D6
340
0
70
0
0
ENDTAB
0
ENDSEC
0
SECTION
2
BLOCKS
0
BLOCK
5
20
100
AcDbEntity
8
0
100
AcDbBlockBegin
2
*Model_Space
70
0
10
0
20
0
30
0
3
*Model_Space
0
ENDBLK
5
21
100
AcDbEntity
8
0
100
AcDbBlockEnd
0
BLOCK
5
1C
100
AcDbEntity
8
0
100
AcDbBlockBegin
2
*Paper_Space
70
0
10
0
20
0
30
0
3
*Paper_Space
0
ENDBLK
5
1D
100
AcDbEntity
8
0
100
AcDbBlockEnd
0
BLOCK
5
24
100
AcDbEntity
8
0
100
AcDbBlockBegin
2
*Paper_Space0
70
0
10
0
20
0
30
0
3
*Paper_Space0
0
ENDBLK
5
25
100
AcDbEntity
8
0
100
AcDbBlockEnd
0
BLOCK
5
16D
100
AcDbEntity
8
0
100
AcDbBlockBegin
2
DimnDraft3D1
70
0
10
0
20
0
30
0
3
DimnDraft3D1
0
MTEXT
5
163
100
AcDbEntity
8
2
62
256
6
ByLayer
370
18
48
1
60
0
100
AcDbMText
10
65.125
20
-9.319079
30
0
210
0
220
0
230
1
1
\W0.5404;8
40
4.5
41
0
44
1.084337
50
90
71
7
72
5
7
iso_b_vert
0
LINE
5
164
100
AcDbEntity
8
2
62
256
6
ByLayer
370
13
48
1
60
0
100
AcDbLine
10
53.5
20
-13.4375
30
0
11
69.25
21
-13.4375
31
0
39
0
210
0
220
0
230
1
0
LINE
5
165
100
AcDbEntity
8
2
62
256
6
ByLayer
370
13
48
1
60
0
100
AcDbLine
10
53.5
20
-5.4375
30
0
11
69.25
21
-5.4375
31
0
39
0
210
0
220
0
230
1
0
LINE
5
166
100
AcDbEntity
8
2
62
256
6
ByLayer
370
13
48
1
60
0
100
AcDbLine
10
66.25
20
-24.6875
30
0
11
66.25
21
5.8125
31
0
39
0
210
0
220
0
230
1
0
LINE
5
167
100
AcDbEntity
8
2
62
256
6
ByLayer
370
13
48
1
60
0
100
AcDbLine
10
66.25
20
-13.4375
30
0
11
66.644957
21
-16.437499
31
0
39
0
210
0
220
0
230
1
0
LINE
5
168
100
AcDbEntity
8
2
62
256
6
ByLayer
370
13
48
1
60
0
100
AcDbLine
10
66.25
20
-13.4375
30
0
11
65.855043
21
-16.437501
31
0
39
0
210
0
220
0
230
1
0
LINE
5
169
100
AcDbEntity
8
2
62
256
6
ByLayer
370
13
48
1
60
0
100
AcDbLine
10
66.644957
20
-16.437499
30
0
11
65.855043
21
-16.437501
31
0
39
0
210
0
220
0
230
1
0
LINE
5
16A
100
AcDbEntity
8
2
62
256
6
ByLayer
370
13
48
1
60
0
100
AcDbLine
10
66.25
20
-5.4375
30
0
11
65.855043
21
-2.437501
31
0
39
0
210
0
220
0
230
1
0
LINE
5
16B
100
AcDbEntity
8
2
62
256
6
ByLayer
370
13
48
1
60
0
100
AcDbLine
10
66.25
20
-5.4375
30
0
11
66.644957
21
-2.437499
31
0
39
0
210
0
220
0
230
1
0
LINE
5
16C
100
AcDbEntity
8
2
62
256
6
ByLayer
370
13
48
1
60
0
100
AcDbLine
10
65.855043
20
-2.437501
30
0
11
66.644957
21
-2.437499
31
0
39
0
210
0
220
0
230
1
0
ENDBLK
5
16E
100
AcDbEntity
8
0
100
AcDbBlockEnd
0
BLOCK
5
171
100
AcDbEntity
8
0
100
AcDbBlockBegin
2
_CLOSED
70
0
10
0
20
0
30
0
3
_CLOSED
0
LINE
5
173
100
AcDbEntity
8
0
62
256
6
ByLayer
370
-2
48
1
60
0
100
AcDbLine
10
-1
20
0.166667
30
0
11
0
21
0
31
0
39
0
210
0
220
0
230
1
0
LINE
5
174
100
AcDbEntity
8
0
62
256
6
ByLayer
370
-2
48
1
60
0
100
AcDbLine
10
0
20
0
30
0
11
-1
21
-0.166667
31
0
39
0
210
0
220
0
230
1
0
LINE
5
175
100
AcDbEntity
8
0
62
256
6
ByLayer
370
-2
48
1
60
0
100
AcDbLine
10
-1
20
0.166667
30
0
11
-1
21
-0.166667
31
0
39
0
210
0
220
0
230
1
0
LINE
5
176
100
AcDbEntity
8
0
62
256
6
ByLayer
370
-2
48
1
60
0
100
AcDbLine
10
0
20
0
30
0
11
-1
21
0
31
0
39
0
210
0
220
0
230
1
0
ENDBLK
5
172
100
AcDbEntity
8
0
100
AcDbBlockEnd
0
BLOCK
5
182
100
AcDbEntity
8
0
100
AcDbBlockBegin
2
DimnDraft3D2
70
0
10
0
20
0
30
0
3
DimnDraft3D2
0
MTEXT
5
178
100
AcDbEntity
8
2
62
256
6
ByLayer
370
18
48
1
60
0
100
AcDbMText
10
75.125
20
-2.063158
30
0
210
0
220
0
230
1
1
\W0.6740;26
40
4.5
41
0
44
1.084337
50
90
71
7
72
5
7
iso_b_vert
0
LINE
5
179
100
AcDbEntity
8
2
62
256
6
ByLayer
370
13
48
1
60
0
100
AcDbLine
10
53.5
20
-13.4375
30
0
11
79.25
21
-13.4375
31
0
39
0
210
0
220
0
230
1
0
LINE
5
17A
100
AcDbEntity
8
2
62
256
6
ByLayer
370
13
48
1
60
0
100
AcDbLine
10
1.5
20
12.4375
30
0
11
79.25
21
12.4375
31
0
39
0
210
0
220
0
230
1
0
LINE
5
17B
100
AcDbEntity
8
2
62
256
6
ByLayer
370
13
48
1
60
0
100
AcDbLine
10
76.25
20
-13.4375
30
0
11
76.25
21
12.4375
31
0
39
0
210
0
220
0
230
1
0
LINE
5
17C
100
AcDbEntity
8
2
62
256
6
ByLayer
370
13
48
1
60
0
100
AcDbLine
10
76.25
20
-13.4375
30
0
11
75.855043
21
-10.437501
31
0
39
0
210
0
220
0
230
1
0
LINE
5
17D
100
AcDbEntity
8
2
62
256
6
ByLayer
370
13
48
1
60
0
100
AcDbLine
10
76.25
20
-13.4375
30
0
11
76.644957
21
-10.437499
31
0
39
0
210
0
220
0
230
1
0
LINE
5
17E
100
AcDbEntity
8
2
62
256
6
ByLayer
370
13
48
1
60
0
100
AcDbLine
10
75.855043
20
-10.437501
30
0
11
76.644957
21
-10.437499
31
0
39
0
210
0
220
0
230
1
0
LINE
5
17F
100
AcDbEntity
8
2
62
256
6
ByLayer
370
13
48
1
60
0
100
AcDbLine
10
76.25
20
12.4375
30
0
11
76.644957
21
9.437501
31
0
39
0
210
0
220
0
230
1
0
LINE
5
180
100
AcDbEntity
8
2
62
256
6
ByLayer
370
13
48
1
60
0
100
AcDbLine
10
76.25
20
12.4375
30
0
11
75.855043
21
9.437499
31
0
39
0
210
0
220
0
230
1
0
LINE
5
181
100
AcDbEntity
8
2
62
256
6
ByLayer
370
13
48
1
60
0
100
AcDbLine
10
76.644957
20
9.437501
30
0
11
75.855043
21
9.437499
31
0
39
0
210
0
220
0
230
1
0
ENDBLK
5
183
100
AcDbEntity
8
0
100
AcDbBlockEnd
0
BLOCK
5
191
100
AcDbEntity
8
0
100
AcDbBlockBegin
2
DimnDraft3D3
70
0
10
0
20
0
30
0
3
DimnDraft3D3
0
MTEXT
5
186
100
AcDbEntity
8
SK2
62
256
6
ByLayer
370
18
48
1
60
0
100
AcDbMText
10
-130.225
20
-1.563158
30
0
210
0
220
0
230
1
1
\W0.6740;25
40
4.5
41
0
44
1.084337
50
90
71
7
72
5
7
iso_b_vert
0
LINE
5
188
100
AcDbEntity
8
SK2
62
256
6
ByLayer
370
13
48
1
60
0
100
AcDbLine
10
-120.85
20
12.4375
30
0
11
-132.1
21
12.4375
31
0
39
0
210
0
220
0
230
1
0
LINE
5
189
100
AcDbEntity
8
SK2
62
256
6
ByLayer
370
13
48
1
60
0
100
AcDbLine
10
-120.85
20
-12.4375
30
0
11
-132.1
21
-12.4375
31
0
39
0
210
0
220
0
230
1
0
LINE
5
18A
100
AcDbEntity
8
SK2
62
256
6
ByLayer
370
13
48
1
60
0
100
AcDbLine
10
-129.1
20
12.4375
30
0
11
-129.1
21
-12.4375
31
0
39
0
210
0
220
0
230
1
0
LINE
5
18B
100
AcDbEntity
8
SK2
62
256
6
ByLayer
370
13
48
1
60
0
100
AcDbLine
10
-129.1
20
12.4375
30
0
11
-128.705043
21
9.437501
31
0
39
0
210
0
220
0
230
1
0
LINE
5
18C
100
AcDbEntity
8
SK2
62
256
6
ByLayer
370
13
48
1
60
0
100
AcDbLine
10
-129.1
20
12.4375
30
0
11
-129.494957
21
9.437499
31
0
39
0
210
0
220
0
230
1
0
LINE
5
18D
100
AcDbEntity
8
SK2
62
256
6
ByLayer
370
13
48
1
60
0
100
AcDbLine
10
-128.705043
20
9.437501
30
0
11
-129.494957
21
9.437499
31
0
39
0
210
0
220
0
230
1
0
LINE
5
18E
100
AcDbEntity
8
SK2
62
256
6
ByLayer
370
13
48
1
60
0
100
AcDbLine
10
-129.1
20
-12.4375
30
0
11
-129.494957
21
-9.437501
31
0
39
0
210
0
220
0
230
1
0
LINE
5
18F
100
AcDbEntity
8
SK2
62
256
6
ByLayer
370
13
48
1
60
0
100
AcDbLine
10
-129.1
20
-12.4375
30
0
11
-128.705043
21
-9.437499
31
0
39
0
210
0
220
0
230
1
0
LINE
5
190
100
AcDbEntity
8
SK2
62
256
6
ByLayer
370
13
48
1
60
0
100
AcDbLine
10
-129.494957
20
-9.437501
30
0
11
-128.705043
21
-9.437499
31
0
39
0
210
0
220
0
230
1
0
ENDBLK
5
192
100
AcDbEntity
8
0
100
AcDbBlockEnd
0
BLOCK
5
19F
100
AcDbEntity
8
0
100
AcDbBlockBegin
2
DimnDraft3D4
70
0
10
0
20
0
30
0
3
DimnDraft3D4
0
MTEXT
5
195
100
AcDbEntity
8
2
62
256
6
ByLayer
370
18
48
1
60
0
100
AcDbMText
10
37.936842
20
-25.5625
30
0
210
0
220
0
230
1
1
\W0.6740;25
40
4.5
41
0
44
1.084337
50
0
71
7
72
5
7
iso_b_vert
0
LINE
5
196
100
AcDbEntity
8
2
62
256
6
ByLayer
370
13
48
1
60
0
100
AcDbLine
10
52
20
-10.9375
30
0
11
52
21
-29.6875
31
0
39
0
210
0
220
0
230
1
0
LINE
5
197
100
AcDbEntity
8
2
62
256
6
ByLayer
370
13
48
1
60
0
100
AcDbLine
10
27
20
-6.0625
30
0
11
27
21
-29.6875
31
0
39
0
210
0
220
0
230
1
0
LINE
5
198
100
AcDbEntity
8
2
62
256
6
ByLayer
370
13
48
1
60
0
100
AcDbLine
10
52
20
-26.6875
30
0
11
27
21
-26.6875
31
0
39
0
210
0
220
0
230
1
0
LINE
5
199
100
AcDbEntity
8
2
62
256
6
ByLayer
370
13
48
1
60
0
100
AcDbLine
10
52
20
-26.6875
30
0
11
49.000001
21
-27.082457
31
0
39
0
210
0
220
0
230
1
0
LINE
5
19A
100
AcDbEntity
8
2
62
256
6
ByLayer
370
13
48
1
60
0
100
AcDbLine
10
52
20
-26.6875
30
0
11
48.999999
21
-26.292543
31
0
39
0
210
0
220
0
230
1
0
LINE
5
19B
100
AcDbEntity
8
2
62
256
6
ByLayer
370
13
48
1
60
0
100
AcDbLine
10
49.000001
20
-27.082457
30
0
11
48.999999
21
-26.292543
31
0
39
0
210
0
220
0
230
1
0
LINE
5
19C
100
AcDbEntity
8
2
62
256
6
ByLayer
370
13
48
1
60
0
100
AcDbLine
10
27
20
-26.6875
30
0
11
29.999999
21
-26.292543
31
0
39
0
210
0
220
0
230
1
0
LINE
5
19D
100
AcDbEntity
8
2
62
256
6
ByLayer
370
13
48
1
60
0
100
AcDbLine
10
27
20
-26.6875
30
0
11
30.000001
21
-27.082457
31
0
39
0
210
0
220
0
230
1
0
LINE
5
19E
100
AcDbEntity
8
2
62
256
6
ByLayer
370
13
48
1
60
0
100
AcDbLine
10
29.999999
20
-26.292543
30
0
11
30.000001
21
-27.082457
31
0
39
0
210
0
220
0
230
1
0
ENDBLK
5
1A0
100
AcDbEntity
8
0
100
AcDbBlockEnd
0
BLOCK
5
1AD
100
AcDbEntity
8
0
100
AcDbBlockBegin
2
DimnDraft3D5
70
0
10
0
20
0
30
0
3
DimnDraft3D5
0
MTEXT
5
1A3
100
AcDbEntity
8
2
62
256
6
ByLayer
370
18
48
1
60
0
100
AcDbMText
10
24.436842
20
24.4375
30
0
210
0
220
0
230
1
1
\W0.6740;52
40
4.5
41
0
44
1.084337
50
0
71
7
72
5
7
iso_b_vert
0
LINE
5
1A4
100
AcDbEntity
8
2
62
256
6
ByLayer
370
13
48
1
60
0
100
AcDbLine
10
52
20
-3.9375
30
0
11
52
21
26.3125
31
0
39
0
210
0
220
0
230
1
0
LINE
5
1A5
100
AcDbEntity
8
2
62
256
6
ByLayer
370
13
48
1
60
0
100
AcDbLine
10
0
20
13.9375
30
0
11
0
21
26.3125
31
0
39
0
210
0
220
0
230
1
0
LINE
5
1A6
100
AcDbEntity
8
2
62
256
6
ByLayer
370
13
48
1
60
0
100
AcDbLine
10
52
20
23.3125
30
0
11
0
21
23.3125
31
0
39
0
210
0
220
0
230
1
0
LINE
5
1A7
100
AcDbEntity
8
2
62
256
6
ByLayer
370
13
48
1
60
0
100
AcDbLine
10
52
20
23.3125
30
0
11
49.000001
21
22.917543
31
0
39
0
210
0
220
0
230
1
0
LINE
5
1A8
100
AcDbEntity
8
2
62
256
6
ByLayer
370
13
48
1
60
0
100
AcDbLine
10
52
20
23.3125
30
0
11
48.999999
21
23.707457
31
0
39
0
210
0
220
0
230
1
0
LINE
5
1A9
100
AcDbEntity
8
2
62
256
6
ByLayer
370
13
48
1
60
0
100
AcDbLine
10
49.000001
20
22.917543
30
0
11
48.999999
21
23.707457
31
0
39
0
210
0
220
0
230
1
0
LINE
5
1AA
100
AcDbEntity
8
2
62
256
6
ByLayer
370
13
48
1
60
0
100
AcDbLine
10
0
20
23.3125
30
0
11
2.999999
21
23.707457
31
0
39
0
210
0
220
0
230
1
0
LINE
5
1AB
100
AcDbEntity
8
2
62
256
6
ByLayer
370
13
48
1
60
0
100
AcDbLine
10
0
20
23.3125
30
0
11
3.000001
21
22.917543
31
0
39
0
210
0
220
0
230
1
0
LINE
5
1AC
100
AcDbEntity
8
2
62
256
6
ByLayer
370
13
48
1
60
0
100
AcDbLine
10
2.999999
20
23.707457
30
0
11
3.000001
21
22.917543
31
0
39
0
210
0
220
0
230
1
0
ENDBLK
5
1AE
100
AcDbEntity
8
0
100
AcDbBlockEnd
0
BLOCK
5
1BB
100
AcDbEntity
8
0
100
AcDbBlockBegin
2
DimnDraft3D6
70
0
10
0
20
0
30
0
3
DimnDraft3D6
0
MTEXT
5
1B1
100
AcDbEntity
8
SK2
62
256
6
ByLayer
370
18
48
1
60
0
100
AcDbMText
10
-36.357237
20
34.4375
30
0
210
0
220
0
230
1
1
\W0.6217;170
40
4.5
41
0
44
1.084337
50
0
71
7
72
5
7
iso_b_vert
0
LINE
5
1B2
100
AcDbEntity
8
SK2
62
256
6
ByLayer
370
13
48
1
60
0
100
AcDbLine
10
52
20
-3.9375
30
0
11
52
21
36.3125
31
0
39
0
210
0
220
0
230
1
0
LINE
5
1B3
100
AcDbEntity
8
SK2
62
256
6
ByLayer
370
13
48
1
60
0
100
AcDbLine
10
-119.35
20
13.9375
30
0
11
-119.35
21
36.3125
31
0
39
0
210
0
220
0
230
1
0
LINE
5
1B4
100
AcDbEntity
8
SK2
62
256
6
ByLayer
370
13
48
1
60
0
100
AcDbLine
10
52
20
33.3125
30
0
11
-119.35
21
33.3125
31
0
39
0
210
0
220
0
230
1
0
LINE
5
1B5
100
AcDbEntity
8
SK2
62
256
6
ByLayer
370
13
48
1
60
0
100
AcDbLine
10
52
20
33.3125
30
0
11
49.000001
21
32.917543
31
0
39
0
210
0
220
0
230
1
0
LINE
5
1B6
100
AcDbEntity
8
SK2
62
256
6
ByLayer
370
13
48
1
60
0
100
AcDbLine
10
52
20
33.3125
30
0
11
48.999999
21
33.707457
31
0
39
0
210
0
220
0
230
1
0
LINE
5
1B7
100
AcDbEntity
8
SK2
62
256
6
ByLayer
370
13
48
1
60
0
100
AcDbLine
10
49.000001
20
32.917543
30
0
11
48.999999
21
33.707457
31
0
39
0
210
0
220
0
230
1
0
LINE
5
1B8
100
AcDbEntity
8
SK2
62
256
6
ByLayer
370
13
48
1
60
0
100
AcDbLine
10
-119.35
20
33.3125
30
0
11
-116.350001
21
33.707457
31
0
39
0
210
0
220
0
230
1
0
LINE
5
1B9
100
AcDbEntity
8
SK2
62
256
6
ByLayer
370
13
48
1
60
0
100
AcDbLine
10
-119.35
20
33.3125
30
0
11
-116.349999
21
32.917543
31
0
39
0
210
0
220
0
230
1
0
LINE
5
1BA
100
AcDbEntity
8
SK2
62
256
6
ByLayer
370
13
48
1
60
0
100
AcDbLine
10
-116.350001
20
33.707457
30
0
11
-116.349999
21
32.917543
31
0
39
0
210
0
220
0
230
1
0
ENDBLK
5
1BC
100
AcDbEntity
8
0
100
AcDbBlockEnd
0
ENDSEC
0
SECTION
2
ENTITIES
0
ARC
5
DE
100
AcDbEntity
8
1
62
256
6
ByLayer
370
18
48
1
60
0
100
AcDbCircle
39
0
10
27.1
20
-4.6625
30
0
40
1.6
210
0
220
0
230
1
100
AcDbArc
50
180
51
270
0
ARC
5
E1
100
AcDbEntity
8
1
62
256
6
ByLayer
370
18
48
1
60
0
100
AcDbCircle
39
0
10
18.35
20
1.9125
30
0
40
2.807
210
0
220
0
230
1
100
AcDbArc
50
360
51
59.965127
0
ARC
5
E3
100
AcDbEntity
8
1
62
256
6
ByLayer
370
18
48
1
60
0
100
AcDbCircle
39
0
10
18.35
20
1.9125
30
0
40
2.807
210
0
220
0
230
1
100
AcDbArc
50
59.965127
51
120.034873
0
ARC
5
E4
100
AcDbEntity
8
1
62
256
6
ByLayer
370
18
48
1
60
0
100
AcDbCircle
39
0
10
18.35
20
1.9125
30
0
40
2.0135
210
0
220
0
230
1
100
AcDbArc
50
88.140164
51
91.859836
0
ARC
5
E5
100
AcDbEntity
8
1
62
256
6
ByLayer
370
18
48
1
60
0
100
AcDbCircle
39
0
10
18.35
20
1.9125
30
0
40
2.807
210
0
220
0
230
1
100
AcDbArc
50
300.034873
51
360
0
ARC
5
E6
100
AcDbEntity
8
1
62
256
6
ByLayer
370
18
48
1
60
0
100
AcDbCircle
39
0
10
18.35
20
1.9125
30
0
40
2.807
210
0
220
0
230
1
100
AcDbArc
50
180
51
239.965127
0
ARC
5
E8
100
AcDbEntity
8
1
62
256
6
ByLayer
370
18
48
1
60
0
100
AcDbCircle
39
0
10
18.35
20
1.9125
30
0
40
2.807
210
0
220
0
230
1
100
AcDbArc
50
120.034873
51
180
0
ARC
5
E9
100
AcDbEntity
8
1
62
256
6
ByLayer
370
18
48
1
60
0
100
AcDbCircle
39
0
10
18.35
20
1.9125
30
0
40
2.807
210
0
220
0
230
1
100
AcDbArc
50
239.965127
51
300.034873
0
ARC
5
EA
100
AcDbEntity
8
1
62
256
6
ByLayer
370
18
48
1
60
0
100
AcDbCircle
39
0
10
18.35
20
1.9125
30
0
40
2.0135
210
0
220
0
230
1
100
AcDbArc
50
268.140164
51
271.859836
0
CIRCLE
5
DF
100
AcDbEntity
8
1
62
256
6
ByLayer
370
18
48
1
60
0
100
AcDbCircle
10
18.35
20
1.9125
30
0
40
6.15
39
0
210
0
220
0
230
1
0
CIRCLE
5
E0
100
AcDbEntity
8
1
62
256
6
ByLayer
370
18
48
1
60
0
100
AcDbCircle
10
18.35
20
1.9125
30
0
40
5.13
39
0
210
0
220
0
230
1
0
CIRCLE
5
E2
100
AcDbEntity
8
1
62
256
6
ByLayer
370
18
48
1
60
0
100
AcDbCircle
10
-18.35
20
1.9125
30
0
40
3
39
0
210
0
220
0
230
-1
0
CIRCLE
5
E7
100
AcDbEntity
8
1
62
256
6
ByLayer
370
18
48
1
60
0
100
AcDbCircle
10
-18.35
20
1.9125
30
0
40
5.93
39
0
210
0
220
0
230
-1
0
POINT
5
6C
100
AcDbEntity
8
2
62
256
6
ByLayer
370
18
48
1
60
0
100
AcDbPoint
10
52
20
9.5625
30
0
39
0
210
0
220
0
230
1
50
360
0
POINT
5
6E
100
AcDbEntity
8
80
62
256
6
ByLayer
370
18
48
1
60
0
100
AcDbPoint
10
0
20
0
30
0
39
0
210
0
220
0
230
1
50
360
0
POINT
5
70
100
AcDbEntity
8
2
62
256
6
ByLayer
370
18
48
1
60
0
100
AcDbPoint
10
52
20
13.5625
30
0
39
0
210
0
220
0
230
1
50
360
0
POINT
5
71
100
AcDbEntity
8
81
62
256
6
ByLayer
370
18
48
1
60
0
100
AcDbPoint
10
52
20
-13.4375
30
0
39
0
210
0
220
0
230
1
50
360
0
SPLINE
5
EB
100
AcDbEntity
8
1
62
256
6
ByLayer
370
18
48
1
60
0
100
AcDbSpline
70
4
71
3
72
10
73
6
40
0
40
0
40
0
40
0
40
0.48085373189406
40
0.48085373189406
40
1
40
1
40
1
40
1
41
1
10
40.5483841899895
20
-10.2666252121208
30
0
41
1
10
40.4940392740558
20
-10.6426439351972
30
0
41
1
10
40.4396864911113
20
-11.0186609648977
30
0
41
1
10
40.3266005172467
20
-11.8006277204084
30
0
41
1
10
40.2678826951902
20
-12.2065807913196
30
0
41
1
10
40.2090081513356
20
-12.6125000000001
30
0
0
SPLINE
5
EC
100
AcDbEntity
8
1
62
256
6
ByLayer
370
18
48
1
60
0
100
AcDbSpline
70
4
71
3
72
14
73
10
40
0
40
0
40
0
40
0
40
0.320843958952971
40
0.320843958952971
40
0.642960195576507
40
0.642960195576507
40
0.965202726838012
40
0.965202726838012
40
1
40
1
40
1
40
1
41
1
10
40.5483841899895
20
-8.60837478787937
30
0
41
1
10
40.550763671633
20
-8.62483869501452
30
0
41
1
10
40.5554952299975
20
-8.64102825052808
30
0
41
1
10
40.5689095072304
20
-8.67025623943238
30
0
41
1
10
40.5777931115871
20
-8.68368464870935
30
0
41
1
10
40.5984185528158
20
-8.70589631512092
30
0
41
1
10
40.6104457725909
20
-8.71498403352317
30
0
41
1
10
40.6245857360682
20
-8.72199222785963
30
0
41
1
10
40.6259920791746
20
-8.72265277525068
30
0
41
1
10
40.6274076487537
20
-8.72328145434736
30
0
0
SPLINE
5
ED
100
AcDbEntity
8
1
62
256
6
ByLayer
370
18
48
1
60
0
100
AcDbSpline
70
4
71
3
72
14
73
10
40
0
40
0
40
0
40
0
40
0.273270095644523
40
0.273270095644523
40
0.549726943813348
40
0.549726943813348
40
0.826120673708506
40
0.826120673708506
40
1
40
1
40
1
40
1
41
1
10
40.7360755866311
20
-8.77154610688217
30
0
41
1
10
40.7488540562711
20
-8.77722197313329
30
0
41
1
10
40.7610120412531
20
-8.78563433682962
30
0
41
1
10
40.7822412023168
20
-8.80669372588341
30
0
41
1
10
40.7915666307355
20
-8.81968100305551
30
0
41
1
10
40.8059684226649
20
-8.84829456884881
30
0
41
1
10
40.8112443677608
20
-8.86431494805137
30
0
41
1
10
40.8160078121529
20
-8.89113436388635
30
0
41
1
10
40.8169482605765
20
-8.90184716098395
30
0
41
1
10
40.8169482605766
20
-8.9124999999982
30
0
0
SPLINE
5
EE
100
AcDbEntity
8
1
62
256
6
ByLayer
370
18
48
1
60
0
100
AcDbSpline
70
4
71
3
72
14
73
10
40
0
40
0
40
0
40
0
40
0.318667665032306
40
0.318667665032306
40
0.641052743241964
40
0.641052743241964
40
0.963329634378486
40
0.963329634378486
40
1
40
1
40
1
40
1
41
1
10
40.6274076487538
20
-10.1517185456529
30
0
41
1
10
40.6146252158819
20
-10.1573954466471
30
0
41
1
10
40.602463342385
20
-10.1658095984838
30
0
41
1
10
40.581227040761
20
-10.1868739162792
30
0
41
1
10
40.5718982357196
20
-10.1998645335871
30
0
41
1
10
40.5574927537257
20
-10.2284848290142
30
0
41
1
10
40.5522159951046
20
-10.2445085962435
30
0
41
1
10
40.5489662155746
20
-10.2628144588711
30
0
41
1
10
40.5486600147213
20
-10.2647167490813
30
0
41
1
10
40.5483841899895
20
-10.2666252121208
30
0
0
SPLINE
5
EF
100
AcDbEntity
8
1
62
256
6
ByLayer
370
18
48
1
60
0
100
AcDbSpline
70
4
71
3
72
10
73
6
40
0
40
0
40
0
40
0
40
0.424787112070729
40
0.424787112070729
40
1
40
1
40
1
40
1
41
1
10
40.2090081513356
20
-6.26250000000007
30
0
41
1
10
40.2571817547472
20
-6.59463999966488
30
0
41
1
10
40.3052448252206
20
-6.92680388465755
30
0
41
1
10
40.4183563133505
20
-7.70876514158508
30
0
41
1
10
40.4833750304347
20
-8.15856893678833
30
0
41
1
10
40.5483841899895
20
-8.60837478787934
30
0
0
SPLINE
5
F0
100
AcDbEntity
8
1
62
256
6
ByLayer
370
18
48
1
60
0
100
AcDbSpline
70
4
71
3
72
8
73
4
40
0
40
0
40
0
40
0
40
1
40
1
40
1
40
1
41
1
10
40.7360755866311
20
-10.103453893118
30
0
41
1
10
40.6998531860709
20
-10.1195429481195
30
0
41
1
10
40.6636305824492
20
-10.135631310119
30
0
41
1
10
40.6274076487538
20
-10.1517185456529
30
0
0
SPLINE
5
F1
100
AcDbEntity
8
1
62
256
6
ByLayer
370
18
48
1
60
0
100
AcDbSpline
70
4
71
3
72
14
73
10
40
0
40
0
40
0
40
0
40
0.275231833122486
40
0.275231833122486
40
0.551543765575162
40
0.551543765575162
40
0.827886295446632
40
0.827886295446632
40
1
40
1
40
1
40
1
41
1
10
40.8169482605624
20
-9.96250000000006
30
0
41
1
10
40.8169482605624
20
-9.97921923000018
30
0
41
1
10
40.8145932901213
20
-9.99616726340707
30
0
41
1
10
40.8055430879792
20
-10.0277973449469
30
0
41
1
10
40.7987055978183
20
-10.0429062064609
30
0
41
1
10
40.7815556333881
20
-10.069149891105
30
0
41
1
10
40.7710063776004
20
-10.0806461072383
30
0
41
1
10
40.7520394161211
20
-10.0951674639662
30
0
41
1
10
40.7441924993763
20
-10.0998485700697
30
0
41
1
10
40.7360755866311
20
-10.1034538931179
30
0
0
SPLINE
5
F2
100
AcDbEntity
8
1
62
256
6
ByLayer
370
18
48
1
60
0
100
AcDbSpline
70
4
71
3
72
8
73
4
40
0
40
0
40
0
40
0
40
1
40
1
40
1
40
1
41
1
10
40.6274076487538
20
-8.72328145434722
30
0
41
1
10
40.6636305867855
20
-8.73936869180699
30
0
41
1
10
40.6998531897832
20
-8.75545705352951
30
0
41
1
10
40.7360755866311
20
-8.7715461068822
30
0
0
SPLINE
5
F3
100
AcDbEntity
8
1
62
256
6
ByLayer
370
18
48
1
60
0
100
AcDbSpline
70
4
71
3
72
8
73
4
40
0
40
0
40
0
40
0
40
1
40
1
40
1
40
1
41
1
10
41.4877178255945
20
-6.53751270108475
30
0
41
1
10
41.4894502665298
20
-6.56251414510484
30
0
41
1
10
41.4911827074652
20
-6.58751558912491
30
0
41
1
10
41.4929151484006
20
-6.612517033145
30
0
0
SPLINE
5
F4
100
AcDbEntity
8
1
62
256
6
ByLayer
370
18
48
1
60
0
100
AcDbSpline
70
4
71
5
72
12
73
6
40
0
40
0
40
0
40
0
40
0
40
0
40
1
40
1
40
1
40
1
40
1
40
1
41
1
10
41.78118719384
20
-7.08739040982005
30
0
41
1
10
41.7927188692
20
-7.07378578231004
30
0
41
1
10
41.80425075487
20
-7.05947839690003
30
0
41
1
10
41.8150033301
20
-7.04538588208004
30
0
41
1
10
41.82420425165
20
-7.03252050311005
30
0
41
1
10
41.83137456607
20
-7.02161396425004
30
0
0
SPLINE
5
F5
100
AcDbEntity
8
1
62
256
6
ByLayer
370
18
48
1
60
0
100
AcDbSpline
70
4
71
5
72
12
73
6
40
0
40
0
40
0
40
0
40
0
40
0
40
1
40
1
40
1
40
1
40
1
40
1
41
1
10
42.94285699163
20
-9.16749926395605
30
0
41
1
10
42.9428261726168
20
-9.12918857969916
30
0
41
1
10
42.9415985886776
20
-9.09087028312939
30
0
41
1
10
42.9387793601911
20
-9.05266176559988
30
0
41
1
10
42.9348460301949
20
-9.01461082257038
30
0
41
1
10
42.9295212005386
20
-8.97683633998861
30
0
0
SPLINE
5
F6
100
AcDbEntity
8
1
62
256
6
ByLayer
370
18
48
1
60
0
100
AcDbSpline
70
4
71
5
72
12
73
6
40
0
40
0
40
0
40
0
40
0
40
0
40
1
40
1
40
1
40
1
40
1
40
1
41
1
10
41.4404205480075
20
-6.65472934580478
30
0
41
1
10
41.4390233464929
20
-6.64792601535714
30
0
41
1
10
41.4378454735756
20
-6.64102452876008
30
0
41
1
10
41.4368998119326
20
-6.63405265834774
30
0
41
1
10
41.4361942166871
20
-6.62703638432197
30
0
41
1
10
41.43573302729
20
-6.62000226679004
30
0
0
SPLINE
5
F7
100
AcDbEntity
8
1
62
256
6
ByLayer
370
18
48
1
60
0
100
AcDbSpline
70
4
71
5
72
12
73
6
40
0
40
0
40
0
40
0
40
0
40
0
40
1
40
1
40
1
40
1
40
1
40
1
41
1
10
42.35791328442
20
-10.1705853517591
30
0
41
1
10
42.39991139387
20
-10.157580718002
30
0
41
1
10
42.44210329739
20
-10.145563525096
30
0
41
1
10
42.48446695877
20
-10.134510845387
30
0
41
1
10
42.5269797832
20
-10.1244053148211
30
0
41
1
10
42.56961955257
20
-10.1152325236681
30
0
0
SPLINE
5
F8
100
AcDbEntity
8
1
62
256
6
ByLayer
370
18
48
1
60
0
100
AcDbSpline
70
4
71
5
72
12
73
6
40
0
40
0
40
0
40
0
40
0
40
0
40
1
40
1
40
1
40
1
40
1
40
1
41
1
10
43.58066632218
20
-8.12540432486006
30
0
41
1
10
43.58048682909
20
-8.00944828782005
30
0
41
1
10
43.6113312314
20
-7.89425988848004
30
0
41
1
10
43.66654446845
20
-7.79548783366005
30
0
41
1
10
43.7328341277
20
-7.71008746406005
30
0
41
1
10
43.80676334812
20
-7.63733238521004
30
0
0
SPLINE
5
F9
100
AcDbEntity
8
1
62
256
6
ByLayer
370
18
48
1
60
0
100
AcDbSpline
70
4
71
8
72
18
73
9
40
0
40
0
40
0
40
0
40
0
40
0
40
0
40
0
40
0
40
1
40
1
40
1
40
1
40
1
40
1
40
1
40
1
40
1
41
1
10
41.4876889785
20
-6.13750000000004
30
0
41
1
10
41.48143408468
20
-6.13750000000004
30
0
41
1
10
41.47479698803
20
-6.13750000000004
30
0
41
1
10
41.4678332608
20
-6.13750000000004
30
0
41
1
10
41.46060322996
20
-6.13750000000004
30
0
41
1
10
41.4531709396
20
-6.13750000000004
30
0
41
1
10
41.44560296585
20
-6.13750000000004
30
0
41
1
10
41.43796715035
20
-6.13750000000004
30
0
41
1
10
41.43033133486
20
-6.13750000000004
30
0
0
SPLINE
5
FA
100
AcDbEntity
8
1
62
256
6
ByLayer
370
18
48
1
60
0
100
AcDbSpline
70
4
71
11
72
24
73
12
40
0
40
0
40
0
40
0
40
0
40
0
40
0
40
0
40
0
40
0
40
0
40
0
40
1
40
1
40
1
40
1
40
1
40
1
40
1
40
1
40
1
40
1
40
1
40
1
41
1
10
29.74178433043
20
-6.11070508076003
30
0
41
1
10
29.75002887305
20
-6.11546506966005
30
0
41
1
10
29.75852264793
20
-6.11979337518002
30
0
41
1
10
29.76724054097
20
-6.12367549774004
30
0
41
1
10
29.77615648889
20
-6.12709858134002
30
0
41
1
10
29.78524360229
20
-6.13005148464003
30
0
41
1
10
29.79447429484
20
-6.13252484128003
30
0
41
1
10
29.80382041754
20
-6.13451110873004
30
0
41
1
10
29.81325339678
20
-6.13600460535002
30
0
41
1
10
29.82274437503
20
-6.13700153510004
30
0
41
1
10
29.83226435276
20
-6.13749999997003
30
0
41
1
10
29.84178433049
20
-6.13749999996003
30
0
0
SPLINE
5
FB
100
AcDbEntity
8
1
62
256
6
ByLayer
370
18
48
1
60
0
100
AcDbSpline
70
4
71
5
72
12
73
6
40
0
40
0
40
0
40
0
40
0
40
0
40
1
40
1
40
1
40
1
40
1
40
1
41
1
10
42.62697719621
20
-10.2113586932641
30
0
41
1
10
42.58435023177
20
-10.219917390238
30
0
41
1
10
42.54184577374
20
-10.229347016315
30
0
41
1
10
42.49948305591
20
-10.2396619015921
30
0
41
1
10
42.4572832651
20
-10.2508795629481
30
0
41
1
10
42.41527092836
20
-10.2630213327631
30
0
0
SPLINE
5
FC
100
AcDbEntity
8
1
62
256
6
ByLayer
370
18
48
1
60
0
100
AcDbSpline
70
4
71
5
72
12
73
6
40
0
40
0
40
0
40
0
40
0
40
0
40
1
40
1
40
1
40
1
40
1
40
1
41
1
10
41.49754184198
20
-12.2467117407601
30
0
41
1
10
41.48784748179
20
-12.24142908377
30
0
41
1
10
41.4768945487499
20
-12.23594637939
30
0
41
1
10
41.46503823438
20
-12.2304575847201
30
0
41
1
10
41.45272963975
20
-12.2251715340701
30
0
41
1
10
41.44042107339
20
-12.2202680960401
30
0
0
SPLINE
5
FD
100
AcDbEntity
8
1
62
256
6
ByLayer
370
18
48
1
60
0
100
AcDbSpline
70
4
71
5
72
12
73
6
40
0
40
0
40
0
40
0
40
0
40
0
40
1
40
1
40
1
40
1
40
1
40
1
41
1
10
41.4975418334
20
-6.62828826391004
30
0
41
1
10
41.49627727087
20
-6.62527287907005
30
0
41
1
10
41.49506814699
20
-6.62224081027006
30
0
41
1
10
41.49409293678
20
-6.61904137222004
30
0
41
1
10
41.49348559577
20
-6.61579670126005
30
0
41
1
10
41.49293267505
20
-6.61252751382006
30
0
0
SPLINE
5
FE
100
AcDbEntity
8
1
62
256
6
ByLayer
370
18
48
1
60
0
100
AcDbSpline
70
4
71
8
72
18
73
9
40
0
40
0
40
0
40
0
40
0
40
0
40
0
40
0
40
0
40
1
40
1
40
1
40
1
40
1
40
1
40
1
40
1
40
1
41
1
10
42.25532762777
20
-8.58183511136005
30
0
41
1
10
42.26348778272
20
-8.57617883073306
30
0
41
1
10
42.2716479373
20
-8.56969010753505
30
0
41
1
10
42.27966114147
20
-8.56247080175604
30
0
41
1
10
42.28738044356
20
-8.55464376098104
30
0
41
1
10
42.29466444815
20
-8.54634897016405
30
0
41
1
10
42.30138288168
20
-8.53773836708305
30
0
41
1
10
42.30742142068
20
-8.52896985711405
30
0
41
1
10
42.31268527141
20
-8.52020134720703
30
0
0
SPLINE
5
FF
100
AcDbEntity
8
1
62
256
6
ByLayer
370
18
48
1
60
0
100
AcDbSpline
70
4
71
5
72
12
73
6
40
0
40
0
40
0
40
0
40
0
40
0
40
1
40
1
40
1
40
1
40
1
40
1
41
1
10
41.4357091738559
20
-12.2549960031469
30
0
41
1
10
41.4335512362019
20
-12.2714022407208
30
0
41
1
10
41.4319254699008
20
-12.2878816358122
30
0
41
1
10
41.4308461574983
20
-12.3044089979261
30
0
41
1
10
41.4303257658732
20
-12.3209550768133
30
0
41
1
10
41.4303743252964
20
-12.3374859870851
30
0
0
SPLINE
5
100
100
AcDbEntity
8
1
62
256
6
ByLayer
370
18
48
1
60
0
100
AcDbSpline
70
4
71
5
72
12
73
6
40
0
40
0
40
0
40
0
40
0
40
0
40
1
40
1
40
1
40
1
40
1
40
1
41
1
10
42.98690181492
20
-9.90730175643606
30
0
41
1
10
42.9769253268473
20
-9.9053253035988
30
0
41
1
10
42.9658576206838
20
-9.90334910007053
30
0
41
1
10
42.9540144554111
20
-9.90143642319524
30
0
41
1
10
42.9417826684555
20
-9.89965317807551
30
0
41
1
10
42.9295503298061
20
-9.89805003550242
30
0
0
SPLINE
5
101
100
AcDbEntity
8
1
62
256
6
ByLayer
370
18
48
1
60
0
100
AcDbSpline
70
4
71
5
72
12
73
6
40
0
40
0
40
0
40
0
40
0
40
0
40
1
40
1
40
1
40
1
40
1
40
1
41
1
10
42.2553276268
20
-8.53756616653206
30
0
41
1
10
42.25532762618
20
-8.54720848451603
30
0
41
1
10
42.25532762758
20
-8.55664250545306
30
0
41
1
10
42.25532762618
20
-8.56567592520506
30
0
41
1
10
42.25532762708
20
-8.57412493343404
30
0
41
1
10
42.25532762689
20
-8.58183511380406
30
0
0
SPLINE
5
102
100
AcDbEntity
8
1
62
256
6
ByLayer
370
18
48
1
60
0
100
AcDbSpline
70
4
71
11
72
24
73
12
40
0
40
0
40
0
40
0
40
0
40
0
40
0
40
0
40
0
40
0
40
0
40
0
40
1
40
1
40
1
40
1
40
1
40
1
40
1
40
1
40
1
40
1
40
1
40
1
41
1
10
44.25821566957
20
-12.7642949192401
30
0
41
1
10
44.24997112695
20
-12.75953493034
30
0
41
1
10
44.24147735207
20
-12.7552066248201
30
0
41
1
10
44.23275945903
20
-12.7513245022601
30
0
41
1
10
44.22384351111
20
-12.7479014186601
30
0
41
1
10
44.21475639771
20
-12.7449485153601
30
0
41
1
10
44.20552570516
20
-12.74247515872
30
0
41
1
10
44.19617958246
20
-12.7404888912701
30
0
41
1
10
44.18674660322
20
-12.7389953946501
30
0
41
1
10
44.17725562497
20
-12.7379984649
30
0
41
1
10
44.16773564724
20
-12.73750000003
30
0
41
1
10
44.15821566951
20
-12.7375000000401
30
0
0
SPLINE
5
103
100
AcDbEntity
8
1
62
256
6
ByLayer
370
18
48
1
60
0
100
AcDbSpline
70
4
71
5
72
12
73
6
40
0
40
0
40
0
40
0
40
0
40
0
40
1
40
1
40
1
40
1
40
1
40
1
41
1
10
42.41527092791
20
-10.2630213327971
30
0
41
1
10
42.4068488447
20
-10.2489918444261
30
0
41
1
10
42.39625805827
20
-10.234961630167
30
0
41
1
10
42.38402621377
20
-10.2218178778311
30
0
41
1
10
42.37096941129
20
-10.2104375301821
30
0
41
1
10
42.35791328426
20
-10.2013875634871
30
0
0
SPLINE
5
104
100
AcDbEntity
8
1
62
256
6
ByLayer
370
18
48
1
60
0
100
AcDbSpline
70
4
71
5
72
12
73
6
40
0
40
0
40
0
40
0
40
0
40
0
40
1
40
1
40
1
40
1
40
1
40
1
41
1
10
43.00022626063
20
-9.16749999930204
30
0
41
1
10
42.99021841521
20
-9.16749999930204
30
0
41
1
10
42.97914050042
20
-9.16749999930204
30
0
41
1
10
42.96730327683
20
-9.16749999930204
30
0
41
1
10
42.95508590949
20
-9.16749999930204
30
0
41
1
10
42.942868617
20
-9.16749999930204
30
0
0
SPLINE
5
105
100
AcDbEntity
8
1
62
256
6
ByLayer
370
18
48
1
60
0
100
AcDbSpline
70
4
71
5
72
12
73
6
40
0
40
0
40
0
40
0
40
0
40
0
40
1
40
1
40
1
40
1
40
1
40
1
41
1
10
42.41527092791
20
-8.61197866720306
30
0
41
1
10
42.4068488447
20
-8.62600815557406
30
0
41
1
10
42.39625805827
20
-8.64003836983304
30
0
41
1
10
42.38402621377
20
-8.65318212216906
30
0
41
1
10
42.37096941129
20
-8.66456246981804
30
0
41
1
10
42.35791328426
20
-8.67361243651305
30
0
0
SPLINE
5
106
100
AcDbEntity
8
1
62
256
6
ByLayer
370
18
48
1
60
0
100
AcDbSpline
70
4
71
5
72
12
73
6
40
0
40
0
40
0
40
0
40
0
40
0
40
1
40
1
40
1
40
1
40
1
40
1
41
1
10
42.98690181492
20
-8.96769824356406
30
0
41
1
10
42.9769253268473
20
-8.96967469640128
30
0
41
1
10
42.9658576206838
20
-8.97165089992956
30
0
41
1
10
42.9540144554111
20
-8.97356357680488
30
0
41
1
10
42.9417826684555
20
-8.97534682192457
30
0
41
1
10
42.9295503298061
20
-8.97694996449766
30
0
0
SPLINE
5
107
100
AcDbEntity
8
1
62
256
6
ByLayer
370
18
48
1
60
0
100
AcDbSpline
70
4
71
8
72
18
73
9
40
0
40
0
40
0
40
0
40
0
40
0
40
0
40
0
40
0
40
1
40
1
40
1
40
1
40
1
40
1
40
1
40
1
40
1
41
1
10
32.5123110215
20
-6.13750000000004
30
0
41
1
10
32.51856591532
20
-6.13750000000004
30
0
41
1
10
32.52520301197
20
-6.13750000000004
30
0
41
1
10
32.5321667392
20
-6.13750000000004
30
0
41
1
10
32.53939677004
20
-6.13750000000004
30
0
41
1
10
32.5468290604
20
-6.13750000000004
30
0
41
1
10
32.55439703415
20
-6.13750000000004
30
0
41
1
10
32.56203284965
20
-6.13750000000004
30
0
41
1
10
32.56966866514
20
-6.13750000000004
30
0
0
SPLINE
5
108
100
AcDbEntity
8
1
62
256
6
ByLayer
370
18
48
1
60
0
100
AcDbSpline
70
4
71
5
72
12
73
6
40
0
40
0
40
0
40
0
40
0
40
0
40
1
40
1
40
1
40
1
40
1
40
1
41
1
10
41.43573302729
20
-12.2549977332101
30
0
41
1
10
41.4479222892848
20
-12.2565961288782
30
0
41
1
10
41.4601116312689
20
-12.2581945349798
30
0
41
1
10
41.4719169401094
20
-12.2597425822445
30
0
41
1
10
41.4829552308226
20
-12.2611900492846
30
0
41
1
10
41.4929133358172
20
-12.2624958700108
30
0
0
SPLINE
5
109
100
AcDbEntity
8
1
62
256
6
ByLayer
370
18
48
1
60
0
100
AcDbSpline
70
4
71
5
72
12
73
6
40
0
40
0
40
0
40
0
40
0
40
0
40
1
40
1
40
1
40
1
40
1
40
1
41
1
10
52
20
-12.6625000016701
30
0
41
1
10
51.9999130546
20
-12.9207314034
30
0
41
1
10
51.8961489023
20
-13.1794480540301
30
0
41
1
10
51.686090443
20
-13.3805352801401
30
0
41
1
10
51.4230939055
20
-13.4729156120001
30
0
41
1
10
51.1651044901
20
-13.4617385772701
30
0
0
SPLINE
5
10A
100
AcDbEntity
8
1
62
256
6
ByLayer
370
18
48
1
60
0
100
AcDbSpline
70
4
71
2
72
8
73
5
40
0
40
0
40
0
40
0.5
40
0.5
40
1
40
1
40
1
41
1
10
44.0925820305357
20
-11.8533825927757
30
0
41
1
10
43.9909470863661
20
-11.9588406829867
30
0
41
1
10
43.935781544502
20
-12.0750221331614
30
0
41
1
10
43.8745164040192
20
-12.2040496497221
30
0
41
1
10
43.8746450455899
20
-12.3375000000001
30
0
0
SPLINE
5
10B
100
AcDbEntity
8
1
62
256
6
ByLayer
370
18
48
1
60
0
100
AcDbSpline
70
4
71
5
72
12
73
6
40
0
40
0
40
0
40
0
40
0
40
0
40
1
40
1
40
1
40
1
40
1
40
1
41
1
10
41.95109915869
20
-11.54553784867
30
0
41
1
10
41.93679778226
20
-11.60245626459
30
0
41
1
10
41.90888514454
20
-11.65663591199
30
0
41
1
10
41.87162932108
20
-11.70501774382
30
0
41
1
10
41.8286349824
20
-11.7486136615601
30
0
41
1
10
41.78117848899
20
-11.7875993223501
30
0
0
SPLINE
5
10C
100
AcDbEntity
8
1
62
256
6
ByLayer
370
18
48
1
60
0
100
AcDbSpline
70
4
71
5
72
12
73
6
40
0
40
0
40
0
40
0
40
0
40
0
40
1
40
1
40
1
40
1
40
1
40
1
41
1
10
41.9511014917
20
-7.32946158154004
30
0
41
1
10
41.96337398982
20
-7.32646427110004
30
0
41
1
10
41.9756464632
20
-7.32311997588005
30
0
41
1
10
41.98750994804
20
-7.31952833780005
30
0
41
1
10
41.99855637966
20
-7.31581290452004
30
0
41
1
10
42.00845663571
20
-7.31209748043005
30
0
0
SPLINE
5
10D
100
AcDbEntity
8
1
62
256
6
ByLayer
370
18
48
1
60
0
100
AcDbSpline
70
4
71
5
72
12
73
6
40
0
40
0
40
0
40
0
40
0
40
0
40
1
40
1
40
1
40
1
40
1
40
1
41
1
10
41.7811868211121
20
-11.7876098966437
30
0
41
1
10
41.6955317993418
20
-11.858036821601
30
0
41
1
10
41.6156791467943
20
-11.9356828966211
30
0
41
1
10
41.5436183128688
20
-12.0214332661032
30
0
41
1
10
41.4829014338881
20
-12.1169145312873
30
0
41
1
10
41.440412378842
20
-12.2202695867352
30
0
0
SPLINE
5
10E
100
AcDbEntity
8
1
62
256
6
ByLayer
370
18
48
1
60
0
100
AcDbSpline
70
4
71
5
72
12
73
6
40
0
40
0
40
0
40
0
40
0
40
0
40
1
40
1
40
1
40
1
40
1
40
1
41
1
10
41.48773068322
20
-12.3374872992
30
0
41
1
10
41.4876835659139
20
-12.3224563018626
30
0
41
1
10
41.4881885962297
20
-12.3074115094735
30
0
41
1
10
41.4892360382309
20
-12.2923837447707
30
0
41
1
10
41.4908137904746
20
-12.2773996134582
30
0
41
1
10
41.4929079888698
20
-12.2624820278266
30
0
0
SPLINE
5
10F
100
AcDbEntity
8
1
62
256
6
ByLayer
370
18
48
1
60
0
100
AcDbSpline
70
4
71
5
72
12
73
6
40
0
40
0
40
0
40
0
40
0
40
0
40
1
40
1
40
1
40
1
40
1
40
1
41
1
10
44.1748287842856
20
-11.7435034977512
30
0
41
1
10
44.1615679046649
20
-11.7676039195294
30
0
41
1
10
44.1464012244671
20
-11.7907372770201
30
0
41
1
10
44.1296209845735
20
-11.8127817798587
30
0
41
1
10
44.1115638290925
20
-11.8336666901564
30
0
41
1
10
44.09257589514
20
-11.853377082
30
0
0
SPLINE
5
110
100
AcDbEntity
8
1
62
256
6
ByLayer
370
18
48
1
60
0
100
AcDbSpline
70
4
71
5
72
12
73
6
40
0
40
0
40
0
40
0
40
0
40
0
40
1
40
1
40
1
40
1
40
1
40
1
41
1
10
41.7811868211121
20
-7.08739010335643
30
0
41
1
10
41.6955317993418
20
-7.0169631783991
30
0
41
1
10
41.6156791467943
20
-6.93931710337904
30
0
41
1
10
41.5436183128688
20
-6.85356673389688
30
0
41
1
10
41.4829014338881
20
-6.75808546871275
30
0
41
1
10
41.440412378842
20
-6.65473041326493
30
0
0
SPLINE
5
111
100
AcDbEntity
8
1
62
256
6
ByLayer
370
18
48
1
60
0
100
AcDbSpline
70
4
71
5
72
19
73
13
40
0
40
0
40
0
40
0
40
0
40
0
40
0.44522345479053
40
0.44522345479053
40
0.44522345479053
40
0.55477654520947
40
0.55477654520947
40
0.55477654520947
40
0.55477654520947
40
1
40
1
40
1
40
1
40
1
40
1
41
1
10
42.98690429806
20
-9.90730586524006
30
0
41
1
10
42.98955877067
20
-9.88750008943404
30
0
41
1
10
42.99184150192
20
-9.86762426821804
30
0
41
1
10
42.99383537624
20
-9.84769828055505
30
0
41
1
10
42.99592888491
20
-9.82281768908504
30
0
41
1
10
42.99751014375
20
-9.79788534703306
30
0
41
1
10
42.99780203956
20
-9.79296001804704
30
0
41
1
10
42.99807337586
20
-9.78803296081105
30
0
41
1
10
42.99905470334
20
-9.76799976075506
30
0
41
1
10
42.99966416951
20
-9.75289022198604
30
0
41
1
10
43.00003257604
20
-9.73775847556104
30
0
41
1
10
43.00018546629
20
-9.72263145821006
30
0
41
1
10
43.00021845637
20
-9.70750077175404
30
0
0
SPLINE
5
112
100
AcDbEntity
8
1
62
256
6
ByLayer
370
18
48
1
60
0
100
AcDbSpline
70
4
71
5
72
12
73
6
40
0
40
0
40
0
40
0
40
0
40
0
40
1
40
1
40
1
40
1
40
1
40
1
41
1
10
41.4975309728911
20
-12.2467062662102
30
0
41
1
10
41.5395278821964
20
-12.1527479898331
30
0
41
1
10
41.5991475440502
20
-12.0659476439157
30
0
41
1
10
41.6696982989645
20
-11.9879934070877
30
0
41
1
10
41.747746623697
20
-11.917406620183
30
0
41
1
10
41.8313692912785
20
-11.8533826262003
30
0
0
SPLINE
5
113
100
AcDbEntity
8
1
62
256
6
ByLayer
370
18
48
1
60
0
100
AcDbSpline
70
4
71
5
72
15
73
9
40
0
40
0
40
0
40
0
40
0
40
0
40
0.437068328965547
40
0.437068328965547
40
0.437068328965547
40
1
40
1
40
1
40
1
40
1
40
1
41
1
10
47.5310782149
20
-7.95292561675006
30
0
41
1
10
47.5311473805
20
-7.89592590499007
30
0
41
1
10
47.5416724572
20
-7.84128902159006
30
0
41
1
10
47.5621295952
20
-7.78805013060006
30
0
41
1
10
47.6227463326
20
-7.67738513088005
30
0
41
1
10
47.7078759745
20
-7.58536873268005
30
0
41
1
10
47.7591602355
20
-7.53982603211006
30
0
41
1
10
47.8146792816
20
-7.49731580571006
30
0
41
1
10
47.870586004
20
-7.45990205625006
30
0
0
SPLINE
5
114
100
AcDbEntity
8
1
62
256
6
ByLayer
370
18
48
1
60
0
100
AcDbSpline
70
4
71
5
72
12
73
6
40
0
40
0
40
0
40
0
40
0
40
0
40
1
40
1
40
1
40
1
40
1
40
1
41
1
10
41.78118719384
20
-11.78760959018
30
0
41
1
10
41.7927188692
20
-11.8012142176901
30
0
41
1
10
41.80425075487
20
-11.8155216031001
30
0
41
1
10
41.8150033301
20
-11.82961411792
30
0
41
1
10
41.82420425165
20
-11.84247949689
30
0
41
1
10
41.83137456607
20
-11.8533860357501
30
0
0
SPLINE
5
115
100
AcDbEntity
8
1
62
256
6
ByLayer
370
18
48
1
60
0
100
AcDbSpline
70
4
71
5
72
12
73
6
40
0
40
0
40
0
40
0
40
0
40
0
40
1
40
1
40
1
40
1
40
1
40
1
41
1
10
42.62697719621
20
-8.66364130673605
30
0
41
1
10
42.58435023177
20
-8.65508260976205
30
0
41
1
10
42.54184577374
20
-8.64565298368504
30
0
41
1
10
42.49948305591
20
-8.63533809840806
30
0
41
1
10
42.4572832651
20
-8.62412043705206
30
0
41
1
10
42.41527092836
20
-8.61197866723705
30
0
0
SPLINE
5
116
100
AcDbEntity
8
1
62
256
6
ByLayer
370
18
48
1
60
0
100
AcDbSpline
70
4
71
5
72
12
73
6
40
0
40
0
40
0
40
0
40
0
40
0
40
1
40
1
40
1
40
1
40
1
40
1
41
1
10
42.41527092767
20
-10.263021332762
30
0
41
1
10
42.41054245407
20
-10.2386383520771
30
0
41
1
10
42.40131669698
20
-10.2142444699821
30
0
41
1
10
42.38817991478
20
-10.1930735977801
30
0
41
1
10
42.37304321724
20
-10.1782056269011
30
0
41
1
10
42.35791328443
20
-10.170585349363
30
0
0
SPLINE
5
117
100
AcDbEntity
8
1
62
256
6
ByLayer
370
18
48
1
60
0
100
AcDbSpline
70
4
71
5
72
12
73
6
40
0
40
0
40
0
40
0
40
0
40
0
40
1
40
1
40
1
40
1
40
1
40
1
41
1
10
43.00022626063
20
-9.70750000069805
30
0
41
1
10
42.99021841521
20
-9.70750000069805
30
0
41
1
10
42.97914050042
20
-9.70750000069805
30
0
41
1
10
42.96730327683
20
-9.70750000069805
30
0
41
1
10
42.95508590949
20
-9.70750000069805
30
0
41
1
10
42.942868617
20
-9.70750000069805
30
0
0
SPLINE
5
118
100
AcDbEntity
8
1
62
256
6
ByLayer
370
18
48
1
60
0
100
AcDbSpline
70
4
71
5
72
12
73
6
40
0
40
0
40
0
40
0
40
0
40
0
40
1
40
1
40
1
40
1
40
1
40
1
41
1
10
41.4404205480075
20
-12.2202706541953
30
0
41
1
10
41.4390233464929
20
-12.2270739846429
30
0
41
1
10
41.4378454735756
20
-12.23397547124
30
0
41
1
10
41.4368998119326
20
-12.2409473416523
30
0
41
1
10
41.4361942166871
20
-12.2479636156782
30
0
41
1
10
41.43573302729
20
-12.2549977332101
30
0
0
SPLINE
5
119
100
AcDbEntity
8
1
62
256
6
ByLayer
370
18
48
1
60
0
100
AcDbSpline
70
4
71
11
72
24
73
12
40
0
40
0
40
0
40
0
40
0
40
0
40
0
40
0
40
0
40
0
40
0
40
0
40
1
40
1
40
1
40
1
40
1
40
1
40
1
40
1
40
1
40
1
40
1
40
1
41
1
10
44.25821566957
20
-6.11070508076006
30
0
41
1
10
44.24997112695
20
-6.11546506966005
30
0
41
1
10
44.24147735207
20
-6.11979337518005
30
0
41
1
10
44.23275945903
20
-6.12367549774004
30
0
41
1
10
44.22384351111
20
-6.12709858134005
30
0
41
1
10
44.21475639771
20
-6.13005148464006
30
0
41
1
10
44.20552570516
20
-6.13252484128006
30
0
41
1
10
44.19617958246
20
-6.13451110873004
30
0
41
1
10
44.18674660322
20
-6.13600460535005
30
0
41
1
10
44.17725562497
20
-6.13700153510004
30
0
41
1
10
44.16773564724
20
-6.13749999997006
30
0
41
1
10
44.15821566951
20
-6.13749999996006
30
0
0
SPLINE
5
11A
100
AcDbEntity
8
1
62
256
6
ByLayer
370
18
48
1
60
0
100
AcDbSpline
70
4
71
5
72
15
73
9
40
0
40
0
40
0
40
0
40
0
40
0
40
0.0074613573023018
40
0.0074613573023018
40
0.0074613573023018
40
1
40
1
40
1
40
1
40
1
40
1
41
1
10
48.4961060347578
20
-11.9321660869448
30
0
41
1
10
48.4956209068597
20
-11.9315073699791
30
0
41
1
10
48.4951351973132
20
-11.9308491611724
30
0
41
1
10
48.494648907871
20
-11.9301914593771
30
0
41
1
10
48.4293970251105
20
-11.8421115115439
30
0
41
1
10
48.3537903458
20
-11.7630958157601
30
0
41
1
10
48.2734438481
20
-11.69271885667
30
0
41
1
10
48.1881536441
20
-11.6280525138701
30
0
41
1
10
48.1008681941
20
-11.5695206200901
30
0
0
SPLINE
5
11B
100
AcDbEntity
8
1
62
256
6
ByLayer
370
18
48
1
60
0
100
AcDbSpline
70
4
71
3
72
9
73
5
40
0
40
0
40
0
40
0
40
0.53532100656769
40
1
40
1
40
1
40
1
41
1
10
44.1118040765449
20
-11.5632938739698
30
0
41
1
10
44.1311354326976
20
-11.5924776201357
30
0
41
1
10
44.1672471412155
20
-11.6469939679117
30
0
41
1
10
44.1724013667729
20
-11.7128795105062
30
0
41
1
10
44.1747964271169
20
-11.7434951381207
30
0
0
SPLINE
5
11C
100
AcDbEntity
8
1
62
256
6
ByLayer
370
18
48
1
60
0
100
AcDbSpline
70
4
71
3
72
16
73
12
40
0
40
0
40
0
40
0
40
0.0040051937034387
40
0.008123333612516
40
0.0162581606211145
40
0.0321730544214014
40
0.0629558962209211
40
0.122666009016094
40
0.243856595800664
40
0.494523961324332
40
1
40
1
40
1
40
1
41
1
10
42.9295211895393
20
-8.97676441302804
30
0
41
1
10
42.9293863299519
20
-8.97614187425938
30
0
41
1
10
42.9291128077453
20
-8.97487924116874
30
0
41
1
10
42.9285584739813
20
-8.97235605070367
30
0
41
1
10
42.9275096116061
20
-8.9680094526322
30
0
41
1
10
42.9251719226103
20
-8.95964531344796
30
0
41
1
10
42.9194740991099
20
-8.94386133512148
30
0
41
1
10
42.9038030451435
20
-8.91469875807775
30
0
41
1
10
42.859631635247
20
-8.8654487498589
30
0
41
1
10
42.7483970705724
20
-8.79615527440495
30
0
41
1
10
42.6413097707737
20
-8.77436070853574
30
0
41
1
10
42.5697227361
20
-8.75979120920655
30
0
0
SPLINE
5
11D
100
AcDbEntity
8
1
62
256
6
ByLayer
370
18
48
1
60
0
100
AcDbSpline
70
4
71
5
72
22
73
16
40
0
40
0
40
0
40
0
40
0
40
0
40
0.333333333333333
40
0.333333333333333
40
0.333333333333333
40
0.333333333333333
40
0.333333333333333
40
0.666666666666667
40
0.666666666666667
40
0.666666666666667
40
0.666666666666667
40
0.666666666666667
40
1
40
1
40
1
40
1
40
1
40
1
41
1
10
42.62708037975
20
-8.66382620588305
30
0
41
1
10
42.69394048968
20
-8.67646145762706
30
0
41
1
10
42.75956077285
20
-8.69984142791904
30
0
41
1
10
42.82376569857
20
-8.73086524588504
30
0
41
1
10
42.88250096524
20
-8.77358069990603
30
0
41
1
10
42.9290884251499
20
-8.8339898566922
30
0
41
1
10
42.94093860435
20
-8.84935577993906
30
0
41
1
10
42.95188292131
20
-8.86589822957205
30
0
41
1
10
42.96161676176
20
-8.88354375570304
30
0
41
1
10
42.96987403676
20
-8.90212904953106
30
0
41
1
10
42.9763022793878
20
-8.92178809404047
30
0
41
1
10
42.97920707521
20
-8.93067162779406
30
0
41
1
10
42.98183190399
20
-8.93966332263406
30
0
41
1
10
42.98402361099
20
-8.94891998666904
30
0
41
1
10
42.9855723407199
20
-8.95826903131106
30
0
41
1
10
42.98690181511
20
-8.96769824356406
30
0
0
SPLINE
5
11E
100
AcDbEntity
8
1
62
256
6
ByLayer
370
18
48
1
60
0
100
AcDbSpline
70
4
71
5
72
12
73
6
40
0
40
0
40
0
40
0
40
0
40
0
40
1
40
1
40
1
40
1
40
1
40
1
41
1
10
42.35791328442
20
-8.70441464824106
30
0
41
1
10
42.39991139387
20
-8.71741928199805
30
0
41
1
10
42.44210329739
20
-8.72943647490405
30
0
41
1
10
42.48446695877
20
-8.74048915461304
30
0
41
1
10
42.5269797832
20
-8.75059468517904
30
0
41
1
10
42.56961955257
20
-8.75976747633206
30
0
0
SPLINE
5
11F
100
AcDbEntity
8
1
62
256
6
ByLayer
370
18
48
1
60
0
100
AcDbSpline
70
4
71
5
72
12
73
6
40
0
40
0
40
0
40
0
40
0
40
0
40
1
40
1
40
1
40
1
40
1
40
1
41
1
10
44.1748287842856
20
-7.13149650224892
30
0
41
1
10
44.1615679046649
20
-7.10739608047066
30
0
41
1
10
44.1464012244671
20
-7.08426272298004
30
0
41
1
10
44.1296209845735
20
-7.06221822014135
30
0
41
1
10
44.1115638290925
20
-7.04133330984371
30
0
41
1
10
44.09257589514
20
-7.02162291800005
30
0
0
SPLINE
5
120
100
AcDbEntity
8
1
62
256
6
ByLayer
370
18
48
1
60
0
100
AcDbSpline
70
4
71
3
72
8
73
4
40
0
40
0
40
0
40
0
40
1
40
1
40
1
40
1
41
1
10
41.4876889784984
20
-12.33748729813
30
0
41
1
10
41.4710210001083
20
-12.3374868611385
30
0
41
1
10
41.4507221678717
20
-12.337486424147
30
0
41
1
10
41.4303743252867
20
-12.3374859871555
30
0
0
SPLINE
5
121
100
AcDbEntity
8
1
62
256
6
ByLayer
370
18
48
1
60
0
100
AcDbSpline
70
4
71
5
72
15
73
9
40
0
40
0
40
0
40
0
40
0
40
0
40
0.437068328965547
40
0.437068328965547
40
0.437068328965547
40
1
40
1
40
1
40
1
40
1
40
1
41
1
10
47.5310782149
20
-10.9220743832501
30
0
41
1
10
47.5311473805
20
-10.9790740950101
30
0
41
1
10
47.5416724572
20
-11.0337109784101
30
0
41
1
10
47.5621295952
20
-11.0869498694001
30
0
41
1
10
47.6227463326
20
-11.1976148691201
30
0
41
1
10
47.7078759745
20
-11.2896312673201
30
0
41
1
10
47.7591602355
20
-11.3351739678901
30
0
41
1
10
47.8146792816
20
-11.37768419429
30
0
41
1
10
47.870586004
20
-11.4150979437501
30
0
0
SPLINE
5
122
100
AcDbEntity
8
1
62
256
6
ByLayer
370
18
48
1
60
0
100
AcDbSpline
70
4
71
5
72
12
73
6
40
0
40
0
40
0
40
0
40
0
40
0
40
1
40
1
40
1
40
1
40
1
40
1
41
1
10
52
20
-6.21249999833006
30
0
41
1
10
51.9999130546
20
-5.95426859660006
30
0
41
1
10
51.8961489023
20
-5.69555194597007
30
0
41
1
10
51.686090443
20
-5.49446471986005
30
0
41
1
10
51.4230939055
20
-5.40208438800005
30
0
41
1
10
51.1651044901
20
-5.41326142273005
30
0
0
SPLINE
5
123
100
AcDbEntity
8
1
62
256
6
ByLayer
370
18
48
1
60
0
100
AcDbSpline
70
4
71
5
72
12
73
6
40
0
40
0
40
0
40
0
40
0
40
0
40
1
40
1
40
1
40
1
40
1
40
1
41
1
10
41.4357330272908
20
-6.62000226678992
30
0
41
1
10
41.4479215087867
20
-6.61840389439323
30
0
41
1
10
41.4601096226957
20
-6.61680557023914
30
0
41
1
10
41.4719133648689
20
-6.61525767021723
30
0
41
1
10
41.4829498836545
20
-6.61381041821625
30
0
41
1
10
41.4929061514645
20
-6.61250488264562
30
0
0
SPLINE
5
124
100
AcDbEntity
8
1
62
256
6
ByLayer
370
18
48
1
60
0
100
AcDbSpline
70
4
71
11
72
24
73
12
40
0
40
0
40
0
40
0
40
0
40
0
40
0
40
0
40
0
40
0
40
0
40
0
40
1
40
1
40
1
40
1
40
1
40
1
40
1
40
1
40
1
40
1
40
1
40
1
41
1
10
28.95110689109
20
-5.68030097867003
30
0
41
1
10
28.95982523158
20
-5.68068162963004
30
0
41
1
10
28.96852530194
20
-5.68148073092004
30
0
41
1
10
28.97718478664
20
-5.68269730818002
30
0
41
1
10
28.98578142845
20
-5.68432904823004
30
0
41
1
10
28.9942931203
20
-5.68637230305004
30
0
41
1
10
29.00269799687
20
-5.68882210116004
30
0
41
1
10
29.01097452502
20
-5.69167216620002
30
0
41
1
10
29.01910159254
20
-5.69491494291003
30
0
41
1
10
29.02705859446
20
-5.69854162987002
30
0
41
1
10
29.0348255163
20
-5.70254221916002
30
0
41
1
10
29.04238301365
20
-5.70690554229003
30
0
0
SPLINE
5
125
100
AcDbEntity
8
1
62
256
6
ByLayer
370
18
48
1
60
0
100
AcDbSpline
70
4
71
5
72
15
73
9
40
0
40
0
40
0
40
0
40
0
40
0
40
0.0074613572676229
40
0.0074613572676229
40
0.0074613572676229
40
1
40
1
40
1
40
1
40
1
40
1
41
1
10
48.4961060347465
20
-6.94283391307073
30
0
41
1
10
48.4956209068507
20
-6.94349263003332
30
0
41
1
10
48.4951351973064
20
-6.944150838837
30
0
41
1
10
48.4946489078664
20
-6.94480854062914
30
0
41
1
10
48.4293970251079
20
-7.03288848845898
30
0
41
1
10
48.3537903458
20
-7.11190418424005
30
0
41
1
10
48.2734438481
20
-7.18228114333004
30
0
41
1
10
48.1881536441
20
-7.24694748613007
30
0
41
1
10
48.1008681941
20
-7.30547937991005
30
0
0
SPLINE
5
126
100
AcDbEntity
8
1
62
256
6
ByLayer
370
18
48
1
60
0
100
AcDbSpline
70
4
71
3
72
8
73
4
40
0
40
0
40
0
40
0
40
1
40
1
40
1
40
1
41
1
10
44.1117917666895
20
-7.31169915821317
30
0
41
1
10
44.0612348761264
20
-7.36988887300996
30
0
41
1
10
44.0106779855632
20
-7.42807858780674
30
0
41
1
10
43.960121095
20
-7.48626830260352
30
0
0
SPLINE
5
127
100
AcDbEntity
8
1
62
256
6
ByLayer
370
18
48
1
60
0
100
AcDbSpline
70
4
71
5
72
12
73
6
40
0
40
0
40
0
40
0
40
0
40
0
40
1
40
1
40
1
40
1
40
1
40
1
41
1
10
41.4975418334
20
-12.2467117360901
30
0
41
1
10
41.49627727087
20
-12.24972712093
30
0
41
1
10
41.49506814699
20
-12.2527591897301
30
0
41
1
10
41.49409293678
20
-12.25595862778
30
0
41
1
10
41.49348559577
20
-12.25920329874
30
0
41
1
10
41.49293267505
20
-12.2624724861801
30
0
0
SPLINE
5
128
100
AcDbEntity
8
1
62
256
6
ByLayer
370
18
48
1
60
0
100
AcDbSpline
70
4
71
8
72
18
73
9
40
0
40
0
40
0
40
0
40
0
40
0
40
0
40
0
40
0
40
1
40
1
40
1
40
1
40
1
40
1
40
1
40
1
40
1
41
1
10
41.4876889785
20
-12.7375
30
0
41
1
10
41.48143408468
20
-12.7375
30
0
41
1
10
41.47479698803
20
-12.7375
30
0
41
1
10
41.4678332608
20
-12.7375
30
0
41
1
10
41.46060322996
20
-12.7375
30
0
41
1
10
41.4531709396
20
-12.7375
30
0
41
1
10
41.44560296585
20
-12.7375
30
0
41
1
10
41.43796715035
20
-12.7375
30
0
41
1
10
41.43033133486
20
-12.7375
30
0
0
SPLINE
5
129
100
AcDbEntity
8
1
62
256
6
ByLayer
370
18
48
1
60
0
100
AcDbSpline
70
4
71
5
72
12
73
6
40
0
40
0
40
0
40
0
40
0
40
0
40
1
40
1
40
1
40
1
40
1
40
1
41
1
10
42.6270803803304
20
-8.66382620599097
30
0
41
1
10
42.6235088988332
20
-8.6903164355347
30
0
41
1
10
42.614774529515
20
-8.71682445572162
30
0
41
1
10
42.6013626848791
20
-8.73929497788797
30
0
41
1
10
42.5855419467943
20
-8.75392412761622
30
0
41
1
10
42.5697310584348
20
-8.75989640477076
30
0
0
SPLINE
5
12A
100
AcDbEntity
8
1
62
256
6
ByLayer
370
18
48
1
60
0
100
AcDbSpline
70
4
71
5
72
12
73
6
40
0
40
0
40
0
40
0
40
0
40
0
40
1
40
1
40
1
40
1
40
1
40
1
41
1
10
42.9295233837883
20
-9.89816285731104
30
0
41
1
10
42.9135543748799
20
-9.98540233081931
30
0
41
1
10
42.8229768257609
20
-10.0465477757445
30
0
41
1
10
42.7482634085756
20
-10.0763163111912
30
0
41
1
10
42.6576094695955
20
-10.1034281284469
30
0
41
1
10
42.5697227361
20
-10.115100452873
30
0
0
SPLINE
5
12B
100
AcDbEntity
8
1
62
256
6
ByLayer
370
18
48
1
60
0
100
AcDbSpline
70
4
71
5
72
12
73
6
40
0
40
0
40
0
40
0
40
0
40
0
40
1
40
1
40
1
40
1
40
1
40
1
41
1
10
41.4877018288363
20
-6.53751273961862
30
0
41
1
10
41.477697754055
20
-6.53751310869387
30
0
41
1
10
41.4666251879979
20
-6.5375133911713
30
0
41
1
10
41.4547945631077
20
-6.53751361670842
30
0
41
1
10
41.4425844057222
20
-6.53751381450877
30
0
41
1
10
41.430374325298
20
-6.53751401234905
30
0
0
SPLINE
5
12C
100
AcDbEntity
8
1
62
256
6
ByLayer
370
18
48
1
60
0
100
AcDbSpline
70
4
71
5
72
12
73
6
40
0
40
0
40
0
40
0
40
0
40
0
40
1
40
1
40
1
40
1
40
1
40
1
41
1
10
42.0084088156964
20
-7.3111697737221
30
0
41
1
10
42.4290864162273
20
-7.31110541665973
30
0
41
1
10
42.8497640173488
20
-7.31104670945601
30
0
41
1
10
43.2704416186895
20
-7.3109915531636
30
0
41
1
10
43.6911192202488
20
-7.31093945802428
30
0
41
1
10
44.1117968220425
20
-7.31088995264881
30
0
0
SPLINE
5
12D
100
AcDbEntity
8
1
62
256
6
ByLayer
370
18
48
1
60
0
100
AcDbSpline
70
4
71
5
72
12
73
6
40
0
40
0
40
0
40
0
40
0
40
0
40
1
40
1
40
1
40
1
40
1
40
1
41
1
10
22
20
-12.66250000167
30
0
41
1
10
22.0000869454
20
-12.9207314034
30
0
41
1
10
22.1038510977
20
-13.17944805403
30
0
41
1
10
22.313909557
20
-13.38053528014
30
0
41
1
10
22.5769060945
20
-13.472915612
30
0
41
1
10
22.8348955099
20
-13.46173857727
30
0
0
SPLINE
5
12E
100
AcDbEntity
8
1
62
256
6
ByLayer
370
18
48
1
60
0
100
AcDbSpline
70
4
71
5
72
12
73
6
40
0
40
0
40
0
40
0
40
0
40
0
40
1
40
1
40
1
40
1
40
1
40
1
41
1
10
42.94285699163
20
-9.70750073604404
30
0
41
1
10
42.9428261726168
20
-9.74581142030092
30
0
41
1
10
42.9415985886776
20
-9.78412971687069
30
0
41
1
10
42.9387793601911
20
-9.82233823440021
30
0
41
1
10
42.9348460301949
20
-9.86038917742971
30
0
41
1
10
42.9295212005386
20
-9.89816366001151
30
0
0
SPLINE
5
12F
100
AcDbEntity
8
1
62
256
6
ByLayer
370
18
48
1
60
0
100
AcDbSpline
70
4
71
3
72
9
73
5
40
0
40
0
40
0
40
0
40
0.455364492365375
40
1
40
1
40
1
40
1
41
1
10
41.4975333696968
20
-6.62829335281788
30
0
41
1
10
41.5365772362644
20
-6.6973734930547
30
0
41
1
10
41.6223192456265
20
-6.84907645056458
30
0
41
1
10
41.7576577393812
20
-6.96077913671377
30
0
41
1
10
41.8313678886299
20
-7.02161638588879
30
0
0
SPLINE
5
130
100
AcDbEntity
8
1
62
256
6
ByLayer
370
18
48
1
60
0
100
AcDbSpline
70
4
71
5
72
12
73
6
40
0
40
0
40
0
40
0
40
0
40
0
40
1
40
1
40
1
40
1
40
1
40
1
41
1
10
41.9511014917
20
-11.54553841846
30
0
41
1
10
41.96337398982
20
-11.5485357289001
30
0
41
1
10
41.9756464632
20
-11.55188002412
30
0
41
1
10
41.98750994804
20
-11.5554716622
30
0
41
1
10
41.99855637966
20
-11.55918709548
30
0
41
1
10
42.00845663571
20
-11.5629025195701
30
0
0
SPLINE
5
131
100
AcDbEntity
8
1
62
256
6
ByLayer
370
18
48
1
60
0
100
AcDbSpline
70
4
71
11
72
24
73
12
40
0
40
0
40
0
40
0
40
0
40
0
40
0
40
0
40
0
40
0
40
0
40
0
40
1
40
1
40
1
40
1
40
1
40
1
40
1
40
1
40
1
40
1
40
1
40
1
41
1
10
45.04889310891
20
-5.68030097867006
30
0
41
1
10
45.04017476842
20
-5.68068162963004
30
0
41
1
10
45.03147469806
20
-5.68148073092004
30
0
41
1
10
45.02281521336
20
-5.68269730818005
30
0
41
1
10
45.01421857155
20
-5.68432904823004
30
0
41
1
10
45.0057068797
20
-5.68637230305006
30
0
41
1
10
44.99730200313
20
-5.68882210116004
30
0
41
1
10
44.98902547498
20
-5.69167216620005
30
0
41
1
10
44.98089840746
20
-5.69491494291006
30
0
41
1
10
44.97294140554
20
-5.69854162987005
30
0
41
1
10
44.9651744837
20
-5.70254221916005
30
0
41
1
10
44.95761698635
20
-5.70690554229006
30
0
0
SPLINE
5
132
100
AcDbEntity
8
1
62
256
6
ByLayer
370
18
48
1
60
0
100
AcDbSpline
70
4
71
3
72
9
73
5
40
0
40
0
40
0
40
0
40
0.536360108577927
40
1
40
1
40
1
40
1
41
1
10
44.1118042712703
20
-7.31170608462324
30
0
41
1
10
44.1311415082373
20
-7.2824419367733
30
0
41
1
10
44.1671942210655
20
-7.2278813022632
30
0
41
1
10
44.1723897373333
20
-7.16202975898517
30
0
41
1
10
44.1747985859317
20
-7.13149835660977
30
0
0
SPLINE
5
133
100
AcDbEntity
8
1
62
256
6
ByLayer
370
18
48
1
60
0
100
AcDbSpline
70
4
71
3
72
9
73
5
40
0
40
0
40
0
40
0
40
0.537936677317044
40
1
40
1
40
1
40
1
41
1
10
41.8313737783527
20
-7.02162944006821
30
0
41
1
10
41.8749318496606
20
-7.06690607109167
30
0
41
1
10
41.9559043379563
20
-7.15107328432069
30
0
41
1
10
41.9918153961585
20
-7.26104953779497
30
0
41
1
10
42.0084085790326
20
-7.31186553089154
30
0
0
SPLINE
5
134
100
AcDbEntity
8
1
62
256
6
ByLayer
370
18
48
1
60
0
100
AcDbSpline
70
4
71
5
72
12
73
6
40
0
40
0
40
0
40
0
40
0
40
0
40
1
40
1
40
1
40
1
40
1
40
1
41
1
10
42.2553276268
20
-10.337433833468
30
0
41
1
10
42.25532762618
20
-10.327791515484
30
0
41
1
10
42.25532762758
20
-10.3183574945471
30
0
41
1
10
42.25532762618
20
-10.3093240747951
30
0
41
1
10
42.25532762708
20
-10.3008750665661
30
0
41
1
10
42.25532762689
20
-10.2931648861961
30
0
0
SPLINE
5
135
100
AcDbEntity
8
1
62
256
6
ByLayer
370
18
48
1
60
0
100
AcDbSpline
70
4
71
5
72
12
73
6
40
0
40
0
40
0
40
0
40
0
40
0
40
1
40
1
40
1
40
1
40
1
40
1
41
1
10
42.35791328426
20
-10.2013875634871
30
0
41
1
10
42.35791328432
20
-10.193259150896
30
0
41
1
10
42.35791328444
20
-10.1859562215141
30
0
41
1
10
42.35791328435
20
-10.1796593972451
30
0
41
1
10
42.35791328437
20
-10.174508782037
30
0
41
1
10
42.35791328443
20
-10.170585349363
30
0
0
SPLINE
5
136
100
AcDbEntity
8
1
62
256
6
ByLayer
370
18
48
1
60
0
100
AcDbSpline
70
4
71
5
72
12
73
6
40
0
40
0
40
0
40
0
40
0
40
0
40
1
40
1
40
1
40
1
40
1
40
1
41
1
10
43.58066632218
20
-10.7495956751401
30
0
41
1
10
43.58048682909
20
-10.86555171218
30
0
41
1
10
43.6113312314
20
-10.98074011152
30
0
41
1
10
43.66654446845
20
-11.07951216634
30
0
41
1
10
43.7328341277
20
-11.1649125359401
30
0
41
1
10
43.80676334812
20
-11.23766761479
30
0
0
SPLINE
5
137
100
AcDbEntity
8
1
62
256
6
ByLayer
370
18
48
1
60
0
100
AcDbSpline
70
4
71
5
72
12
73
6
40
0
40
0
40
0
40
0
40
0
40
0
40
1
40
1
40
1
40
1
40
1
40
1
41
1
10
41.49754184198
20
-6.62828825924004
30
0
41
1
10
41.48784748179
20
-6.63357091623004
30
0
41
1
10
41.4768945487499
20
-6.63905362061004
30
0
41
1
10
41.46503823438
20
-6.64454241528006
30
0
41
1
10
41.45272963975
20
-6.64982846593006
30
0
41
1
10
41.44042107339
20
-6.65473190396006
30
0
0
SPLINE
5
138
100
AcDbEntity
8
1
62
256
6
ByLayer
370
18
48
1
60
0
100
AcDbSpline
70
4
71
11
72
24
73
12
40
0
40
0
40
0
40
0
40
0
40
0
40
0
40
0
40
0
40
0
40
0
40
0
40
1
40
1
40
1
40
1
40
1
40
1
40
1
40
1
40
1
40
1
40
1
40
1
41
1
10
29.74178433043
20
-12.76429491924
30
0
41
1
10
29.75002887305
20
-12.75953493034
30
0
41
1
10
29.75852264793
20
-12.75520662482
30
0
41
1
10
29.76724054097
20
-12.75132450226
30
0
41
1
10
29.77615648889
20
-12.74790141866
30
0
41
1
10
29.78524360229
20
-12.74494851536
30
0
41
1
10
29.79447429484
20
-12.74247515872
30
0
41
1
10
29.80382041754
20
-12.74048889127
30
0
41
1
10
29.81325339678
20
-12.73899539465
30
0
41
1
10
29.82274437503
20
-12.7379984649
30
0
41
1
10
29.83226435276
20
-12.73750000003
30
0
41
1
10
29.84178433049
20
-12.73750000004
30
0
0
SPLINE
5
139
100
AcDbEntity
8
1
62
256
6
ByLayer
370
18
48
1
60
0
100
AcDbSpline
70
4
71
5
72
12
73
6
40
0
40
0
40
0
40
0
40
0
40
0
40
1
40
1
40
1
40
1
40
1
40
1
41
1
10
41.83136632335
20
-11.85337629097
30
0
41
1
10
41.881265342052
20
-11.806625889056
30
0
41
1
10
41.9263392270178
20
-11.754348233812
30
0
41
1
10
41.9652263636057
20
-11.6963397513695
30
0
41
1
10
41.9940789533698
20
-11.6313808641052
30
0
41
1
10
42.0084079833223
20
-11.5631345762366
30
0
0
SPLINE
5
13A
100
AcDbEntity
8
1
62
256
6
ByLayer
370
18
48
1
60
0
100
AcDbSpline
70
4
71
5
72
19
73
13
40
0
40
0
40
0
40
0
40
0
40
0
40
0.44522345479053
40
0.44522345479053
40
0.44522345479053
40
0.55477654520947
40
0.55477654520947
40
0.55477654520947
40
0.55477654520947
40
1
40
1
40
1
40
1
40
1
40
1
41
1
10
42.98690429806
20
-8.96769413476005
30
0
41
1
10
42.98955877067
20
-8.98749991056604
30
0
41
1
10
42.99184150192
20
-9.00737573178205
30
0
41
1
10
42.99383537624
20
-9.02730171944503
30
0
41
1
10
42.99592888491
20
-9.05218231091504
30
0
41
1
10
42.99751014375
20
-9.07711465296705
30
0
41
1
10
42.99780203956
20
-9.08203998195305
30
0
41
1
10
42.99807337586
20
-9.08696703918906
30
0
41
1
10
42.99905470334
20
-9.10700023924505
30
0
41
1
10
42.99966416951
20
-9.12210977801405
30
0
41
1
10
43.00003257604
20
-9.13724152443905
30
0
41
1
10
43.00018546629
20
-9.15236854179005
30
0
41
1
10
43.00021845637
20
-9.16749922824604
30
0
0
SPLINE
5
13B
100
AcDbEntity
8
1
62
256
6
ByLayer
370
18
48
1
60
0
100
AcDbSpline
70
4
71
5
72
12
73
6
40
0
40
0
40
0
40
0
40
0
40
0
40
1
40
1
40
1
40
1
40
1
40
1
41
1
10
42.6269555849334
20
-10.2111988421292
30
0
41
1
10
42.6233645409242
20
-10.1847291541028
30
0
41
1
10
42.6146227484244
20
-10.1582563538128
30
0
41
1
10
42.6012185476615
20
-10.1358207608289
30
0
41
1
10
42.5854137535479
20
-10.12120907412
30
0
41
1
10
42.56961955257
20
-10.1152325236681
30
0
0
SPLINE
5
13C
100
AcDbEntity
8
1
62
256
6
ByLayer
370
18
48
1
60
0
100
AcDbSpline
70
4
71
5
72
12
73
6
40
0
40
0
40
0
40
0
40
0
40
0
40
1
40
1
40
1
40
1
40
1
40
1
41
1
10
42.0084088156938
20
-11.563830226278
30
0
41
1
10
42.4290864162249
20
-11.5638945833404
30
0
41
1
10
42.8497640173467
20
-11.5639532905441
30
0
41
1
10
43.2704416186876
20
-11.5640084468365
30
0
41
1
10
43.6911192202471
20
-11.5640605419758
30
0
41
1
10
44.1117968220411
20
-11.5641100473513
30
0
0
SPLINE
5
13D
100
AcDbEntity
8
1
62
256
6
ByLayer
370
18
48
1
60
0
100
AcDbSpline
70
4
71
3
72
9
73
5
40
0
40
0
40
0
40
0
40
0.532506196566938
40
1
40
1
40
1
40
1
41
1
10
44.0925790769361
20
-7.02162025630534
30
0
41
1
10
44.0289431530555
20
-6.94653882774071
30
0
41
1
10
43.9094404612732
20
-6.80554248056447
30
0
41
1
10
43.8857296860733
20
-6.62288925236183
30
0
41
1
10
43.8746450455927
20
-6.53750000000005
30
0
0
SPLINE
5
13E
100
AcDbEntity
8
1
62
256
6
ByLayer
370
18
48
1
60
0
100
AcDbSpline
70
4
71
2
72
6
73
3
40
0
40
0
40
0
40
1
40
1
40
1
41
1
10
44.1117947579409
20
-11.563303623549
30
0
41
1
10
44.0447684892365
20
-11.4721503572671
30
0
41
1
10
43.9601210950061
20
-11.3887316974001
30
0
0
SPLINE
5
13F
100
AcDbEntity
8
1
62
256
6
ByLayer
370
18
48
1
60
0
100
AcDbSpline
70
4
71
5
72
12
73
6
40
0
40
0
40
0
40
0
40
0
40
0
40
1
40
1
40
1
40
1
40
1
40
1
41
1
10
42.41527092767
20
-8.61197866723805
30
0
41
1
10
42.41054245407
20
-8.63636164792305
30
0
41
1
10
42.40131669698
20
-8.66075553001804
30
0
41
1
10
42.38817991478
20
-8.68192640222006
30
0
41
1
10
42.37304321724
20
-8.69679437309904
30
0
41
1
10
42.35791328443
20
-8.70441465063703
30
0
0
SPLINE
5
140
100
AcDbEntity
8
1
62
256
6
ByLayer
370
18
48
1
60
0
100
AcDbSpline
70
4
71
8
72
18
73
9
40
0
40
0
40
0
40
0
40
0
40
0
40
0
40
0
40
0
40
1
40
1
40
1
40
1
40
1
40
1
40
1
40
1
40
1
41
1
10
42.25532762777
20
-10.29316488864
30
0
41
1
10
42.26348778272
20
-10.2988211692671
30
0
41
1
10
42.2716479373
20
-10.3053098924651
30
0
41
1
10
42.27966114147
20
-10.3125291982441
30
0
41
1
10
42.28738044356
20
-10.3203562390191
30
0
41
1
10
42.29466444815
20
-10.328651029836
30
0
41
1
10
42.30138288168
20
-10.337261632917
30
0
41
1
10
42.30742142068
20
-10.346030142886
30
0
41
1
10
42.31268527141
20
-10.3547986527931
30
0
0
SPLINE
5
141
100
AcDbEntity
8
1
62
256
6
ByLayer
370
18
48
1
60
0
100
AcDbSpline
70
4
71
5
72
22
73
16
40
0
40
0
40
0
40
0
40
0
40
0
40
0.333333333333333
40
0.333333333333333
40
0.333333333333333
40
0.333333333333333
40
0.333333333333333
40
0.666666666666667
40
0.666666666666667
40
0.666666666666667
40
0.666666666666667
40
0.666666666666667
40
1
40
1
40
1
40
1
40
1
40
1
41
1
10
42.62708037975
20
-10.2111737941171
30
0
41
1
10
42.69394048968
20
-10.1985385423731
30
0
41
1
10
42.75956077285
20
-10.1751585720811
30
0
41
1
10
42.82376569857
20
-10.144134754115
30
0
41
1
10
42.88250096524
20
-10.1014193000941
30
0
41
1
10
42.9290884251499
20
-10.0410101433079
30
0
41
1
10
42.94093860435
20
-10.0256442200611
30
0
41
1
10
42.95188292131
20
-10.0091017704281
30
0
41
1
10
42.96161676176
20
-9.99145624429704
30
0
41
1
10
42.96987403676
20
-9.97287095046906
30
0
41
1
10
42.9763022793878
20
-9.95321190595965
30
0
41
1
10
42.97920707521
20
-9.94432837220606
30
0
41
1
10
42.98183190399
20
-9.93533667736605
30
0
41
1
10
42.98402361099
20
-9.92608001333105
30
0
41
1
10
42.9855723407199
20
-9.91673096868905
30
0
41
1
10
42.98690181511
20
-9.90730175643606
30
0
0
SPLINE
5
142
100
AcDbEntity
8
1
62
256
6
ByLayer
370
18
48
1
60
0
100
AcDbSpline
70
4
71
5
72
12
73
6
40
0
40
0
40
0
40
0
40
0
40
0
40
1
40
1
40
1
40
1
40
1
40
1
41
1
10
42.35791328426
20
-8.67361243651305
30
0
41
1
10
42.35791328432
20
-8.68174084910405
30
0
41
1
10
42.35791328444
20
-8.68904377848605
30
0
41
1
10
42.35791328435
20
-8.69534060275504
30
0
41
1
10
42.35791328437
20
-8.70049121796305
30
0
41
1
10
42.35791328443
20
-8.70441465063703
30
0
0
SPLINE
5
143
100
AcDbEntity
8
1
62
256
6
ByLayer
370
18
48
1
60
0
100
AcDbSpline
70
4
71
5
72
12
73
6
40
0
40
0
40
0
40
0
40
0
40
0
40
1
40
1
40
1
40
1
40
1
40
1
41
1
10
42.25532762775
20
-10.337433833868
30
0
41
1
10
42.26760058831
20
-10.340431242685
30
0
41
1
10
42.27987364203
20
-10.3437756684351
30
0
41
1
10
42.2917375973
20
-10.347367425935
30
0
41
1
10
42.3027845514
20
-10.351083064616
30
0
41
1
10
42.31268527138
20
-10.354798651634
30
0
0
SPLINE
5
144
100
AcDbEntity
8
1
62
256
6
ByLayer
370
18
48
1
60
0
100
AcDbSpline
70
4
71
8
72
18
73
9
40
0
40
0
40
0
40
0
40
0
40
0
40
0
40
0
40
0
40
1
40
1
40
1
40
1
40
1
40
1
40
1
40
1
40
1
41
1
10
32.5123110215
20
-12.7375
30
0
41
1
10
32.51856591532
20
-12.7375
30
0
41
1
10
32.52520301197
20
-12.7375
30
0
41
1
10
32.5321667392
20
-12.7375
30
0
41
1
10
32.53939677004
20
-12.7375
30
0
41
1
10
32.5468290604
20
-12.7375
30
0
41
1
10
32.55439703415
20
-12.7375
30
0
41
1
10
32.56203284965
20
-12.7375
30
0
41
1
10
32.56966866514
20
-12.7375
30
0
0
SPLINE
5
145
100
AcDbEntity
8
1
62
256
6
ByLayer
370
18
48
1
60
0
100
AcDbSpline
70
4
71
5
72
12
73
6
40
0
40
0
40
0
40
0
40
0
40
0
40
1
40
1
40
1
40
1
40
1
40
1
41
1
10
41.4357091738559
20
-6.62000399685323
30
0
41
1
10
41.4335512362019
20
-6.60359775927935
30
0
41
1
10
41.4319254699008
20
-6.58711836418792
30
0
41
1
10
41.4308461574983
20
-6.57059100207394
30
0
41
1
10
41.4303257658732
20
-6.55404492318675
30
0
41
1
10
41.4303743252964
20
-6.53751401291495
30
0
0
SPLINE
5
146
100
AcDbEntity
8
1
62
256
6
ByLayer
370
18
48
1
60
0
100
AcDbSpline
70
4
71
11
72
24
73
12
40
0
40
0
40
0
40
0
40
0
40
0
40
0
40
0
40
0
40
0
40
0
40
0
40
1
40
1
40
1
40
1
40
1
40
1
40
1
40
1
40
1
40
1
40
1
40
1
41
1
10
45.04889310891
20
-13.1946990213301
30
0
41
1
10
45.04017476842
20
-13.19431837037
30
0
41
1
10
45.03147469806
20
-13.19351926908
30
0
41
1
10
45.02281521336
20
-13.1923026918201
30
0
41
1
10
45.01421857155
20
-13.19067095177
30
0
41
1
10
45.0057068797
20
-13.1886276969501
30
0
41
1
10
44.99730200313
20
-13.18617789884
30
0
41
1
10
44.98902547498
20
-13.1833278338001
30
0
41
1
10
44.98089840746
20
-13.1800850570901
30
0
41
1
10
44.97294140554
20
-13.1764583701301
30
0
41
1
10
44.9651744837
20
-13.1724577808401
30
0
41
1
10
44.95761698635
20
-13.16809445771
30
0
0
SPLINE
5
147
100
AcDbEntity
8
1
62
256
6
ByLayer
370
18
48
1
60
0
100
AcDbSpline
70
4
71
5
72
12
73
6
40
0
40
0
40
0
40
0
40
0
40
0
40
1
40
1
40
1
40
1
40
1
40
1
41
1
10
42.25532762775
20
-8.53756616613205
30
0
41
1
10
42.26760058831
20
-8.53456875731504
30
0
41
1
10
42.27987364203
20
-8.53122433156506
30
0
41
1
10
42.2917375973
20
-8.52763257406505
30
0
41
1
10
42.3027845514
20
-8.52391693538405
30
0
41
1
10
42.31268527138
20
-8.52020134836604
30
0
0
SPLINE
5
148
100
AcDbEntity
8
1
62
256
6
ByLayer
370
18
48
1
60
0
100
AcDbSpline
70
4
71
5
72
12
73
6
40
0
40
0
40
0
40
0
40
0
40
0
40
1
40
1
40
1
40
1
40
1
40
1
41
1
10
41.95109915869
20
-7.32946215133003
30
0
41
1
10
41.93679778226
20
-7.27254373541004
30
0
41
1
10
41.90888514454
20
-7.21836408801005
30
0
41
1
10
41.87162932108
20
-7.16998225618005
30
0
41
1
10
41.8286349824
20
-7.12638633844006
30
0
41
1
10
41.78117848899
20
-7.08740067765004
30
0
0
SPLINE
5
149
100
AcDbEntity
8
1
62
256
6
ByLayer
370
18
48
1
60
0
100
AcDbSpline
70
4
71
11
72
24
73
12
40
0
40
0
40
0
40
0
40
0
40
0
40
0
40
0
40
0
40
0
40
0
40
0
40
1
40
1
40
1
40
1
40
1
40
1
40
1
40
1
40
1
40
1
40
1
40
1
41
1
10
28.95110689109
20
-13.19469902133
30
0
41
1
10
28.95982523158
20
-13.19431837037
30
0
41
1
10
28.96852530194
20
-13.19351926908
30
0
41
1
10
28.97718478664
20
-13.19230269182
30
0
41
1
10
28.98578142845
20
-13.19067095177
30
0
41
1
10
28.9942931203
20
-13.18862769695
30
0
41
1
10
29.00269799687
20
-13.18617789884
30
0
41
1
10
29.01097452502
20
-13.1833278338
30
0
41
1
10
29.01910159254
20
-13.18008505709
30
0
41
1
10
29.02705859446
20
-13.17645837013
30
0
41
1
10
29.0348255163
20
-13.17245778084
30
0
41
1
10
29.04238301365
20
-13.16809445771
30
0
0
SPLINE
5
14A
100
AcDbEntity
8
1
62
256
6
ByLayer
370
18
48
1
60
0
100
AcDbSpline
70
4
71
3
72
14
73
10
40
0
40
0
40
0
40
0
40
0.220170037959094
40
0.220170037959094
40
0.513894544314518
40
0.513894544314518
40
0.779127126142474
40
0.779127126142474
40
1
40
1
40
1
40
1
41
1
10
15.901831672403
20
1.44573322052292
30
0
41
1
10
15.8601068141321
20
1.45683278051419
30
0
41
1
10
15.8190010815936
20
1.47384404855509
30
0
41
1
10
15.7297424597144
20
1.52647193558352
30
0
41
1
10
15.6823754340564
20
1.56746725539111
30
0
41
1
10
15.6100836522094
20
1.66063321062717
30
0
41
1
10
15.5824089980939
20
1.71283225693776
30
0
41
1
10
15.5506463360883
20
1.81419454247293
30
0
41
1
10
15.543
20
1.86366942504111
30
0
41
1
10
15.543
20
1.91249999999999
30
0
0
SPLINE
5
14B
100
AcDbEntity
8
1
62
256
6
ByLayer
370
18
48
1
60
0
100
AcDbSpline
70
4
71
3
72
18
73
14
40
0
40
0
40
0
40
0
40
0.181666908878583
40
0.181666908878583
40
0.360750617017816
40
0.360750617017816
40
0.541895453074694
40
0.541895453074694
40
0.695365105948643
40
0.695365105948643
40
0.891753383060548
40
0.891753383060548
40
1
40
1
40
1
40
1
41
1
10
19.9794641406544
20
0.0266988437297471
30
0
41
1
10
19.9526398265003
20
0.125851532827511
30
0
41
1
10
19.9384602459352
20
0.231224324475704
30
0
41
1
10
19.9403139531036
20
0.444606665323079
30
0
41
1
10
19.9562426230037
20
0.555100603150976
30
0
41
1
10
20.0211140051548
20
0.770245816865213
30
0
41
1
10
20.0718441395718
20
0.878089399512533
30
0
41
1
10
20.190504121791
20
1.05465637441716
30
0
41
1
10
20.2559542246233
20
1.12902664239275
30
0
41
1
10
20.4168403373044
20
1.2722752511232
30
0
41
1
10
20.5179980746868
20
1.33652950069148
30
0
41
1
10
20.6794511603026
20
1.40902824486073
30
0
41
1
10
20.7385601350612
20
1.42987637315815
30
0
41
1
10
20.7981683275964
20
1.4457332205252
30
0
0
SPLINE
5
14C
100
AcDbEntity
8
1
62
256
6
ByLayer
370
18
48
1
60
0
100
AcDbSpline
70
4
71
3
72
14
73
10
40
0
40
0
40
0
40
0
40
0.222411655270652
40
0.222411655270652
40
0.515858824453701
40
0.515858824453701
40
0.780847480391326
40
0.780847480391326
40
1
40
1
40
1
40
1
41
1
10
16.7205358593442
20
3.79830115626981
30
0
41
1
10
16.7091462249202
20
3.84040150129624
30
0
41
1
10
16.7032956435497
20
3.88497914714304
30
0
41
1
10
16.7044780289879
20
3.98902248713011
30
0
41
1
10
16.7164205388668
20
4.05047934843316
30
0
41
1
10
16.7611484449685
20
4.15951278894468
30
0
41
1
10
16.7925904447841
20
4.20948549228456
30
0
41
1
10
16.8643498449848
20
4.28724605635503
30
0
41
1
10
16.9030748695198
20
4.31832714508653
30
0
41
1
10
16.9450206807898
20
4.34257862271812
30
0
0
SPLINE
5
14D
100
AcDbEntity
8
1
62
256
6
ByLayer
370
18
48
1
60
0
100
AcDbSpline
70
4
71
3
72
18
73
14
40
0
40
0
40
0
40
0
40
0.18175277145018
40
0.18175277145018
40
0.360818406833419
40
0.360818406833419
40
0.541944163041264
40
0.541944163041264
40
0.695407615755982
40
0.695407615755982
40
0.891808268956467
40
0.891808268956467
40
1
40
1
40
1
40
1
41
1
10
20.7981683275966
20
2.37926677947542
30
0
41
1
10
20.6988559553603
20
2.40568565012444
30
0
41
1
10
20.6004880467831
20
2.44617846064796
30
0
41
1
10
20.416660320138
20
2.55463559373976
30
0
41
1
10
20.3289907291675
20
2.62373705977308
30
0
41
1
10
20.1752354772816
20
2.78758874691536
30
0
41
1
10
20.1072814826209
20
2.88548349509296
30
0
41
1
10
20.0138398120849
20
3.07658101552477
30
0
41
1
10
19.9822248539708
20
3.17046491596196
30
0
41
1
10
19.938755204354
20
3.3814525556561
30
0
41
1
10
19.9337711326442
20
3.50119446581351
30
0
41
1
10
19.9518323112013
20
3.67722313725545
30
0
41
1
10
19.9633653362174
20
3.73879395910797
30
0
41
1
10
19.9794641406537
20
3.7983011562705
30
0
0
SPLINE
5
14E
100
AcDbEntity
8
1
62
256
6
ByLayer
370
18
48
1
60
0
100
AcDbSpline
70
4
71
3
72
12
73
8
40
0
40
0
40
0
40
0
40
0.368706056448697
40
0.368706056448697
40
0.737980850848006
40
0.737980850848006
40
1
40
1
40
1
40
1
41
1
10
18.4153472699775
20
-0.0999393119561489
30
0
41
1
10
18.5244901215341
20
-0.106118905583713
30
0
41
1
10
18.6333517440413
20
-0.128426793061607
30
0
41
1
10
18.8325096312107
20
-0.198287310988576
30
0
41
1
10
18.9255727775013
20
-0.246553974342987
30
0
41
1
10
19.0670109423506
20
-0.344495033296994
30
0
41
1
10
19.1213385199131
20
-0.390245297883553
30
0
41
1
10
19.1704318716301
20
-0.439702999431745
30
0
0
SPLINE
5
14F
100
AcDbEntity
8
1
62
256
6
ByLayer
370
18
48
1
60
0
100
AcDbSpline
70
4
71
3
72
16
73
12
40
0
40
0
40
0
40
0
40
0.21862073263723
40
0.21862073263723
40
0.441132096326282
40
0.441132096326282
40
0.674870839126929
40
0.674870839126929
40
0.929765351321897
40
0.929765351321897
40
1
40
1
40
1
40
1
41
1
10
19.7549793192102
20
4.34257862271809
30
0
41
1
10
19.7967322838593
20
4.31843864169059
30
0
41
1
10
19.835292894121
20
4.28753473906295
30
0
41
1
10
19.9007677451595
20
4.21678167800943
30
0
41
1
10
19.9283171189502
20
4.17589172849634
30
0
41
1
10
19.9702916326037
20
4.08831040406986
30
0
41
1
10
19.9845563198091
20
4.04035248027657
30
0
41
1
10
19.9987611977979
20
3.94110173634047
30
0
41
1
10
19.9975238514805
20
3.88866436115146
30
0
41
1
10
19.9861524490117
20
3.82531735403248
30
0
41
1
10
19.9830886103785
20
3.81169855079949
30
0
41
1
10
19.9794641406544
20
3.79830115627021
30
0
0
SPLINE
5
150
100
AcDbEntity
8
1
62
256
6
ByLayer
370
18
48
1
60
0
100
AcDbSpline
70
4
71
3
72
16
73
12
40
0
40
0
40
0
40
0
40
0.191836824669075
40
0.191836824669075
40
0.488625600663344
40
0.488625600663344
40
0.756617127620165
40
0.756617127620165
40
0.994885626449979
40
0.994885626449979
40
1
40
1
40
1
40
1
41
1
10
17.5295681283731
20
-0.439702999434701
30
0
41
1
10
17.5030027275395
20
-0.46646555729609
30
0
41
1
10
17.4728056370948
20
-0.490551789459744
30
0
41
1
10
17.3891024511948
20
-0.542045583509662
30
0
41
1
10
17.3302375601686
20
-0.564845461330549
30
0
41
1
10
17.2130856505552
20
-0.585008716751645
30
0
41
1
10
17.1534692409385
20
-0.584819513124643
30
0
41
1
10
17.0448627470954
20
-0.564048610203713
30
0
41
1
10
16.9938796455353
20
-0.545377201748408
30
0
41
1
10
16.9470150634089
20
-0.518726949329533
30
0
41
1
10
16.9460168391091
20
-0.518154563687375
30
0
41
1
10
16.9450206807897
20
-0.517578622718133
30
0
0
SPLINE
5
151
100
AcDbEntity
8
1
62
256
6
ByLayer
370
18
48
1
60
0
100
AcDbSpline
70
4
71
3
72
18
73
14
40
0
40
0
40
0
40
0
40
0.181612675763437
40
0.181612675763437
40
0.360704962161447
40
0.360704962161447
40
0.541858957768575
40
0.541858957768575
40
0.695330353238803
40
0.695330353238803
40
0.891708592214999
40
0.891708592214999
40
1
40
1
40
1
40
1
41
1
10
15.9018316724035
20
1.44573322052455
30
0
41
1
10
16.0010678212246
20
1.41933462666984
30
0
41
1
10
16.0993599974145
20
1.37888422465298
30
0
41
1
10
16.2831460164331
20
1.27050522340411
30
0
41
1
10
16.3708390147032
20
1.20141415618556
30
0
41
1
10
16.5246433194004
20
1.03757078458449
30
0
41
1
10
16.5926240182454
20
0.939672802334627
30
0
41
1
10
16.6861034266653
20
0.748566541294025
30
0
41
1
10
16.7177334532225
20
0.654679510881948
30
0
41
1
10
16.7612284804202
20
0.443700479954742
30
0
41
1
10
16.7662285845804
20
0.323969080507453
30
0
41
1
10
16.7481886242894
20
0.147888729187599
30
0
41
1
10
16.7366492612541
20
0.0862599986015482
30
0
41
1
10
16.7205358593463
20
0.0266988437294913
30
0
0
SPLINE
5
152
100
AcDbEntity
8
1
62
256
6
ByLayer
370
18
48
1
60
0
100
AcDbSpline
70
4
71
3
72
16
73
12
40
0
40
0
40
0
40
0
40
0.191930281182737
40
0.191930281182737
40
0.488707775608025
40
0.488707775608025
40
0.756688906725717
40
0.756688906725717
40
0.994950483060319
40
0.994950483060319
40
1
40
1
40
1
40
1
41
1
10
19.1704318716269
20
4.26470299943463
30
0
41
1
10
19.1970101552166
20
4.29147853566252
30
0
41
1
10
19.2272237836201
20
4.31557521254354
30
0
41
1
10
19.310948268476
20
4.36706857952524
30
0
41
1
10
19.3698143864776
20
4.38986126801638
30
0
41
1
10
19.486965618469
20
4.41001132996166
30
0
41
1
10
19.5465803486937
20
4.40981589322698
30
0
41
1
10
19.6551819835097
20
4.38903482404896
30
0
41
1
10
19.7061620099742
20
4.37035900850537
30
0
41
1
10
19.7530102361109
20
4.34371244172831
30
0
41
1
10
19.7539957845871
20
4.34314726514486
30
0
41
1
10
19.7549793192102
20
4.34257862271809
30
0
0
SPLINE
5
153
100
AcDbEntity
8
1
62
256
6
ByLayer
370
18
48
1
60
0
100
AcDbSpline
70
4
71
3
72
12
73
8
40
0
40
0
40
0
40
0
40
0.455353062346785
40
0.455353062346785
40
0.827333545905708
40
0.827333545905708
40
1
40
1
40
1
40
1
41
1
10
19.1704318716302
20
4.26470299943171
30
0
41
1
10
19.0858278731656
20
4.17947110632389
30
0
41
1
10
18.9849078459312
20
4.10477181937443
30
0
41
1
10
18.7792931745274
20
4.0007641999224
30
0
41
1
10
18.6762317035148
20
3.96471835810527
30
0
41
1
10
18.5187586027533
20
3.93432915672514
30
0
41
1
10
18.467139749605
20
3.92787176673897
30
0
41
1
10
18.4153472699774
20
3.92493931195611
30
0
0
SPLINE
5
154
100
AcDbEntity
8
1
62
256
6
ByLayer
370
18
48
1
60
0
100
AcDbSpline
70
4
71
3
72
18
73
14
40
0
40
0
40
0
40
0
40
0.181347322288267
40
0.181347322288267
40
0.360491893295299
40
0.360491893295299
40
0.541701215502881
40
0.541701215502881
40
0.695189055143497
40
0.695189055143497
40
0.891526265458829
40
0.891526265458829
40
1
40
1
40
1
40
1
41
1
10
16.7205358593457
20
3.79830115627021
30
0
41
1
10
16.7473131816822
20
3.69932216649028
30
0
41
1
10
16.7614899989259
20
3.5941473436954
30
0
41
1
10
16.7597428781364
20
3.38093658757566
30
0
41
1
10
16.7438614825797
20
3.27040829269618
30
0
41
1
10
16.6790625518665
20
3.0551756921561
30
0
41
1
10
16.6283565316106
20
2.94727567252016
30
0
41
1
10
16.509722370224
20
2.77062416842375
30
0
41
1
10
16.4442832783194
20
2.69622055770699
30
0
41
1
10
16.2834431085831
20
2.55293166675929
30
0
41
1
10
16.1823244174428
20
2.48865777282575
30
0
41
1
10
16.0207935514181
20
2.41605812329561
30
0
41
1
10
15.961563034439
20
2.39515639213596
30
0
41
1
10
15.9018316724036
20
2.37926677947473
30
0
0
SPLINE
5
155
100
AcDbEntity
8
1
62
256
6
ByLayer
370
18
48
1
60
0
100
AcDbSpline
70
4
71
3
72
16
73
12
40
0
40
0
40
0
40
0
40
0.218557773056327
40
0.218557773056327
40
0.441067473679259
40
0.441067473679259
40
0.674801337484702
40
0.674801337484702
40
0.929688497508495
40
0.929688497508495
40
1
40
1
40
1
40
1
41
1
10
16.9450206807897
20
-0.517578622718133
30
0
41
1
10
16.9032797321598
20
-0.493445588897288
30
0
41
1
10
16.8647293704485
20
-0.46255271493348
30
0
41
1
10
16.7992576027249
20
-0.391815264053037
30
0
41
1
10
16.771704634642
20
-0.350927655337927
30
0
41
1
10
16.7297227484991
20
-0.263350344647506
30
0
41
1
10
16.7154539696446
20
-0.215394126702648
30
0
41
1
10
16.7012404187868
20
-0.116145974065972
30
0
41
1
10
16.7024729202592
20
-0.0637093904105654
30
0
41
1
10
16.7138408712732
20
-0.0003470541122965
30
0
41
1
10
16.7169074392227
20
0.013286847050324
30
0
41
1
10
16.7205358593456
20
0.0266988437297471
30
0
0
SPLINE
5
156
100
AcDbEntity
8
1
62
256
6
ByLayer
370
18
48
1
60
0
100
AcDbSpline
70
4
71
3
72
18
73
14
40
0
40
0
40
0
40
0
40
0.0157923844670974
40
0.0157923844670974
40
0.238811095461871
40
0.238811095461871
40
0.461892552251098
40
0.461892552251098
40
0.697221985203075
40
0.697221985203075
40
0.954485725072622
40
0.954485725072622
40
1
40
1
40
1
40
1
41
1
10
15.543
20
1.91249999999999
30
0
41
1
10
15.543
20
1.91602699039569
30
0
41
1
10
15.5430386392405
20
1.91955424062138
30
0
41
1
10
15.5441936182627
20
1.97226793828139
30
0
41
1
10
15.5530467858234
20
2.0218998032463
30
0
41
1
10
15.584360559074
20
2.11402828975741
30
0
41
1
10
15.6071923964691
20
2.1577134895316
30
0
41
1
10
15.6642947244229
20
2.23646349680965
30
0
41
1
10
15.6997993013223
20
2.27194081342265
30
0
41
1
10
15.7807130359747
20
2.33189020341999
30
0
41
1
10
15.8277169007502
20
2.35582767248212
30
0
41
1
10
15.8844720689919
20
2.37438826601473
30
0
41
1
10
15.8931323638086
20
2.37695260750138
30
0
41
1
10
15.9018316724035
20
2.37926677947544
30
0
0
SPLINE
5
157
100
AcDbEntity
8
1
62
256
6
ByLayer
370
18
48
1
60
0
100
AcDbSpline
70
4
71
3
72
12
73
8
40
0
40
0
40
0
40
0
40
0.368706056538511
40
0.368706056538511
40
0.73798085095237
40
0.73798085095237
40
1
40
1
40
1
40
1
41
1
10
18.2846527300226
20
3.92493931195611
30
0
41
1
10
18.1755098784395
20
3.93111890558521
30
0
41
1
10
18.0666482559058
20
3.95342679307265
30
0
41
1
10
17.8674903687158
20
4.0232873110219
30
0
41
1
10
17.7744272224264
20
4.07155397438402
30
0
41
1
10
17.6329890576063
20
4.16949503333328
30
0
41
1
10
17.5786614800674
20
4.2152452979031
30
0
41
1
10
17.5295681283699
20
4.26470299943171
30
0
0
SPLINE
5
158
100
AcDbEntity
8
1
62
256
6
ByLayer
370
18
48
1
60
0
100
AcDbSpline
70
4
71
3
72
18
73
14
40
0
40
0
40
0
40
0
40
0.0150229386922736
40
0.0150229386922736
40
0.237604440562208
40
0.237604440562208
40
0.460204731428097
40
0.460204731428097
40
0.694992075280023
40
0.694992075280023
40
0.951641525778755
40
0.951641525778755
40
1
40
1
40
1
40
1
41
1
10
19.7549793192102
20
-0.517578622718133
30
0
41
1
10
19.7520684199844
20
-0.51926159427893
30
0
41
1
10
19.7491397490837
20
-0.520914277407741
30
0
41
1
10
19.7030920682664
20
-0.546269276000658
30
0
41
1
10
19.6557039074632
20
-0.56349741410898
30
0
41
1
10
19.5602851564218
20
-0.582596085819489
30
0
41
1
10
19.5110399513397
20
-0.584744340060041
30
0
41
1
10
19.4142792924752
20
-0.574821776437034
30
0
41
1
10
19.3657874551504
20
-0.561892223251391
30
0
41
1
10
19.2733624353174
20
-0.521950271044716
30
0
41
1
10
19.2290914112967
20
-0.493291663470444
30
0
41
1
10
19.1841477224759
20
-0.453116160807809
30
0
41
1
10
19.1771780297028
20
-0.446499224600473
30
0
41
1
10
19.1704318716301
20
-0.439702999431745
30
0
0
SPLINE
5
159
100
AcDbEntity
8
1
62
256
6
ByLayer
370
18
48
1
60
0
100
AcDbSpline
70
4
71
3
72
14
73
10
40
0
40
0
40
0
40
0
40
0.21911646451238
40
0.21911646451238
40
0.51297121247558
40
0.51297121247558
40
0.77831862025342
40
0.77831862025342
40
1
40
1
40
1
40
1
41
1
10
19.9794641406561
20
0.0266988437302302
30
0
41
1
10
19.9906856982875
20
-0.0147802266619124
30
0
41
1
10
19.996531376437
20
-0.0586569919018416
30
0
41
1
10
19.9957856818419
20
-0.162070058276697
30
0
41
1
10
19.9840791649932
20
-0.223628181899329
30
0
41
1
10
19.9397280800638
20
-0.332930567451768
30
0
41
1
10
19.9084392425725
20
-0.383069084240589
30
0
41
1
10
19.836542375328
20
-0.461523132285009
30
0
41
1
10
19.7974070376034
20
-0.493048524660196
30
0
41
1
10
19.7549793192102
20
-0.517578622718133
30
0
0
SPLINE
5
15A
100
AcDbEntity
8
1
62
256
6
ByLayer
370
18
48
1
60
0
100
AcDbSpline
70
4
71
3
72
18
73
14
40
0
40
0
40
0
40
0
40
0.0162289153285311
40
0.0162289153285311
40
0.239234459040962
40
0.239234459040962
40
0.462328698874886
40
0.462328698874886
40
0.69769204226341
40
0.69769204226341
40
0.955005672045977
40
0.955005672045977
40
1
40
1
40
1
40
1
41
1
10
21.157
20
1.91249999999997
30
0
41
1
10
21.157
20
1.90887572331039
30
0
41
1
10
21.1569591993613
20
1.90525116469692
30
0
41
1
10
21.1557702435972
20
1.85244386337368
30
0
41
1
10
21.1468881961843
20
1.80282158906945
30
0
41
1
10
21.1155222788133
20
1.71071494964198
30
0
41
1
10
21.0926649850557
20
1.66704315906915
30
0
41
1
10
21.0355148789301
20
1.58832345161355
30
0
41
1
10
20.999986827069
20
1.55286476824409
30
0
41
1
10
20.9190294001723
20
1.49295848977073
30
0
41
1
10
20.8720050535463
20
1.46904733658772
30
0
41
1
10
20.8153304916667
20
1.45055330338397
30
0
41
1
10
20.8067684906715
20
1.44802101801363
30
0
41
1
10
20.7981683275966
20
1.44573322052455
30
0
0
SPLINE
5
15B
100
AcDbEntity
8
1
62
256
6
ByLayer
370
18
48
1
60
0
100
AcDbSpline
70
4
71
3
72
14
73
10
40
0
40
0
40
0
40
0
40
0.220792708734965
40
0.220792708734965
40
0.514440208322327
40
0.514440208322327
40
0.779604980836356
40
0.779604980836356
40
1
40
1
40
1
40
1
41
1
10
20.798168327597
20
2.37926677947701
30
0
41
1
10
20.8400107170796
20
2.36813595407733
30
0
41
1
10
20.881231568975
20
2.35105924567628
30
0
41
1
10
20.9705520592615
20
2.29830037535834
30
0
41
1
10
21.0178802128892
20
2.25727600874856
30
0
41
1
10
21.0900923702315
20
2.1640738118075
30
0
41
1
10
21.1177254137801
20
2.11186537710987
30
0
41
1
10
21.1493875756904
20
2.01059112209609
30
0
41
1
10
21.157
20
1.96122538987564
30
0
41
1
10
21.157
20
1.91249999999997
30
0
0
SPLINE
5
15C
100
AcDbEntity
8
1
62
256
6
ByLayer
370
18
48
1
60
0
100
AcDbSpline
70
4
71
3
72
12
73
8
40
0
40
0
40
0
40
0
40
0.455353062347086
40
0.455353062347086
40
0.827333545906255
40
0.827333545906255
40
1
40
1
40
1
40
1
41
1
10
17.5295681283698
20
-0.439702999431745
30
0
41
1
10
17.6141721268344
20
-0.354471106323928
30
0
41
1
10
17.7150921540688
20
-0.279771819374474
30
0
41
1
10
17.9207068254726
20
-0.17576419992244
30
0
41
1
10
18.0237682964852
20
-0.139718358105313
30
0
41
1
10
18.1812413972467
20
-0.109329156725181
30
0
41
1
10
18.232860250395
20
-0.102871766739014
30
0
41
1
10
18.2846527300226
20
-0.0999393119561489
30
0
0
SPLINE
5
15D
100
AcDbEntity
8
1
62
256
6
ByLayer
370
18
48
1
60
0
100
AcDbSpline
70
4
71
3
72
18
73
14
40
0
40
0
40
0
40
0
40
0.0173285944903535
40
0.0173285944903535
40
0.239841647765362
40
0.239841647765362
40
0.462510527753938
40
0.462510527753938
40
0.697478079776722
40
0.697478079776722
40
0.954392202348372
40
0.954392202348372
40
1
40
1
40
1
40
1
41
1
10
16.9450206807898
20
4.34257862271812
30
0
41
1
10
16.9483773076036
20
4.34451929706978
30
0
41
1
10
16.9517576061862
20
4.34641971787772
30
0
41
1
10
16.9983242480798
20
4.37186674076995
30
0
41
1
10
17.0457449432696
20
4.38893715921949
30
0
41
1
10
17.1412016837082
20
4.40773904687563
30
0
41
1
10
17.1904528627447
20
4.40973514125207
30
0
41
1
10
17.2872012098167
20
4.39951338812054
30
0
41
1
10
17.3356698281874
20
4.38642690855977
30
0
41
1
10
17.4280129849237
20
4.34617054638389
30
0
41
1
10
17.4722176447067
20
4.31734837860489
30
0
41
1
10
17.5166419676245
20
4.2773651969313
30
0
41
1
10
17.5232044293722
20
4.27111392707792
30
0
41
1
10
17.5295681283699
20
4.26470299943171
30
0
0
LINE
5
73
100
AcDbEntity
8
80
62
256
6
ByLayer
370
18
48
1
60
0
100
AcDbLine
10
0
20
0
30
0
11
-5
21
0
31
0
39
0
210
0
220
0
230
1
0
LINE
5
74
100
AcDbEntity
8
81
62
256
6
ByLayer
370
18
48
1
60
0
100
AcDbLine
10
52
20
-13.4375
30
0
11
57
21
-13.4375
31
0
39
0
210
0
220
0
230
1
0
LINE
5
75
100
AcDbEntity
8
1
62
256
6
ByLayer
370
18
48
1
60
0
100
AcDbLine
10
31.279971
20
-12.6125
30
0
11
2.603401
21
-12.6125
31
0
39
0
210
0
220
0
230
1
0
LINE
5
77
100
AcDbEntity
8
1
62
256
6
ByLayer
370
18
48
1
60
0
100
AcDbLine
10
25.5
20
-4.6625
30
0
11
25.5
21
8.0625
31
0
39
0
210
0
220
0
230
1
0
LINE
5
78
100
AcDbEntity
8
1
62
256
6
ByLayer
370
18
48
1
60
0
100
AcDbLine
10
31.279971
20
-6.2625
30
0
11
27.1
21
-6.2625
31
0
39
0
210
0
220
0
230
1
0
LINE
5
79
100
AcDbEntity
8
1
62
256
6
ByLayer
370
18
48
1
60
0
100
AcDbLine
10
2.603401
20
-12.6125
30
0
11
2.603401
21
12.598934
31
0
39
0
210
0
220
0
230
1
0
LINE
5
7A
100
AcDbEntity
8
1
62
256
6
ByLayer
370
18
48
1
60
0
100
AcDbLine
10
0
20
-12.3125
30
0
11
0
21
12.5625
31
0
39
0
210
0
220
0
230
1
0
LINE
5
7B
100
AcDbEntity
8
1
62
256
6
ByLayer
370
18
48
1
60
0
100
AcDbLine
10
0.3
20
-12.6125
30
0
11
0
21
-12.3125
31
0
39
0
210
0
220
0
230
1
0
LINE
5
7C
100
AcDbEntity
8
1
62
256
6
ByLayer
370
18
48
1
60
0
100
AcDbLine
10
0.5
20
-12.6125
30
0
11
0.5
21
12.564682
31
0
39
0
210
0
220
0
230
1
0
LINE
5
7D
100
AcDbEntity
8
1
62
256
6
ByLayer
370
18
48
1
60
0
100
AcDbLine
10
31.279971
20
-12.6125
30
0
11
40.209008
21
-12.6125
31
0
39
0
210
0
220
0
230
1
0
LINE
5
7E
100
AcDbEntity
8
1
62
256
6
ByLayer
370
18
48
1
60
0
100
AcDbLine
10
31.279971
20
-6.2625
30
0
11
31.279971
21
-12.6125
31
0
39
0
210
0
220
0
230
1
0
LINE
5
7F
100
AcDbEntity
8
1
62
256
6
ByLayer
370
18
48
1
60
0
100
AcDbLine
10
40.816948
20
-8.9125
30
0
11
40.816948
21
-9.9625
31
0
39
0
210
0
220
0
230
1
0
LINE
5
80
100
AcDbEntity
8
1
62
256
6
ByLayer
370
18
48
1
60
0
100
AcDbLine
10
0.5
20
-12.6125
30
0
11
2.603401
21
-12.6125
31
0
39
0
210
0
220
0
230
1
0
LINE
5
81
100
AcDbEntity
8
1
62
256
6
ByLayer
370
18
48
1
60
0
100
AcDbLine
10
31.279971
20
-6.2625
30
0
11
40.209008
21
-6.2625
31
0
39
0
210
0
220
0
230
1
0
LINE
5
82
100
AcDbEntity
8
1
62
256
6
ByLayer
370
18
48
1
60
0
100
AcDbLine
10
2.603401
20
12.598934
30
0
11
17.642666
21
12.598934
31
0
39
0
210
0
220
0
230
1
0
LINE
5
83
100
AcDbEntity
8
1
62
256
6
ByLayer
370
18
48
1
60
0
100
AcDbLine
10
0.5
20
-12.6125
30
0
11
0.3
21
-12.6125
31
0
39
0
210
0
220
0
230
1
0
LINE
5
84
100
AcDbEntity
8
1
62
256
6
ByLayer
370
18
48
1
60
0
100
AcDbLine
10
0.5
20
12.564682
30
0
11
2.603401
21
12.598934
31
0
39
0
210
0
220
0
230
1
0
LINE
5
85
100
AcDbEntity
8
1
62
256
6
ByLayer
370
18
48
1
60
0
100
AcDbLine
10
0.5
20
12.564682
30
0
11
0
21
12.5625
31
0
39
0
210
0
220
0
230
1
0
LINE
5
86
100
AcDbEntity
8
1
62
256
6
ByLayer
370
18
48
1
60
0
100
AcDbLine
10
17.642666
20
12.598934
30
0
11
25.5
21
8.0625
31
0
39
0
210
0
220
0
230
1
0
LINE
5
87
100
AcDbEntity
8
SK1
62
256
6
ByLayer
370
18
48
1
60
0
100
AcDbLine
10
-119.35
20
12.5625
30
0
11
0
21
12.5625
31
0
39
0
210
0
220
0
230
1
0
LINE
5
89
100
AcDbEntity
8
SK1
62
256
6
ByLayer
370
18
48
1
60
0
100
AcDbLine
10
0
20
-12.3125
30
0
11
0
21
12.5625
31
0
39
0
210
0
220
0
230
1
0
LINE
5
8A
100
AcDbEntity
8
SK1
62
256
6
ByLayer
370
18
48
1
60
0
100
AcDbLine
10
-119.35
20
-12.3125
30
0
11
-119.35
21
12.5625
31
0
39
0
210
0
220
0
230
1
0
LINE
5
8B
100
AcDbEntity
8
SK1
62
256
6
ByLayer
370
18
48
1
60
0
100
AcDbLine
10
0
20
-12.3125
30
0
11
-119.35
21
-12.3125
31
0
39
0
210
0
220
0
230
1
0
LINE
5
8C
100
AcDbEntity
8
1
62
256
6
ByLayer
370
18
48
1
60
0
100
AcDbLine
10
30.125355
20
-6.1375
30
0
11
29.841784
21
-6.1375
31
0
39
0
210
0
220
0
230
1
0
LINE
5
8D
100
AcDbEntity
8
1
62
256
6
ByLayer
370
18
48
1
60
0
100
AcDbLine
10
48.496106
20
-6.942836
30
0
11
48.496106
21
-9.4375
31
0
39
0
210
0
220
0
230
1
0
LINE
5
8E
100
AcDbEntity
8
1
62
256
6
ByLayer
370
18
48
1
60
0
100
AcDbLine
10
32.512311
20
-6.1375
30
0
11
30.125355
21
-6.1375
31
0
39
0
210
0
220
0
230
1
0
LINE
5
8F
100
AcDbEntity
8
1
62
256
6
ByLayer
370
18
48
1
60
0
100
AcDbLine
10
25.762841
20
-5.541098
30
0
11
28.951107
21
-5.680301
31
0
39
0
210
0
220
0
230
1
0
LINE
5
90
100
AcDbEntity
8
1
62
256
6
ByLayer
370
18
48
1
60
0
100
AcDbLine
10
43.806763
20
-7.637332
30
0
11
43.960123
21
-7.486267
31
0
39
0
210
0
220
0
230
1
0
LINE
5
91
100
AcDbEntity
8
1
62
256
6
ByLayer
370
18
48
1
60
0
100
AcDbLine
10
48.496108
20
-6.942835
30
0
11
44.174816
21
-7.131507
31
0
39
0
210
0
220
0
230
1
0
LINE
5
92
100
AcDbEntity
8
1
62
256
6
ByLayer
370
18
48
1
60
0
100
AcDbLine
10
22.834896
20
-13.461739
30
0
11
28.951107
21
-13.194699
31
0
39
0
210
0
220
0
230
1
0
LINE
5
93
100
AcDbEntity
8
1
62
256
6
ByLayer
370
18
48
1
60
0
100
AcDbLine
10
43.874645
20
-12.7375
30
0
11
44.158216
21
-12.7375
31
0
39
0
210
0
220
0
230
1
0
LINE
5
94
100
AcDbEntity
8
1
62
256
6
ByLayer
370
18
48
1
60
0
100
AcDbLine
10
43.000226
20
-9.167499
30
0
11
43.000226
21
-9.707501
31
0
39
0
210
0
220
0
230
1
0
LINE
5
95
100
AcDbEntity
8
1
62
256
6
ByLayer
370
18
48
1
60
0
100
AcDbLine
10
43.874645
20
-6.1375
30
0
11
44.158216
21
-6.1375
31
0
39
0
210
0
220
0
230
1
0
LINE
5
96
100
AcDbEntity
8
1
62
256
6
ByLayer
370
18
48
1
60
0
100
AcDbLine
10
48.100871
20
-11.569521
30
0
11
43.960123
21
-11.388732
31
0
39
0
210
0
220
0
230
1
0
LINE
5
97
100
AcDbEntity
8
1
62
256
6
ByLayer
370
18
48
1
60
0
100
AcDbLine
10
41.430331
20
-12.7375
30
0
11
41.430331
21
-12.337486
31
0
39
0
210
0
220
0
230
1
0
LINE
5
98
100
AcDbEntity
8
1
62
256
6
ByLayer
370
18
48
1
60
0
100
AcDbLine
10
32.512311
20
-12.7375
30
0
11
30.125355
21
-12.7375
31
0
39
0
210
0
220
0
230
1
0
LINE
5
99
100
AcDbEntity
8
1
62
256
6
ByLayer
370
18
48
1
60
0
100
AcDbLine
10
47.870586
20
-11.415098
30
0
11
48.100871
21
-11.569523
31
0
39
0
210
0
220
0
230
1
0
LINE
5
9A
100
AcDbEntity
8
1
62
256
6
ByLayer
370
18
48
1
60
0
100
AcDbLine
10
43.580667
20
-9.4375
30
0
11
43.580666
21
-8.125404
31
0
39
0
210
0
220
0
230
1
0
LINE
5
9B
100
AcDbEntity
8
1
62
256
6
ByLayer
370
18
48
1
60
0
100
AcDbLine
10
42.255328
20
-8.537566
30
0
11
40.537985
21
-8.537566
31
0
39
0
210
0
220
0
230
1
0
LINE
5
9C
100
AcDbEntity
8
1
62
256
6
ByLayer
370
18
48
1
60
0
100
AcDbLine
10
40.709479
20
-8.759767
30
0
11
42.569658
21
-8.759767
31
0
39
0
210
0
220
0
230
1
0
LINE
5
9D
100
AcDbEntity
8
1
62
256
6
ByLayer
370
18
48
1
60
0
100
AcDbLine
10
41.487689
20
-12.7375
30
0
11
41.487689
21
-12.337492
31
0
39
0
210
0
220
0
230
1
0
LINE
5
9E
100
AcDbEntity
8
1
62
256
6
ByLayer
370
18
48
1
60
0
100
AcDbLine
10
40.573728
20
-10.201388
30
0
11
42.357913
21
-10.201388
31
0
39
0
210
0
220
0
230
1
0
LINE
5
9F
100
AcDbEntity
8
1
62
256
6
ByLayer
370
18
48
1
60
0
100
AcDbLine
10
42.255328
20
-10.293165
30
0
11
40.54439
21
-10.293165
31
0
39
0
210
0
220
0
230
1
0
LINE
5
A0
100
AcDbEntity
8
1
62
256
6
ByLayer
370
18
48
1
60
0
100
AcDbLine
10
44.957617
20
-5.706906
30
0
11
44.258216
21
-6.110705
31
0
39
0
210
0
220
0
230
1
0
LINE
5
A1
100
AcDbEntity
8
1
62
256
6
ByLayer
370
18
48
1
60
0
100
AcDbLine
10
42.008402
20
-7.311868
30
0
11
42.312685
21
-8.520201
31
0
39
0
210
0
220
0
230
1
0
LINE
5
A2
100
AcDbEntity
8
1
62
256
6
ByLayer
370
18
48
1
60
0
100
AcDbLine
10
44.957617
20
-13.168094
30
0
11
44.258216
21
-12.764295
31
0
39
0
210
0
220
0
230
1
0
LINE
5
A3
100
AcDbEntity
8
1
62
256
6
ByLayer
370
18
48
1
60
0
100
AcDbLine
10
41.487689
20
-6.1375
30
0
11
43.874645
21
-6.1375
31
0
39
0
210
0
220
0
230
1
0
LINE
5
A4
100
AcDbEntity
8
1
62
256
6
ByLayer
370
18
48
1
60
0
100
AcDbLine
10
41.951102
20
-7.329462
30
0
11
42.255328
21
-8.537566
31
0
39
0
210
0
220
0
230
1
0
LINE
5
A5
100
AcDbEntity
8
1
62
256
6
ByLayer
370
18
48
1
60
0
100
AcDbLine
10
41.951102
20
-11.545538
30
0
11
42.255328
21
-10.337434
31
0
39
0
210
0
220
0
230
1
0
LINE
5
A6
100
AcDbEntity
8
1
62
256
6
ByLayer
370
18
48
1
60
0
100
AcDbLine
10
48.496108
20
-11.932165
30
0
11
44.174816
21
-11.743493
31
0
39
0
210
0
220
0
230
1
0
LINE
5
A7
100
AcDbEntity
8
1
62
256
6
ByLayer
370
18
48
1
60
0
100
AcDbLine
10
47.870586
20
-7.459902
30
0
11
48.100871
21
-7.305477
31
0
39
0
210
0
220
0
230
1
0
LINE
5
A8
100
AcDbEntity
8
1
62
256
6
ByLayer
370
18
48
1
60
0
100
AcDbLine
10
40.600099
20
-10.170585
30
0
11
42.357913
21
-10.170585
31
0
39
0
210
0
220
0
230
1
0
LINE
5
A9
100
AcDbEntity
8
1
62
256
6
ByLayer
370
18
48
1
60
0
100
AcDbLine
10
40.81686
20
-8.976764
30
0
11
42.929535
21
-8.976764
31
0
39
0
210
0
220
0
230
1
0
LINE
5
AA
100
AcDbEntity
8
1
62
256
6
ByLayer
370
18
48
1
60
0
100
AcDbLine
10
42.415271
20
-10.263021
30
0
11
42.312685
21
-10.354799
31
0
39
0
210
0
220
0
230
1
0
LINE
5
AB
100
AcDbEntity
8
1
62
256
6
ByLayer
370
18
48
1
60
0
100
AcDbLine
10
41.430331
20
-6.1375
30
0
11
32.569669
21
-6.1375
31
0
39
0
210
0
220
0
230
1
0
LINE
5
AC
100
AcDbEntity
8
1
62
256
6
ByLayer
370
18
48
1
60
0
100
AcDbLine
10
42.357913
20
-8.673612
30
0
11
42.255328
21
-8.581835
31
0
39
0
210
0
220
0
230
1
0
LINE
5
AD
100
AcDbEntity
8
1
62
256
6
ByLayer
370
18
48
1
60
0
100
AcDbLine
10
41.435722
20
-12.254998
30
0
11
40.260672
21
-12.254998
31
0
39
0
210
0
220
0
230
1
0
LINE
5
AE
100
AcDbEntity
8
1
62
256
6
ByLayer
370
18
48
1
60
0
100
AcDbLine
10
43.874645
20
-6.5375
30
0
11
43.874645
21
-6.1375
31
0
39
0
210
0
220
0
230
1
0
LINE
5
AF
100
AcDbEntity
8
1
62
256
6
ByLayer
370
18
48
1
60
0
100
AcDbLine
10
22
20
-12.6625
30
0
11
22
21
-12.612412
31
0
39
0
210
0
220
0
230
1
0
LINE
5
B0
100
AcDbEntity
8
1
62
256
6
ByLayer
370
18
48
1
60
0
100
AcDbLine
10
41.487689
20
-6.1375
30
0
11
41.487689
21
-6.537508
31
0
39
0
210
0
220
0
230
1
0
LINE
5
B1
100
AcDbEntity
8
1
62
256
6
ByLayer
370
18
48
1
60
0
100
AcDbLine
10
42.255328
20
-8.581835
30
0
11
40.54439
21
-8.581835
31
0
39
0
210
0
220
0
230
1
0
LINE
5
B2
100
AcDbEntity
8
1
62
256
6
ByLayer
370
18
48
1
60
0
100
AcDbLine
10
40.816897
20
-9.7075
30
0
11
42.942864
21
-9.7075
31
0
39
0
210
0
220
0
230
1
0
LINE
5
B3
100
AcDbEntity
8
1
62
256
6
ByLayer
370
18
48
1
60
0
100
AcDbLine
10
43.806763
20
-11.237668
30
0
11
43.960123
21
-11.388733
31
0
39
0
210
0
220
0
230
1
0
LINE
5
B4
100
AcDbEntity
8
1
62
256
6
ByLayer
370
18
48
1
60
0
100
AcDbLine
10
30.125355
20
-6.262506
30
0
11
30.125355
21
-6.1375
31
0
39
0
210
0
220
0
230
1
0
LINE
5
B5
100
AcDbEntity
8
1
62
256
6
ByLayer
370
18
48
1
60
0
100
AcDbLine
10
32.512311
20
-6.1375
30
0
11
32.512311
21
-6.262502
31
0
39
0
210
0
220
0
230
1
0
LINE
5
B6
100
AcDbEntity
8
1
62
256
6
ByLayer
370
18
48
1
60
0
100
AcDbLine
10
42.255328
20
-10.337434
30
0
11
40.537985
21
-10.337434
31
0
39
0
210
0
220
0
230
1
0
LINE
5
B7
100
AcDbEntity
8
1
62
256
6
ByLayer
370
18
48
1
60
0
100
AcDbLine
10
41.44041
20
-6.654732
30
0
11
40.265782
21
-6.654732
31
0
39
0
210
0
220
0
230
1
0
LINE
5
B8
100
AcDbEntity
8
1
62
256
6
ByLayer
370
18
48
1
60
0
100
AcDbLine
10
32.569669
20
-6.1375
30
0
11
32.569669
21
-6.262504
31
0
39
0
210
0
220
0
230
1
0
LINE
5
B9
100
AcDbEntity
8
1
62
256
6
ByLayer
370
18
48
1
60
0
100
AcDbLine
10
47.531078
20
-7.952926
30
0
11
47.531078
21
-9.4375
31
0
39
0
210
0
220
0
230
1
0
LINE
5
BA
100
AcDbEntity
8
1
62
256
6
ByLayer
370
18
48
1
60
0
100
AcDbLine
10
29.042383
20
-13.168094
30
0
11
29.741784
21
-12.764295
31
0
39
0
210
0
220
0
230
1
0
LINE
5
BB
100
AcDbEntity
8
1
62
256
6
ByLayer
370
18
48
1
60
0
100
AcDbLine
10
42.415271
20
-8.611979
30
0
11
42.312685
21
-8.520201
31
0
39
0
210
0
220
0
230
1
0
LINE
5
BC
100
AcDbEntity
8
1
62
256
6
ByLayer
370
18
48
1
60
0
100
AcDbLine
10
32.569669
20
-12.7375
30
0
11
32.569669
21
-12.612496
31
0
39
0
210
0
220
0
230
1
0
LINE
5
BD
100
AcDbEntity
8
1
62
256
6
ByLayer
370
18
48
1
60
0
100
AcDbLine
10
47.531078
20
-7.952926
30
0
11
43.580666
21
-8.125404
31
0
39
0
210
0
220
0
230
1
0
LINE
5
BE
100
AcDbEntity
8
1
62
256
6
ByLayer
370
18
48
1
60
0
100
AcDbLine
10
29.042383
20
-5.706906
30
0
11
29.741784
21
-6.110705
31
0
39
0
210
0
220
0
230
1
0
LINE
5
BF
100
AcDbEntity
8
1
62
256
6
ByLayer
370
18
48
1
60
0
100
AcDbLine
10
40.600769
20
-8.704415
30
0
11
42.357913
21
-8.704415
31
0
39
0
210
0
220
0
230
1
0
LINE
5
C0
100
AcDbEntity
8
1
62
256
6
ByLayer
370
18
48
1
60
0
100
AcDbLine
10
41.430331
20
-6.1375
30
0
11
41.430331
21
-6.537514
31
0
39
0
210
0
220
0
230
1
0
LINE
5
C1
100
AcDbEntity
8
1
62
256
6
ByLayer
370
18
48
1
60
0
100
AcDbLine
10
42.942869
20
-9.1675
30
0
11
42.942869
21
-9.7075
31
0
39
0
210
0
220
0
230
1
0
LINE
5
C2
100
AcDbEntity
8
1
62
256
6
ByLayer
370
18
48
1
60
0
100
AcDbLine
10
47.531078
20
-10.922074
30
0
11
47.531078
21
-9.4375
31
0
39
0
210
0
220
0
230
1
0
LINE
5
C3
100
AcDbEntity
8
1
62
256
6
ByLayer
370
18
48
1
60
0
100
AcDbLine
10
40.574063
20
-8.673612
30
0
11
42.357913
21
-8.673612
31
0
39
0
210
0
220
0
230
1
0
LINE
5
C4
100
AcDbEntity
8
1
62
256
6
ByLayer
370
18
48
1
60
0
100
AcDbLine
10
43.874645
20
-12.3375
30
0
11
43.874645
21
-12.7375
31
0
39
0
210
0
220
0
230
1
0
LINE
5
C5
100
AcDbEntity
8
1
62
256
6
ByLayer
370
18
48
1
60
0
100
AcDbLine
10
48.496106
20
-11.932164
30
0
11
48.496106
21
-9.4375
31
0
39
0
210
0
220
0
230
1
0
LINE
5
C6
100
AcDbEntity
8
1
62
256
6
ByLayer
370
18
48
1
60
0
100
AcDbLine
10
40.816897
20
-9.1675
30
0
11
42.942864
21
-9.1675
31
0
39
0
210
0
220
0
230
1
0
LINE
5
C7
100
AcDbEntity
8
1
62
256
6
ByLayer
370
18
48
1
60
0
100
AcDbLine
10
44.092576
20
-7.021623
30
0
11
41.831369
21
-7.021623
31
0
39
0
210
0
220
0
230
1
0
LINE
5
C8
100
AcDbEntity
8
1
62
256
6
ByLayer
370
18
48
1
60
0
100
AcDbLine
10
47.870586
20
-7.459902
30
0
11
43.806764
21
-7.637332
31
0
39
0
210
0
220
0
230
1
0
LINE
5
C9
100
AcDbEntity
8
1
62
256
6
ByLayer
370
18
48
1
60
0
100
AcDbLine
10
41.435722
20
-6.620002
30
0
11
40.260672
21
-6.620002
31
0
39
0
210
0
220
0
230
1
0
LINE
5
CA
100
AcDbEntity
8
1
62
256
6
ByLayer
370
18
48
1
60
0
100
AcDbLine
10
47.531078
20
-10.922074
30
0
11
43.580666
21
-10.749596
31
0
39
0
210
0
220
0
230
1
0
LINE
5
CB
100
AcDbEntity
8
1
62
256
6
ByLayer
370
18
48
1
60
0
100
AcDbLine
10
30.125355
20
-12.7375
30
0
11
29.841784
21
-12.7375
31
0
39
0
210
0
220
0
230
1
0
LINE
5
CC
100
AcDbEntity
8
1
62
256
6
ByLayer
370
18
48
1
60
0
100
AcDbLine
10
47.870586
20
-11.415098
30
0
11
43.806763
21
-11.237668
31
0
39
0
210
0
220
0
230
1
0
LINE
5
CD
100
AcDbEntity
8
1
62
256
6
ByLayer
370
18
48
1
60
0
100
AcDbLine
10
32.512311
20
-12.7375
30
0
11
32.512311
21
-12.612498
31
0
39
0
210
0
220
0
230
1
0
LINE
5
CE
100
AcDbEntity
8
1
62
256
6
ByLayer
370
18
48
1
60
0
100
AcDbLine
10
52
20
-6.2125
30
0
11
52
21
-12.6625
31
0
39
0
210
0
220
0
230
1
0
LINE
5
CF
100
AcDbEntity
8
1
62
256
6
ByLayer
370
18
48
1
60
0
100
AcDbLine
10
40.709479
20
-10.115233
30
0
11
42.569658
21
-10.115233
31
0
39
0
210
0
220
0
230
1
0
LINE
5
D0
100
AcDbEntity
8
1
62
256
6
ByLayer
370
18
48
1
60
0
100
AcDbLine
10
40.81686
20
-9.898236
30
0
11
42.929535
21
-9.898236
31
0
39
0
210
0
220
0
230
1
0
LINE
5
D1
100
AcDbEntity
8
1
62
256
6
ByLayer
370
18
48
1
60
0
100
AcDbLine
10
41.487703
20
-12.3375
30
0
11
43.874645
21
-12.3375
31
0
39
0
210
0
220
0
230
1
0
LINE
5
D2
100
AcDbEntity
8
1
62
256
6
ByLayer
370
18
48
1
60
0
100
AcDbLine
10
51.165104
20
-5.413261
30
0
11
45.048893
21
-5.680301
31
0
39
0
210
0
220
0
230
1
0
LINE
5
D3
100
AcDbEntity
8
1
62
256
6
ByLayer
370
18
48
1
60
0
100
AcDbLine
10
48.100871
20
-7.305479
30
0
11
43.960123
21
-7.486268
31
0
39
0
210
0
220
0
230
1
0
LINE
5
D4
100
AcDbEntity
8
1
62
256
6
ByLayer
370
18
48
1
60
0
100
AcDbLine
10
41.487703
20
-6.5375
30
0
11
43.874645
21
-6.5375
31
0
39
0
210
0
220
0
230
1
0
LINE
5
D5
100
AcDbEntity
8
1
62
256
6
ByLayer
370
18
48
1
60
0
100
AcDbLine
10
42.357913
20
-10.201388
30
0
11
42.255328
21
-10.293165
31
0
39
0
210
0
220
0
230
1
0
LINE
5
D6
100
AcDbEntity
8
1
62
256
6
ByLayer
370
18
48
1
60
0
100
AcDbLine
10
51.165104
20
-13.461739
30
0
11
45.048893
21
-13.194699
31
0
39
0
210
0
220
0
230
1
0
LINE
5
D7
100
AcDbEntity
8
1
62
256
6
ByLayer
370
18
48
1
60
0
100
AcDbLine
10
42.008402
20
-11.563132
30
0
11
42.312685
21
-10.354799
31
0
39
0
210
0
220
0
230
1
0
LINE
5
D8
100
AcDbEntity
8
1
62
256
6
ByLayer
370
18
48
1
60
0
100
AcDbLine
10
30.125355
20
-12.612494
30
0
11
30.125355
21
-12.7375
31
0
39
0
210
0
220
0
230
1
0
LINE
5
D9
100
AcDbEntity
8
1
62
256
6
ByLayer
370
18
48
1
60
0
100
AcDbLine
10
41.487689
20
-12.7375
30
0
11
43.874645
21
-12.7375
31
0
39
0
210
0
220
0
230
1
0
LINE
5
DA
100
AcDbEntity
8
1
62
256
6
ByLayer
370
18
48
1
60
0
100
AcDbLine
10
41.430331
20
-12.7375
30
0
11
32.569669
21
-12.7375
31
0
39
0
210
0
220
0
230
1
0
LINE
5
DB
100
AcDbEntity
8
1
62
256
6
ByLayer
370
18
48
1
60
0
100
AcDbLine
10
44.092576
20
-11.853377
30
0
11
41.831369
21
-11.853377
31
0
39
0
210
0
220
0
230
1
0
LINE
5
DC
100
AcDbEntity
8
1
62
256
6
ByLayer
370
18
48
1
60
0
100
AcDbLine
10
41.44041
20
-12.220268
30
0
11
40.265782
21
-12.220268
31
0
39
0
210
0
220
0
230
1
0
LINE
5
DD
100
AcDbEntity
8
1
62
256
6
ByLayer
370
18
48
1
60
0
100
AcDbLine
10
43.580667
20
-9.4375
30
0
11
43.580666
21
-10.749596
31
0
39
0
210
0
220
0
230
1
0
MTEXT
5
15E
100
AcDbEntity
8
SK6
62
256
6
ByLayer
370
18
48
1
60
0
100
AcDbMText
10
-62.799988
20
-24.309197
30
0
210
0
220
0
230
1
1
\W0.7715;LF123L25-3225BM
40
3.5
41
0
44
1.084337
50
0
71
7
72
5
7
iso_b_vert
0
DIMENSION
5
16F
100
AcDbEntity
8
2
62
256
6
ByLayer
370
13
48
1
60
0
100
AcDbDimension
2
DimnDraft3D1
10
66.25
20
-5.4375
30
0
11
66.25
21
-10.444079
31
0
70
32
71
5
72
1
41
1
210
0
220
0
230
1
3
Standard
100
AcDbAlignedDimension
13
53.5
23
-13.4375
33
0
14
53.5
24
-5.4375
34
0
50
90
100
AcDbRotatedDimension
1001
ACAD
1000
DSTYLE
1002
{
1070
    74
1070
     0
1070
   279
1070
     0
1070
   172
1070
     1
1070
   173
1070
     1
1070
   340
1005
15F
1070
   271
1070
     3
1070
   272
1070
     3
1070
    77
1070
     1
1070
    73
1070
     0
1070
   171
1070
     4
1070
   274
1070
     4
1070
   177
1070
     2
1070
   176
1070
     2
1070
   178
1070
     7
1070
    78
1070
     8
1070
    41
1041
3.0
1070
   147
1041
2.25
1070
    42
1041
1.5
1070
    44
1041
3.0
1070
   140
1041
4.5
1070
   343
1005
170
1070
   344
1005
170
1002
}
0
DIMENSION
5
184
100
AcDbEntity
8
2
62
256
6
ByLayer
370
13
48
1
60
0
100
AcDbDimension
2
DimnDraft3D2
10
76.25
20
12.4375
30
0
11
76.25
21
-3.188158
31
0
70
32
71
5
72
1
41
1
210
0
220
0
230
1
3
Standard
100
AcDbAlignedDimension
13
53.5
23
-13.4375
33
0
14
1.5
24
12.4375
34
0
50
90
100
AcDbRotatedDimension
1001
ACAD
1000
DSTYLE
1002
{
1070
    74
1070
     0
1070
   279
1070
     0
1070
   172
1070
     1
1070
   173
1070
     1
1070
   340
1005
15F
1070
   271
1070
     3
1070
   272
1070
     3
1070
    77
1070
     1
1070
    73
1070
     0
1070
   171
1070
     4
1070
   274
1070
     4
1070
   177
1070
     2
1070
   176
1070
     2
1070
   178
1070
     7
1070
    78
1070
     8
1070
    41
1041
3.0
1070
   147
1041
2.25
1070
    42
1041
1.5
1070
    44
1041
3.0
1070
   140
1041
4.5
1070
   343
1005
170
1070
   344
1005
170
1002
}
0
DIMENSION
5
193
100
AcDbEntity
8
SK2
62
256
6
ByLayer
370
13
48
1
60
0
100
AcDbDimension
2
DimnDraft3D3
10
-129.1
20
-12.4375
30
0
11
-129.1
21
-2.688158
31
0
70
32
71
5
72
1
41
1
210
0
220
0
230
1
3
Standard
100
AcDbAlignedDimension
13
-120.85
23
12.4375
33
0
14
-120.85
24
-12.4375
34
0
50
90
100
AcDbRotatedDimension
1001
ACAD
1000
DSTYLE
1002
{
1070
    74
1070
     0
1070
   279
1070
     0
1070
   172
1070
     1
1070
   173
1070
     1
1070
   340
1005
15F
1070
   271
1070
     3
1070
   272
1070
     3
1070
    77
1070
     1
1070
    73
1070
     0
1070
   171
1070
     4
1070
   274
1070
     4
1070
   177
1070
     2
1070
   176
1070
     2
1070
   178
1070
     7
1070
    78
1070
     8
1070
    41
1041
3.0
1070
   147
1041
2.25
1070
    42
1041
1.5
1070
    44
1041
3.0
1070
   140
1041
4.5
1070
   343
1005
170
1070
   344
1005
170
1002
}
0
DIMENSION
5
1A1
100
AcDbEntity
8
2
62
256
6
ByLayer
370
13
48
1
60
0
100
AcDbDimension
2
DimnDraft3D4
10
27
20
-26.6875
30
0
11
36.811842
21
-26.6875
31
0
70
32
71
5
72
1
41
1
210
0
220
0
230
1
3
Standard
100
AcDbAlignedDimension
13
52
23
-10.9375
33
0
14
27
24
-6.0625
34
0
50
0
100
AcDbRotatedDimension
1001
ACAD
1000
DSTYLE
1002
{
1070
   279
1070
     0
1070
   172
1070
     1
1070
   173
1070
     1
1070
   340
1005
15F
1070
   271
1070
     3
1070
   272
1070
     3
1070
    77
1070
     1
1070
    73
1070
     0
1070
   171
1070
     4
1070
   274
1070
     4
1070
   177
1070
     2
1070
   176
1070
     2
1070
   178
1070
     7
1070
    78
1070
     8
1070
    41
1041
3.0
1070
   147
1041
2.25
1070
    42
1041
1.5
1070
    44
1041
3.0
1070
   140
1041
4.5
1070
   343
1005
170
1070
   344
1005
170
1002
}
0
DIMENSION
5
1AF
100
AcDbEntity
8
2
62
256
6
ByLayer
370
13
48
1
60
0
100
AcDbDimension
2
DimnDraft3D5
10
0
20
23.3125
30
0
11
23.311842
21
23.3125
31
0
70
32
71
5
72
1
41
1
210
0
220
0
230
1
3
Standard
100
AcDbAlignedDimension
13
52
23
-3.9375
33
0
14
0
24
13.9375
34
0
50
0
100
AcDbRotatedDimension
1001
ACAD
1000
DSTYLE
1002
{
1070
   279
1070
     0
1070
   172
1070
     1
1070
   173
1070
     1
1070
   340
1005
15F
1070
   271
1070
     3
1070
   272
1070
     3
1070
    77
1070
     1
1070
    73
1070
     0
1070
   171
1070
     4
1070
   274
1070
     4
1070
   177
1070
     2
1070
   176
1070
     2
1070
   178
1070
     7
1070
    78
1070
     8
1070
    41
1041
3.0
1070
   147
1041
2.25
1070
    42
1041
1.5
1070
    44
1041
3.0
1070
   140
1041
4.5
1070
   343
1005
170
1070
   344
1005
170
1002
}
0
DIMENSION
5
1BD
100
AcDbEntity
8
SK2
62
256
6
ByLayer
370
13
48
1
60
0
100
AcDbDimension
2
DimnDraft3D6
10
-119.35
20
33.3125
30
0
11
-37.482237
21
33.3125
31
0
70
32
71
5
72
1
41
1
210
0
220
0
230
1
3
Standard
100
AcDbAlignedDimension
13
52
23
-3.9375
33
0
14
-119.35
24
13.9375
34
0
50
0
100
AcDbRotatedDimension
1001
ACAD
1000
DSTYLE
1002
{
1070
   279
1070
     0
1070
   172
1070
     1
1070
   173
1070
     1
1070
   340
1005
15F
1070
   271
1070
     3
1070
   272
1070
     3
1070
    77
1070
     1
1070
    73
1070
     0
1070
   171
1070
     4
1070
   274
1070
     4
1070
   177
1070
     2
1070
   176
1070
     2
1070
   178
1070
     7
1070
    78
1070
     8
1070
    41
1041
3.0
1070
   147
1041
2.25
1070
    42
1041
1.5
1070
    44
1041
3.0
1070
   140
1041
4.5
1070
   343
1005
170
1070
   344
1005
170
1002
}
0
ENDSEC
0
SECTION
2
OBJECTS
0
DICTIONARY
5
227
330
0
100
AcDbDictionary
280
0
281
1
3
ACAD_GROUP
350
228
3
ACAD_MLINESTYLE
350
229
0
DICTIONARY
5
228
330
0
100
AcDbDictionary
280
0
281
1
0
DICTIONARY
5
229
330
0
100
AcDbDictionary
280
0
281
1
3
Standard
350
18
0
MLINESTYLE
5
18
330
229
100
AcDbMlineStyle
2
Standard
70
0
3

62
256
51
90
52
90
71
2
49
-0.5
62
256
6
ByLayer
49
0.5
62
256
6
ByLayer
0
RASTERVARIABLES
5
216
330

100
AcDbRasterVariables
90
0
70
1
71
1
72
1
0
ENDSEC
0
EOF
