0
SECTION
2
HEADER
9
$ACADVER
1
AC1015
9
$DWGCODEPAGE
3
ANSI_1252
9
$HANDSEED
5
1d4
9
$ANGBASE
50
0
9
$ANGDIR
70
0
9
$ATTMODE
70
1
9
$AUNITS
70
0
9
$AUPREC
70
0
9
$CECOLOR
62
256
9
$CELTSCALE
40
1
9
$CELTYPE
6
ByLayer
9
$CELWEIGHT
370
18
9
$CLAYER
8
0
9
$CMLJUST
70
0
9
$CMLSCALE
40
1
9
$CMLSTYLE
2
Standard
9
$DIMSTYLE
2
Standard
9
$TEXTSIZE
40
0.2
9
$TEXTSTYLE
7
Standard
9
$LUNITS
70
2
9
$LUPREC
70
4
9
$EXTNAMES
290
1
9
$INSUNITS
70
4
9
$LTSCALE
40
1
9
$LWDISPLAY
290
1
9
$PDMODE
70
0
9
$PDSIZE
40
0
9
$PLINEGEN
70
0
0
ENDSEC
0
SECTION
2
CLASSES
0
CLASS
1
RASTERVARIABLES
2
AcDbRasterVariables
3
ISM
90
0
280
0
281
0
0
ENDSEC
0
SECTION
2
TABLES
0
TABLE
2
VPORT
5
1ca
100
AcDbSymbolTable
0
VPORT
5
1
100
AcDbSymbolTableRecord
100
AcDbViewportTableRecord
2
*Active
70
0
10
0
20
0
11
1
21
1
12
-1
22
1
13
0
23
0
14
0.5
24
0.5
15
10
25
10
16
0
26
0
36
1
17
0
27
0
37
0
0
ENDTAB
0
TABLE
2
LTYPE
5
1cb
100
AcDbSymbolTable
0
LTYPE
5
14
100
AcDbSymbolTableRecord
100
AcDbLinetypeTableRecord
70
0
2
ByBlock
3

72
65
73
0
40
0
0
LTYPE
5
15
100
AcDbSymbolTableRecord
100
AcDbLinetypeTableRecord
70
0
2
ByLayer
3

72
65
73
0
40
0
0
LTYPE
5
16
100
AcDbSymbolTableRecord
100
AcDbLinetypeTableRecord
70
0
2
CONTINUOUS
3
Solid line
72
65
73
0
40
0
0
LTYPE
5
6A
100
AcDbSymbolTableRecord
100
AcDbLinetypeTableRecord
70
0
2
CENTER
3
____ _ ____ _ ____ _ ____
72
65
73
4
40
47.5
49
22
74
0
49
-8.5
74
0
49
8.5
74
0
49
-8.5
74
0
0
LTYPE
5
6B
100
AcDbSymbolTableRecord
100
AcDbLinetypeTableRecord
70
0
2
DASHED
3
__ __ __ __ __ __ __ __ __
72
65
73
2
40
25.72
49
12.86
74
0
49
-12.86
74
0
0
ENDTAB
0
TABLE
2
LAYER
5
1cc
100
AcDbSymbolTable
0
LAYER
5
10
100
AcDbSymbolTableRecord
100
AcDbLayerTableRecord
2
0
70
0
62
7
6
CONTINUOUS
290
1
370
-3
390
0
0
LAYER
5
6D
100
AcDbSymbolTableRecord
100
AcDbLayerTableRecord
2
80
70
0
62
-6
6
CONTINUOUS
290
1
370
-3
390
0
0
LAYER
5
6F
100
AcDbSymbolTableRecord
100
AcDbLayerTableRecord
2
2
70
0
62
7
6
CONTINUOUS
290
1
370
-3
390
0
0
LAYER
5
71
100
AcDbSymbolTableRecord
100
AcDbLayerTableRecord
2
81
70
0
62
-3
6
CONTINUOUS
290
1
370
-3
390
0
0
LAYER
5
75
100
AcDbSymbolTableRecord
100
AcDbLayerTableRecord
2
1
70
0
62
4
6
CONTINUOUS
290
1
370
-3
390
0
0
LAYER
5
1b7
100
AcDbSymbolTableRecord
100
AcDbLayerTableRecord
2
SK1
70
0
62
4
6
CONTINUOUS
290
1
370
-3
390
0
0
LAYER
5
1b8
100
AcDbSymbolTableRecord
100
AcDbLayerTableRecord
2
SK6
70
0
62
5
6
CONTINUOUS
290
1
370
-3
390
0
0
LAYER
5
1b9
100
AcDbSymbolTableRecord
100
AcDbLayerTableRecord
2
SK2
70
0
62
7
6
CONTINUOUS
290
1
370
-3
390
0
0
ENDTAB
0
TABLE
2
STYLE
5
1cd
100
AcDbSymbolTable
0
STYLE
5
11
100
AcDbSymbolTableRecord
100
AcDbTextStyleTableRecord
2
Standard
3
txt
70
0
71
0
40
0
41
1
42
0
50
0
0
STYLE
5
FF
100
AcDbSymbolTableRecord
100
AcDbTextStyleTableRecord
2
iso_b_vert
3
simplex.shx
70
0
71
0
40
0
41
1
42
0
50
0
0
STYLE
5
100
100
AcDbSymbolTableRecord
100
AcDbTextStyleTableRecord
2
DWGDirectTextStyle
3
simplex
70
0
71
0
40
0
41
1
42
0
50
0
0
ENDTAB
0
TABLE
2
DIMSTYLE
5
1ce
100
AcDbSymbolTable
100
AcDbDimStyleTable
0
DIMSTYLE
105
27
100
AcDbSymbolTableRecord
100
AcDbDimStyleTableRecord
2
Standard
70
0
3
<>
41
0.18
42
0.0625
44
0.18
140
0.18
147
0.09
73
0
74
0
77
1
271
2
275
0
278
52
280
0
340
11
0
ENDTAB
0
TABLE
2
VIEW
5
1cf
100
AcDbSymbolTable
0
ENDTAB
0
TABLE
2
UCS
5
1d0
100
AcDbSymbolTable
0
ENDTAB
0
TABLE
2
APPID
5
1d1
100
AcDbSymbolTable
0
APPID
5
12
100
AcDbSymbolTableRecord
100
AcDbRegAppTableRecord
2
ACAD
70
0
0
ENDTAB
0
TABLE
2
BLOCK_RECORD
5
1d2
100
AcDbSymbolTable
0
BLOCK_RECORD
5
1F
100
AcDbSymbolTableRecord
100
AcDbBlockTableRecord
2
*Model_Space
340
0
70
0
0
BLOCK_RECORD
5
1B
100
AcDbSymbolTableRecord
100
AcDbBlockTableRecord
2
*Paper_Space
340
0
70
0
0
BLOCK_RECORD
5
23
100
AcDbSymbolTableRecord
100
AcDbBlockTableRecord
2
*Paper_Space0
340
0
70
0
0
BLOCK_RECORD
5
102
100
AcDbSymbolTableRecord
100
AcDbBlockTableRecord
2
DimnDraft3D1
340
0
70
0
0
BLOCK_RECORD
5
110
100
AcDbSymbolTableRecord
100
AcDbBlockTableRecord
2
_CLOSED
340
0
70
0
0
BLOCK_RECORD
5
117
100
AcDbSymbolTableRecord
100
AcDbBlockTableRecord
2
DimnDraft3D2
340
0
70
0
0
BLOCK_RECORD
5
125
100
AcDbSymbolTableRecord
100
AcDbBlockTableRecord
2
DimnDraft3D3
340
0
70
0
0
BLOCK_RECORD
5
134
100
AcDbSymbolTableRecord
100
AcDbBlockTableRecord
2
DimnDraft3D4
340
0
70
0
0
BLOCK_RECORD
5
142
100
AcDbSymbolTableRecord
100
AcDbBlockTableRecord
2
DimnDraft3D5
340
0
70
0
0
BLOCK_RECORD
5
150
100
AcDbSymbolTableRecord
100
AcDbBlockTableRecord
2
DimnDraft3D6
340
0
70
0
0
ENDTAB
0
ENDSEC
0
SECTION
2
BLOCKS
0
BLOCK
5
20
100
AcDbEntity
8
0
100
AcDbBlockBegin
2
*Model_Space
70
0
10
0
20
0
30
0
3
*Model_Space
0
ENDBLK
5
21
100
AcDbEntity
8
0
100
AcDbBlockEnd
0
BLOCK
5
1C
100
AcDbEntity
8
0
100
AcDbBlockBegin
2
*Paper_Space
70
0
10
0
20
0
30
0
3
*Paper_Space
0
ENDBLK
5
1D
100
AcDbEntity
8
0
100
AcDbBlockEnd
0
BLOCK
5
24
100
AcDbEntity
8
0
100
AcDbBlockBegin
2
*Paper_Space0
70
0
10
0
20
0
30
0
3
*Paper_Space0
0
ENDBLK
5
25
100
AcDbEntity
8
0
100
AcDbBlockEnd
0
BLOCK
5
10D
100
AcDbEntity
8
0
100
AcDbBlockBegin
2
DimnDraft3D1
70
0
10
0
20
0
30
0
3
DimnDraft3D1
0
MTEXT
5
103
100
AcDbEntity
8
2
62
256
6
ByLayer
370
18
48
1
60
0
100
AcDbMText
10
70.125
20
-6.3
30
0
210
0
220
0
230
1
1
\W0.5404;5
40
4.5
41
0
44
1.084337
50
90
71
7
72
5
7
iso_b_vert
0
LINE
5
104
100
AcDbEntity
8
2
62
256
6
ByLayer
370
13
48
1
60
0
100
AcDbLine
10
58.5
20
-16.925
30
0
11
74.25
21
-16.925
31
0
39
0
210
0
220
0
230
1
0
LINE
5
105
100
AcDbEntity
8
2
62
256
6
ByLayer
370
13
48
1
60
0
100
AcDbLine
10
58.5
20
-11.925
30
0
11
74.25
21
-11.925
31
0
39
0
210
0
220
0
230
1
0
LINE
5
106
100
AcDbEntity
8
2
62
256
6
ByLayer
370
13
48
1
60
0
100
AcDbLine
10
71.25
20
-5.411842
30
0
11
71.25
21
-28.175
31
0
39
0
210
0
220
0
230
1
0
LINE
5
107
100
AcDbEntity
8
2
62
256
6
ByLayer
370
13
48
1
60
0
100
AcDbLine
10
71.25
20
-16.925
30
0
11
71.644957
21
-19.924999
31
0
39
0
210
0
220
0
230
1
0
LINE
5
108
100
AcDbEntity
8
2
62
256
6
ByLayer
370
13
48
1
60
0
100
AcDbLine
10
71.25
20
-16.925
30
0
11
70.855043
21
-19.925001
31
0
39
0
210
0
220
0
230
1
0
LINE
5
109
100
AcDbEntity
8
2
62
256
6
ByLayer
370
13
48
1
60
0
100
AcDbLine
10
71.644957
20
-19.924999
30
0
11
70.855043
21
-19.925001
31
0
39
0
210
0
220
0
230
1
0
LINE
5
10A
100
AcDbEntity
8
2
62
256
6
ByLayer
370
13
48
1
60
0
100
AcDbLine
10
71.25
20
-11.925
30
0
11
70.855043
21
-8.925001
31
0
39
0
210
0
220
0
230
1
0
LINE
5
10B
100
AcDbEntity
8
2
62
256
6
ByLayer
370
13
48
1
60
0
100
AcDbLine
10
71.25
20
-11.925
30
0
11
71.644957
21
-8.924999
31
0
39
0
210
0
220
0
230
1
0
LINE
5
10C
100
AcDbEntity
8
2
62
256
6
ByLayer
370
13
48
1
60
0
100
AcDbLine
10
70.855043
20
-8.925001
30
0
11
71.644957
21
-8.924999
31
0
39
0
210
0
220
0
230
1
0
ENDBLK
5
10E
100
AcDbEntity
8
0
100
AcDbBlockEnd
0
BLOCK
5
111
100
AcDbEntity
8
0
100
AcDbBlockBegin
2
_CLOSED
70
0
10
0
20
0
30
0
3
_CLOSED
0
LINE
5
113
100
AcDbEntity
8
0
62
256
6
ByLayer
370
-2
48
1
60
0
100
AcDbLine
10
-1
20
0.166667
30
0
11
0
21
0
31
0
39
0
210
0
220
0
230
1
0
LINE
5
114
100
AcDbEntity
8
0
62
256
6
ByLayer
370
-2
48
1
60
0
100
AcDbLine
10
0
20
0
30
0
11
-1
21
-0.166667
31
0
39
0
210
0
220
0
230
1
0
LINE
5
115
100
AcDbEntity
8
0
62
256
6
ByLayer
370
-2
48
1
60
0
100
AcDbLine
10
-1
20
0.166667
30
0
11
-1
21
-0.166667
31
0
39
0
210
0
220
0
230
1
0
LINE
5
116
100
AcDbEntity
8
0
62
256
6
ByLayer
370
-2
48
1
60
0
100
AcDbLine
10
0
20
0
30
0
11
-1
21
0
31
0
39
0
210
0
220
0
230
1
0
ENDBLK
5
112
100
AcDbEntity
8
0
100
AcDbBlockEnd
0
BLOCK
5
122
100
AcDbEntity
8
0
100
AcDbBlockBegin
2
DimnDraft3D2
70
0
10
0
20
0
30
0
3
DimnDraft3D2
0
MTEXT
5
118
100
AcDbEntity
8
2
62
256
6
ByLayer
370
18
48
1
60
0
100
AcDbMText
10
80.125
20
-2.063158
30
0
210
0
220
0
230
1
1
\W0.6740;33
40
4.5
41
0
44
1.084337
50
90
71
7
72
5
7
iso_b_vert
0
LINE
5
119
100
AcDbEntity
8
2
62
256
6
ByLayer
370
13
48
1
60
0
100
AcDbLine
10
58.5
20
-16.925
30
0
11
84.25
21
-16.925
31
0
39
0
210
0
220
0
230
1
0
LINE
5
11A
100
AcDbEntity
8
2
62
256
6
ByLayer
370
13
48
1
60
0
100
AcDbLine
10
1.5
20
15.925
30
0
11
84.25
21
15.925
31
0
39
0
210
0
220
0
230
1
0
LINE
5
11B
100
AcDbEntity
8
2
62
256
6
ByLayer
370
13
48
1
60
0
100
AcDbLine
10
81.25
20
-16.925
30
0
11
81.25
21
15.925
31
0
39
0
210
0
220
0
230
1
0
LINE
5
11C
100
AcDbEntity
8
2
62
256
6
ByLayer
370
13
48
1
60
0
100
AcDbLine
10
81.25
20
-16.925
30
0
11
80.855043
21
-13.925001
31
0
39
0
210
0
220
0
230
1
0
LINE
5
11D
100
AcDbEntity
8
2
62
256
6
ByLayer
370
13
48
1
60
0
100
AcDbLine
10
81.25
20
-16.925
30
0
11
81.644957
21
-13.924999
31
0
39
0
210
0
220
0
230
1
0
LINE
5
11E
100
AcDbEntity
8
2
62
256
6
ByLayer
370
13
48
1
60
0
100
AcDbLine
10
80.855043
20
-13.925001
30
0
11
81.644957
21
-13.924999
31
0
39
0
210
0
220
0
230
1
0
LINE
5
11F
100
AcDbEntity
8
2
62
256
6
ByLayer
370
13
48
1
60
0
100
AcDbLine
10
81.25
20
15.925
30
0
11
81.644957
21
12.925001
31
0
39
0
210
0
220
0
230
1
0
LINE
5
120
100
AcDbEntity
8
2
62
256
6
ByLayer
370
13
48
1
60
0
100
AcDbLine
10
81.25
20
15.925
30
0
11
80.855043
21
12.924999
31
0
39
0
210
0
220
0
230
1
0
LINE
5
121
100
AcDbEntity
8
2
62
256
6
ByLayer
370
13
48
1
60
0
100
AcDbLine
10
81.644957
20
12.925001
30
0
11
80.855043
21
12.924999
31
0
39
0
210
0
220
0
230
1
0
ENDBLK
5
123
100
AcDbEntity
8
0
100
AcDbBlockEnd
0
BLOCK
5
131
100
AcDbEntity
8
0
100
AcDbBlockBegin
2
DimnDraft3D3
70
0
10
0
20
0
30
0
3
DimnDraft3D3
0
MTEXT
5
126
100
AcDbEntity
8
SK2
62
256
6
ByLayer
370
18
48
1
60
0
100
AcDbMText
10
-125.225
20
-1.563158
30
0
210
0
220
0
230
1
1
\W0.6740;32
40
4.5
41
0
44
1.084337
50
90
71
7
72
5
7
iso_b_vert
0
LINE
5
128
100
AcDbEntity
8
SK2
62
256
6
ByLayer
370
13
48
1
60
0
100
AcDbLine
10
-115.85
20
15.925
30
0
11
-127.1
21
15.925
31
0
39
0
210
0
220
0
230
1
0
LINE
5
129
100
AcDbEntity
8
SK2
62
256
6
ByLayer
370
13
48
1
60
0
100
AcDbLine
10
-115.85
20
-15.925
30
0
11
-127.1
21
-15.925
31
0
39
0
210
0
220
0
230
1
0
LINE
5
12A
100
AcDbEntity
8
SK2
62
256
6
ByLayer
370
13
48
1
60
0
100
AcDbLine
10
-124.1
20
15.925
30
0
11
-124.1
21
-15.925
31
0
39
0
210
0
220
0
230
1
0
LINE
5
12B
100
AcDbEntity
8
SK2
62
256
6
ByLayer
370
13
48
1
60
0
100
AcDbLine
10
-124.1
20
15.925
30
0
11
-123.705043
21
12.925001
31
0
39
0
210
0
220
0
230
1
0
LINE
5
12C
100
AcDbEntity
8
SK2
62
256
6
ByLayer
370
13
48
1
60
0
100
AcDbLine
10
-124.1
20
15.925
30
0
11
-124.494957
21
12.924999
31
0
39
0
210
0
220
0
230
1
0
LINE
5
12D
100
AcDbEntity
8
SK2
62
256
6
ByLayer
370
13
48
1
60
0
100
AcDbLine
10
-123.705043
20
12.925001
30
0
11
-124.494957
21
12.924999
31
0
39
0
210
0
220
0
230
1
0
LINE
5
12E
100
AcDbEntity
8
SK2
62
256
6
ByLayer
370
13
48
1
60
0
100
AcDbLine
10
-124.1
20
-15.925
30
0
11
-124.494957
21
-12.925001
31
0
39
0
210
0
220
0
230
1
0
LINE
5
12F
100
AcDbEntity
8
SK2
62
256
6
ByLayer
370
13
48
1
60
0
100
AcDbLine
10
-124.1
20
-15.925
30
0
11
-123.705043
21
-12.924999
31
0
39
0
210
0
220
0
230
1
0
LINE
5
130
100
AcDbEntity
8
SK2
62
256
6
ByLayer
370
13
48
1
60
0
100
AcDbLine
10
-124.494957
20
-12.925001
30
0
11
-123.705043
21
-12.924999
31
0
39
0
210
0
220
0
230
1
0
ENDBLK
5
132
100
AcDbEntity
8
0
100
AcDbBlockEnd
0
BLOCK
5
13F
100
AcDbEntity
8
0
100
AcDbBlockBegin
2
DimnDraft3D4
70
0
10
0
20
0
30
0
3
DimnDraft3D4
0
MTEXT
5
135
100
AcDbEntity
8
2
62
256
6
ByLayer
370
18
48
1
60
0
100
AcDbMText
10
39.436842
20
-29.05
30
0
210
0
220
0
230
1
1
\W0.6740;32
40
4.5
41
0
44
1.084337
50
0
71
7
72
5
7
iso_b_vert
0
LINE
5
136
100
AcDbEntity
8
2
62
256
6
ByLayer
370
13
48
1
60
0
100
AcDbLine
10
57
20
-15.925
30
0
11
57
21
-33.175
31
0
39
0
210
0
220
0
230
1
0
LINE
5
137
100
AcDbEntity
8
2
62
256
6
ByLayer
370
13
48
1
60
0
100
AcDbLine
10
25
20
-12.575
30
0
11
25
21
-33.175
31
0
39
0
210
0
220
0
230
1
0
LINE
5
138
100
AcDbEntity
8
2
62
256
6
ByLayer
370
13
48
1
60
0
100
AcDbLine
10
57
20
-30.175
30
0
11
25
21
-30.175
31
0
39
0
210
0
220
0
230
1
0
LINE
5
139
100
AcDbEntity
8
2
62
256
6
ByLayer
370
13
48
1
60
0
100
AcDbLine
10
57
20
-30.175
30
0
11
54.000001
21
-30.569957
31
0
39
0
210
0
220
0
230
1
0
LINE
5
13A
100
AcDbEntity
8
2
62
256
6
ByLayer
370
13
48
1
60
0
100
AcDbLine
10
57
20
-30.175
30
0
11
53.999999
21
-29.780043
31
0
39
0
210
0
220
0
230
1
0
LINE
5
13B
100
AcDbEntity
8
2
62
256
6
ByLayer
370
13
48
1
60
0
100
AcDbLine
10
54.000001
20
-30.569957
30
0
11
53.999999
21
-29.780043
31
0
39
0
210
0
220
0
230
1
0
LINE
5
13C
100
AcDbEntity
8
2
62
256
6
ByLayer
370
13
48
1
60
0
100
AcDbLine
10
25
20
-30.175
30
0
11
27.999999
21
-29.780043
31
0
39
0
210
0
220
0
230
1
0
LINE
5
13D
100
AcDbEntity
8
2
62
256
6
ByLayer
370
13
48
1
60
0
100
AcDbLine
10
25
20
-30.175
30
0
11
28.000001
21
-30.569957
31
0
39
0
210
0
220
0
230
1
0
LINE
5
13E
100
AcDbEntity
8
2
62
256
6
ByLayer
370
13
48
1
60
0
100
AcDbLine
10
27.999999
20
-29.780043
30
0
11
28.000001
21
-30.569957
31
0
39
0
210
0
220
0
230
1
0
ENDBLK
5
140
100
AcDbEntity
8
0
100
AcDbBlockEnd
0
BLOCK
5
14D
100
AcDbEntity
8
0
100
AcDbBlockBegin
2
DimnDraft3D5
70
0
10
0
20
0
30
0
3
DimnDraft3D5
0
MTEXT
5
143
100
AcDbEntity
8
2
62
256
6
ByLayer
370
18
48
1
60
0
100
AcDbMText
10
26.936842
20
27.95
30
0
210
0
220
0
230
1
1
\W0.6740;57
40
4.5
41
0
44
1.084337
50
0
71
7
72
5
7
iso_b_vert
0
LINE
5
144
100
AcDbEntity
8
2
62
256
6
ByLayer
370
13
48
1
60
0
100
AcDbLine
10
57
20
-10.425
30
0
11
57
21
29.825
31
0
39
0
210
0
220
0
230
1
0
LINE
5
145
100
AcDbEntity
8
2
62
256
6
ByLayer
370
13
48
1
60
0
100
AcDbLine
10
0
20
17.425
30
0
11
0
21
29.825
31
0
39
0
210
0
220
0
230
1
0
LINE
5
146
100
AcDbEntity
8
2
62
256
6
ByLayer
370
13
48
1
60
0
100
AcDbLine
10
57
20
26.825
30
0
11
0
21
26.825
31
0
39
0
210
0
220
0
230
1
0
LINE
5
147
100
AcDbEntity
8
2
62
256
6
ByLayer
370
13
48
1
60
0
100
AcDbLine
10
57
20
26.825
30
0
11
54.000001
21
26.430043
31
0
39
0
210
0
220
0
230
1
0
LINE
5
148
100
AcDbEntity
8
2
62
256
6
ByLayer
370
13
48
1
60
0
100
AcDbLine
10
57
20
26.825
30
0
11
53.999999
21
27.219957
31
0
39
0
210
0
220
0
230
1
0
LINE
5
149
100
AcDbEntity
8
2
62
256
6
ByLayer
370
13
48
1
60
0
100
AcDbLine
10
54.000001
20
26.430043
30
0
11
53.999999
21
27.219957
31
0
39
0
210
0
220
0
230
1
0
LINE
5
14A
100
AcDbEntity
8
2
62
256
6
ByLayer
370
13
48
1
60
0
100
AcDbLine
10
0
20
26.825
30
0
11
2.999999
21
27.219957
31
0
39
0
210
0
220
0
230
1
0
LINE
5
14B
100
AcDbEntity
8
2
62
256
6
ByLayer
370
13
48
1
60
0
100
AcDbLine
10
0
20
26.825
30
0
11
3.000001
21
26.430043
31
0
39
0
210
0
220
0
230
1
0
LINE
5
14C
100
AcDbEntity
8
2
62
256
6
ByLayer
370
13
48
1
60
0
100
AcDbLine
10
2.999999
20
27.219957
30
0
11
3.000001
21
26.430043
31
0
39
0
210
0
220
0
230
1
0
ENDBLK
5
14E
100
AcDbEntity
8
0
100
AcDbBlockEnd
0
BLOCK
5
15B
100
AcDbEntity
8
0
100
AcDbBlockBegin
2
DimnDraft3D6
70
0
10
0
20
0
30
0
3
DimnDraft3D6
0
MTEXT
5
151
100
AcDbEntity
8
SK2
62
256
6
ByLayer
370
18
48
1
60
0
100
AcDbMText
10
-31.357237
20
37.95
30
0
210
0
220
0
230
1
1
\W0.6217;170
40
4.5
41
0
44
1.084337
50
0
71
7
72
5
7
iso_b_vert
0
LINE
5
152
100
AcDbEntity
8
SK2
62
256
6
ByLayer
370
13
48
1
60
0
100
AcDbLine
10
57
20
-10.425
30
0
11
57
21
39.825
31
0
39
0
210
0
220
0
230
1
0
LINE
5
153
100
AcDbEntity
8
SK2
62
256
6
ByLayer
370
13
48
1
60
0
100
AcDbLine
10
-114.35
20
17.425
30
0
11
-114.35
21
39.825
31
0
39
0
210
0
220
0
230
1
0
LINE
5
154
100
AcDbEntity
8
SK2
62
256
6
ByLayer
370
13
48
1
60
0
100
AcDbLine
10
57
20
36.825
30
0
11
-114.35
21
36.825
31
0
39
0
210
0
220
0
230
1
0
LINE
5
155
100
AcDbEntity
8
SK2
62
256
6
ByLayer
370
13
48
1
60
0
100
AcDbLine
10
57
20
36.825
30
0
11
54.000001
21
36.430043
31
0
39
0
210
0
220
0
230
1
0
LINE
5
156
100
AcDbEntity
8
SK2
62
256
6
ByLayer
370
13
48
1
60
0
100
AcDbLine
10
57
20
36.825
30
0
11
53.999999
21
37.219957
31
0
39
0
210
0
220
0
230
1
0
LINE
5
157
100
AcDbEntity
8
SK2
62
256
6
ByLayer
370
13
48
1
60
0
100
AcDbLine
10
54.000001
20
36.430043
30
0
11
53.999999
21
37.219957
31
0
39
0
210
0
220
0
230
1
0
LINE
5
158
100
AcDbEntity
8
SK2
62
256
6
ByLayer
370
13
48
1
60
0
100
AcDbLine
10
-114.35
20
36.825
30
0
11
-111.350001
21
37.219957
31
0
39
0
210
0
220
0
230
1
0
LINE
5
159
100
AcDbEntity
8
SK2
62
256
6
ByLayer
370
13
48
1
60
0
100
AcDbLine
10
-114.35
20
36.825
30
0
11
-111.349999
21
36.430043
31
0
39
0
210
0
220
0
230
1
0
LINE
5
15A
100
AcDbEntity
8
SK2
62
256
6
ByLayer
370
13
48
1
60
0
100
AcDbLine
10
-111.350001
20
37.219957
30
0
11
-111.349999
21
36.430043
31
0
39
0
210
0
220
0
230
1
0
ENDBLK
5
15C
100
AcDbEntity
8
0
100
AcDbBlockEnd
0
ENDSEC
0
SECTION
2
ENTITIES
0
ARC
5
C5
100
AcDbEntity
8
1
62
256
6
ByLayer
370
18
48
1
60
0
100
AcDbCircle
39
0
10
25.1
20
-10.65
30
0
40
1.6
210
0
220
0
230
1
100
AcDbArc
50
180
51
270
0
ARC
5
C6
100
AcDbEntity
8
1
62
256
6
ByLayer
370
18
48
1
60
0
100
AcDbCircle
39
0
10
-32.3
20
-12.225
30
0
40
0.3
210
0
220
0
230
-1
100
AcDbArc
50
0
51
92.5
0
ARC
5
C7
100
AcDbEntity
8
1
62
256
6
ByLayer
370
18
48
1
60
0
100
AcDbCircle
39
0
10
56.7
20
-12.225
30
0
40
0.3
210
0
220
0
230
1
100
AcDbArc
50
360
51
92.5
0
ARC
5
C8
100
AcDbEntity
8
1
62
256
6
ByLayer
370
18
48
1
60
0
100
AcDbCircle
39
0
10
32.3
20
-16.625
30
0
40
0.3
210
0
220
0
230
1
100
AcDbArc
50
180
51
272.5
0
ARC
5
C9
100
AcDbEntity
8
1
62
256
6
ByLayer
370
18
48
1
60
0
100
AcDbCircle
39
0
10
-56.7
20
-16.625
30
0
40
0.3
210
0
220
0
230
-1
100
AcDbArc
50
180
51
272.5
0
ARC
5
CA
100
AcDbEntity
8
1
62
256
6
ByLayer
370
18
48
1
60
0
100
AcDbCircle
39
0
10
16.35
20
-8.95
30
0
40
2.0135
210
0
220
0
230
1
100
AcDbArc
50
268.140164
51
271.859836
0
ARC
5
CC
100
AcDbEntity
8
1
62
256
6
ByLayer
370
18
48
1
60
0
100
AcDbCircle
39
0
10
16.35
20
-8.95
30
0
40
2.807
210
0
220
0
230
1
100
AcDbArc
50
59.965127
51
120.034873
0
ARC
5
CE
100
AcDbEntity
8
1
62
256
6
ByLayer
370
18
48
1
60
0
100
AcDbCircle
39
0
10
16.35
20
-8.95
30
0
40
2.0135
210
0
220
0
230
1
100
AcDbArc
50
88.140164
51
91.859836
0
ARC
5
CF
100
AcDbEntity
8
1
62
256
6
ByLayer
370
18
48
1
60
0
100
AcDbCircle
39
0
10
16.35
20
-8.95
30
0
40
2.807
210
0
220
0
230
1
100
AcDbArc
50
120.034873
51
180
0
ARC
5
D0
100
AcDbEntity
8
1
62
256
6
ByLayer
370
18
48
1
60
0
100
AcDbCircle
39
0
10
16.35
20
-8.95
30
0
40
2.807
210
0
220
0
230
1
100
AcDbArc
50
360
51
59.965127
0
ARC
5
D2
100
AcDbEntity
8
1
62
256
6
ByLayer
370
18
48
1
60
0
100
AcDbCircle
39
0
10
16.35
20
-8.95
30
0
40
2.807
210
0
220
0
230
1
100
AcDbArc
50
239.965127
51
300.034873
0
ARC
5
D3
100
AcDbEntity
8
1
62
256
6
ByLayer
370
18
48
1
60
0
100
AcDbCircle
39
0
10
16.35
20
-8.95
30
0
40
2.807
210
0
220
0
230
1
100
AcDbArc
50
180
51
239.965127
0
ARC
5
D4
100
AcDbEntity
8
1
62
256
6
ByLayer
370
18
48
1
60
0
100
AcDbCircle
39
0
10
16.35
20
-8.95
30
0
40
2.807
210
0
220
0
230
1
100
AcDbArc
50
300.034873
51
360
0
CIRCLE
5
C4
100
AcDbEntity
8
1
62
256
6
ByLayer
370
18
48
1
60
0
100
AcDbCircle
10
16.35
20
-8.95
30
0
40
6.15
39
0
210
0
220
0
230
1
0
CIRCLE
5
CB
100
AcDbEntity
8
1
62
256
6
ByLayer
370
18
48
1
60
0
100
AcDbCircle
10
-16.35
20
-8.95
30
0
40
5.93
39
0
210
0
220
0
230
-1
0
CIRCLE
5
CD
100
AcDbEntity
8
1
62
256
6
ByLayer
370
18
48
1
60
0
100
AcDbCircle
10
-16.35
20
-8.95
30
0
40
3
39
0
210
0
220
0
230
-1
0
CIRCLE
5
D1
100
AcDbEntity
8
1
62
256
6
ByLayer
370
18
48
1
60
0
100
AcDbCircle
10
16.35
20
-8.95
30
0
40
5.13
39
0
210
0
220
0
230
1
0
ELLIPSE
5
D5
100
AcDbEntity
8
1
62
256
6
ByLayer
370
18
48
1
60
0
100
AcDbEllipse
10
49.346355
20
-12.566251
30
0
11
-0.0990233734641851
21
-0.0139417460990323
31
0
210
0
220
0
230
1
40
1
41
-0.139873097750872
42
0.0346598239994663
0
ELLIPSE
5
D6
100
AcDbEntity
8
1
62
256
6
ByLayer
370
18
48
1
60
0
100
AcDbEllipse
10
49.55644
20
-15.092299
30
0
11
-0.0913627408185193
21
0.0406552530733593
31
0
210
0
220
0
230
1
40
1
41
-0.245405986726319
42
0.244144558828071
0
ELLIPSE
5
D7
100
AcDbEntity
8
1
62
256
6
ByLayer
370
18
48
1
60
0
100
AcDbEllipse
10
49.55644
20
-13.757701
30
0
11
-0.0913827686959861
21
-0.0406102154388561
31
0
210
0
220
0
230
1
40
1
41
-0.243651658792115
42
0.245898886759772
0
ELLIPSE
5
D8
100
AcDbEntity
8
1
62
256
6
ByLayer
370
18
48
1
60
0
100
AcDbEllipse
10
49.346355
20
-16.283749
30
0
11
-0.0990198753026285
21
0.0139665696582016
31
0
210
0
220
0
230
1
40
1
41
-0.0344091357191633
42
0.140123786046698
0
POINT
5
6C
100
AcDbEntity
8
80
62
256
6
ByLayer
370
18
48
1
60
0
100
AcDbPoint
10
0
20
0
30
0
39
0
210
0
220
0
230
1
50
360
0
POINT
5
6E
100
AcDbEntity
8
2
62
256
6
ByLayer
370
18
48
1
60
0
100
AcDbPoint
10
57
20
17.075
30
0
39
0
210
0
220
0
230
1
50
360
0
POINT
5
70
100
AcDbEntity
8
81
62
256
6
ByLayer
370
18
48
1
60
0
100
AcDbPoint
10
57
20
-16.925
30
0
39
0
210
0
220
0
230
1
50
360
0
SPLINE
5
D9
100
AcDbEntity
8
1
62
256
6
ByLayer
370
18
48
1
60
0
100
AcDbSpline
70
4
71
3
72
8
73
4
40
0
40
0
40
0
40
0
40
1
40
1
40
1
40
1
41
1
10
49.2283156668964
20
-14.840953893118
30
0
41
1
10
49.1920733240275
20
-14.8570441243478
30
0
41
1
10
49.1558304974701
20
-14.8731326893238
30
0
41
1
10
49.1195868846333
20
-14.889218545653
30
0
0
SPLINE
5
DA
100
AcDbEntity
8
1
62
256
6
ByLayer
370
18
48
1
60
0
100
AcDbSpline
70
4
71
3
72
14
73
10
40
0
40
0
40
0
40
0
40
0.275104320463941
40
0.275104320463941
40
0.55128589222226
40
0.55128589222226
40
0.827540816329073
40
0.827540816329073
40
1
40
1
40
1
40
1
41
1
10
49.3092231349798
20
-14.7000000000001
30
0
41
1
10
49.3092231349798
20
-14.7167141719497
30
0
41
1
10
49.3068686319537
20
-14.7336570737925
30
0
41
1
10
49.2978207623995
20
-14.7652773389957
30
0
41
1
10
49.2909852714478
20
-14.7803813158536
30
0
41
1
10
49.2738400953992
20
-14.8066198763754
30
0
41
1
10
49.2632933134876
20
-14.8181150508634
30
0
41
1
10
49.2443144629828
20
-14.8326511046952
30
0
41
1
10
49.2364504363819
20
-14.837342362746
30
0
41
1
10
49.2283156668964
20
-14.840953893118
30
0
0
SPLINE
5
DB
100
AcDbEntity
8
1
62
256
6
ByLayer
370
18
48
1
60
0
100
AcDbSpline
70
4
71
3
72
14
73
10
40
0
40
0
40
0
40
0
40
0.320648283063987
40
0.320648283063987
40
0.642556656017528
40
0.642556656017528
40
0.964767987530376
40
0.964767987530376
40
1
40
1
40
1
40
1
41
1
10
49.0405040733832
20
-13.8458747878794
30
0
41
1
10
49.0428848120555
20
-13.8623332538917
30
0
41
1
10
49.0476180403294
20
-13.8785167196511
30
0
41
1
10
49.0610331974548
20
-13.9077320241536
30
0
41
1
10
49.0699156352924
20
-13.9211536819561
30
0
41
1
10
49.0905403761736
20
-13.9433637034431
30
0
41
1
10
49.1025693737435
20
-13.952453917194
30
0
41
1
10
49.1167287638942
20
-13.9594760997766
30
0
41
1
10
49.1181531019784
20
-13.9601451043815
30
0
41
1
10
49.1195868846332
20
-13.9607814543474
30
0
0
SPLINE
5
DC
100
AcDbEntity
8
1
62
256
6
ByLayer
370
18
48
1
60
0
100
AcDbSpline
70
4
71
3
72
8
73
4
40
0
40
0
40
0
40
0
40
1
40
1
40
1
40
1
41
1
10
49.1195868846333
20
-13.9607814543472
30
0
41
1
10
49.1558305132186
20
-13.976867317666
30
0
41
1
10
49.1920733375391
20
-13.9929558816511
30
0
41
1
10
49.2283156668964
20
-14.0090461068822
30
0
0
SPLINE
5
DD
100
AcDbEntity
8
1
62
256
6
ByLayer
370
18
48
1
60
0
100
AcDbSpline
70
4
71
3
72
16
73
12
40
0
40
0
40
0
40
0
40
0.198166501206587
40
0.198166501206587
40
0.418292441377922
40
0.418292441377922
40
0.6362846486383
40
0.6362846486383
40
0.850699599621025
40
0.850699599621025
40
1
40
1
40
1
40
1
41
1
10
28.078287768254
20
-12.2500000000001
30
0
41
1
10
27.9115461493852
20
-12.2500000000001
30
0
41
1
10
27.742920584605
20
-12.2242614089269
30
0
41
1
10
27.4071308569632
20
-12.1190331906757
30
0
41
1
10
27.2375264592179
20
-12.0322541389845
30
0
41
1
10
26.9429635680281
20
-11.8108417754892
30
0
41
1
10
26.8134766227665
20
-11.6735351011897
30
0
41
1
10
26.6132169774905
20
-11.36991079539
30
0
41
1
10
26.5387522718273
20
-11.1998407368702
30
0
41
1
10
26.4659014933831
20
-10.9024723838997
30
0
41
1
10
26.4505884927239
20
-10.7757907500383
30
0
41
1
10
26.4505884927239
20
-10.6500000000001
30
0
0
SPLINE
5
DE
100
AcDbEntity
8
1
62
256
6
ByLayer
370
18
48
1
60
0
100
AcDbSpline
70
4
71
3
72
10
73
6
40
0
40
0
40
0
40
0
40
0.706816479092455
40
0.706816479092455
40
1
40
1
40
1
40
1
41
1
10
49.0405040733832
20
-15.0041252121208
30
0
41
1
10
48.9861138835951
20
-15.3801341796141
30
0
41
1
10
48.9317047975816
20
-15.7561390798678
30
0
41
1
10
48.8546417881812
20
-16.2880902861701
30
0
41
1
10
48.8320373163929
20
-16.4440472699744
30
0
41
1
10
48.8094131712542
20
-16.6000000000001
30
0
0
SPLINE
5
DF
100
AcDbEntity
8
1
62
256
6
ByLayer
370
18
48
1
60
0
100
AcDbSpline
70
4
71
3
72
14
73
10
40
0
40
0
40
0
40
0
40
0.273335586308434
40
0.273335586308434
40
0.549864884754084
40
0.549864884754084
40
0.826242595228978
40
0.826242595228978
40
1
40
1
40
1
40
1
41
1
10
49.2283156668964
20
-14.0090461068822
30
0
41
1
10
49.2411000042653
20
-14.0147218697635
30
0
41
1
10
49.2532642576505
20
-14.0231344671604
30
0
41
1
10
49.2745054552683
20
-14.0441974924647
30
0
41
1
10
49.283836751431
20
-14.05718848382
30
0
41
1
10
49.2982441671546
20
-14.0858080111582
30
0
41
1
10
49.3035213092883
20
-14.1018300066481
30
0
41
1
10
49.3082833172109
20
-14.1286457275077
30
0
41
1
10
49.3092231349939
20
-14.1393528161224
30
0
41
1
10
49.3092231349941
20
-14.1499999999982
30
0
0
SPLINE
5
E0
100
AcDbEntity
8
1
62
256
6
ByLayer
370
18
48
1
60
0
100
AcDbSpline
70
4
71
3
72
10
73
6
40
0
40
0
40
0
40
0
40
0.410853169441862
40
0.410853169441862
40
1
40
1
40
1
40
1
41
1
10
48.8094131712542
20
-12.2500000000001
30
0
41
1
10
48.8411175510137
20
-12.4685445923792
30
0
41
1
10
48.8727841728988
20
-12.6870973483525
30
0
41
1
10
48.9498190226546
20
-13.219054633146
30
0
41
1
10
48.9951686730818
20
-13.5324631758839
30
0
41
1
10
49.0405040733832
20
-13.8458747878794
30
0
0
SPLINE
5
E1
100
AcDbEntity
8
1
62
256
6
ByLayer
370
18
48
1
60
0
100
AcDbSpline
70
4
71
3
72
14
73
10
40
0
40
0
40
0
40
0
40
0.318825335738272
40
0.318825335738272
40
0.641378913519844
40
0.641378913519844
40
0.963672388640565
40
0.963672388640565
40
1
40
1
40
1
40
1
41
1
10
49.1195868846333
20
-14.889218545653
30
0
41
1
10
49.1067930140129
20
-14.8948967975872
30
0
41
1
10
49.0946194073435
20
-14.9033136973172
30
0
41
1
10
49.0733610363008
20
-14.9243885821232
30
0
41
1
10
49.0640216196877
20
-14.9373876111596
30
0
41
1
10
49.0496053425088
20
-14.9660233263045
30
0
41
1
10
49.0443262529215
20
-14.9820534661571
30
0
41
1
10
49.0410810594112
20
-15.0003488581198
30
0
41
1
10
49.0407776400381
20
-15.0022339976236
30
0
41
1
10
49.0405040733832
20
-15.0041252121208
30
0
0
SPLINE
5
E2
100
AcDbEntity
8
1
62
256
6
ByLayer
370
18
48
1
60
0
100
AcDbSpline
70
4
71
3
72
8
73
4
40
0
40
0
40
0
40
0
40
1
40
1
40
1
40
1
41
1
10
49.74894541545
20
-13.9972674762981
30
0
41
1
10
49.6960031564366
20
-13.9788165335887
30
0
41
1
10
49.6430608974233
20
-13.9603655908794
30
0
41
1
10
49.59011863841
20
-13.9419146481701
30
0
0
SPLINE
5
E3
100
AcDbEntity
8
1
62
256
6
ByLayer
370
18
48
1
60
0
100
AcDbSpline
70
4
71
3
72
9
73
5
40
0
40
0
40
0
40
0
40
0.508287091434117
40
1
40
1
40
1
40
1
41
1
10
49.74894541544
20
-14.8527325237381
30
0
41
1
10
49.7914754634342
20
-14.8357098141083
30
0
41
1
10
49.8751487431826
20
-14.8022194699373
30
0
41
1
10
49.911212957408
20
-14.6906136227202
30
0
41
1
10
49.92894619708
20
-14.6357355869721
30
0
0
SPLINE
5
E4
100
AcDbEntity
8
1
62
256
6
ByLayer
370
18
48
1
60
0
100
AcDbSpline
70
4
71
3
72
8
73
4
40
0
40
0
40
0
40
0
40
1
40
1
40
1
40
1
41
1
10
49.92894619712
20
-14.6357355870581
30
0
41
1
10
49.93191778459
20
-14.5721570582713
30
0
41
1
10
49.93488937206
20
-14.5085785294844
30
0
41
1
10
49.93786095953
20
-14.4450000006977
30
0
0
SPLINE
5
E5
100
AcDbEntity
8
1
62
256
6
ByLayer
370
18
48
1
60
0
100
AcDbSpline
70
4
71
2
72
10
73
7
40
0
40
0
40
0
40
0.5
40
0.5
40
0.75
40
0.75
40
1
40
1
40
1
41
1
10
49.7489454154405
20
-13.9972674762621
30
0
41
1
10
49.816539241663
20
-14.016762163515
30
0
41
1
10
49.8642354827661
20
-14.0684857110099
30
0
41
1
10
49.8902224727178
20
-14.0966669529261
30
0
41
1
10
49.9068593747274
20
-14.1325223538963
30
0
41
1
10
49.9248252361493
20
-14.1712418922267
30
0
41
1
10
49.92894619708
20
-14.2142644130281
30
0
0
SPLINE
5
E6
100
AcDbEntity
8
1
62
256
6
ByLayer
370
18
48
1
60
0
100
AcDbSpline
70
4
71
2
72
6
73
3
40
0
40
0
40
0
40
1
40
1
40
1
41
1
10
49.5901186384085
20
-14.9080853518231
30
0
41
1
10
49.5658197594152
20
-14.9182546708636
30
0
41
1
10
49.549522624748
20
-14.9388875681491
30
0
0
SPLINE
5
E7
100
AcDbEntity
8
1
62
256
6
ByLayer
370
18
48
1
60
0
100
AcDbSpline
70
4
71
2
72
6
73
3
40
0
40
0
40
0
40
1
40
1
40
1
41
1
10
49.748945415449
20
-14.8527325237021
30
0
41
1
10
49.6679467190096
20
-14.8759847566733
30
0
41
1
10
49.5901186384095
20
-14.9080853518301
30
0
0
SPLINE
5
E8
100
AcDbEntity
8
1
62
256
6
ByLayer
370
18
48
1
60
0
100
AcDbSpline
70
4
71
2
72
6
73
3
40
0
40
0
40
0
40
1
40
1
40
1
41
1
10
49.928946197118
20
-14.2142644129421
30
0
41
1
10
49.93783748929
20
-14.3094834459669
30
0
41
1
10
49.9378609595285
20
-14.4049999993025
30
0
0
SPLINE
5
E9
100
AcDbEntity
8
1
62
256
6
ByLayer
370
18
48
1
60
0
100
AcDbSpline
70
4
71
3
72
8
73
4
40
0
40
0
40
0
40
0
40
1
40
1
40
1
40
1
41
1
10
49.59011863841
20
-13.9419146481771
30
0
41
1
10
49.5765866338567
20
-13.931647242735
30
0
41
1
10
49.5630546293033
20
-13.9213798372929
30
0
41
1
10
49.54952262475
20
-13.9111124318507
30
0
0
SPLINE
5
EA
100
AcDbEntity
8
1
62
256
6
ByLayer
370
18
48
1
60
0
100
AcDbSpline
70
4
71
3
72
18
73
14
40
0
40
0
40
0
40
0
40
0.0162289153285305
40
0.0162289153285305
40
0.23923445904096
40
0.23923445904096
40
0.462328698874884
40
0.462328698874884
40
0.697692042263404
40
0.697692042263404
40
0.955005672045977
40
0.955005672045977
40
1
40
1
40
1
40
1
41
1
10
19.157
20
-8.95000000000002
30
0
41
1
10
19.157
20
-8.9536242766896
30
0
41
1
10
19.1569591993612
20
-8.95724883530309
30
0
41
1
10
19.1557702435972
20
-9.01005613662633
30
0
41
1
10
19.1468881961843
20
-9.05967841093056
30
0
41
1
10
19.1155222788132
20
-9.15178505035803
30
0
41
1
10
19.0926649850556
20
-9.19545684093083
30
0
41
1
10
19.0355148789301
20
-9.27417654838646
30
0
41
1
10
18.9999868270689
20
-9.30963523175592
30
0
41
1
10
18.9190294001722
20
-9.36954151022928
30
0
41
1
10
18.8720050535463
20
-9.39345266341229
30
0
41
1
10
18.8153304916667
20
-9.41194669661604
30
0
41
1
10
18.8067684906715
20
-9.41447898198638
30
0
41
1
10
18.7981683275966
20
-9.41676677947547
30
0
0
SPLINE
5
EB
100
AcDbEntity
8
1
62
256
6
ByLayer
370
18
48
1
60
0
100
AcDbSpline
70
4
71
3
72
14
73
10
40
0
40
0
40
0
40
0
40
0.22241165527065
40
0.22241165527065
40
0.515858824453703
40
0.515858824453703
40
0.780847480391327
40
0.780847480391327
40
1
40
1
40
1
40
1
41
1
10
14.7205358593442
20
-7.0641988437302
30
0
41
1
10
14.7091462249201
20
-7.02209849870377
30
0
41
1
10
14.7032956435496
20
-6.97752085285697
30
0
41
1
10
14.7044780289879
20
-6.87347751286987
30
0
41
1
10
14.7164205388668
20
-6.81202065156683
30
0
41
1
10
14.7611484449685
20
-6.7029872110553
30
0
41
1
10
14.792590444784
20
-6.65301450771545
30
0
41
1
10
14.8643498449848
20
-6.57525394364498
30
0
41
1
10
14.9030748695197
20
-6.54417285491348
30
0
41
1
10
14.9450206807897
20
-6.51992137728189
30
0
0
SPLINE
5
EC
100
AcDbEntity
8
1
62
256
6
ByLayer
370
18
48
1
60
0
100
AcDbSpline
70
4
71
3
72
14
73
10
40
0
40
0
40
0
40
0
40
0.220792708734965
40
0.220792708734965
40
0.514440208322327
40
0.514440208322327
40
0.779604980836355
40
0.779604980836355
40
1
40
1
40
1
40
1
41
1
10
18.7981683275969
20
-8.483233220523
30
0
41
1
10
18.8400107170795
20
-8.49436404592265
30
0
41
1
10
18.881231568975
20
-8.51144075432373
30
0
41
1
10
18.9705520592615
20
-8.56419962464167
30
0
41
1
10
19.0178802128891
20
-8.60522399125142
30
0
41
1
10
19.0900923702314
20
-8.69842618819251
30
0
41
1
10
19.1177254137801
20
-8.75063462289015
30
0
41
1
10
19.1493875756904
20
-8.85190887790392
30
0
41
1
10
19.157
20
-8.90127461012435
30
0
41
1
10
19.157
20
-8.95000000000002
30
0
0
SPLINE
5
ED
100
AcDbEntity
8
1
62
256
6
ByLayer
370
18
48
1
60
0
100
AcDbSpline
70
4
71
3
72
18
73
14
40
0
40
0
40
0
40
0
40
0.0157923844670949
40
0.0157923844670949
40
0.238811095461868
40
0.238811095461868
40
0.461892552251094
40
0.461892552251094
40
0.697221985203071
40
0.697221985203071
40
0.954485725072622
40
0.954485725072622
40
1
40
1
40
1
40
1
41
1
10
13.543
20
-8.95000000000002
30
0
41
1
10
13.543
20
-8.94647300960432
30
0
41
1
10
13.5430386392404
20
-8.94294575937863
30
0
41
1
10
13.5441936182627
20
-8.89023206171862
30
0
41
1
10
13.5530467858234
20
-8.84060019675371
30
0
41
1
10
13.584360559074
20
-8.7484717102426
30
0
41
1
10
13.6071923964691
20
-8.70478651046841
30
0
41
1
10
13.6642947244229
20
-8.62603650319033
30
0
41
1
10
13.6997993013223
20
-8.59055918657737
30
0
41
1
10
13.7807130359747
20
-8.53060979658002
30
0
41
1
10
13.8277169007501
20
-8.50667232751786
30
0
41
1
10
13.8844720689918
20
-8.48811173398528
30
0
41
1
10
13.8931323638085
20
-8.48554739249863
30
0
41
1
10
13.9018316724034
20
-8.48323322052457
30
0
0
SPLINE
5
EE
100
AcDbEntity
8
1
62
256
6
ByLayer
370
18
48
1
60
0
100
AcDbSpline
70
4
71
3
72
16
73
12
40
0
40
0
40
0
40
0
40
0.218557773056326
40
0.218557773056326
40
0.441067473679259
40
0.441067473679259
40
0.674801337484701
40
0.674801337484701
40
0.929688497508491
40
0.929688497508491
40
1
40
1
40
1
40
1
41
1
10
14.9450206807897
20
-11.3800786227181
30
0
41
1
10
14.9032797321598
20
-11.3559455888973
30
0
41
1
10
14.8647293704485
20
-11.3250527149335
30
0
41
1
10
14.7992576027249
20
-11.254315264053
30
0
41
1
10
14.771704634642
20
-11.2134276553379
30
0
41
1
10
14.7297227484991
20
-11.1258503446475
30
0
41
1
10
14.7154539696446
20
-11.0778941267027
30
0
41
1
10
14.7012404187867
20
-10.978645974066
30
0
41
1
10
14.7024729202591
20
-10.9262093904106
30
0
41
1
10
14.7138408712732
20
-10.8628470541123
30
0
41
1
10
14.7169074392227
20
-10.8492131529497
30
0
41
1
10
14.7205358593455
20
-10.8358011562702
30
0
0
SPLINE
5
EF
100
AcDbEntity
8
1
62
256
6
ByLayer
370
18
48
1
60
0
100
AcDbSpline
70
4
71
3
72
14
73
10
40
0
40
0
40
0
40
0
40
0.220170037959098
40
0.220170037959098
40
0.513894544314516
40
0.513894544314516
40
0.779127126142474
40
0.779127126142474
40
1
40
1
40
1
40
1
41
1
10
13.901831672403
20
-9.41676677947709
30
0
41
1
10
13.860106814132
20
-9.40566721948582
30
0
41
1
10
13.8190010815935
20
-9.38865595144492
30
0
41
1
10
13.7297424597143
20
-9.3360280644165
30
0
41
1
10
13.6823754340564
20
-9.2950327446089
30
0
41
1
10
13.6100836522094
20
-9.20186678937284
30
0
41
1
10
13.5824089980939
20
-9.14966774306222
30
0
41
1
10
13.5506463360883
20
-9.04830545752708
30
0
41
1
10
13.543
20
-8.9988305749589
30
0
41
1
10
13.543
20
-8.95000000000002
30
0
0
SPLINE
5
F0
100
AcDbEntity
8
1
62
256
6
ByLayer
370
18
48
1
60
0
100
AcDbSpline
70
4
71
3
72
18
73
14
40
0
40
0
40
0
40
0
40
0.181666908878582
40
0.181666908878582
40
0.360750617017815
40
0.360750617017815
40
0.541895453074693
40
0.541895453074693
40
0.695365105948643
40
0.695365105948643
40
0.891753383060548
40
0.891753383060548
40
1
40
1
40
1
40
1
41
1
10
17.9794641406543
20
-10.8358011562703
30
0
41
1
10
17.9526398265003
20
-10.7366484671725
30
0
41
1
10
17.9384602459352
20
-10.6312756755243
30
0
41
1
10
17.9403139531036
20
-10.4178933346769
30
0
41
1
10
17.9562426230037
20
-10.307399396849
30
0
41
1
10
18.0211140051547
20
-10.0922541831348
30
0
41
1
10
18.0718441395717
20
-9.98441060048748
30
0
41
1
10
18.1905041217909
20
-9.80784362558285
30
0
41
1
10
18.2559542246233
20
-9.73347335760727
30
0
41
1
10
18.4168403373044
20
-9.59022474887678
30
0
41
1
10
18.5179980746868
20
-9.52597049930853
30
0
41
1
10
18.6794511603026
20
-9.45347175513928
30
0
41
1
10
18.7385601350611
20
-9.43262362684186
30
0
41
1
10
18.7981683275964
20
-9.41676677947478
30
0
0
SPLINE
5
F1
100
AcDbEntity
8
1
62
256
6
ByLayer
370
18
48
1
60
0
100
AcDbSpline
70
4
71
3
72
14
73
10
40
0
40
0
40
0
40
0
40
0.219116464512383
40
0.219116464512383
40
0.512971212475581
40
0.512971212475581
40
0.77831862025342
40
0.77831862025342
40
1
40
1
40
1
40
1
41
1
10
17.979464140656
20
-10.8358011562698
30
0
41
1
10
17.9906856982875
20
-10.8772802266619
30
0
41
1
10
17.9965313764369
20
-10.9211569919018
30
0
41
1
10
17.9957856818418
20
-11.0245700582767
30
0
41
1
10
17.9840791649932
20
-11.0861281818993
30
0
41
1
10
17.9397280800638
20
-11.1954305674517
30
0
41
1
10
17.9084392425725
20
-11.2455690842406
30
0
41
1
10
17.836542375328
20
-11.324023132285
30
0
41
1
10
17.7974070376034
20
-11.3555485246602
30
0
41
1
10
17.7549793192102
20
-11.3800786227181
30
0
0
SPLINE
5
F2
100
AcDbEntity
8
1
62
256
6
ByLayer
370
18
48
1
60
0
100
AcDbSpline
70
4
71
3
72
12
73
8
40
0
40
0
40
0
40
0
40
0.368706056448696
40
0.368706056448696
40
0.737980850848004
40
0.737980850848004
40
1
40
1
40
1
40
1
41
1
10
16.4153472699774
20
-10.9624393119562
30
0
41
1
10
16.524490121534
20
-10.9686189055837
30
0
41
1
10
16.6333517440413
20
-10.9909267930616
30
0
41
1
10
16.8325096312106
20
-11.0607873109886
30
0
41
1
10
16.9255727775012
20
-11.109053974343
30
0
41
1
10
17.0670109423506
20
-11.206995033297
30
0
41
1
10
17.1213385199131
20
-11.2527452978835
30
0
41
1
10
17.1704318716301
20
-11.3022029994317
30
0
0
SPLINE
5
F3
100
AcDbEntity
8
1
62
256
6
ByLayer
370
18
48
1
60
0
100
AcDbSpline
70
4
71
3
72
16
73
12
40
0
40
0
40
0
40
0
40
0.191930281182737
40
0.191930281182737
40
0.488707775608022
40
0.488707775608022
40
0.756688906725715
40
0.756688906725715
40
0.994950483060319
40
0.994950483060319
40
1
40
1
40
1
40
1
41
1
10
17.1704318716268
20
-6.59779700056535
30
0
41
1
10
17.1970101552166
20
-6.57102146433746
30
0
41
1
10
17.22722378362
20
-6.54692478745648
30
0
41
1
10
17.3109482684759
20
-6.49543142047474
30
0
41
1
10
17.3698143864776
20
-6.47263873198361
30
0
41
1
10
17.486965618469
20
-6.45248867003835
30
0
41
1
10
17.5465803486937
20
-6.45268410677304
30
0
41
1
10
17.6551819835097
20
-6.47346517595105
30
0
41
1
10
17.7061620099742
20
-6.49214099149464
30
0
41
1
10
17.7530102361108
20
-6.5187875582717
30
0
41
1
10
17.7539957845871
20
-6.51935273485515
30
0
41
1
10
17.7549793192102
20
-6.51992137728189
30
0
0
SPLINE
5
F4
100
AcDbEntity
8
1
62
256
6
ByLayer
370
18
48
1
60
0
100
AcDbSpline
70
4
71
3
72
18
73
14
40
0
40
0
40
0
40
0
40
0.0173285944903539
40
0.0173285944903539
40
0.239841647765369
40
0.239841647765369
40
0.462510527753951
40
0.462510527753951
40
0.69747807977674
40
0.69747807977674
40
0.954392202348399
40
0.954392202348399
40
1
40
1
40
1
40
1
41
1
10
14.9450206807897
20
-6.51992137728189
30
0
41
1
10
14.9483773076035
20
-6.51798070293023
30
0
41
1
10
14.9517576061861
20
-6.51608028212229
30
0
41
1
10
14.9983242480798
20
-6.49063325923004
30
0
41
1
10
15.0457449432696
20
-6.47356284078052
30
0
41
1
10
15.1412016837082
20
-6.45476095312438
30
0
41
1
10
15.1904528627447
20
-6.45276485874794
30
0
41
1
10
15.2872012098167
20
-6.46298661187944
30
0
41
1
10
15.3356698281873
20
-6.47607309144024
30
0
41
1
10
15.4280129849237
20
-6.51632945361612
30
0
41
1
10
15.4722176447066
20
-6.54515162139512
30
0
41
1
10
15.5166419676245
20
-6.58513480306868
30
0
41
1
10
15.5232044293722
20
-6.59138607292209
30
0
41
1
10
15.5295681283698
20
-6.59779700056828
30
0
0
SPLINE
5
F5
100
AcDbEntity
8
1
62
256
6
ByLayer
370
18
48
1
60
0
100
AcDbSpline
70
4
71
3
72
12
73
8
40
0
40
0
40
0
40
0
40
0.455353062347087
40
0.455353062347087
40
0.827333545906254
40
0.827333545906254
40
1
40
1
40
1
40
1
41
1
10
15.5295681283698
20
-11.3022029994318
30
0
41
1
10
15.6141721268344
20
-11.2169711063239
30
0
41
1
10
15.7150921540688
20
-11.1422718193745
30
0
41
1
10
15.9207068254726
20
-11.0382641999225
30
0
41
1
10
16.0237682964852
20
-11.0022183581053
30
0
41
1
10
16.1812413972467
20
-10.9718291567252
30
0
41
1
10
16.2328602503949
20
-10.965371766739
30
0
41
1
10
16.2846527300225
20
-10.9624393119562
30
0
0
SPLINE
5
F6
100
AcDbEntity
8
1
62
256
6
ByLayer
370
18
48
1
60
0
100
AcDbSpline
70
4
71
3
72
16
73
12
40
0
40
0
40
0
40
0
40
0.218620732637228
40
0.218620732637228
40
0.44113209632628
40
0.44113209632628
40
0.674870839126924
40
0.674870839126924
40
0.929765351321892
40
0.929765351321892
40
1
40
1
40
1
40
1
41
1
10
17.7549793192102
20
-6.51992137728189
30
0
41
1
10
17.7967322838593
20
-6.54406135830939
30
0
41
1
10
17.835292894121
20
-6.57496526093706
30
0
41
1
10
17.9007677451595
20
-6.64571832199059
30
0
41
1
10
17.9283171189502
20
-6.68660827150364
30
0
41
1
10
17.9702916326037
20
-6.77418959593012
30
0
41
1
10
17.9845563198091
20
-6.82214751972344
30
0
41
1
10
17.9987611977979
20
-6.92139826365954
30
0
41
1
10
17.9975238514805
20
-6.97383563884856
30
0
41
1
10
17.9861524490117
20
-7.03718264596753
30
0
41
1
10
17.9830886103785
20
-7.05080144920052
30
0
41
1
10
17.9794641406544
20
-7.0641988437298
30
0
0
SPLINE
5
F7
100
AcDbEntity
8
1
62
256
6
ByLayer
370
18
48
1
60
0
100
AcDbSpline
70
4
71
3
72
18
73
14
40
0
40
0
40
0
40
0
40
0.181347322288265
40
0.181347322288265
40
0.360491893295299
40
0.360491893295299
40
0.54170121550288
40
0.54170121550288
40
0.695189055143497
40
0.695189055143497
40
0.891526265458829
40
0.891526265458829
40
1
40
1
40
1
40
1
41
1
10
14.7205358593456
20
-7.06419884372977
30
0
41
1
10
14.7473131816822
20
-7.16317783350971
30
0
41
1
10
14.7614899989259
20
-7.26835265630459
30
0
41
1
10
14.7597428781363
20
-7.48156341242432
30
0
41
1
10
14.7438614825796
20
-7.59209170730381
30
0
41
1
10
14.6790625518664
20
-7.80732430784391
30
0
41
1
10
14.6283565316106
20
-7.91522432747982
30
0
41
1
10
14.509722370224
20
-8.09187583157623
30
0
41
1
10
14.4442832783193
20
-8.16627944229302
30
0
41
1
10
14.2834431085831
20
-8.30956833324072
30
0
41
1
10
14.1823244174428
20
-8.37384222717427
30
0
41
1
10
14.0207935514181
20
-8.4464418767044
30
0
41
1
10
13.961563034439
20
-8.46734360786402
30
0
41
1
10
13.9018316724036
20
-8.48323322052528
30
0
0
SPLINE
5
F8
100
AcDbEntity
8
1
62
256
6
ByLayer
370
18
48
1
60
0
100
AcDbSpline
70
4
71
3
72
18
73
14
40
0
40
0
40
0
40
0
40
0.18175277145018
40
0.18175277145018
40
0.360818406833419
40
0.360818406833419
40
0.541944163041266
40
0.541944163041266
40
0.695407615755983
40
0.695407615755983
40
0.891808268956469
40
0.891808268956469
40
1
40
1
40
1
40
1
41
1
10
18.7981683275965
20
-8.48323322052457
30
0
41
1
10
18.6988559553603
20
-8.45681434987557
30
0
41
1
10
18.6004880467831
20
-8.41632153935205
30
0
41
1
10
18.4166603201379
20
-8.30786440626025
30
0
41
1
10
18.3289907291675
20
-8.23876294022693
30
0
41
1
10
18.1752354772816
20
-8.07491125308465
30
0
41
1
10
18.1072814826209
20
-7.97701650490706
30
0
41
1
10
18.0138398120849
20
-7.78591898447522
30
0
41
1
10
17.9822248539707
20
-7.69203508403805
30
0
41
1
10
17.938755204354
20
-7.48104744434391
30
0
41
1
10
17.9337711326442
20
-7.36130553418647
30
0
41
1
10
17.9518323112012
20
-7.18527686274453
30
0
41
1
10
17.9633653362174
20
-7.12370604089205
30
0
41
1
10
17.9794641406537
20
-7.06419884372951
30
0
0
SPLINE
5
F9
100
AcDbEntity
8
1
62
256
6
ByLayer
370
18
48
1
60
0
100
AcDbSpline
70
4
71
3
72
12
73
8
40
0
40
0
40
0
40
0
40
0.455353062346786
40
0.455353062346786
40
0.827333545905707
40
0.827333545905707
40
1
40
1
40
1
40
1
41
1
10
17.1704318716301
20
-6.59779700056831
30
0
41
1
10
17.0858278731655
20
-6.6830288936761
30
0
41
1
10
16.9849078459312
20
-6.75772818062558
30
0
41
1
10
16.7792931745274
20
-6.86173580007758
30
0
41
1
10
16.6762317035148
20
-6.89778164189471
30
0
41
1
10
16.5187586027533
20
-6.92817084327487
30
0
41
1
10
16.467139749605
20
-6.93462823326101
30
0
41
1
10
16.4153472699774
20
-6.93756068804387
30
0
0
SPLINE
5
FA
100
AcDbEntity
8
1
62
256
6
ByLayer
370
18
48
1
60
0
100
AcDbSpline
70
4
71
3
72
18
73
14
40
0
40
0
40
0
40
0
40
0.0150229386922748
40
0.0150229386922748
40
0.237604440562214
40
0.237604440562214
40
0.460204731428108
40
0.460204731428108
40
0.69499207528004
40
0.69499207528004
40
0.951641525778782
40
0.951641525778782
40
1
40
1
40
1
40
1
41
1
10
17.7549793192102
20
-11.3800786227181
30
0
41
1
10
17.7520684199844
20
-11.3817615942789
30
0
41
1
10
17.7491397490837
20
-11.3834142774078
30
0
41
1
10
17.7030920682664
20
-11.4087692760006
30
0
41
1
10
17.6557039074632
20
-11.425997414109
30
0
41
1
10
17.5602851564218
20
-11.4450960858195
30
0
41
1
10
17.5110399513397
20
-11.4472443400601
30
0
41
1
10
17.4142792924752
20
-11.4373217764371
30
0
41
1
10
17.3657874551504
20
-11.4243922232514
30
0
41
1
10
17.2733624353174
20
-11.3844502710447
30
0
41
1
10
17.2290914112967
20
-11.3557916634705
30
0
41
1
10
17.1841477224758
20
-11.3156161608078
30
0
41
1
10
17.1771780297028
20
-11.3089992246005
30
0
41
1
10
17.1704318716301
20
-11.3022029994318
30
0
0
SPLINE
5
FB
100
AcDbEntity
8
1
62
256
6
ByLayer
370
18
48
1
60
0
100
AcDbSpline
70
4
71
3
72
16
73
12
40
0
40
0
40
0
40
0
40
0.19183682466908
40
0.19183682466908
40
0.488625600663342
40
0.488625600663342
40
0.756617127620166
40
0.756617127620166
40
0.994885626449979
40
0.994885626449979
40
1
40
1
40
1
40
1
41
1
10
15.5295681283731
20
-11.3022029994347
30
0
41
1
10
15.5030027275395
20
-11.3289655572961
30
0
41
1
10
15.4728056370948
20
-11.3530517894597
30
0
41
1
10
15.3891024511948
20
-11.4045455835097
30
0
41
1
10
15.3302375601686
20
-11.4273454613306
30
0
41
1
10
15.2130856505552
20
-11.4475087167517
30
0
41
1
10
15.1534692409385
20
-11.4473195131247
30
0
41
1
10
15.0448627470953
20
-11.4265486102037
30
0
41
1
10
14.9938796455353
20
-11.4078772017484
30
0
41
1
10
14.9470150634089
20
-11.3812269493295
30
0
41
1
10
14.9460168391091
20
-11.3806545636874
30
0
41
1
10
14.9450206807897
20
-11.3800786227181
30
0
0
SPLINE
5
FC
100
AcDbEntity
8
1
62
256
6
ByLayer
370
18
48
1
60
0
100
AcDbSpline
70
4
71
3
72
18
73
14
40
0
40
0
40
0
40
0
40
0.181612675763438
40
0.181612675763438
40
0.360704962161449
40
0.360704962161449
40
0.541858957768577
40
0.541858957768577
40
0.695330353238805
40
0.695330353238805
40
0.891708592215002
40
0.891708592215002
40
1
40
1
40
1
40
1
41
1
10
13.9018316724034
20
-9.41676677947547
30
0
41
1
10
14.0010678212246
20
-9.44316537333017
30
0
41
1
10
14.0993599974145
20
-9.483615775347
30
0
41
1
10
14.283146016433
20
-9.5919947765959
30
0
41
1
10
14.3708390147032
20
-9.66108584381442
30
0
41
1
10
14.5246433194004
20
-9.82492921541552
30
0
41
1
10
14.5926240182454
20
-9.92282719766538
30
0
41
1
10
14.6861034266653
20
-10.113933458706
30
0
41
1
10
14.7177334532225
20
-10.207820489118
30
0
41
1
10
14.7612284804202
20
-10.4187995200452
30
0
41
1
10
14.7662285845804
20
-10.5385309194925
30
0
41
1
10
14.7481886242894
20
-10.7146112708124
30
0
41
1
10
14.7366492612541
20
-10.7762400013984
30
0
41
1
10
14.7205358593463
20
-10.8358011562705
30
0
0
SPLINE
5
FD
100
AcDbEntity
8
1
62
256
6
ByLayer
370
18
48
1
60
0
100
AcDbSpline
70
4
71
3
72
12
73
8
40
0
40
0
40
0
40
0
40
0.368706056538509
40
0.368706056538509
40
0.737980850952364
40
0.737980850952364
40
1
40
1
40
1
40
1
41
1
10
16.2846527300225
20
-6.93756068804387
30
0
41
1
10
16.1755098784394
20
-6.9313810944148
30
0
41
1
10
16.0666482559057
20
-6.90907320692736
30
0
41
1
10
15.8674903687157
20
-6.83921268897808
30
0
41
1
10
15.7744272224264
20
-6.79094602561597
30
0
41
1
10
15.6329890576062
20
-6.69300496666673
30
0
41
1
10
15.5786614800674
20
-6.64725470209692
30
0
41
1
10
15.5295681283698
20
-6.59779700056831
30
0
0
LINE
5
72
100
AcDbEntity
8
80
62
256
6
ByLayer
370
18
48
1
60
0
100
AcDbLine
10
0
20
0
30
0
11
-5
21
0
31
0
39
0
210
0
220
0
230
1
0
LINE
5
73
100
AcDbEntity
8
81
62
256
6
ByLayer
370
18
48
1
60
0
100
AcDbLine
10
57
20
-16.925
30
0
11
62
21
-16.925
31
0
39
0
210
0
220
0
230
1
0
LINE
5
74
100
AcDbEntity
8
1
62
256
6
ByLayer
370
18
48
1
60
0
100
AcDbLine
10
23.502314
20
6.917194
30
0
11
23.502314
21
-10.65
31
0
39
0
210
0
220
0
230
1
0
LINE
5
76
100
AcDbEntity
8
1
62
256
6
ByLayer
370
18
48
1
60
0
100
AcDbLine
10
48.809404
20
-12.25
30
0
11
49.960264
21
-12.25
31
0
39
0
210
0
220
0
230
1
0
LINE
5
77
100
AcDbEntity
8
1
62
256
6
ByLayer
370
18
48
1
60
0
100
AcDbLine
10
23.502146
20
6.917293
30
0
11
23.516458
21
6.908852
31
0
39
0
210
0
220
0
230
1
0
LINE
5
78
100
AcDbEntity
8
1
62
256
6
ByLayer
370
18
48
1
60
0
100
AcDbLine
10
0.5
20
-16.275
30
0
11
0
21
-15.775
31
0
39
0
210
0
220
0
230
1
0
LINE
5
79
100
AcDbEntity
8
1
62
256
6
ByLayer
370
18
48
1
60
0
100
AcDbLine
10
23.5
20
-10.65
30
0
11
23.502314
21
-10.65
31
0
39
0
210
0
220
0
230
1
0
LINE
5
7A
100
AcDbEntity
8
1
62
256
6
ByLayer
370
18
48
1
60
0
100
AcDbLine
10
36.785142
20
-12.25
30
0
11
25.1
21
-12.25
31
0
39
0
210
0
220
0
230
1
0
LINE
5
7B
100
AcDbEntity
8
1
62
256
6
ByLayer
370
18
48
1
60
0
100
AcDbLine
10
0.587083
20
-16.6
30
0
11
3.112505
21
-16.6
31
0
39
0
210
0
220
0
230
1
0
LINE
5
7C
100
AcDbEntity
8
1
62
256
6
ByLayer
370
18
48
1
60
0
100
AcDbLine
10
0.5
20
16.077182
30
0
11
0
21
16.075
31
0
39
0
210
0
220
0
230
1
0
LINE
5
7D
100
AcDbEntity
8
1
62
256
6
ByLayer
370
18
48
1
60
0
100
AcDbLine
10
49.309223
20
-14.15
30
0
11
49.309223
21
-14.7
31
0
39
0
210
0
220
0
230
1
0
LINE
5
7E
100
AcDbEntity
8
1
62
256
6
ByLayer
370
18
48
1
60
0
100
AcDbLine
10
23.5
20
6.918559
30
0
11
23.502314
21
6.917194
31
0
39
0
210
0
220
0
230
1
0
LINE
5
7F
100
AcDbEntity
8
1
62
256
6
ByLayer
370
18
48
1
60
0
100
AcDbLine
10
0.587083
20
-16.6
30
0
11
0.5
21
-16.275
31
0
39
0
210
0
220
0
230
1
0
LINE
5
80
100
AcDbEntity
8
1
62
256
6
ByLayer
370
18
48
1
60
0
100
AcDbLine
10
49.960264
20
-16.6
30
0
11
49.960042
21
-16.524994
31
0
39
0
210
0
220
0
230
1
0
LINE
5
81
100
AcDbEntity
8
1
62
256
6
ByLayer
370
18
48
1
60
0
100
AcDbLine
10
3.112505
20
-16.6
30
0
11
3.112505
21
16.119724
31
0
39
0
210
0
220
0
230
1
0
LINE
5
82
100
AcDbEntity
8
1
62
256
6
ByLayer
370
18
48
1
60
0
100
AcDbLine
10
7.899564
20
16.119724
30
0
11
23.5
21
6.918559
31
0
39
0
210
0
220
0
230
1
0
LINE
5
83
100
AcDbEntity
8
1
62
256
6
ByLayer
370
18
48
1
60
0
100
AcDbLine
10
23.516458
20
6.908852
30
0
11
26.450588
21
5.178297
31
0
39
0
210
0
220
0
230
1
0
LINE
5
84
100
AcDbEntity
8
1
62
256
6
ByLayer
370
18
48
1
60
0
100
AcDbLine
10
26.450588
20
5.178297
30
0
11
26.450588
21
-10.65
31
0
39
0
210
0
220
0
230
1
0
LINE
5
85
100
AcDbEntity
8
1
62
256
6
ByLayer
370
18
48
1
60
0
100
AcDbLine
10
49.960042
20
-12.325006
30
0
11
49.960264
21
-12.25
31
0
39
0
210
0
220
0
230
1
0
LINE
5
86
100
AcDbEntity
8
1
62
256
6
ByLayer
370
18
48
1
60
0
100
AcDbLine
10
0
20
-15.775
30
0
11
0
21
16.075
31
0
39
0
210
0
220
0
230
1
0
LINE
5
87
100
AcDbEntity
8
1
62
256
6
ByLayer
370
18
48
1
60
0
100
AcDbLine
10
0.5
20
-16.275
30
0
11
0.5
21
16.077182
31
0
39
0
210
0
220
0
230
1
0
LINE
5
88
100
AcDbEntity
8
1
62
256
6
ByLayer
370
18
48
1
60
0
100
AcDbLine
10
23.516458
20
-10.65
30
0
11
23.516458
21
6.908852
31
0
39
0
210
0
220
0
230
1
0
LINE
5
89
100
AcDbEntity
8
1
62
256
6
ByLayer
370
18
48
1
60
0
100
AcDbLine
10
49.960264
20
-12.25
30
0
11
52.254231
21
-12.25
31
0
39
0
210
0
220
0
230
1
0
LINE
5
8A
100
AcDbEntity
8
1
62
256
6
ByLayer
370
18
48
1
60
0
100
AcDbLine
10
49.960264
20
-16.6
30
0
11
52.254231
21
-16.6
31
0
39
0
210
0
220
0
230
1
0
LINE
5
8B
100
AcDbEntity
8
1
62
256
6
ByLayer
370
18
48
1
60
0
100
AcDbLine
10
23.516458
20
-10.65
30
0
11
26.450588
21
-10.65
31
0
39
0
210
0
220
0
230
1
0
LINE
5
8C
100
AcDbEntity
8
1
62
256
6
ByLayer
370
18
48
1
60
0
100
AcDbLine
10
0.5
20
16.077182
30
0
11
3.112505
21
16.119724
31
0
39
0
210
0
220
0
230
1
0
LINE
5
8D
100
AcDbEntity
8
1
62
256
6
ByLayer
370
18
48
1
60
0
100
AcDbLine
10
36.785142
20
-16.6
30
0
11
48.809413
21
-16.6
31
0
39
0
210
0
220
0
230
1
0
LINE
5
8E
100
AcDbEntity
8
1
62
256
6
ByLayer
370
18
48
1
60
0
100
AcDbLine
10
3.112505
20
16.119724
30
0
11
7.899564
21
16.119724
31
0
39
0
210
0
220
0
230
1
0
LINE
5
8F
100
AcDbEntity
8
1
62
256
6
ByLayer
370
18
48
1
60
0
100
AcDbLine
10
36.785142
20
-12.25
30
0
11
36.785142
21
-16.6
31
0
39
0
210
0
220
0
230
1
0
LINE
5
90
100
AcDbEntity
8
1
62
256
6
ByLayer
370
18
48
1
60
0
100
AcDbLine
10
48.809404
20
-16.6
30
0
11
49.960264
21
-16.6
31
0
39
0
210
0
220
0
230
1
0
LINE
5
91
100
AcDbEntity
8
1
62
256
6
ByLayer
370
18
48
1
60
0
100
AcDbLine
10
23.5
20
-10.65
30
0
11
23.5
21
6.918559
31
0
39
0
210
0
220
0
230
1
0
LINE
5
92
100
AcDbEntity
8
1
62
256
6
ByLayer
370
18
48
1
60
0
100
AcDbLine
10
36.785142
20
-16.6
30
0
11
3.112505
21
-16.6
31
0
39
0
210
0
220
0
230
1
0
LINE
5
93
100
AcDbEntity
8
1
62
256
6
ByLayer
370
18
48
1
60
0
100
AcDbLine
10
36.785142
20
-12.25
30
0
11
48.809413
21
-12.25
31
0
39
0
210
0
220
0
230
1
0
LINE
5
94
100
AcDbEntity
8
1
62
256
6
ByLayer
370
18
48
1
60
0
100
AcDbLine
10
49.590119
20
-13.941915
30
0
11
49.092957
21
-13.941915
31
0
39
0
210
0
220
0
230
1
0
LINE
5
95
100
AcDbEntity
8
1
62
256
6
ByLayer
370
18
48
1
60
0
100
AcDbLine
10
49.246355
20
-16.283749
30
0
11
49.246355
21
-16.525
31
0
39
0
210
0
220
0
230
1
0
LINE
5
96
100
AcDbEntity
8
1
62
256
6
ByLayer
370
18
48
1
60
0
100
AcDbLine
10
49.03018
20
-15.074934
30
0
11
49.457959
21
-15.074934
31
0
39
0
210
0
220
0
230
1
0
LINE
5
97
100
AcDbEntity
8
1
62
256
6
ByLayer
370
18
48
1
60
0
100
AcDbLine
10
48.820221
20
-12.325
30
0
11
49.246355
21
-12.325
31
0
39
0
210
0
220
0
230
1
0
LINE
5
98
100
AcDbEntity
8
1
62
256
6
ByLayer
370
18
48
1
60
0
100
AcDbLine
10
49.590119
20
-14.908085
30
0
11
49.092241
21
-14.908085
31
0
39
0
210
0
220
0
230
1
0
LINE
5
99
100
AcDbEntity
8
1
62
256
6
ByLayer
370
18
48
1
60
0
100
AcDbLine
10
49.309198
20
-14.214264
30
0
11
49.928946
21
-14.214264
31
0
39
0
210
0
220
0
230
1
0
LINE
5
9A
100
AcDbEntity
8
1
62
256
6
ByLayer
370
18
48
1
60
0
100
AcDbLine
10
52.5
20
-16.74191
30
0
11
52.124301
21
-16.525
31
0
39
0
210
0
220
0
230
1
0
LINE
5
9B
100
AcDbEntity
8
1
62
256
6
ByLayer
370
18
48
1
60
0
100
AcDbLine
10
49.201743
20
-14.852733
30
0
11
49.748945
21
-14.852733
31
0
39
0
210
0
220
0
230
1
0
LINE
5
9C
100
AcDbEntity
8
1
62
256
6
ByLayer
370
18
48
1
60
0
100
AcDbLine
10
50.63
20
-16.525
30
0
11
50.63
21
-12.325
31
0
39
0
210
0
220
0
230
1
0
LINE
5
9D
100
AcDbEntity
8
1
62
256
6
ByLayer
370
18
48
1
60
0
100
AcDbLine
10
56.686914
20
-16.924714
30
0
11
52.5
21
-16.74191
31
0
39
0
210
0
220
0
230
1
0
LINE
5
9E
100
AcDbEntity
8
1
62
256
6
ByLayer
370
18
48
1
60
0
100
AcDbLine
10
49.309193
20
-14.405
30
0
11
49.937861
21
-14.405
31
0
39
0
210
0
220
0
230
1
0
LINE
5
9F
100
AcDbEntity
8
1
62
256
6
ByLayer
370
18
48
1
60
0
100
AcDbLine
10
49.457959
20
-15.074934
30
0
11
49.247874
21
-16.266384
31
0
39
0
210
0
220
0
230
1
0
LINE
5
A0
100
AcDbEntity
8
1
62
256
6
ByLayer
370
18
48
1
60
0
100
AcDbLine
10
49.937861
20
-14.445
30
0
11
49.937861
21
-14.405
31
0
39
0
210
0
220
0
230
1
0
LINE
5
A1
100
AcDbEntity
8
1
62
256
6
ByLayer
370
18
48
1
60
0
100
AcDbLine
10
49.246355
20
-12.566251
30
0
11
49.246355
21
-12.325
31
0
39
0
210
0
220
0
230
1
0
LINE
5
A2
100
AcDbEntity
8
1
62
256
6
ByLayer
370
18
48
1
60
0
100
AcDbLine
10
36.5
20
-12.10809
30
0
11
36.745789
21
-12.249997
31
0
39
0
210
0
220
0
230
1
0
LINE
5
A3
100
AcDbEntity
8
1
62
256
6
ByLayer
370
18
48
1
60
0
100
AcDbLine
10
49.246355
20
-16.525
30
0
11
50.63
21
-16.525
31
0
39
0
210
0
220
0
230
1
0
LINE
5
A4
100
AcDbEntity
8
1
62
256
6
ByLayer
370
18
48
1
60
0
100
AcDbLine
10
52.5
20
-12.10809
30
0
11
52.124301
21
-12.325
31
0
39
0
210
0
220
0
230
1
0
LINE
5
A5
100
AcDbEntity
8
1
62
256
6
ByLayer
370
18
48
1
60
0
100
AcDbLine
10
49.066189
20
-13.911112
30
0
11
49.549523
21
-13.911112
31
0
39
0
210
0
220
0
230
1
0
LINE
5
A6
100
AcDbEntity
8
1
62
256
6
ByLayer
370
18
48
1
60
0
100
AcDbLine
10
32.313086
20
-11.925286
30
0
11
36.5
21
-12.10809
31
0
39
0
210
0
220
0
230
1
0
LINE
5
A7
100
AcDbEntity
8
1
62
256
6
ByLayer
370
18
48
1
60
0
100
AcDbLine
10
32
20
-16.625
30
0
11
32
21
-16.599975
31
0
39
0
210
0
220
0
230
1
0
LINE
5
A8
100
AcDbEntity
8
1
62
256
6
ByLayer
370
18
48
1
60
0
100
AcDbLine
10
32
20
-12.250025
30
0
11
32
21
-12.225
31
0
39
0
210
0
220
0
230
1
0
LINE
5
A9
100
AcDbEntity
8
1
62
256
6
ByLayer
370
18
48
1
60
0
100
AcDbLine
10
32.313086
20
-16.924714
30
0
11
36.5
21
-16.74191
31
0
39
0
210
0
220
0
230
1
0
LINE
5
AA
100
AcDbEntity
8
1
62
256
6
ByLayer
370
18
48
1
60
0
100
AcDbLine
10
49.246355
20
-12.325
30
0
11
50.63
21
-12.325
31
0
39
0
210
0
220
0
230
1
0
LINE
5
AB
100
AcDbEntity
8
1
62
256
6
ByLayer
370
18
48
1
60
0
100
AcDbLine
10
49.309193
20
-14.445
30
0
11
49.937861
21
-14.445
31
0
39
0
210
0
220
0
230
1
0
LINE
5
AC
100
AcDbEntity
8
1
62
256
6
ByLayer
370
18
48
1
60
0
100
AcDbLine
10
49.03018
20
-13.775066
30
0
11
49.457959
21
-13.775066
31
0
39
0
210
0
220
0
230
1
0
LINE
5
AD
100
AcDbEntity
8
1
62
256
6
ByLayer
370
18
48
1
60
0
100
AcDbLine
10
50.63
20
-16.525
30
0
11
52.124301
21
-16.525
31
0
39
0
210
0
220
0
230
1
0
LINE
5
AE
100
AcDbEntity
8
1
62
256
6
ByLayer
370
18
48
1
60
0
100
AcDbLine
10
49.065952
20
-14.938888
30
0
11
49.549523
21
-14.938888
31
0
39
0
210
0
220
0
230
1
0
LINE
5
AF
100
AcDbEntity
8
1
62
256
6
ByLayer
370
18
48
1
60
0
100
AcDbLine
10
48.857658
20
-12.583616
30
0
11
49.247874
21
-12.583616
31
0
39
0
210
0
220
0
230
1
0
LINE
5
B0
100
AcDbEntity
8
1
62
256
6
ByLayer
370
18
48
1
60
0
100
AcDbLine
10
49.036543
20
-15.030665
30
0
11
49.477691
21
-15.030665
31
0
39
0
210
0
220
0
230
1
0
LINE
5
B1
100
AcDbEntity
8
1
62
256
6
ByLayer
370
18
48
1
60
0
100
AcDbLine
10
49.036543
20
-13.819335
30
0
11
49.477691
21
-13.819335
31
0
39
0
210
0
220
0
230
1
0
LINE
5
B2
100
AcDbEntity
8
1
62
256
6
ByLayer
370
18
48
1
60
0
100
AcDbLine
10
49.549523
20
-14.938888
30
0
11
49.477691
21
-15.030665
31
0
39
0
210
0
220
0
230
1
0
LINE
5
B3
100
AcDbEntity
8
1
62
256
6
ByLayer
370
18
48
1
60
0
100
AcDbLine
10
49.309198
20
-14.635736
30
0
11
49.928946
21
-14.635736
31
0
39
0
210
0
220
0
230
1
0
LINE
5
B4
100
AcDbEntity
8
1
62
256
6
ByLayer
370
18
48
1
60
0
100
AcDbLine
10
57
20
-16.625
30
0
11
57
21
-12.225
31
0
39
0
210
0
220
0
230
1
0
LINE
5
B5
100
AcDbEntity
8
1
62
256
6
ByLayer
370
18
48
1
60
0
100
AcDbLine
10
50.63
20
-12.325
30
0
11
52.124301
21
-12.325
31
0
39
0
210
0
220
0
230
1
0
LINE
5
B6
100
AcDbEntity
8
1
62
256
6
ByLayer
370
18
48
1
60
0
100
AcDbLine
10
48.855225
20
-12.566251
30
0
11
49.246355
21
-12.566251
31
0
39
0
210
0
220
0
230
1
0
LINE
5
B7
100
AcDbEntity
8
1
62
256
6
ByLayer
370
18
48
1
60
0
100
AcDbLine
10
48.855225
20
-16.283749
30
0
11
49.246355
21
-16.283749
31
0
39
0
210
0
220
0
230
1
0
LINE
5
B8
100
AcDbEntity
8
1
62
256
6
ByLayer
370
18
48
1
60
0
100
AcDbLine
10
48.820221
20
-16.525
30
0
11
49.246355
21
-16.525
31
0
39
0
210
0
220
0
230
1
0
LINE
5
B9
100
AcDbEntity
8
1
62
256
6
ByLayer
370
18
48
1
60
0
100
AcDbLine
10
56.686914
20
-11.925286
30
0
11
52.5
21
-12.10809
31
0
39
0
210
0
220
0
230
1
0
LINE
5
BA
100
AcDbEntity
8
1
62
256
6
ByLayer
370
18
48
1
60
0
100
AcDbLine
10
36.5
20
-16.74191
30
0
11
36.745789
21
-16.600003
31
0
39
0
210
0
220
0
230
1
0
LINE
5
BB
100
AcDbEntity
8
1
62
256
6
ByLayer
370
18
48
1
60
0
100
AcDbLine
10
49.549523
20
-13.911112
30
0
11
49.477691
21
-13.819335
31
0
39
0
210
0
220
0
230
1
0
LINE
5
BC
100
AcDbEntity
8
1
62
256
6
ByLayer
370
18
48
1
60
0
100
AcDbLine
10
49.457959
20
-13.775066
30
0
11
49.247874
21
-12.583616
31
0
39
0
210
0
220
0
230
1
0
LINE
5
BD
100
AcDbEntity
8
1
62
256
6
ByLayer
370
18
48
1
60
0
100
AcDbLine
10
48.857658
20
-16.266384
30
0
11
49.247874
21
-16.266384
31
0
39
0
210
0
220
0
230
1
0
LINE
5
BE
100
AcDbEntity
8
1
62
256
6
ByLayer
370
18
48
1
60
0
100
AcDbLine
10
49.201743
20
-13.997267
30
0
11
49.748945
21
-13.997267
31
0
39
0
210
0
220
0
230
1
0
LINE
5
BF
100
AcDbEntity
8
SK1
62
256
6
ByLayer
370
18
48
1
60
0
100
AcDbLine
10
-114.35
20
16.075
30
0
11
0
21
16.075
31
0
39
0
210
0
220
0
230
1
0
LINE
5
C1
100
AcDbEntity
8
SK1
62
256
6
ByLayer
370
18
48
1
60
0
100
AcDbLine
10
-114.35
20
-15.775
30
0
11
-114.35
21
16.075
31
0
39
0
210
0
220
0
230
1
0
LINE
5
C2
100
AcDbEntity
8
SK1
62
256
6
ByLayer
370
18
48
1
60
0
100
AcDbLine
10
0
20
-15.775
30
0
11
0
21
16.075
31
0
39
0
210
0
220
0
230
1
0
LINE
5
C3
100
AcDbEntity
8
SK1
62
256
6
ByLayer
370
18
48
1
60
0
100
AcDbLine
10
0
20
-15.775
30
0
11
-114.35
21
-15.775
31
0
39
0
210
0
220
0
230
1
0
MTEXT
5
FE
100
AcDbEntity
8
SK6
62
256
6
ByLayer
370
18
48
1
60
0
100
AcDbMText
10
-57.799987
20
-27.777638
30
0
210
0
220
0
230
1
1
\W0.7653;LF123J32-3232BM
40
3.5
41
0
44
1.084337
50
0
71
7
72
5
7
iso_b_vert
0
DIMENSION
5
10F
100
AcDbEntity
8
2
62
256
6
ByLayer
370
13
48
1
60
0
100
AcDbDimension
2
DimnDraft3D1
10
71.25
20
-11.925
30
0
11
71.25
21
-7.425
31
0
70
32
71
5
72
1
41
1
210
0
220
0
230
1
3
Standard
100
AcDbAlignedDimension
13
58.5
23
-16.925
33
0
14
58.5
24
-11.925
34
0
50
90
100
AcDbRotatedDimension
1001
ACAD
1000
DSTYLE
1002
{
1070
    74
1070
     0
1070
   279
1070
     0
1070
   172
1070
     1
1070
   173
1070
     1
1070
   340
1005
FF
1070
   271
1070
     3
1070
   272
1070
     3
1070
    77
1070
     1
1070
    73
1070
     0
1070
   171
1070
     4
1070
   274
1070
     4
1070
   177
1070
     2
1070
   176
1070
     2
1070
   178
1070
     7
1070
    78
1070
     8
1070
    41
1041
3.0
1070
   147
1041
2.25
1070
    42
1041
1.5
1070
    44
1041
3.0
1070
   140
1041
4.5
1070
   343
1005
110
1070
   344
1005
110
1002
}
0
DIMENSION
5
124
100
AcDbEntity
8
2
62
256
6
ByLayer
370
13
48
1
60
0
100
AcDbDimension
2
DimnDraft3D2
10
81.25
20
15.925
30
0
11
81.25
21
-3.188158
31
0
70
32
71
5
72
1
41
1
210
0
220
0
230
1
3
Standard
100
AcDbAlignedDimension
13
58.5
23
-16.925
33
0
14
1.5
24
15.925
34
0
50
90
100
AcDbRotatedDimension
1001
ACAD
1000
DSTYLE
1002
{
1070
    74
1070
     0
1070
   279
1070
     0
1070
   172
1070
     1
1070
   173
1070
     1
1070
   340
1005
FF
1070
   271
1070
     3
1070
   272
1070
     3
1070
    77
1070
     1
1070
    73
1070
     0
1070
   171
1070
     4
1070
   274
1070
     4
1070
   177
1070
     2
1070
   176
1070
     2
1070
   178
1070
     7
1070
    78
1070
     8
1070
    41
1041
3.0
1070
   147
1041
2.25
1070
    42
1041
1.5
1070
    44
1041
3.0
1070
   140
1041
4.5
1070
   343
1005
110
1070
   344
1005
110
1002
}
0
DIMENSION
5
133
100
AcDbEntity
8
SK2
62
256
6
ByLayer
370
13
48
1
60
0
100
AcDbDimension
2
DimnDraft3D3
10
-124.1
20
-15.925
30
0
11
-124.1
21
-2.688158
31
0
70
32
71
5
72
1
41
1
210
0
220
0
230
1
3
Standard
100
AcDbAlignedDimension
13
-115.85
23
15.925
33
0
14
-115.85
24
-15.925
34
0
50
90
100
AcDbRotatedDimension
1001
ACAD
1000
DSTYLE
1002
{
1070
    74
1070
     0
1070
   279
1070
     0
1070
   172
1070
     1
1070
   173
1070
     1
1070
   340
1005
FF
1070
   271
1070
     3
1070
   272
1070
     3
1070
    77
1070
     1
1070
    73
1070
     0
1070
   171
1070
     4
1070
   274
1070
     4
1070
   177
1070
     2
1070
   176
1070
     2
1070
   178
1070
     7
1070
    78
1070
     8
1070
    41
1041
3.0
1070
   147
1041
2.25
1070
    42
1041
1.5
1070
    44
1041
3.0
1070
   140
1041
4.5
1070
   343
1005
110
1070
   344
1005
110
1002
}
0
DIMENSION
5
141
100
AcDbEntity
8
2
62
256
6
ByLayer
370
13
48
1
60
0
100
AcDbDimension
2
DimnDraft3D4
10
25
20
-30.175
30
0
11
38.311842
21
-30.175
31
0
70
32
71
5
72
1
41
1
210
0
220
0
230
1
3
Standard
100
AcDbAlignedDimension
13
57
23
-15.925
33
0
14
25
24
-12.575
34
0
50
0
100
AcDbRotatedDimension
1001
ACAD
1000
DSTYLE
1002
{
1070
   279
1070
     0
1070
   172
1070
     1
1070
   173
1070
     1
1070
   340
1005
FF
1070
   271
1070
     3
1070
   272
1070
     3
1070
    77
1070
     1
1070
    73
1070
     0
1070
   171
1070
     4
1070
   274
1070
     4
1070
   177
1070
     2
1070
   176
1070
     2
1070
   178
1070
     7
1070
    78
1070
     8
1070
    41
1041
3.0
1070
   147
1041
2.25
1070
    42
1041
1.5
1070
    44
1041
3.0
1070
   140
1041
4.5
1070
   343
1005
110
1070
   344
1005
110
1002
}
0
DIMENSION
5
14F
100
AcDbEntity
8
2
62
256
6
ByLayer
370
13
48
1
60
0
100
AcDbDimension
2
DimnDraft3D5
10
0
20
26.825
30
0
11
25.811842
21
26.825
31
0
70
32
71
5
72
1
41
1
210
0
220
0
230
1
3
Standard
100
AcDbAlignedDimension
13
57
23
-10.425
33
0
14
0
24
17.425
34
0
50
0
100
AcDbRotatedDimension
1001
ACAD
1000
DSTYLE
1002
{
1070
   279
1070
     0
1070
   172
1070
     1
1070
   173
1070
     1
1070
   340
1005
FF
1070
   271
1070
     3
1070
   272
1070
     3
1070
    77
1070
     1
1070
    73
1070
     0
1070
   171
1070
     4
1070
   274
1070
     4
1070
   177
1070
     2
1070
   176
1070
     2
1070
   178
1070
     7
1070
    78
1070
     8
1070
    41
1041
3.0
1070
   147
1041
2.25
1070
    42
1041
1.5
1070
    44
1041
3.0
1070
   140
1041
4.5
1070
   343
1005
110
1070
   344
1005
110
1002
}
0
DIMENSION
5
15D
100
AcDbEntity
8
SK2
62
256
6
ByLayer
370
13
48
1
60
0
100
AcDbDimension
2
DimnDraft3D6
10
-114.35
20
36.825
30
0
11
-32.482237
21
36.825
31
0
70
32
71
5
72
1
41
1
210
0
220
0
230
1
3
Standard
100
AcDbAlignedDimension
13
57
23
-10.425
33
0
14
-114.35
24
17.425
34
0
50
0
100
AcDbRotatedDimension
1001
ACAD
1000
DSTYLE
1002
{
1070
   279
1070
     0
1070
   172
1070
     1
1070
   173
1070
     1
1070
   340
1005
FF
1070
   271
1070
     3
1070
   272
1070
     3
1070
    77
1070
     1
1070
    73
1070
     0
1070
   171
1070
     4
1070
   274
1070
     4
1070
   177
1070
     2
1070
   176
1070
     2
1070
   178
1070
     7
1070
    78
1070
     8
1070
    41
1041
3.0
1070
   147
1041
2.25
1070
    42
1041
1.5
1070
    44
1041
3.0
1070
   140
1041
4.5
1070
   343
1005
110
1070
   344
1005
110
1002
}
0
ENDSEC
0
SECTION
2
OBJECTS
0
DICTIONARY
5
1c7
330
0
100
AcDbDictionary
280
0
281
1
3
ACAD_GROUP
350
1c8
3
ACAD_MLINESTYLE
350
1c9
0
DICTIONARY
5
1c8
330
0
100
AcDbDictionary
280
0
281
1
0
DICTIONARY
5
1c9
330
0
100
AcDbDictionary
280
0
281
1
3
Standard
350
18
0
MLINESTYLE
5
18
330
1c9
100
AcDbMlineStyle
2
Standard
70
0
3

62
256
51
90
52
90
71
2
49
-0.5
62
256
6
ByLayer
49
0.5
62
256
6
ByLayer
0
RASTERVARIABLES
5
1b6
330

100
AcDbRasterVariables
90
0
70
1
71
1
72
1
0
ENDSEC
0
EOF
