0
SECTION
2
HEADER
9
$ACADVER
1
AC1015
9
$DWGCODEPAGE
3
ANSI_1252
9
$HANDSEED
5
1d4
9
$ANGBASE
50
0
9
$ANGDIR
70
0
9
$ATTMODE
70
1
9
$AUNITS
70
0
9
$AUPREC
70
0
9
$CECOLOR
62
256
9
$CELTSCALE
40
1
9
$CELTYPE
6
ByLayer
9
$CELWEIGHT
370
18
9
$CLAYER
8
0
9
$CMLJUST
70
0
9
$CMLSCALE
40
1
9
$CMLSTYLE
2
Standard
9
$DIMSTYLE
2
Standard
9
$TEXTSIZE
40
0.2
9
$TEXTSTYLE
7
Standard
9
$LUNITS
70
2
9
$LUPREC
70
4
9
$EXTNAMES
290
1
9
$INSUNITS
70
4
9
$LTSCALE
40
1
9
$LWDISPLAY
290
1
9
$PDMODE
70
0
9
$PDSIZE
40
0
9
$PLINEGEN
70
0
0
ENDSEC
0
SECTION
2
CLASSES
0
CLASS
1
RASTERVARIABLES
2
AcDbRasterVariables
3
ISM
90
0
280
0
281
0
0
ENDSEC
0
SECTION
2
TABLES
0
TABLE
2
VPORT
5
1ca
100
AcDbSymbolTable
0
VPORT
5
1
100
AcDbSymbolTableRecord
100
AcDbViewportTableRecord
2
*Active
70
0
10
0
20
0
11
1
21
1
12
-1
22
1
13
0
23
0
14
0.5
24
0.5
15
10
25
10
16
0
26
0
36
1
17
0
27
0
37
0
0
ENDTAB
0
TABLE
2
LTYPE
5
1cb
100
AcDbSymbolTable
0
LTYPE
5
14
100
AcDbSymbolTableRecord
100
AcDbLinetypeTableRecord
70
0
2
ByBlock
3

72
65
73
0
40
0
0
LTYPE
5
15
100
AcDbSymbolTableRecord
100
AcDbLinetypeTableRecord
70
0
2
ByLayer
3

72
65
73
0
40
0
0
LTYPE
5
16
100
AcDbSymbolTableRecord
100
AcDbLinetypeTableRecord
70
0
2
CONTINUOUS
3
Solid line
72
65
73
0
40
0
0
LTYPE
5
6A
100
AcDbSymbolTableRecord
100
AcDbLinetypeTableRecord
70
0
2
CENTER
3
____ _ ____ _ ____ _ ____
72
65
73
4
40
47.5
49
22
74
0
49
-8.5
74
0
49
8.5
74
0
49
-8.5
74
0
0
LTYPE
5
6B
100
AcDbSymbolTableRecord
100
AcDbLinetypeTableRecord
70
0
2
DASHED
3
__ __ __ __ __ __ __ __ __
72
65
73
2
40
25.72
49
12.86
74
0
49
-12.86
74
0
0
ENDTAB
0
TABLE
2
LAYER
5
1cc
100
AcDbSymbolTable
0
LAYER
5
10
100
AcDbSymbolTableRecord
100
AcDbLayerTableRecord
2
0
70
0
62
7
6
CONTINUOUS
290
1
370
-3
390
0
0
LAYER
5
6D
100
AcDbSymbolTableRecord
100
AcDbLayerTableRecord
2
80
70
0
62
-6
6
CONTINUOUS
290
1
370
-3
390
0
0
LAYER
5
6F
100
AcDbSymbolTableRecord
100
AcDbLayerTableRecord
2
2
70
0
62
7
6
CONTINUOUS
290
1
370
-3
390
0
0
LAYER
5
71
100
AcDbSymbolTableRecord
100
AcDbLayerTableRecord
2
81
70
0
62
-3
6
CONTINUOUS
290
1
370
-3
390
0
0
LAYER
5
75
100
AcDbSymbolTableRecord
100
AcDbLayerTableRecord
2
1
70
0
62
4
6
CONTINUOUS
290
1
370
-3
390
0
0
LAYER
5
1b7
100
AcDbSymbolTableRecord
100
AcDbLayerTableRecord
2
SK1
70
0
62
4
6
CONTINUOUS
290
1
370
-3
390
0
0
LAYER
5
1b8
100
AcDbSymbolTableRecord
100
AcDbLayerTableRecord
2
SK6
70
0
62
5
6
CONTINUOUS
290
1
370
-3
390
0
0
LAYER
5
1b9
100
AcDbSymbolTableRecord
100
AcDbLayerTableRecord
2
SK2
70
0
62
7
6
CONTINUOUS
290
1
370
-3
390
0
0
ENDTAB
0
TABLE
2
STYLE
5
1cd
100
AcDbSymbolTable
0
STYLE
5
11
100
AcDbSymbolTableRecord
100
AcDbTextStyleTableRecord
2
Standard
3
txt
70
0
71
0
40
0
41
1
42
0
50
0
0
STYLE
5
FF
100
AcDbSymbolTableRecord
100
AcDbTextStyleTableRecord
2
iso_b_vert
3
simplex.shx
70
0
71
0
40
0
41
1
42
0
50
0
0
STYLE
5
100
100
AcDbSymbolTableRecord
100
AcDbTextStyleTableRecord
2
DWGDirectTextStyle
3
simplex
70
0
71
0
40
0
41
1
42
0
50
0
0
ENDTAB
0
TABLE
2
DIMSTYLE
5
1ce
100
AcDbSymbolTable
100
AcDbDimStyleTable
0
DIMSTYLE
105
27
100
AcDbSymbolTableRecord
100
AcDbDimStyleTableRecord
2
Standard
70
0
3
<>
41
0.18
42
0.0625
44
0.18
140
0.18
147
0.09
73
0
74
0
77
1
271
2
275
0
278
52
280
0
340
11
0
ENDTAB
0
TABLE
2
VIEW
5
1cf
100
AcDbSymbolTable
0
ENDTAB
0
TABLE
2
UCS
5
1d0
100
AcDbSymbolTable
0
ENDTAB
0
TABLE
2
APPID
5
1d1
100
AcDbSymbolTable
0
APPID
5
12
100
AcDbSymbolTableRecord
100
AcDbRegAppTableRecord
2
ACAD
70
0
0
ENDTAB
0
TABLE
2
BLOCK_RECORD
5
1d2
100
AcDbSymbolTable
0
BLOCK_RECORD
5
1F
100
AcDbSymbolTableRecord
100
AcDbBlockTableRecord
2
*Model_Space
340
0
70
0
0
BLOCK_RECORD
5
1B
100
AcDbSymbolTableRecord
100
AcDbBlockTableRecord
2
*Paper_Space
340
0
70
0
0
BLOCK_RECORD
5
23
100
AcDbSymbolTableRecord
100
AcDbBlockTableRecord
2
*Paper_Space0
340
0
70
0
0
BLOCK_RECORD
5
102
100
AcDbSymbolTableRecord
100
AcDbBlockTableRecord
2
DimnDraft3D1
340
0
70
0
0
BLOCK_RECORD
5
110
100
AcDbSymbolTableRecord
100
AcDbBlockTableRecord
2
_CLOSED
340
0
70
0
0
BLOCK_RECORD
5
117
100
AcDbSymbolTableRecord
100
AcDbBlockTableRecord
2
DimnDraft3D2
340
0
70
0
0
BLOCK_RECORD
5
125
100
AcDbSymbolTableRecord
100
AcDbBlockTableRecord
2
DimnDraft3D3
340
0
70
0
0
BLOCK_RECORD
5
134
100
AcDbSymbolTableRecord
100
AcDbBlockTableRecord
2
DimnDraft3D4
340
0
70
0
0
BLOCK_RECORD
5
142
100
AcDbSymbolTableRecord
100
AcDbBlockTableRecord
2
DimnDraft3D5
340
0
70
0
0
BLOCK_RECORD
5
150
100
AcDbSymbolTableRecord
100
AcDbBlockTableRecord
2
DimnDraft3D6
340
0
70
0
0
ENDTAB
0
ENDSEC
0
SECTION
2
BLOCKS
0
BLOCK
5
20
100
AcDbEntity
8
0
100
AcDbBlockBegin
2
*Model_Space
70
0
10
0
20
0
30
0
3
*Model_Space
0
ENDBLK
5
21
100
AcDbEntity
8
0
100
AcDbBlockEnd
0
BLOCK
5
1C
100
AcDbEntity
8
0
100
AcDbBlockBegin
2
*Paper_Space
70
0
10
0
20
0
30
0
3
*Paper_Space
0
ENDBLK
5
1D
100
AcDbEntity
8
0
100
AcDbBlockEnd
0
BLOCK
5
24
100
AcDbEntity
8
0
100
AcDbBlockBegin
2
*Paper_Space0
70
0
10
0
20
0
30
0
3
*Paper_Space0
0
ENDBLK
5
25
100
AcDbEntity
8
0
100
AcDbBlockEnd
0
BLOCK
5
10D
100
AcDbEntity
8
0
100
AcDbBlockBegin
2
DimnDraft3D1
70
0
10
0
20
0
30
0
3
DimnDraft3D1
0
MTEXT
5
103
100
AcDbEntity
8
2
62
256
6
ByLayer
370
18
48
1
60
0
100
AcDbMText
10
47.125
20
-2.8125
30
0
210
0
220
0
230
1
1
\W0.5404;5
40
4.5
41
0
44
1.084337
50
90
71
7
72
5
7
iso_b_vert
0
LINE
5
104
100
AcDbEntity
8
2
62
256
6
ByLayer
370
13
48
1
60
0
100
AcDbLine
10
35.5
20
-13.4375
30
0
11
51.25
21
-13.4375
31
0
39
0
210
0
220
0
230
1
0
LINE
5
105
100
AcDbEntity
8
2
62
256
6
ByLayer
370
13
48
1
60
0
100
AcDbLine
10
35.5
20
-8.4375
30
0
11
51.25
21
-8.4375
31
0
39
0
210
0
220
0
230
1
0
LINE
5
106
100
AcDbEntity
8
2
62
256
6
ByLayer
370
13
48
1
60
0
100
AcDbLine
10
48.25
20
-1.924342
30
0
11
48.25
21
-24.6875
31
0
39
0
210
0
220
0
230
1
0
LINE
5
107
100
AcDbEntity
8
2
62
256
6
ByLayer
370
13
48
1
60
0
100
AcDbLine
10
48.25
20
-13.4375
30
0
11
48.644957
21
-16.437499
31
0
39
0
210
0
220
0
230
1
0
LINE
5
108
100
AcDbEntity
8
2
62
256
6
ByLayer
370
13
48
1
60
0
100
AcDbLine
10
48.25
20
-13.4375
30
0
11
47.855043
21
-16.437501
31
0
39
0
210
0
220
0
230
1
0
LINE
5
109
100
AcDbEntity
8
2
62
256
6
ByLayer
370
13
48
1
60
0
100
AcDbLine
10
48.644957
20
-16.437499
30
0
11
47.855043
21
-16.437501
31
0
39
0
210
0
220
0
230
1
0
LINE
5
10A
100
AcDbEntity
8
2
62
256
6
ByLayer
370
13
48
1
60
0
100
AcDbLine
10
48.25
20
-8.4375
30
0
11
47.855043
21
-5.437501
31
0
39
0
210
0
220
0
230
1
0
LINE
5
10B
100
AcDbEntity
8
2
62
256
6
ByLayer
370
13
48
1
60
0
100
AcDbLine
10
48.25
20
-8.4375
30
0
11
48.644957
21
-5.437499
31
0
39
0
210
0
220
0
230
1
0
LINE
5
10C
100
AcDbEntity
8
2
62
256
6
ByLayer
370
13
48
1
60
0
100
AcDbLine
10
47.855043
20
-5.437501
30
0
11
48.644957
21
-5.437499
31
0
39
0
210
0
220
0
230
1
0
ENDBLK
5
10E
100
AcDbEntity
8
0
100
AcDbBlockEnd
0
BLOCK
5
111
100
AcDbEntity
8
0
100
AcDbBlockBegin
2
_CLOSED
70
0
10
0
20
0
30
0
3
_CLOSED
0
LINE
5
113
100
AcDbEntity
8
0
62
256
6
ByLayer
370
-2
48
1
60
0
100
AcDbLine
10
-1
20
0.166667
30
0
11
0
21
0
31
0
39
0
210
0
220
0
230
1
0
LINE
5
114
100
AcDbEntity
8
0
62
256
6
ByLayer
370
-2
48
1
60
0
100
AcDbLine
10
0
20
0
30
0
11
-1
21
-0.166667
31
0
39
0
210
0
220
0
230
1
0
LINE
5
115
100
AcDbEntity
8
0
62
256
6
ByLayer
370
-2
48
1
60
0
100
AcDbLine
10
-1
20
0.166667
30
0
11
-1
21
-0.166667
31
0
39
0
210
0
220
0
230
1
0
LINE
5
116
100
AcDbEntity
8
0
62
256
6
ByLayer
370
-2
48
1
60
0
100
AcDbLine
10
0
20
0
30
0
11
-1
21
0
31
0
39
0
210
0
220
0
230
1
0
ENDBLK
5
112
100
AcDbEntity
8
0
100
AcDbBlockEnd
0
BLOCK
5
122
100
AcDbEntity
8
0
100
AcDbBlockBegin
2
DimnDraft3D2
70
0
10
0
20
0
30
0
3
DimnDraft3D2
0
MTEXT
5
118
100
AcDbEntity
8
2
62
256
6
ByLayer
370
18
48
1
60
0
100
AcDbMText
10
57.125
20
-2.063158
30
0
210
0
220
0
230
1
1
\W0.6740;26
40
4.5
41
0
44
1.084337
50
90
71
7
72
5
7
iso_b_vert
0
LINE
5
119
100
AcDbEntity
8
2
62
256
6
ByLayer
370
13
48
1
60
0
100
AcDbLine
10
35.5
20
-13.4375
30
0
11
61.25
21
-13.4375
31
0
39
0
210
0
220
0
230
1
0
LINE
5
11A
100
AcDbEntity
8
2
62
256
6
ByLayer
370
13
48
1
60
0
100
AcDbLine
10
1.5
20
12.4375
30
0
11
61.25
21
12.4375
31
0
39
0
210
0
220
0
230
1
0
LINE
5
11B
100
AcDbEntity
8
2
62
256
6
ByLayer
370
13
48
1
60
0
100
AcDbLine
10
58.25
20
-13.4375
30
0
11
58.25
21
12.4375
31
0
39
0
210
0
220
0
230
1
0
LINE
5
11C
100
AcDbEntity
8
2
62
256
6
ByLayer
370
13
48
1
60
0
100
AcDbLine
10
58.25
20
-13.4375
30
0
11
57.855043
21
-10.437501
31
0
39
0
210
0
220
0
230
1
0
LINE
5
11D
100
AcDbEntity
8
2
62
256
6
ByLayer
370
13
48
1
60
0
100
AcDbLine
10
58.25
20
-13.4375
30
0
11
58.644957
21
-10.437499
31
0
39
0
210
0
220
0
230
1
0
LINE
5
11E
100
AcDbEntity
8
2
62
256
6
ByLayer
370
13
48
1
60
0
100
AcDbLine
10
57.855043
20
-10.437501
30
0
11
58.644957
21
-10.437499
31
0
39
0
210
0
220
0
230
1
0
LINE
5
11F
100
AcDbEntity
8
2
62
256
6
ByLayer
370
13
48
1
60
0
100
AcDbLine
10
58.25
20
12.4375
30
0
11
58.644957
21
9.437501
31
0
39
0
210
0
220
0
230
1
0
LINE
5
120
100
AcDbEntity
8
2
62
256
6
ByLayer
370
13
48
1
60
0
100
AcDbLine
10
58.25
20
12.4375
30
0
11
57.855043
21
9.437499
31
0
39
0
210
0
220
0
230
1
0
LINE
5
121
100
AcDbEntity
8
2
62
256
6
ByLayer
370
13
48
1
60
0
100
AcDbLine
10
58.644957
20
9.437501
30
0
11
57.855043
21
9.437499
31
0
39
0
210
0
220
0
230
1
0
ENDBLK
5
123
100
AcDbEntity
8
0
100
AcDbBlockEnd
0
BLOCK
5
131
100
AcDbEntity
8
0
100
AcDbBlockBegin
2
DimnDraft3D3
70
0
10
0
20
0
30
0
3
DimnDraft3D3
0
MTEXT
5
126
100
AcDbEntity
8
SK2
62
256
6
ByLayer
370
18
48
1
60
0
100
AcDbMText
10
-128.225
20
-1.563158
30
0
210
0
220
0
230
1
1
\W0.6740;25
40
4.5
41
0
44
1.084337
50
90
71
7
72
5
7
iso_b_vert
0
LINE
5
128
100
AcDbEntity
8
SK2
62
256
6
ByLayer
370
13
48
1
60
0
100
AcDbLine
10
-118.85
20
12.4375
30
0
11
-130.1
21
12.4375
31
0
39
0
210
0
220
0
230
1
0
LINE
5
129
100
AcDbEntity
8
SK2
62
256
6
ByLayer
370
13
48
1
60
0
100
AcDbLine
10
-118.85
20
-12.4375
30
0
11
-130.1
21
-12.4375
31
0
39
0
210
0
220
0
230
1
0
LINE
5
12A
100
AcDbEntity
8
SK2
62
256
6
ByLayer
370
13
48
1
60
0
100
AcDbLine
10
-127.1
20
12.4375
30
0
11
-127.1
21
-12.4375
31
0
39
0
210
0
220
0
230
1
0
LINE
5
12B
100
AcDbEntity
8
SK2
62
256
6
ByLayer
370
13
48
1
60
0
100
AcDbLine
10
-127.1
20
12.4375
30
0
11
-126.705043
21
9.437501
31
0
39
0
210
0
220
0
230
1
0
LINE
5
12C
100
AcDbEntity
8
SK2
62
256
6
ByLayer
370
13
48
1
60
0
100
AcDbLine
10
-127.1
20
12.4375
30
0
11
-127.494957
21
9.437499
31
0
39
0
210
0
220
0
230
1
0
LINE
5
12D
100
AcDbEntity
8
SK2
62
256
6
ByLayer
370
13
48
1
60
0
100
AcDbLine
10
-126.705043
20
9.437501
30
0
11
-127.494957
21
9.437499
31
0
39
0
210
0
220
0
230
1
0
LINE
5
12E
100
AcDbEntity
8
SK2
62
256
6
ByLayer
370
13
48
1
60
0
100
AcDbLine
10
-127.1
20
-12.4375
30
0
11
-127.494957
21
-9.437501
31
0
39
0
210
0
220
0
230
1
0
LINE
5
12F
100
AcDbEntity
8
SK2
62
256
6
ByLayer
370
13
48
1
60
0
100
AcDbLine
10
-127.1
20
-12.4375
30
0
11
-126.705043
21
-9.437499
31
0
39
0
210
0
220
0
230
1
0
LINE
5
130
100
AcDbEntity
8
SK2
62
256
6
ByLayer
370
13
48
1
60
0
100
AcDbLine
10
-127.494957
20
-9.437501
30
0
11
-126.705043
21
-9.437499
31
0
39
0
210
0
220
0
230
1
0
ENDBLK
5
132
100
AcDbEntity
8
0
100
AcDbBlockEnd
0
BLOCK
5
13F
100
AcDbEntity
8
0
100
AcDbBlockBegin
2
DimnDraft3D4
70
0
10
0
20
0
30
0
3
DimnDraft3D4
0
MTEXT
5
135
100
AcDbEntity
8
2
62
256
6
ByLayer
370
18
48
1
60
0
100
AcDbMText
10
26.499342
20
23.3125
30
0
210
0
220
0
230
1
1
\W0.5321;13
40
4.5
41
0
44
1.084337
50
0
71
7
72
5
7
iso_b_vert
0
LINE
5
136
100
AcDbEntity
8
2
62
256
6
ByLayer
370
13
48
1
60
0
100
AcDbLine
10
34
20
-6.9375
30
0
11
34
21
25.1875
31
0
39
0
210
0
220
0
230
1
0
LINE
5
137
100
AcDbEntity
8
2
62
256
6
ByLayer
370
13
48
1
60
0
100
AcDbLine
10
21
20
13.9375
30
0
11
21
21
25.1875
31
0
39
0
210
0
220
0
230
1
0
LINE
5
138
100
AcDbEntity
8
2
62
256
6
ByLayer
370
13
48
1
60
0
100
AcDbLine
10
45.25
20
22.1875
30
0
11
9.75
21
22.1875
31
0
39
0
210
0
220
0
230
1
0
LINE
5
139
100
AcDbEntity
8
2
62
256
6
ByLayer
370
13
48
1
60
0
100
AcDbLine
10
34
20
22.1875
30
0
11
36.999999
21
22.582457
31
0
39
0
210
0
220
0
230
1
0
LINE
5
13A
100
AcDbEntity
8
2
62
256
6
ByLayer
370
13
48
1
60
0
100
AcDbLine
10
34
20
22.1875
30
0
11
37.000001
21
21.792543
31
0
39
0
210
0
220
0
230
1
0
LINE
5
13B
100
AcDbEntity
8
2
62
256
6
ByLayer
370
13
48
1
60
0
100
AcDbLine
10
36.999999
20
22.582457
30
0
11
37.000001
21
21.792543
31
0
39
0
210
0
220
0
230
1
0
LINE
5
13C
100
AcDbEntity
8
2
62
256
6
ByLayer
370
13
48
1
60
0
100
AcDbLine
10
21
20
22.1875
30
0
11
18.000001
21
21.792543
31
0
39
0
210
0
220
0
230
1
0
LINE
5
13D
100
AcDbEntity
8
2
62
256
6
ByLayer
370
13
48
1
60
0
100
AcDbLine
10
21
20
22.1875
30
0
11
17.999999
21
22.582457
31
0
39
0
210
0
220
0
230
1
0
LINE
5
13E
100
AcDbEntity
8
2
62
256
6
ByLayer
370
13
48
1
60
0
100
AcDbLine
10
18.000001
20
21.792543
30
0
11
17.999999
21
22.582457
31
0
39
0
210
0
220
0
230
1
0
ENDBLK
5
140
100
AcDbEntity
8
0
100
AcDbBlockEnd
0
BLOCK
5
14D
100
AcDbEntity
8
0
100
AcDbBlockBegin
2
DimnDraft3D5
70
0
10
0
20
0
30
0
3
DimnDraft3D5
0
MTEXT
5
143
100
AcDbEntity
8
2
62
256
6
ByLayer
370
18
48
1
60
0
100
AcDbMText
10
15.2
20
33.3125
30
0
210
0
220
0
230
1
1
\W0.7167;34
40
4.5
41
0
44
1.084337
50
0
71
7
72
5
7
iso_b_vert
0
LINE
5
144
100
AcDbEntity
8
2
62
256
6
ByLayer
370
13
48
1
60
0
100
AcDbLine
10
34
20
-6.9375
30
0
11
34
21
35.1875
31
0
39
0
210
0
220
0
230
1
0
LINE
5
145
100
AcDbEntity
8
2
62
256
6
ByLayer
370
13
48
1
60
0
100
AcDbLine
10
0
20
13.9375
30
0
11
0
21
35.1875
31
0
39
0
210
0
220
0
230
1
0
LINE
5
146
100
AcDbEntity
8
2
62
256
6
ByLayer
370
13
48
1
60
0
100
AcDbLine
10
34
20
32.1875
30
0
11
0
21
32.1875
31
0
39
0
210
0
220
0
230
1
0
LINE
5
147
100
AcDbEntity
8
2
62
256
6
ByLayer
370
13
48
1
60
0
100
AcDbLine
10
34
20
32.1875
30
0
11
31.000001
21
31.792543
31
0
39
0
210
0
220
0
230
1
0
LINE
5
148
100
AcDbEntity
8
2
62
256
6
ByLayer
370
13
48
1
60
0
100
AcDbLine
10
34
20
32.1875
30
0
11
30.999999
21
32.582457
31
0
39
0
210
0
220
0
230
1
0
LINE
5
149
100
AcDbEntity
8
2
62
256
6
ByLayer
370
13
48
1
60
0
100
AcDbLine
10
31.000001
20
31.792543
30
0
11
30.999999
21
32.582457
31
0
39
0
210
0
220
0
230
1
0
LINE
5
14A
100
AcDbEntity
8
2
62
256
6
ByLayer
370
13
48
1
60
0
100
AcDbLine
10
0
20
32.1875
30
0
11
2.999999
21
32.582457
31
0
39
0
210
0
220
0
230
1
0
LINE
5
14B
100
AcDbEntity
8
2
62
256
6
ByLayer
370
13
48
1
60
0
100
AcDbLine
10
0
20
32.1875
30
0
11
3.000001
21
31.792543
31
0
39
0
210
0
220
0
230
1
0
LINE
5
14C
100
AcDbEntity
8
2
62
256
6
ByLayer
370
13
48
1
60
0
100
AcDbLine
10
2.999999
20
32.582457
30
0
11
3.000001
21
31.792543
31
0
39
0
210
0
220
0
230
1
0
ENDBLK
5
14E
100
AcDbEntity
8
0
100
AcDbBlockEnd
0
BLOCK
5
15B
100
AcDbEntity
8
0
100
AcDbBlockBegin
2
DimnDraft3D6
70
0
10
0
20
0
30
0
3
DimnDraft3D6
0
MTEXT
5
151
100
AcDbEntity
8
SK2
62
256
6
ByLayer
370
18
48
1
60
0
100
AcDbMText
10
-44.357237
20
43.3125
30
0
210
0
220
0
230
1
1
\W0.6217;150
40
4.5
41
0
44
1.084337
50
0
71
7
72
5
7
iso_b_vert
0
LINE
5
152
100
AcDbEntity
8
SK2
62
256
6
ByLayer
370
13
48
1
60
0
100
AcDbLine
10
34
20
-6.9375
30
0
11
34
21
45.1875
31
0
39
0
210
0
220
0
230
1
0
LINE
5
153
100
AcDbEntity
8
SK2
62
256
6
ByLayer
370
13
48
1
60
0
100
AcDbLine
10
-117.35
20
13.9375
30
0
11
-117.35
21
45.1875
31
0
39
0
210
0
220
0
230
1
0
LINE
5
154
100
AcDbEntity
8
SK2
62
256
6
ByLayer
370
13
48
1
60
0
100
AcDbLine
10
34
20
42.1875
30
0
11
-117.35
21
42.1875
31
0
39
0
210
0
220
0
230
1
0
LINE
5
155
100
AcDbEntity
8
SK2
62
256
6
ByLayer
370
13
48
1
60
0
100
AcDbLine
10
34
20
42.1875
30
0
11
31.000001
21
41.792543
31
0
39
0
210
0
220
0
230
1
0
LINE
5
156
100
AcDbEntity
8
SK2
62
256
6
ByLayer
370
13
48
1
60
0
100
AcDbLine
10
34
20
42.1875
30
0
11
30.999999
21
42.582457
31
0
39
0
210
0
220
0
230
1
0
LINE
5
157
100
AcDbEntity
8
SK2
62
256
6
ByLayer
370
13
48
1
60
0
100
AcDbLine
10
31.000001
20
41.792543
30
0
11
30.999999
21
42.582457
31
0
39
0
210
0
220
0
230
1
0
LINE
5
158
100
AcDbEntity
8
SK2
62
256
6
ByLayer
370
13
48
1
60
0
100
AcDbLine
10
-117.35
20
42.1875
30
0
11
-114.350001
21
42.582457
31
0
39
0
210
0
220
0
230
1
0
LINE
5
159
100
AcDbEntity
8
SK2
62
256
6
ByLayer
370
13
48
1
60
0
100
AcDbLine
10
-117.35
20
42.1875
30
0
11
-114.349999
21
41.792543
31
0
39
0
210
0
220
0
230
1
0
LINE
5
15A
100
AcDbEntity
8
SK2
62
256
6
ByLayer
370
13
48
1
60
0
100
AcDbLine
10
-114.350001
20
42.582457
30
0
11
-114.349999
21
41.792543
31
0
39
0
210
0
220
0
230
1
0
ENDBLK
5
15C
100
AcDbEntity
8
0
100
AcDbBlockEnd
0
ENDSEC
0
SECTION
2
ENTITIES
0
ARC
5
BD
100
AcDbEntity
8
1
62
256
6
ByLayer
370
18
48
1
60
0
100
AcDbCircle
39
0
10
-21.1
20
-7.1625
30
0
40
1.6
210
0
220
0
230
-1
100
AcDbArc
50
346.448529
51
0
0
ARC
5
BF
100
AcDbEntity
8
1
62
256
6
ByLayer
370
18
48
1
60
0
100
AcDbCircle
39
0
10
-33.7
20
-13.1375
30
0
40
0.3
210
0
220
0
230
-1
100
AcDbArc
50
180
51
272.5
0
ARC
5
C0
100
AcDbEntity
8
1
62
256
6
ByLayer
370
18
48
1
60
0
100
AcDbCircle
39
0
10
9.3
20
-13.1375
30
0
40
0.3
210
0
220
0
230
1
100
AcDbArc
50
180
51
272.5
0
ARC
5
C1
100
AcDbEntity
8
1
62
256
6
ByLayer
370
18
48
1
60
0
100
AcDbCircle
39
0
10
33.7
20
-8.7375
30
0
40
0.3
210
0
220
0
230
1
100
AcDbArc
50
360
51
92.5
0
ARC
5
C3
100
AcDbEntity
8
1
62
256
6
ByLayer
370
18
48
1
60
0
100
AcDbCircle
39
0
10
12.35
20
-0.3875
30
0
40
2.807
210
0
220
0
230
1
100
AcDbArc
50
59.965127
51
120.034873
0
ARC
5
C6
100
AcDbEntity
8
1
62
256
6
ByLayer
370
18
48
1
60
0
100
AcDbCircle
39
0
10
12.35
20
-0.3875
30
0
40
2.807
210
0
220
0
230
1
100
AcDbArc
50
300.034873
51
360
0
ARC
5
C7
100
AcDbEntity
8
1
62
256
6
ByLayer
370
18
48
1
60
0
100
AcDbCircle
39
0
10
12.35
20
-0.3875
30
0
40
2.807
210
0
220
0
230
1
100
AcDbArc
50
360
51
59.965127
0
ARC
5
C8
100
AcDbEntity
8
1
62
256
6
ByLayer
370
18
48
1
60
0
100
AcDbCircle
39
0
10
12.35
20
-0.3875
30
0
40
2.807
210
0
220
0
230
1
100
AcDbArc
50
239.965127
51
300.034873
0
ARC
5
C9
100
AcDbEntity
8
1
62
256
6
ByLayer
370
18
48
1
60
0
100
AcDbCircle
39
0
10
12.35
20
-0.3875
30
0
40
2.807
210
0
220
0
230
1
100
AcDbArc
50
120.034873
51
180
0
ARC
5
CA
100
AcDbEntity
8
1
62
256
6
ByLayer
370
18
48
1
60
0
100
AcDbCircle
39
0
10
12.35
20
-0.3875
30
0
40
2.807
210
0
220
0
230
1
100
AcDbArc
50
180
51
239.965127
0
ARC
5
CB
100
AcDbEntity
8
1
62
256
6
ByLayer
370
18
48
1
60
0
100
AcDbCircle
39
0
10
12.35
20
-0.3875
30
0
40
2.0135
210
0
220
0
230
1
100
AcDbArc
50
88.140164
51
91.859836
0
ARC
5
CC
100
AcDbEntity
8
1
62
256
6
ByLayer
370
18
48
1
60
0
100
AcDbCircle
39
0
10
12.35
20
-0.3875
30
0
40
2.0135
210
0
220
0
230
1
100
AcDbArc
50
268.140164
51
271.859836
0
CIRCLE
5
BE
100
AcDbEntity
8
1
62
256
6
ByLayer
370
18
48
1
60
0
100
AcDbCircle
10
12.35
20
-0.3875
30
0
40
6.15
39
0
210
0
220
0
230
1
0
CIRCLE
5
C2
100
AcDbEntity
8
1
62
256
6
ByLayer
370
18
48
1
60
0
100
AcDbCircle
10
-12.35
20
-0.3875
30
0
40
5.93
39
0
210
0
220
0
230
-1
0
CIRCLE
5
C4
100
AcDbEntity
8
1
62
256
6
ByLayer
370
18
48
1
60
0
100
AcDbCircle
10
12.35
20
-0.3875
30
0
40
5.13
39
0
210
0
220
0
230
1
0
CIRCLE
5
C5
100
AcDbEntity
8
1
62
256
6
ByLayer
370
18
48
1
60
0
100
AcDbCircle
10
-12.35
20
-0.3875
30
0
40
3
39
0
210
0
220
0
230
-1
0
ELLIPSE
5
CD
100
AcDbEntity
8
1
62
256
6
ByLayer
370
18
48
1
60
0
100
AcDbEllipse
10
28.209437
20
-100.937501
30
0
11
-131.63954316583
21
3.08419165645198E-13
31
0
210
0
220
0
230
1
40
0.700208
41
-1.55258038780615
42
-1.51676318990601
0
ELLIPSE
5
CE
100
AcDbEntity
8
1
62
256
6
ByLayer
370
18
48
1
60
0
100
AcDbEllipse
10
38.216244
20
-258.6375
30
0
11
2.87621081871877E-13
21
245.524999999721
31
0
210
0
220
0
230
1
40
0.57735
41
0.0447393931008062
42
0.101999397873787
0
ELLIPSE
5
CF
100
AcDbEntity
8
1
62
256
6
ByLayer
370
18
48
1
60
0
100
AcDbEllipse
10
28.209437
20
-258.637511
30
0
11
-350.646047538307
21
8.21530968717483E-13
31
0
210
0
220
0
230
1
40
0.700208
41
-1.56394931572919
42
-1.53779980979081
0
ELLIPSE
5
D0
100
AcDbEntity
8
1
62
256
6
ByLayer
370
18
48
1
60
0
100
AcDbEllipse
10
26.346355
20
-12.796249
30
0
11
-0.0995929688005711
21
0.00901348352538118
31
0
210
0
220
0
230
1
40
1
41
-0.0842756002250653
42
0.0902573147858578
0
ELLIPSE
5
D1
100
AcDbEntity
8
1
62
256
6
ByLayer
370
18
48
1
60
0
100
AcDbEllipse
10
26.346355
20
-9.078751
30
0
11
-0.0995928541762516
21
-0.00901474983965191
31
0
210
0
220
0
230
1
40
1
41
-0.0902700297031823
42
0.0842628853170341
0
ELLIPSE
5
D2
100
AcDbEntity
8
1
62
256
6
ByLayer
370
18
48
1
60
0
100
AcDbEllipse
10
26.55644
20
-11.604799
30
0
11
-0.0913599198720278
21
0.0406615918692505
31
0
210
0
220
0
230
1
40
1
41
-0.245336605120199
42
0.244213940433763
0
ELLIPSE
5
D3
100
AcDbEntity
8
1
62
256
6
ByLayer
370
18
48
1
60
0
100
AcDbEllipse
10
26.55644
20
-10.270201
30
0
11
-0.0913773168475511
21
-0.0406224811904031
31
0
210
0
220
0
230
1
40
1
41
-0.243785886701215
42
0.245764658853277
0
POINT
5
6C
100
AcDbEntity
8
80
62
256
6
ByLayer
370
18
48
1
60
0
100
AcDbPoint
10
0
20
0
30
0
39
0
210
0
220
0
230
1
50
360
0
POINT
5
6E
100
AcDbEntity
8
2
62
256
6
ByLayer
370
18
48
1
60
0
100
AcDbPoint
10
34
20
13.5625
30
0
39
0
210
0
220
0
230
1
50
360
0
POINT
5
70
100
AcDbEntity
8
81
62
256
6
ByLayer
370
18
48
1
60
0
100
AcDbPoint
10
34
20
-13.4375
30
0
39
0
210
0
220
0
230
1
50
360
0
SPLINE
5
D4
100
AcDbEntity
8
1
62
256
6
ByLayer
370
18
48
1
60
0
100
AcDbSpline
70
4
71
3
72
8
73
4
40
0
40
0
40
0
40
0
40
1
40
1
40
1
40
1
41
1
10
26.2283156668964
20
-11.3534538931179
30
0
41
1
10
26.1920733240275
20
-11.3695441243477
30
0
41
1
10
26.1558304974701
20
-11.3856326893238
30
0
41
1
10
26.1195868846333
20
-11.4017185456529
30
0
0
SPLINE
5
D5
100
AcDbEntity
8
1
62
256
6
ByLayer
370
18
48
1
60
0
100
AcDbSpline
70
4
71
3
72
14
73
10
40
0
40
0
40
0
40
0
40
0.275104320463943
40
0.275104320463943
40
0.551285892222273
40
0.551285892222273
40
0.827540816329083
40
0.827540816329083
40
1
40
1
40
1
40
1
41
1
10
26.3092231349798
20
-11.2125000000001
30
0
41
1
10
26.3092231349798
20
-11.2292141719496
30
0
41
1
10
26.3068686319537
20
-11.2461570737925
30
0
41
1
10
26.2978207623995
20
-11.2777773389956
30
0
41
1
10
26.2909852714478
20
-11.2928813158535
30
0
41
1
10
26.2738400953992
20
-11.3191198763753
30
0
41
1
10
26.2632933134876
20
-11.3306150508633
30
0
41
1
10
26.2443144629827
20
-11.3451511046951
30
0
41
1
10
26.2364504363819
20
-11.349842362746
30
0
41
1
10
26.2283156668964
20
-11.3534538931179
30
0
0
SPLINE
5
D6
100
AcDbEntity
8
1
62
256
6
ByLayer
370
18
48
1
60
0
100
AcDbSpline
70
4
71
3
72
16
73
12
40
0
40
0
40
0
40
0
40
0.295556836912057
40
0.295556836912057
40
0.525394566057051
40
0.525394566057051
40
0.714827200976409
40
0.714827200976409
40
0.905943220262688
40
0.905943220262688
40
1
40
1
40
1
40
1
41
1
10
21.1
20
-8.89702340503274
30
0
41
1
10
20.8783722851214
20
-8.90541672877001
30
0
41
1
10
20.651753173043
20
-8.86748763201538
30
0
41
1
10
20.2775520935871
20
-8.71370884184006
30
0
41
1
10
20.1192953146463
20
-8.61480489331055
30
0
41
1
10
19.868447267702
20
-8.38020349932833
30
0
41
1
10
19.766635052026
20
-8.25108322574059
30
0
41
1
10
19.608087073797
20
-7.95969233722823
30
0
41
1
10
19.5496851338902
20
-7.79232630583326
30
0
41
1
10
19.5071440761405
20
-7.535246256395
30
0
41
1
10
19.4999999999999
20
-7.44791272896262
30
0
41
1
10
19.4999999999999
20
-7.3610073333428
30
0
0
SPLINE
5
D7
100
AcDbEntity
8
1
62
256
6
ByLayer
370
18
48
1
60
0
100
AcDbSpline
70
4
71
3
72
14
73
10
40
0
40
0
40
0
40
0
40
0.273335586308418
40
0.273335586308418
40
0.549864884753966
40
0.549864884753966
40
0.826242595228984
40
0.826242595228984
40
1
40
1
40
1
40
1
41
1
10
26.2283156668964
20
-10.5215461068822
30
0
41
1
10
26.2411000042653
20
-10.5272218697634
30
0
41
1
10
26.2532642576505
20
-10.5356344671604
30
0
41
1
10
26.2745054552684
20
-10.5566974924647
30
0
41
1
10
26.283836751431
20
-10.5696884838199
30
0
41
1
10
26.2982441671546
20
-10.5983080111582
30
0
41
1
10
26.3035213092883
20
-10.6143300066481
30
0
41
1
10
26.3082833172109
20
-10.6411457275077
30
0
41
1
10
26.3092231349939
20
-10.6518528161224
30
0
41
1
10
26.3092231349941
20
-10.6624999999982
30
0
0
SPLINE
5
D8
100
AcDbEntity
8
1
62
256
6
ByLayer
370
18
48
1
60
0
100
AcDbSpline
70
4
71
3
72
8
73
4
40
0
40
0
40
0
40
0
40
1
40
1
40
1
40
1
41
1
10
23.95
20
-13.1584606914784
30
0
41
1
10
23.9793980855987
20
-13.1584606914784
30
0
41
1
10
24.0088003732759
20
-13.1584510689905
30
0
41
1
10
24.038181646884
20
-13.1584318413609
30
0
0
SPLINE
5
D9
100
AcDbEntity
8
1
62
256
6
ByLayer
370
18
48
1
60
0
100
AcDbSpline
70
4
71
3
72
14
73
10
40
0
40
0
40
0
40
0
40
0.318825335738284
40
0.318825335738284
40
0.641378913519866
40
0.641378913519866
40
0.963672388640565
40
0.963672388640565
40
1
40
1
40
1
40
1
41
1
10
26.1195868846333
20
-11.4017185456529
30
0
41
1
10
26.1067930140129
20
-11.4073967975872
30
0
41
1
10
26.0946194073435
20
-11.4158136973171
30
0
41
1
10
26.0733610363007
20
-11.4368885821231
30
0
41
1
10
26.0640216196877
20
-11.4498876111596
30
0
41
1
10
26.0496053425087
20
-11.4785233263045
30
0
41
1
10
26.0443262529214
20
-11.4945534661571
30
0
41
1
10
26.0410810594112
20
-11.5128488581197
30
0
41
1
10
26.040777640038
20
-11.5147339976235
30
0
41
1
10
26.0405040733832
20
-11.5166252121208
30
0
0
SPLINE
5
DA
100
AcDbEntity
8
1
62
256
6
ByLayer
370
18
48
1
60
0
100
AcDbSpline
70
4
71
3
72
14
73
10
40
0
40
0
40
0
40
0
40
0.253784274153359
40
0.253784274153359
40
0.507783195844634
40
0.507783195844634
40
0.759923587561905
40
0.759923587561905
40
1
40
1
40
1
40
1
41
1
10
19.540364466544
20
-7.53750000000002
30
0
41
1
10
19.5805787586198
20
-7.71254523474056
30
0
41
1
10
19.6518581751048
20
-7.88315336822885
30
0
41
1
10
19.8452475140831
20
-8.18733044941123
30
0
41
1
10
19.9701115125797
20
-8.32508521190252
30
0
41
1
10
20.2546038702769
20
-8.54737757198399
30
0
41
1
10
20.4179634410406
20
-8.63537556319542
30
0
41
1
10
20.7525570619753
20
-8.74768181643194
30
0
41
1
10
20.9273759692464
20
-8.77626749964995
30
0
41
1
10
21.1
20
-8.77623327290311
30
0
0
SPLINE
5
DB
100
AcDbEntity
8
1
62
256
6
ByLayer
370
18
48
1
60
0
100
AcDbSpline
70
4
71
3
72
14
73
10
40
0
40
0
40
0
40
0
40
0.320648283087854
40
0.320648283087854
40
0.642556656032447
40
0.642556656032447
40
0.964767987534562
40
0.964767987534562
40
1
40
1
40
1
40
1
41
1
10
26.0405040733832
20
-10.3583747878793
30
0
41
1
10
26.0428848120555
20
-10.3748332538917
30
0
41
1
10
26.0476180403294
20
-10.3910167196512
30
0
41
1
10
26.061033197455
20
-10.4202320241539
30
0
41
1
10
26.0699156352927
20
-10.4336536819563
30
0
41
1
10
26.090540376174
20
-10.4558637034433
30
0
41
1
10
26.1025693737439
20
-10.4649539171941
30
0
41
1
10
26.1167287638944
20
-10.4719760997767
30
0
41
1
10
26.1181531019785
20
-10.4726451043815
30
0
41
1
10
26.1195868846332
20
-10.4732814543473
30
0
0
SPLINE
5
DC
100
AcDbEntity
8
1
62
256
6
ByLayer
370
18
48
1
60
0
100
AcDbSpline
70
4
71
3
72
10
73
6
40
0
40
0
40
0
40
0
40
0.704276472113301
40
0.704276472113301
40
1
40
1
40
1
40
1
41
1
10
26.0405040733832
20
-11.5166252121208
30
0
41
1
10
25.9861138835951
20
-11.8926341796141
30
0
41
1
10
25.9317047975816
20
-12.2686390798678
30
0
41
1
10
25.8543638568291
20
-12.8025087931052
30
0
41
1
10
25.8314812006087
20
-12.9603842292957
30
0
41
1
10
25.8085782408808
20
-13.1182552753585
30
0
0
SPLINE
5
DD
100
AcDbEntity
8
1
62
256
6
ByLayer
370
18
48
1
60
0
100
AcDbSpline
70
4
71
2
72
6
73
3
40
0
40
0
40
0
40
1
40
1
40
1
41
0.500003782198488
10
25.5069902213478
20
-8.77537334510936
30
0
41
0.499996217801512
10
23.3035912400989
20
-8.77579635946062
30
0
41
0.500003782198488
10
21.1000000000041
20
-8.7762332729031
30
0
0
SPLINE
5
DE
100
AcDbEntity
8
1
62
256
6
ByLayer
370
18
48
1
60
0
100
AcDbSpline
70
4
71
3
72
8
73
4
40
0
40
0
40
0
40
0
40
1
40
1
40
1
40
1
41
1
10
26.1195868846333
20
-10.4732814543472
30
0
41
1
10
26.1558305132186
20
-10.489367317666
30
0
41
1
10
26.1920733375391
20
-10.505455881651
30
0
41
1
10
26.2283156668964
20
-10.5215461068822
30
0
0
SPLINE
5
DF
100
AcDbEntity
8
1
62
256
6
ByLayer
370
18
48
1
60
0
100
AcDbSpline
70
4
71
2
72
6
73
3
40
0
40
0
40
0
40
1
40
1
40
1
41
0.500000464954673
10
24.0381816468813
20
-13.1584318413608
30
0
41
0.499999535045327
10
25.4992307114836
20
-13.1574757047872
30
0
41
0.500000464954673
10
26.9603952337417
20
-13.1565394697678
30
0
0
SPLINE
5
E0
100
AcDbEntity
8
1
62
256
6
ByLayer
370
18
48
1
60
0
100
AcDbSpline
70
4
71
3
72
8
73
4
40
0
40
0
40
0
40
0
40
1
40
1
40
1
40
1
41
1
10
25.8116315741477
20
-8.77779235149899
30
0
41
1
10
25.8880548264335
20
-9.30462456224922
30
0
41
1
10
25.9642905544885
20
-9.83149730022402
30
0
41
1
10
26.0405040733832
20
-10.3583747878793
30
0
0
SPLINE
5
E1
100
AcDbEntity
8
1
62
256
6
ByLayer
370
18
48
1
60
0
100
AcDbSpline
70
4
71
3
72
12
73
8
40
0
40
0
40
0
40
0
40
0.266755850857214
40
0.266755850857214
40
0.651954764648416
40
0.651954764648416
40
1
40
1
40
1
40
1
41
1
10
25.8116315741478
20
-8.77779235149941
30
0
41
1
10
25.7917636193889
20
-8.77736785526571
30
0
41
1
10
25.7690124857633
20
-8.77699214123652
30
0
41
1
10
25.7086466277228
20
-8.776217929322
30
0
41
1
10
25.6680052974146
20
-8.77587316260241
30
0
41
1
10
25.5874710062799
20
-8.77546132729572
30
0
41
1
10
25.546967735771
20
-8.77536567012064
30
0
41
1
10
25.5069902213435
20
-8.77537334510936
30
0
0
SPLINE
5
E2
100
AcDbEntity
8
1
62
256
6
ByLayer
370
18
48
1
60
0
100
AcDbSpline
70
4
71
3
72
8
73
4
40
0
40
0
40
0
40
0
40
1
40
1
40
1
40
1
41
1
10
26.7489454154499
20
-10.509767476298
30
0
41
1
10
26.6960031564366
20
-10.4913165335887
30
0
41
1
10
26.6430608974233
20
-10.4728655908794
30
0
41
1
10
26.5901186384099
20
-10.45441464817
30
0
0
SPLINE
5
E3
100
AcDbEntity
8
1
62
256
6
ByLayer
370
18
48
1
60
0
100
AcDbSpline
70
4
71
3
72
8
73
4
40
0
40
0
40
0
40
0
40
1
40
1
40
1
40
1
41
1
10
26.92894619712
20
-11.148235587058
30
0
41
1
10
26.9319177845899
20
-11.0846570582712
30
0
41
1
10
26.93488937206
20
-11.0210785294844
30
0
41
1
10
26.93786095953
20
-10.9575000006976
30
0
0
SPLINE
5
E4
100
AcDbEntity
8
1
62
256
6
ByLayer
370
18
48
1
60
0
100
AcDbSpline
70
4
71
2
72
6
73
3
40
0
40
0
40
0
40
1
40
1
40
1
41
1
10
26.748945415449
20
-11.365232523702
30
0
41
1
10
26.6679467190096
20
-11.3884847566733
30
0
41
1
10
26.5901186384095
20
-11.42058535183
30
0
0
SPLINE
5
E5
100
AcDbEntity
8
1
62
256
6
ByLayer
370
18
48
1
60
0
100
AcDbSpline
70
4
71
2
72
6
73
3
40
0
40
0
40
0
40
1
40
1
40
1
41
1
10
26.5901186384085
20
-11.420585351823
30
0
41
1
10
26.5658197594152
20
-11.4307546708635
30
0
41
1
10
26.549522624748
20
-11.451387568149
30
0
0
SPLINE
5
E6
100
AcDbEntity
8
1
62
256
6
ByLayer
370
18
48
1
60
0
100
AcDbSpline
70
4
71
3
72
8
73
4
40
0
40
0
40
0
40
0
40
1
40
1
40
1
40
1
41
1
10
26.5901186384099
20
-10.454414648177
30
0
41
1
10
26.5765866338567
20
-10.4441472427349
30
0
41
1
10
26.5630546293033
20
-10.4338798372928
30
0
41
1
10
26.54952262475
20
-10.4236124318507
30
0
0
SPLINE
5
E7
100
AcDbEntity
8
1
62
256
6
ByLayer
370
18
48
1
60
0
100
AcDbSpline
70
4
71
3
72
9
73
5
40
0
40
0
40
0
40
0
40
0.50828709143411
40
1
40
1
40
1
40
1
41
1
10
26.74894541544
20
-11.365232523738
30
0
41
1
10
26.7914754634341
20
-11.3482098141082
30
0
41
1
10
26.8751487431826
20
-11.3147194699373
30
0
41
1
10
26.911212957408
20
-11.2031136227201
30
0
41
1
10
26.92894619708
20
-11.148235586972
30
0
0
SPLINE
5
E8
100
AcDbEntity
8
1
62
256
6
ByLayer
370
18
48
1
60
0
100
AcDbSpline
70
4
71
2
72
6
73
3
40
0
40
0
40
0
40
1
40
1
40
1
41
1
10
26.928946197118
20
-10.726764412942
30
0
41
1
10
26.93783748929
20
-10.8219834459669
30
0
41
1
10
26.9378609595285
20
-10.9174999993024
30
0
0
SPLINE
5
E9
100
AcDbEntity
8
1
62
256
6
ByLayer
370
18
48
1
60
0
100
AcDbSpline
70
4
71
2
72
10
73
7
40
0
40
0
40
0
40
0.5
40
0.5
40
0.75
40
0.75
40
1
40
1
40
1
41
1
10
26.7489454154405
20
-10.509767476262
30
0
41
1
10
26.816539241663
20
-10.5292621635149
30
0
41
1
10
26.8642354827661
20
-10.5809857110099
30
0
41
1
10
26.8902224727178
20
-10.6091669529261
30
0
41
1
10
26.9068593747274
20
-10.6450223538963
30
0
41
1
10
26.9248252361493
20
-10.6837418922267
30
0
41
1
10
26.92894619708
20
-10.726764413028
30
0
0
SPLINE
5
EA
100
AcDbEntity
8
1
62
256
6
ByLayer
370
18
48
1
60
0
100
AcDbSpline
70
4
71
3
72
14
73
10
40
0
40
0
40
0
40
0
40
0.220792708734965
40
0.220792708734965
40
0.514440208322327
40
0.514440208322327
40
0.779604980836356
40
0.779604980836356
40
1
40
1
40
1
40
1
41
1
10
14.7981683275969
20
0.0792667794769955
30
0
41
1
10
14.8400107170796
20
0.0681359540773485
30
0
41
1
10
14.881231568975
20
0.0510592456762993
30
0
41
1
10
14.9705520592615
20
-0.0016996246416454
30
0
41
1
10
15.0178802128891
20
-0.042723991251421
30
0
41
1
10
15.0900923702315
20
-0.135926188192485
30
0
41
1
10
15.1177254137801
20
-0.188134622890118
30
0
41
1
10
15.1493875756904
20
-0.289408877903924
30
0
41
1
10
15.157
20
-0.338774610124347
30
0
41
1
10
15.157
20
-0.387500000000017
30
0
0
SPLINE
5
EB
100
AcDbEntity
8
1
62
256
6
ByLayer
370
18
48
1
60
0
100
AcDbSpline
70
4
71
3
72
18
73
14
40
0
40
0
40
0
40
0
40
0.181347322288267
40
0.181347322288267
40
0.360491893295299
40
0.360491893295299
40
0.541701215502881
40
0.541701215502881
40
0.695189055143496
40
0.695189055143496
40
0.891526265458829
40
0.891526265458829
40
1
40
1
40
1
40
1
41
1
10
10.7205358593456
20
1.49830115627023
30
0
41
1
10
10.7473131816822
20
1.39932216649029
30
0
41
1
10
10.7614899989259
20
1.29414734369541
30
0
41
1
10
10.7597428781364
20
1.08093658757568
30
0
41
1
10
10.7438614825797
20
0.970408292696192
30
0
41
1
10
10.6790625518665
20
0.755175692156115
30
0
41
1
10
10.6283565316106
20
0.64727567252018
30
0
41
1
10
10.509722370224
20
0.470624168423768
30
0
41
1
10
10.4442832783194
20
0.396220557707011
30
0
41
1
10
10.2834431085831
20
0.252931666759309
30
0
41
1
10
10.1823244174428
20
0.188657772825735
30
0
41
1
10
10.0207935514181
20
0.11605812329563
30
0
41
1
10
9.961563034439
20
0.0951563921359764
30
0
41
1
10
9.9018316724036
20
0.0792667794747501
30
0
0
SPLINE
5
EC
100
AcDbEntity
8
1
62
256
6
ByLayer
370
18
48
1
60
0
100
AcDbSpline
70
4
71
3
72
18
73
14
40
0
40
0
40
0
40
0
40
0.0162289153285311
40
0.0162289153285311
40
0.239234459040962
40
0.239234459040962
40
0.462328698874886
40
0.462328698874886
40
0.69769204226341
40
0.69769204226341
40
0.955005672045977
40
0.955005672045977
40
1
40
1
40
1
40
1
41
1
10
15.157
20
-0.387500000000017
30
0
41
1
10
15.157
20
-0.391124276689595
30
0
41
1
10
15.1569591993612
20
-0.394748835303062
30
0
41
1
10
15.1557702435972
20
-0.447556136626304
30
0
41
1
10
15.1468881961842
20
-0.49717841093053
30
0
41
1
10
15.1155222788132
20
-0.589285050358001
30
0
41
1
10
15.0926649850557
20
-0.632956840930831
30
0
41
1
10
15.0355148789301
20
-0.711676548386464
30
0
41
1
10
14.9999868270689
20
-0.747135231755891
30
0
41
1
10
14.9190294001722
20
-0.807041510229254
30
0
41
1
10
14.8720050535463
20
-0.830952663412262
30
0
41
1
10
14.8153304916667
20
-0.849446696616013
30
0
41
1
10
14.8067684906715
20
-0.851978981986377
30
0
41
1
10
14.7981683275966
20
-0.854266779475466
30
0
0
SPLINE
5
ED
100
AcDbEntity
8
1
62
256
6
ByLayer
370
18
48
1
60
0
100
AcDbSpline
70
4
71
3
72
18
73
14
40
0
40
0
40
0
40
0
40
0.0157923844670974
40
0.0157923844670974
40
0.238811095461871
40
0.238811095461871
40
0.461892552251098
40
0.461892552251098
40
0.697221985203075
40
0.697221985203075
40
0.954485725072622
40
0.954485725072622
40
1
40
1
40
1
40
1
41
1
10
9.54299999999998
20
-0.387499999999989
30
0
41
1
10
9.54299999999998
20
-0.383973009604318
30
0
41
1
10
9.54303863924042
20
-0.380445759378631
30
0
41
1
10
9.54419361826271
20
-0.327732061718592
30
0
41
1
10
9.55304678582337
20
-0.278100196753684
30
0
41
1
10
9.58436055907401
20
-0.185971710242569
30
0
41
1
10
9.60719239646906
20
-0.142286510468409
30
0
41
1
10
9.66429472442286
20
-0.0635365031903348
30
0
41
1
10
9.69979930132229
20
-0.0280591865773658
30
0
41
1
10
9.78071303597466
20
0.031890203420005
30
0
41
1
10
9.82771690075012
20
0.0558276724821383
30
0
41
1
10
9.88447206899184
20
0.0743882660147221
30
0
41
1
10
9.89313236380849
20
0.0769526075013971
30
0
41
1
10
9.90183167240346
20
0.0792667794754323
30
0
0
SPLINE
5
EE
100
AcDbEntity
8
1
62
256
6
ByLayer
370
18
48
1
60
0
100
AcDbSpline
70
4
71
3
72
14
73
10
40
0
40
0
40
0
40
0
40
0.22241165527065
40
0.22241165527065
40
0.515858824453701
40
0.515858824453701
40
0.780847480391326
40
0.780847480391326
40
1
40
1
40
1
40
1
41
1
10
10.7205358593442
20
1.49830115626983
30
0
41
1
10
10.7091462249201
20
1.54040150129623
30
0
41
1
10
10.7032956435497
20
1.58497914714306
30
0
41
1
10
10.7044780289879
20
1.68902248713013
30
0
41
1
10
10.7164205388668
20
1.75047934843317
30
0
41
1
10
10.7611484449685
20
1.8595127889447
30
0
41
1
10
10.7925904447841
20
1.90948549228455
30
0
41
1
10
10.8643498449848
20
1.98724605635502
30
0
41
1
10
10.9030748695198
20
2.01832714508652
30
0
41
1
10
10.9450206807898
20
2.04257862271811
30
0
0
SPLINE
5
EF
100
AcDbEntity
8
1
62
256
6
ByLayer
370
18
48
1
60
0
100
AcDbSpline
70
4
71
3
72
18
73
14
40
0
40
0
40
0
40
0
40
0.0150229386922736
40
0.0150229386922736
40
0.237604440562208
40
0.237604440562208
40
0.460204731428097
40
0.460204731428097
40
0.694992075280023
40
0.694992075280023
40
0.951641525778755
40
0.951641525778755
40
1
40
1
40
1
40
1
41
1
10
13.7549793192102
20
-2.81757862271812
30
0
41
1
10
13.7520684199844
20
-2.81926159427891
30
0
41
1
10
13.7491397490837
20
-2.82091427740775
30
0
41
1
10
13.7030920682664
20
-2.84626927600064
30
0
41
1
10
13.6557039074632
20
-2.86349741410896
30
0
41
1
10
13.5602851564218
20
-2.88259608581947
30
0
41
1
10
13.5110399513397
20
-2.88474434006002
30
0
41
1
10
13.4142792924752
20
-2.87482177643702
30
0
41
1
10
13.3657874551503
20
-2.86189222325137
30
0
41
1
10
13.2733624353174
20
-2.8219502710447
30
0
41
1
10
13.2290914112967
20
-2.79329166347043
30
0
41
1
10
13.1841477224758
20
-2.75311616080782
30
0
41
1
10
13.1771780297028
20
-2.74649922460048
30
0
41
1
10
13.1704318716301
20
-2.73970299943173
30
0
0
SPLINE
5
F0
100
AcDbEntity
8
1
62
256
6
ByLayer
370
18
48
1
60
0
100
AcDbSpline
70
4
71
3
72
18
73
14
40
0
40
0
40
0
40
0
40
0.181666908878583
40
0.181666908878583
40
0.360750617017816
40
0.360750617017816
40
0.541895453074694
40
0.541895453074694
40
0.695365105948643
40
0.695365105948643
40
0.891753383060548
40
0.891753383060548
40
1
40
1
40
1
40
1
41
1
10
13.9794641406543
20
-2.27330115627026
30
0
41
1
10
13.9526398265003
20
-2.1741484671725
30
0
41
1
10
13.9384602459352
20
-2.06877567552428
30
0
41
1
10
13.9403139531035
20
-1.8553933346769
30
0
41
1
10
13.9562426230037
20
-1.74489939684901
30
0
41
1
10
14.0211140051547
20
-1.52975418313477
30
0
41
1
10
14.0718441395717
20
-1.42191060048745
30
0
41
1
10
14.1905041217909
20
-1.24534362558285
30
0
41
1
10
14.2559542246233
20
-1.17097335760727
30
0
41
1
10
14.4168403373044
20
-1.02772474887678
30
0
41
1
10
14.5179980746868
20
-0.963470499308499
30
0
41
1
10
14.6794511603026
20
-0.890971755139248
30
0
41
1
10
14.7385601350611
20
-0.87012362684186
30
0
41
1
10
14.7981683275964
20
-0.854266779474784
30
0
0
SPLINE
5
F1
100
AcDbEntity
8
1
62
256
6
ByLayer
370
18
48
1
60
0
100
AcDbSpline
70
4
71
3
72
16
73
12
40
0
40
0
40
0
40
0
40
0.191930281182738
40
0.191930281182738
40
0.488707775608025
40
0.488707775608025
40
0.756688906725716
40
0.756688906725716
40
0.994950483060319
40
0.994950483060319
40
1
40
1
40
1
40
1
41
1
10
13.1704318716269
20
1.96470299943465
30
0
41
1
10
13.1970101552166
20
1.99147853566254
30
0
41
1
10
13.22722378362
20
2.01557521254355
30
0
41
1
10
13.310948268476
20
2.06706857952525
30
0
41
1
10
13.3698143864776
20
2.08986126801639
30
0
41
1
10
13.486965618469
20
2.11001132996165
30
0
41
1
10
13.5465803486937
20
2.10981589322699
30
0
41
1
10
13.6551819835097
20
2.08903482404895
30
0
41
1
10
13.7061620099742
20
2.07035900850536
30
0
41
1
10
13.7530102361109
20
2.04371244172833
30
0
41
1
10
13.7539957845871
20
2.04314726514485
30
0
41
1
10
13.7549793192102
20
2.04257862271811
30
0
0
SPLINE
5
F2
100
AcDbEntity
8
1
62
256
6
ByLayer
370
18
48
1
60
0
100
AcDbSpline
70
4
71
3
72
12
73
8
40
0
40
0
40
0
40
0
40
0.455353062346786
40
0.455353062346786
40
0.827333545905708
40
0.827333545905708
40
1
40
1
40
1
40
1
41
1
10
13.1704318716302
20
1.96470299943172
30
0
41
1
10
13.0858278731656
20
1.8794711063239
30
0
41
1
10
12.9849078459312
20
1.80477181937445
30
0
41
1
10
12.7792931745274
20
1.70076419992242
30
0
41
1
10
12.6762317035148
20
1.66471835810529
30
0
41
1
10
12.5187586027533
20
1.63432915672516
30
0
41
1
10
12.467139749605
20
1.62787176673899
30
0
41
1
10
12.4153472699774
20
1.62493931195613
30
0
0
SPLINE
5
F3
100
AcDbEntity
8
1
62
256
6
ByLayer
370
18
48
1
60
0
100
AcDbSpline
70
4
71
3
72
12
73
8
40
0
40
0
40
0
40
0
40
0.368706056448697
40
0.368706056448697
40
0.737980850848006
40
0.737980850848006
40
1
40
1
40
1
40
1
41
1
10
12.4153472699774
20
-2.39993931195613
30
0
41
1
10
12.524490121534
20
-2.40611890558373
30
0
41
1
10
12.6333517440413
20
-2.42842679306159
30
0
41
1
10
12.8325096312106
20
-2.49828731098856
30
0
41
1
10
12.9255727775012
20
-2.54655397434297
30
0
41
1
10
13.0670109423506
20
-2.64449503329698
30
0
41
1
10
13.1213385199131
20
-2.69024529788354
30
0
41
1
10
13.1704318716301
20
-2.73970299943173
30
0
0
SPLINE
5
F4
100
AcDbEntity
8
1
62
256
6
ByLayer
370
18
48
1
60
0
100
AcDbSpline
70
4
71
3
72
18
73
14
40
0
40
0
40
0
40
0
40
0.181612675763437
40
0.181612675763437
40
0.360704962161447
40
0.360704962161447
40
0.541858957768575
40
0.541858957768575
40
0.695330353238803
40
0.695330353238803
40
0.891708592214999
40
0.891708592214999
40
1
40
1
40
1
40
1
41
1
10
9.90183167240346
20
-0.854266779475438
30
0
41
1
10
10.0010678212246
20
-0.880665373330174
30
0
41
1
10
10.0993599974145
20
-0.921115775347005
30
0
41
1
10
10.283146016433
20
-1.02949477659587
30
0
41
1
10
10.3708390147032
20
-1.09858584381442
30
0
41
1
10
10.5246433194004
20
-1.26242921541552
30
0
41
1
10
10.5926240182454
20
-1.36032719766536
30
0
41
1
10
10.6861034266653
20
-1.55143345870596
30
0
41
1
10
10.7177334532225
20
-1.64532048911804
30
0
41
1
10
10.7612284804202
20
-1.85629952004524
30
0
41
1
10
10.7662285845804
20
-1.97603091949253
30
0
41
1
10
10.7481886242894
20
-2.15211127081238
30
0
41
1
10
10.7366492612541
20
-2.21374000139844
30
0
41
1
10
10.7205358593463
20
-2.27330115627052
30
0
0
SPLINE
5
F5
100
AcDbEntity
8
1
62
256
6
ByLayer
370
18
48
1
60
0
100
AcDbSpline
70
4
71
3
72
16
73
12
40
0
40
0
40
0
40
0
40
0.191836824669075
40
0.191836824669075
40
0.488625600663344
40
0.488625600663344
40
0.756617127620165
40
0.756617127620165
40
0.994885626449979
40
0.994885626449979
40
1
40
1
40
1
40
1
41
1
10
11.5295681283731
20
-2.73970299943468
30
0
41
1
10
11.5030027275395
20
-2.7664655572961
30
0
41
1
10
11.4728056370948
20
-2.79055178945973
30
0
41
1
10
11.3891024511948
20
-2.84204558350967
30
0
41
1
10
11.3302375601686
20
-2.86484546133053
30
0
41
1
10
11.2130856505552
20
-2.88500871675163
30
0
41
1
10
11.1534692409385
20
-2.88481951312465
30
0
41
1
10
11.0448627470953
20
-2.8640486102037
30
0
41
1
10
10.9938796455353
20
-2.84537720174842
30
0
41
1
10
10.9470150634089
20
-2.81872694932952
30
0
41
1
10
10.9460168391091
20
-2.81815456368736
30
0
41
1
10
10.9450206807897
20
-2.81757862271812
30
0
0
SPLINE
5
F6
100
AcDbEntity
8
1
62
256
6
ByLayer
370
18
48
1
60
0
100
AcDbSpline
70
4
71
3
72
14
73
10
40
0
40
0
40
0
40
0
40
0.220170037959094
40
0.220170037959094
40
0.513894544314518
40
0.513894544314518
40
0.779127126142474
40
0.779127126142474
40
1
40
1
40
1
40
1
41
1
10
9.90183167240303
20
-0.854266779477058
30
0
41
1
10
9.86010681413205
20
-0.843167219485821
30
0
41
1
10
9.81900108159354
20
-0.826155951444889
30
0
41
1
10
9.72974245971432
20
-0.773528064416496
30
0
41
1
10
9.68237543405644
20
-0.732532744608903
30
0
41
1
10
9.61008365220943
20
-0.639366789372815
30
0
41
1
10
9.58240899809385
20
-0.587167743062224
30
0
41
1
10
9.55064633608831
20
-0.48580545752705
30
0
41
1
10
9.54299999999998
20
-0.436330574958873
30
0
41
1
10
9.54299999999998
20
-0.387499999999989
30
0
0
SPLINE
5
F7
100
AcDbEntity
8
1
62
256
6
ByLayer
370
18
48
1
60
0
100
AcDbSpline
70
4
71
3
72
12
73
8
40
0
40
0
40
0
40
0
40
0.368706056538511
40
0.368706056538511
40
0.73798085095237
40
0.73798085095237
40
1
40
1
40
1
40
1
41
1
10
12.2846527300226
20
1.62493931195613
30
0
41
1
10
12.1755098784395
20
1.6311189055852
30
0
41
1
10
12.0666482559057
20
1.65342679307267
30
0
41
1
10
11.8674903687158
20
1.72328731102192
30
0
41
1
10
11.7744272224264
20
1.77155397438403
30
0
41
1
10
11.6329890576063
20
1.86949503333329
30
0
41
1
10
11.5786614800674
20
1.91524529790311
30
0
41
1
10
11.5295681283699
20
1.96470299943169
30
0
0
SPLINE
5
F8
100
AcDbEntity
8
1
62
256
6
ByLayer
370
18
48
1
60
0
100
AcDbSpline
70
4
71
3
72
18
73
14
40
0
40
0
40
0
40
0
40
0.0173285944903536
40
0.0173285944903536
40
0.239841647765362
40
0.239841647765362
40
0.462510527753938
40
0.462510527753938
40
0.697478079776721
40
0.697478079776721
40
0.954392202348371
40
0.954392202348371
40
1
40
1
40
1
40
1
41
1
10
10.9450206807898
20
2.04257862271811
30
0
41
1
10
10.9483773076036
20
2.04451929706977
30
0
41
1
10
10.9517576061862
20
2.04641971787771
30
0
41
1
10
10.9983242480798
20
2.07186674076996
30
0
41
1
10
11.0457449432696
20
2.08893715921948
30
0
41
1
10
11.1412016837082
20
2.10773904687565
30
0
41
1
10
11.1904528627447
20
2.10973514125206
30
0
41
1
10
11.2872012098167
20
2.09951338812056
30
0
41
1
10
11.3356698281873
20
2.08642690855976
30
0
41
1
10
11.4280129849237
20
2.0461705463839
30
0
41
1
10
11.4722176447067
20
2.01734837860488
30
0
41
1
10
11.5166419676245
20
1.97736519693132
30
0
41
1
10
11.5232044293722
20
1.97111392707791
30
0
41
1
10
11.5295681283699
20
1.96470299943169
30
0
0
SPLINE
5
F9
100
AcDbEntity
8
1
62
256
6
ByLayer
370
18
48
1
60
0
100
AcDbSpline
70
4
71
3
72
14
73
10
40
0
40
0
40
0
40
0
40
0.21911646451238
40
0.21911646451238
40
0.51297121247558
40
0.51297121247558
40
0.77831862025342
40
0.77831862025342
40
1
40
1
40
1
40
1
41
1
10
13.979464140656
20
-2.27330115626975
30
0
41
1
10
13.9906856982875
20
-2.31478022666192
30
0
41
1
10
13.9965313764369
20
-2.35865699190183
30
0
41
1
10
13.9957856818418
20
-2.46207005827668
30
0
41
1
10
13.9840791649931
20
-2.52362818189931
30
0
41
1
10
13.9397280800638
20
-2.63293056745175
30
0
41
1
10
13.9084392425725
20
-2.68306908424057
30
0
41
1
10
13.8365423753279
20
-2.76152313228502
30
0
41
1
10
13.7974070376034
20
-2.79304852466018
30
0
41
1
10
13.7549793192102
20
-2.81757862271812
30
0
0
SPLINE
5
FA
100
AcDbEntity
8
1
62
256
6
ByLayer
370
18
48
1
60
0
100
AcDbSpline
70
4
71
3
72
18
73
14
40
0
40
0
40
0
40
0
40
0.18175277145018
40
0.18175277145018
40
0.360818406833419
40
0.360818406833419
40
0.541944163041264
40
0.541944163041264
40
0.695407615755981
40
0.695407615755981
40
0.891808268956465
40
0.891808268956465
40
1
40
1
40
1
40
1
41
1
10
14.7981683275966
20
0.0792667794754323
30
0
41
1
10
14.6988559553603
20
0.105685650124457
30
0
41
1
10
14.6004880467831
20
0.146178460647974
30
0
41
1
10
14.416660320138
20
0.254635593739778
30
0
41
1
10
14.3289907291675
20
0.323737059773094
30
0
41
1
10
14.1752354772816
20
0.487588746915378
30
0
41
1
10
14.1072814826209
20
0.585483495092973
30
0
41
1
10
14.0138398120849
20
0.776581015524783
30
0
41
1
10
13.9822248539708
20
0.870464915961946
30
0
41
1
10
13.938755204354
20
1.08145255565611
30
0
41
1
10
13.9337711326442
20
1.20119446581353
30
0
41
1
10
13.9518323112013
20
1.37722313725547
30
0
41
1
10
13.9633653362174
20
1.43879395910795
30
0
41
1
10
13.9794641406537
20
1.49830115627049
30
0
0
SPLINE
5
FB
100
AcDbEntity
8
1
62
256
6
ByLayer
370
18
48
1
60
0
100
AcDbSpline
70
4
71
3
72
16
73
12
40
0
40
0
40
0
40
0
40
0.218557773056327
40
0.218557773056327
40
0.441067473679259
40
0.441067473679259
40
0.674801337484702
40
0.674801337484702
40
0.929688497508495
40
0.929688497508495
40
1
40
1
40
1
40
1
41
1
10
10.9450206807897
20
-2.81757862271812
30
0
41
1
10
10.9032797321598
20
-2.79344558889727
30
0
41
1
10
10.8647293704485
20
-2.76255271493346
30
0
41
1
10
10.7992576027248
20
-2.69181526405305
30
0
41
1
10
10.771704634642
20
-2.65092765533791
30
0
41
1
10
10.7297227484991
20
-2.56335034464752
30
0
41
1
10
10.7154539696446
20
-2.51539412670263
30
0
41
1
10
10.7012404187867
20
-2.41614597406596
30
0
41
1
10
10.7024729202591
20
-2.36370939041055
30
0
41
1
10
10.7138408712732
20
-2.30034705411228
30
0
41
1
10
10.7169074392227
20
-2.28671315294966
30
0
41
1
10
10.7205358593455
20
-2.27330115627024
30
0
0
SPLINE
5
FC
100
AcDbEntity
8
1
62
256
6
ByLayer
370
18
48
1
60
0
100
AcDbSpline
70
4
71
3
72
12
73
8
40
0
40
0
40
0
40
0
40
0.455353062347086
40
0.455353062347086
40
0.827333545906255
40
0.827333545906255
40
1
40
1
40
1
40
1
41
1
10
11.5295681283698
20
-2.73970299943173
30
0
41
1
10
11.6141721268344
20
-2.65447110632391
30
0
41
1
10
11.7150921540688
20
-2.57977181937446
30
0
41
1
10
11.9207068254726
20
-2.47576419992242
30
0
41
1
10
12.0237682964852
20
-2.4397183581053
30
0
41
1
10
12.1812413972466
20
-2.40932915672516
30
0
41
1
10
12.2328602503949
20
-2.402871766739
30
0
41
1
10
12.2846527300225
20
-2.39993931195613
30
0
0
SPLINE
5
FD
100
AcDbEntity
8
1
62
256
6
ByLayer
370
18
48
1
60
0
100
AcDbSpline
70
4
71
3
72
16
73
12
40
0
40
0
40
0
40
0
40
0.218620732637229
40
0.218620732637229
40
0.441132096326281
40
0.441132096326281
40
0.674870839126928
40
0.674870839126928
40
0.929765351321896
40
0.929765351321896
40
1
40
1
40
1
40
1
41
1
10
13.7549793192102
20
2.04257862271811
30
0
41
1
10
13.7967322838593
20
2.01843864169061
30
0
41
1
10
13.835292894121
20
1.98753473906294
30
0
41
1
10
13.9007677451595
20
1.91678167800941
30
0
41
1
10
13.9283171189502
20
1.87589172849636
30
0
41
1
10
13.9702916326037
20
1.78831040406987
30
0
41
1
10
13.9845563198091
20
1.74035248027658
30
0
41
1
10
13.9987611977979
20
1.64110173634049
30
0
41
1
10
13.9975238514805
20
1.58866436115147
30
0
41
1
10
13.9861524490117
20
1.52531735403249
30
0
41
1
10
13.9830886103785
20
1.51169855079948
30
0
41
1
10
13.9794641406544
20
1.49830115627023
30
0
0
LINE
5
72
100
AcDbEntity
8
80
62
256
6
ByLayer
370
18
48
1
60
0
100
AcDbLine
10
0
20
0
30
0
11
-5
21
0
31
0
39
0
210
0
220
0
230
1
0
LINE
5
73
100
AcDbEntity
8
81
62
256
6
ByLayer
370
18
48
1
60
0
100
AcDbLine
10
34
20
-13.4375
30
0
11
39
21
-13.4375
31
0
39
0
210
0
220
0
230
1
0
LINE
5
74
100
AcDbEntity
8
1
62
256
6
ByLayer
370
18
48
1
60
0
100
AcDbLine
10
0
20
12.5625
30
0
11
0
21
-12.3125
31
0
39
0
210
0
220
0
230
1
0
LINE
5
76
100
AcDbEntity
8
1
62
256
6
ByLayer
370
18
48
1
60
0
100
AcDbLine
10
11.616196
20
-13.246148
30
0
11
11.5
21
-12.8125
31
0
39
0
210
0
220
0
230
1
0
LINE
5
77
100
AcDbEntity
8
1
62
256
6
ByLayer
370
18
48
1
60
0
100
AcDbLine
10
19.5
20
-7.1625
30
0
11
19.5
21
5.7625
31
0
39
0
210
0
220
0
230
1
0
LINE
5
78
100
AcDbEntity
8
1
62
256
6
ByLayer
370
18
48
1
60
0
100
AcDbLine
10
19.540364
20
-7.5375
30
0
11
19.544564
21
-7.5375
31
0
39
0
210
0
220
0
230
1
0
LINE
5
79
100
AcDbEntity
8
1
62
256
6
ByLayer
370
18
48
1
60
0
100
AcDbLine
10
11.64017
20
-13.33562
30
0
11
11.922314
21
-14.388599
31
0
39
0
210
0
220
0
230
1
0
LINE
5
7A
100
AcDbEntity
8
1
62
256
6
ByLayer
370
18
48
1
60
0
100
AcDbLine
10
26.960395
20
-13.156539
30
0
11
26.960042
21
-13.037492
31
0
39
0
210
0
220
0
230
1
0
LINE
5
7B
100
AcDbEntity
8
1
62
256
6
ByLayer
370
18
48
1
60
0
100
AcDbLine
10
2.569908
20
12.598389
30
0
11
12.664111
21
12.598389
31
0
39
0
210
0
220
0
230
1
0
LINE
5
7C
100
AcDbEntity
8
1
62
256
6
ByLayer
370
18
48
1
60
0
100
AcDbLine
10
0.5
20
-12.3125
30
0
11
0.5
21
12.564682
31
0
39
0
210
0
220
0
230
1
0
LINE
5
7D
100
AcDbEntity
8
1
62
256
6
ByLayer
370
18
48
1
60
0
100
AcDbLine
10
26.960395
20
-13.156539
30
0
11
29.330563
21
-13.156539
31
0
39
0
210
0
220
0
230
1
0
LINE
5
7E
100
AcDbEntity
8
1
62
256
6
ByLayer
370
18
48
1
60
0
100
AcDbLine
10
26.309223
20
-10.6625
30
0
11
26.309223
21
-11.2125
31
0
39
0
210
0
220
0
230
1
0
LINE
5
7F
100
AcDbEntity
8
1
62
256
6
ByLayer
370
18
48
1
60
0
100
AcDbLine
10
11
20
-12.3125
30
0
11
2.569908
21
-12.3125
31
0
39
0
210
0
220
0
230
1
0
LINE
5
80
100
AcDbEntity
8
1
62
256
6
ByLayer
370
18
48
1
60
0
100
AcDbLine
10
21.4251
20
-13.158461
30
0
11
23.95
21
-13.158461
31
0
39
0
210
0
220
0
230
1
0
LINE
5
81
100
AcDbEntity
8
1
62
256
6
ByLayer
370
18
48
1
60
0
100
AcDbLine
10
0.5
20
12.564682
30
0
11
2.569908
21
12.598389
31
0
39
0
210
0
220
0
230
1
0
LINE
5
82
100
AcDbEntity
8
1
62
256
6
ByLayer
370
18
48
1
60
0
100
AcDbLine
10
0.5
20
12.564682
30
0
11
0
21
12.5625
31
0
39
0
210
0
220
0
230
1
0
LINE
5
83
100
AcDbEntity
8
1
62
256
6
ByLayer
370
18
48
1
60
0
100
AcDbLine
10
23.95
20
-13.130601
30
0
11
23.95
21
-13.158461
31
0
39
0
210
0
220
0
230
1
0
LINE
5
84
100
AcDbEntity
8
1
62
256
6
ByLayer
370
18
48
1
60
0
100
AcDbLine
10
19.5
20
-7.1625
30
0
11
16.641438
21
-7.1625
31
0
39
0
210
0
220
0
230
1
0
LINE
5
85
100
AcDbEntity
8
1
62
256
6
ByLayer
370
18
48
1
60
0
100
AcDbLine
10
12.664111
20
12.598389
30
0
11
19.5
21
5.7625
31
0
39
0
210
0
220
0
230
1
0
LINE
5
86
100
AcDbEntity
8
1
62
256
6
ByLayer
370
18
48
1
60
0
100
AcDbLine
10
16.641438
20
-13.246148
30
0
11
11.616196
21
-13.246148
31
0
39
0
210
0
220
0
230
1
0
LINE
5
87
100
AcDbEntity
8
1
62
256
6
ByLayer
370
18
48
1
60
0
100
AcDbLine
10
24.038182
20
-13.158432
30
0
11
24.038012
21
-13.129854
31
0
39
0
210
0
220
0
230
1
0
LINE
5
88
100
AcDbEntity
8
1
62
256
6
ByLayer
370
18
48
1
60
0
100
AcDbLine
10
16.641438
20
-7.1625
30
0
11
16.641438
21
-13.246148
31
0
39
0
210
0
220
0
230
1
0
LINE
5
89
100
AcDbEntity
8
1
62
256
6
ByLayer
370
18
48
1
60
0
100
AcDbLine
10
19.5
20
-7.1625
30
0
11
19.5
21
-7.361007
31
0
39
0
210
0
220
0
230
1
0
LINE
5
8A
100
AcDbEntity
8
1
62
256
6
ByLayer
370
18
48
1
60
0
100
AcDbLine
10
2.569908
20
-12.3125
30
0
11
0.5
21
-12.3125
31
0
39
0
210
0
220
0
230
1
0
LINE
5
8B
100
AcDbEntity
8
1
62
256
6
ByLayer
370
18
48
1
60
0
100
AcDbLine
10
2.569908
20
-12.3125
30
0
11
2.569908
21
12.598389
31
0
39
0
210
0
220
0
230
1
0
LINE
5
8C
100
AcDbEntity
8
1
62
256
6
ByLayer
370
18
48
1
60
0
100
AcDbLine
10
0
20
-12.3125
30
0
11
0.5
21
-12.3125
31
0
39
0
210
0
220
0
230
1
0
LINE
5
8D
100
AcDbEntity
8
1
62
256
6
ByLayer
370
18
48
1
60
0
100
AcDbLine
10
21.1
20
-8.776233
30
0
11
21.1
21
-8.897023
31
0
39
0
210
0
220
0
230
1
0
LINE
5
8E
100
AcDbEntity
8
1
62
256
6
ByLayer
370
18
48
1
60
0
100
AcDbLine
10
23.782487
20
-14.388599
30
0
11
11.922314
21
-14.388599
31
0
39
0
210
0
220
0
230
1
0
LINE
5
8F
100
AcDbEntity
8
1
62
256
6
ByLayer
370
18
48
1
60
0
100
AcDbLine
10
11
20
-12.3125
30
0
11
11.5
21
-12.8125
31
0
39
0
210
0
220
0
230
1
0
LINE
5
90
100
AcDbEntity
8
1
62
256
6
ByLayer
370
18
48
1
60
0
100
AcDbLine
10
26.457959
20
-10.287566
30
0
11
26.247874
21
-9.096116
31
0
39
0
210
0
220
0
230
1
0
LINE
5
91
100
AcDbEntity
8
1
62
256
6
ByLayer
370
18
48
1
60
0
100
AcDbLine
10
26.246355
20
-9.078751
30
0
11
26.246355
21
-8.8375
31
0
39
0
210
0
220
0
230
1
0
LINE
5
92
100
AcDbEntity
8
1
62
256
6
ByLayer
370
18
48
1
60
0
100
AcDbLine
10
9
20
-13.1375
30
0
11
9
21
-12.3125
31
0
39
0
210
0
220
0
230
1
0
LINE
5
93
100
AcDbEntity
8
1
62
256
6
ByLayer
370
18
48
1
60
0
100
AcDbLine
10
25.820221
20
-8.8375
30
0
11
26.246355
21
-8.8375
31
0
39
0
210
0
220
0
230
1
0
LINE
5
94
100
AcDbEntity
8
1
62
256
6
ByLayer
370
18
48
1
60
0
100
AcDbLine
10
26.036543
20
-11.543165
30
0
11
26.477691
21
-11.543165
31
0
39
0
210
0
220
0
230
1
0
LINE
5
95
100
AcDbEntity
8
1
62
256
6
ByLayer
370
18
48
1
60
0
100
AcDbLine
10
25.855077
20
-9.078751
30
0
11
26.246355
21
-9.078751
31
0
39
0
210
0
220
0
230
1
0
LINE
5
96
100
AcDbEntity
8
1
62
256
6
ByLayer
370
18
48
1
60
0
100
AcDbLine
10
26.590119
20
-10.454415
30
0
11
26.092957
21
-10.454415
31
0
39
0
210
0
220
0
230
1
0
LINE
5
97
100
AcDbEntity
8
1
62
256
6
ByLayer
370
18
48
1
60
0
100
AcDbLine
10
27.63
20
-13.0375
30
0
11
29.124301
21
-13.0375
31
0
39
0
210
0
220
0
230
1
0
LINE
5
98
100
AcDbEntity
8
1
62
256
6
ByLayer
370
18
48
1
60
0
100
AcDbLine
10
29.5
20
-13.25441
30
0
11
29.124301
21
-13.0375
31
0
39
0
210
0
220
0
230
1
0
LINE
5
99
100
AcDbEntity
8
1
62
256
6
ByLayer
370
18
48
1
60
0
100
AcDbLine
10
26.201743
20
-11.365233
30
0
11
26.748945
21
-11.365233
31
0
39
0
210
0
220
0
230
1
0
LINE
5
9A
100
AcDbEntity
8
1
62
256
6
ByLayer
370
18
48
1
60
0
100
AcDbLine
10
26.03018
20
-10.287566
30
0
11
26.457959
21
-10.287566
31
0
39
0
210
0
220
0
230
1
0
LINE
5
9B
100
AcDbEntity
8
1
62
256
6
ByLayer
370
18
48
1
60
0
100
AcDbLine
10
26.201743
20
-10.509767
30
0
11
26.748945
21
-10.509767
31
0
39
0
210
0
220
0
230
1
0
LINE
5
9C
100
AcDbEntity
8
1
62
256
6
ByLayer
370
18
48
1
60
0
100
AcDbLine
10
26.457959
20
-11.587434
30
0
11
26.247874
21
-12.778884
31
0
39
0
210
0
220
0
230
1
0
LINE
5
9D
100
AcDbEntity
8
1
62
256
6
ByLayer
370
18
48
1
60
0
100
AcDbLine
10
26.246355
20
-8.8375
30
0
11
27.63
21
-8.8375
31
0
39
0
210
0
220
0
230
1
0
LINE
5
9E
100
AcDbEntity
8
1
62
256
6
ByLayer
370
18
48
1
60
0
100
AcDbLine
10
33.686914
20
-13.437214
30
0
11
29.5
21
-13.25441
31
0
39
0
210
0
220
0
230
1
0
LINE
5
9F
100
AcDbEntity
8
1
62
256
6
ByLayer
370
18
48
1
60
0
100
AcDbLine
10
26.309193
20
-10.9575
30
0
11
26.937861
21
-10.9575
31
0
39
0
210
0
220
0
230
1
0
LINE
5
A0
100
AcDbEntity
8
1
62
256
6
ByLayer
370
18
48
1
60
0
100
AcDbLine
10
13.5
20
-13.25441
30
0
11
13.514312
21
-13.246147
31
0
39
0
210
0
220
0
230
1
0
LINE
5
A1
100
AcDbEntity
8
1
62
256
6
ByLayer
370
18
48
1
60
0
100
AcDbLine
10
26.937861
20
-10.9575
30
0
11
26.937861
21
-10.9175
31
0
39
0
210
0
220
0
230
1
0
LINE
5
A2
100
AcDbEntity
8
1
62
256
6
ByLayer
370
18
48
1
60
0
100
AcDbLine
10
26.309198
20
-10.726764
30
0
11
26.928946
21
-10.726764
31
0
39
0
210
0
220
0
230
1
0
LINE
5
A3
100
AcDbEntity
8
1
62
256
6
ByLayer
370
18
48
1
60
0
100
AcDbLine
10
25.820221
20
-13.0375
30
0
11
26.246355
21
-13.0375
31
0
39
0
210
0
220
0
230
1
0
LINE
5
A4
100
AcDbEntity
8
1
62
256
6
ByLayer
370
18
48
1
60
0
100
AcDbLine
10
26.246355
20
-13.0375
30
0
11
27.63
21
-13.0375
31
0
39
0
210
0
220
0
230
1
0
LINE
5
A5
100
AcDbEntity
8
1
62
256
6
ByLayer
370
18
48
1
60
0
100
AcDbLine
10
26.309198
20
-11.148236
30
0
11
26.928946
21
-11.148236
31
0
39
0
210
0
220
0
230
1
0
LINE
5
A6
100
AcDbEntity
8
1
62
256
6
ByLayer
370
18
48
1
60
0
100
AcDbLine
10
26.065952
20
-11.451388
30
0
11
26.549523
21
-11.451388
31
0
39
0
210
0
220
0
230
1
0
LINE
5
A7
100
AcDbEntity
8
1
62
256
6
ByLayer
370
18
48
1
60
0
100
AcDbLine
10
34
20
-13.1375
30
0
11
34
21
-8.7375
31
0
39
0
210
0
220
0
230
1
0
LINE
5
A8
100
AcDbEntity
8
1
62
256
6
ByLayer
370
18
48
1
60
0
100
AcDbLine
10
26.036543
20
-10.331835
30
0
11
26.477691
21
-10.331835
31
0
39
0
210
0
220
0
230
1
0
LINE
5
A9
100
AcDbEntity
8
1
62
256
6
ByLayer
370
18
48
1
60
0
100
AcDbLine
10
25.855225
20
-12.796249
30
0
11
26.246355
21
-12.796249
31
0
39
0
210
0
220
0
230
1
0
LINE
5
AA
100
AcDbEntity
8
1
62
256
6
ByLayer
370
18
48
1
60
0
100
AcDbLine
10
9.313086
20
-13.437214
30
0
11
13.5
21
-13.25441
31
0
39
0
210
0
220
0
230
1
0
LINE
5
AB
100
AcDbEntity
8
1
62
256
6
ByLayer
370
18
48
1
60
0
100
AcDbLine
10
26.309193
20
-10.9175
30
0
11
26.937861
21
-10.9175
31
0
39
0
210
0
220
0
230
1
0
LINE
5
AC
100
AcDbEntity
8
1
62
256
6
ByLayer
370
18
48
1
60
0
100
AcDbLine
10
27.63
20
-8.8375
30
0
11
29.124301
21
-8.8375
31
0
39
0
210
0
220
0
230
1
0
LINE
5
AD
100
AcDbEntity
8
1
62
256
6
ByLayer
370
18
48
1
60
0
100
AcDbLine
10
26.549523
20
-10.423612
30
0
11
26.477691
21
-10.331835
31
0
39
0
210
0
220
0
230
1
0
LINE
5
AE
100
AcDbEntity
8
1
62
256
6
ByLayer
370
18
48
1
60
0
100
AcDbLine
10
26.066189
20
-10.423612
30
0
11
26.549523
21
-10.423612
31
0
39
0
210
0
220
0
230
1
0
LINE
5
AF
100
AcDbEntity
8
1
62
256
6
ByLayer
370
18
48
1
60
0
100
AcDbLine
10
25.857658
20
-9.096116
30
0
11
26.247874
21
-9.096116
31
0
39
0
210
0
220
0
230
1
0
LINE
5
B0
100
AcDbEntity
8
1
62
256
6
ByLayer
370
18
48
1
60
0
100
AcDbLine
10
33.686914
20
-8.437786
30
0
11
29.5
21
-8.62059
31
0
39
0
210
0
220
0
230
1
0
LINE
5
B1
100
AcDbEntity
8
1
62
256
6
ByLayer
370
18
48
1
60
0
100
AcDbLine
10
26.03018
20
-11.587434
30
0
11
26.457959
21
-11.587434
31
0
39
0
210
0
220
0
230
1
0
LINE
5
B2
100
AcDbEntity
8
1
62
256
6
ByLayer
370
18
48
1
60
0
100
AcDbLine
10
27.63
20
-13.0375
30
0
11
27.63
21
-8.8375
31
0
39
0
210
0
220
0
230
1
0
LINE
5
B3
100
AcDbEntity
8
1
62
256
6
ByLayer
370
18
48
1
60
0
100
AcDbLine
10
26.246355
20
-12.796249
30
0
11
26.246355
21
-13.0375
31
0
39
0
210
0
220
0
230
1
0
LINE
5
B4
100
AcDbEntity
8
1
62
256
6
ByLayer
370
18
48
1
60
0
100
AcDbLine
10
25.857658
20
-12.778884
30
0
11
26.247874
21
-12.778884
31
0
39
0
210
0
220
0
230
1
0
LINE
5
B5
100
AcDbEntity
8
1
62
256
6
ByLayer
370
18
48
1
60
0
100
AcDbLine
10
26.549523
20
-11.451388
30
0
11
26.477691
21
-11.543165
31
0
39
0
210
0
220
0
230
1
0
LINE
5
B6
100
AcDbEntity
8
1
62
256
6
ByLayer
370
18
48
1
60
0
100
AcDbLine
10
29.5
20
-8.62059
30
0
11
29.124301
21
-8.8375
31
0
39
0
210
0
220
0
230
1
0
LINE
5
B7
100
AcDbEntity
8
1
62
256
6
ByLayer
370
18
48
1
60
0
100
AcDbLine
10
26.590119
20
-11.420585
30
0
11
26.092241
21
-11.420585
31
0
39
0
210
0
220
0
230
1
0
LINE
5
B8
100
AcDbEntity
8
SK1
62
256
6
ByLayer
370
18
48
1
60
0
100
AcDbLine
10
0
20
-12.3125
30
0
11
0
21
12.5625
31
0
39
0
210
0
220
0
230
1
0
LINE
5
BA
100
AcDbEntity
8
SK1
62
256
6
ByLayer
370
18
48
1
60
0
100
AcDbLine
10
0
20
-12.3125
30
0
11
-117.35
21
-12.3125
31
0
39
0
210
0
220
0
230
1
0
LINE
5
BB
100
AcDbEntity
8
SK1
62
256
6
ByLayer
370
18
48
1
60
0
100
AcDbLine
10
-117.35
20
-12.3125
30
0
11
-117.35
21
12.5625
31
0
39
0
210
0
220
0
230
1
0
LINE
5
BC
100
AcDbEntity
8
SK1
62
256
6
ByLayer
370
18
48
1
60
0
100
AcDbLine
10
-117.35
20
12.5625
30
0
11
0
21
12.5625
31
0
39
0
210
0
220
0
230
1
0
MTEXT
5
FE
100
AcDbEntity
8
SK6
62
256
6
ByLayer
370
18
48
1
60
0
100
AcDbMText
10
-70.799987
20
-24.770105
30
0
210
0
220
0
230
1
1
\W0.7365;LF123J13-2525B-175BM
40
3.5
41
0
44
1.084337
50
0
71
7
72
5
7
iso_b_vert
0
DIMENSION
5
10F
100
AcDbEntity
8
2
62
256
6
ByLayer
370
13
48
1
60
0
100
AcDbDimension
2
DimnDraft3D1
10
48.25
20
-8.4375
30
0
11
48.25
21
-3.9375
31
0
70
32
71
5
72
1
41
1
210
0
220
0
230
1
3
Standard
100
AcDbAlignedDimension
13
35.5
23
-13.4375
33
0
14
35.5
24
-8.4375
34
0
50
90
100
AcDbRotatedDimension
1001
ACAD
1000
DSTYLE
1002
{
1070
    74
1070
     0
1070
   279
1070
     0
1070
   172
1070
     1
1070
   173
1070
     1
1070
   340
1005
FF
1070
   271
1070
     3
1070
   272
1070
     3
1070
    77
1070
     1
1070
    73
1070
     0
1070
   171
1070
     4
1070
   274
1070
     4
1070
   177
1070
     2
1070
   176
1070
     2
1070
   178
1070
     7
1070
    78
1070
     8
1070
    41
1041
3.0
1070
   147
1041
2.25
1070
    42
1041
1.5
1070
    44
1041
3.0
1070
   140
1041
4.5
1070
   343
1005
110
1070
   344
1005
110
1002
}
0
DIMENSION
5
124
100
AcDbEntity
8
2
62
256
6
ByLayer
370
13
48
1
60
0
100
AcDbDimension
2
DimnDraft3D2
10
58.25
20
12.4375
30
0
11
58.25
21
-3.188158
31
0
70
32
71
5
72
1
41
1
210
0
220
0
230
1
3
Standard
100
AcDbAlignedDimension
13
35.5
23
-13.4375
33
0
14
1.5
24
12.4375
34
0
50
90
100
AcDbRotatedDimension
1001
ACAD
1000
DSTYLE
1002
{
1070
    74
1070
     0
1070
   279
1070
     0
1070
   172
1070
     1
1070
   173
1070
     1
1070
   340
1005
FF
1070
   271
1070
     3
1070
   272
1070
     3
1070
    77
1070
     1
1070
    73
1070
     0
1070
   171
1070
     4
1070
   274
1070
     4
1070
   177
1070
     2
1070
   176
1070
     2
1070
   178
1070
     7
1070
    78
1070
     8
1070
    41
1041
3.0
1070
   147
1041
2.25
1070
    42
1041
1.5
1070
    44
1041
3.0
1070
   140
1041
4.5
1070
   343
1005
110
1070
   344
1005
110
1002
}
0
DIMENSION
5
133
100
AcDbEntity
8
SK2
62
256
6
ByLayer
370
13
48
1
60
0
100
AcDbDimension
2
DimnDraft3D3
10
-127.1
20
-12.4375
30
0
11
-127.1
21
-2.688158
31
0
70
32
71
5
72
1
41
1
210
0
220
0
230
1
3
Standard
100
AcDbAlignedDimension
13
-118.85
23
12.4375
33
0
14
-118.85
24
-12.4375
34
0
50
90
100
AcDbRotatedDimension
1001
ACAD
1000
DSTYLE
1002
{
1070
    74
1070
     0
1070
   279
1070
     0
1070
   172
1070
     1
1070
   173
1070
     1
1070
   340
1005
FF
1070
   271
1070
     3
1070
   272
1070
     3
1070
    77
1070
     1
1070
    73
1070
     0
1070
   171
1070
     4
1070
   274
1070
     4
1070
   177
1070
     2
1070
   176
1070
     2
1070
   178
1070
     7
1070
    78
1070
     8
1070
    41
1041
3.0
1070
   147
1041
2.25
1070
    42
1041
1.5
1070
    44
1041
3.0
1070
   140
1041
4.5
1070
   343
1005
110
1070
   344
1005
110
1002
}
0
DIMENSION
5
141
100
AcDbEntity
8
2
62
256
6
ByLayer
370
13
48
1
60
0
100
AcDbDimension
2
DimnDraft3D4
10
21
20
22.1875
30
0
11
25.374342
21
22.1875
31
0
70
32
71
5
72
1
41
1
210
0
220
0
230
1
3
Standard
100
AcDbAlignedDimension
13
34
23
-6.9375
33
0
14
21
24
13.9375
34
0
50
0
100
AcDbRotatedDimension
1001
ACAD
1000
DSTYLE
1002
{
1070
   279
1070
     0
1070
   172
1070
     1
1070
   173
1070
     1
1070
   340
1005
FF
1070
   271
1070
     3
1070
   272
1070
     3
1070
    77
1070
     1
1070
    73
1070
     0
1070
   171
1070
     4
1070
   274
1070
     4
1070
   177
1070
     2
1070
   176
1070
     2
1070
   178
1070
     7
1070
    78
1070
     8
1070
    41
1041
3.0
1070
   147
1041
2.25
1070
    42
1041
1.5
1070
    44
1041
3.0
1070
   140
1041
4.5
1070
   343
1005
110
1070
   344
1005
110
1002
}
0
DIMENSION
5
14F
100
AcDbEntity
8
2
62
256
6
ByLayer
370
13
48
1
60
0
100
AcDbDimension
2
DimnDraft3D5
10
0
20
32.1875
30
0
11
14.075
21
32.1875
31
0
70
32
71
5
72
1
41
1
210
0
220
0
230
1
3
Standard
100
AcDbAlignedDimension
13
34
23
-6.9375
33
0
14
0
24
13.9375
34
0
50
0
100
AcDbRotatedDimension
1001
ACAD
1000
DSTYLE
1002
{
1070
   279
1070
     0
1070
   172
1070
     1
1070
   173
1070
     1
1070
   340
1005
FF
1070
   271
1070
     3
1070
   272
1070
     3
1070
    77
1070
     1
1070
    73
1070
     0
1070
   171
1070
     4
1070
   274
1070
     4
1070
   177
1070
     2
1070
   176
1070
     2
1070
   178
1070
     7
1070
    78
1070
     8
1070
    41
1041
3.0
1070
   147
1041
2.25
1070
    42
1041
1.5
1070
    44
1041
3.0
1070
   140
1041
4.5
1070
   343
1005
110
1070
   344
1005
110
1002
}
0
DIMENSION
5
15D
100
AcDbEntity
8
SK2
62
256
6
ByLayer
370
13
48
1
60
0
100
AcDbDimension
2
DimnDraft3D6
10
-117.35
20
42.1875
30
0
11
-45.482237
21
42.1875
31
0
70
32
71
5
72
1
41
1
210
0
220
0
230
1
3
Standard
100
AcDbAlignedDimension
13
34
23
-6.9375
33
0
14
-117.35
24
13.9375
34
0
50
0
100
AcDbRotatedDimension
1001
ACAD
1000
DSTYLE
1002
{
1070
   279
1070
     0
1070
   172
1070
     1
1070
   173
1070
     1
1070
   340
1005
FF
1070
   271
1070
     3
1070
   272
1070
     3
1070
    77
1070
     1
1070
    73
1070
     0
1070
   171
1070
     4
1070
   274
1070
     4
1070
   177
1070
     2
1070
   176
1070
     2
1070
   178
1070
     7
1070
    78
1070
     8
1070
    41
1041
3.0
1070
   147
1041
2.25
1070
    42
1041
1.5
1070
    44
1041
3.0
1070
   140
1041
4.5
1070
   343
1005
110
1070
   344
1005
110
1002
}
0
ENDSEC
0
SECTION
2
OBJECTS
0
DICTIONARY
5
1c7
330
0
100
AcDbDictionary
280
0
281
1
3
ACAD_GROUP
350
1c8
3
ACAD_MLINESTYLE
350
1c9
0
DICTIONARY
5
1c8
330
0
100
AcDbDictionary
280
0
281
1
0
DICTIONARY
5
1c9
330
0
100
AcDbDictionary
280
0
281
1
3
Standard
350
18
0
MLINESTYLE
5
18
330
1c9
100
AcDbMlineStyle
2
Standard
70
0
3

62
256
51
90
52
90
71
2
49
-0.5
62
256
6
ByLayer
49
0.5
62
256
6
ByLayer
0
RASTERVARIABLES
5
1b6
330

100
AcDbRasterVariables
90
0
70
1
71
1
72
1
0
ENDSEC
0
EOF
