0
SECTION
2
HEADER
9
$ACADVER
1
AC1015
9
$DWGCODEPAGE
3
ANSI_1252
9
$HANDSEED
5
1b2
9
$ANGBASE
50
0
9
$ANGDIR
70
0
9
$ATTMODE
70
1
9
$AUNITS
70
0
9
$AUPREC
70
0
9
$CECOLOR
62
256
9
$CELTSCALE
40
1
9
$CELTYPE
6
ByLayer
9
$CELWEIGHT
370
18
9
$CLAYER
8
0
9
$CMLJUST
70
0
9
$CMLSCALE
40
1
9
$CMLSTYLE
2
Standard
9
$DIMSTYLE
2
Standard
9
$TEXTSIZE
40
0.2
9
$TEXTSTYLE
7
Standard
9
$LUNITS
70
2
9
$LUPREC
70
4
9
$EXTNAMES
290
1
9
$INSUNITS
70
4
9
$LTSCALE
40
1
9
$LWDISPLAY
290
1
9
$PDMODE
70
0
9
$PDSIZE
40
0
9
$PLINEGEN
70
0
0
ENDSEC
0
SECTION
2
CLASSES
0
CLASS
1
RASTERVARIABLES
2
AcDbRasterVariables
3
ISM
90
0
280
0
281
0
0
ENDSEC
0
SECTION
2
TABLES
0
TABLE
2
VPORT
5
1a8
100
AcDbSymbolTable
0
VPORT
5
1
100
AcDbSymbolTableRecord
100
AcDbViewportTableRecord
2
*Active
70
0
10
0
20
0
11
1
21
1
12
-1
22
1
13
0
23
0
14
0.5
24
0.5
15
10
25
10
16
0
26
0
36
1
17
0
27
0
37
0
0
ENDTAB
0
TABLE
2
LTYPE
5
1a9
100
AcDbSymbolTable
0
LTYPE
5
14
100
AcDbSymbolTableRecord
100
AcDbLinetypeTableRecord
70
0
2
ByBlock
3

72
65
73
0
40
0
0
LTYPE
5
15
100
AcDbSymbolTableRecord
100
AcDbLinetypeTableRecord
70
0
2
ByLayer
3

72
65
73
0
40
0
0
LTYPE
5
16
100
AcDbSymbolTableRecord
100
AcDbLinetypeTableRecord
70
0
2
CONTINUOUS
3
Solid line
72
65
73
0
40
0
0
LTYPE
5
6A
100
AcDbSymbolTableRecord
100
AcDbLinetypeTableRecord
70
0
2
CENTER
3
____ _ ____ _ ____ _ ____
72
65
73
4
40
47.5
49
22
74
0
49
-8.5
74
0
49
8.5
74
0
49
-8.5
74
0
0
LTYPE
5
6B
100
AcDbSymbolTableRecord
100
AcDbLinetypeTableRecord
70
0
2
DASHED
3
__ __ __ __ __ __ __ __ __
72
65
73
2
40
25.72
49
12.86
74
0
49
-12.86
74
0
0
ENDTAB
0
TABLE
2
LAYER
5
1aa
100
AcDbSymbolTable
0
LAYER
5
10
100
AcDbSymbolTableRecord
100
AcDbLayerTableRecord
2
0
70
0
62
7
6
CONTINUOUS
290
1
370
-3
390
0
0
LAYER
5
6D
100
AcDbSymbolTableRecord
100
AcDbLayerTableRecord
2
2
70
0
62
7
6
CONTINUOUS
290
1
370
-3
390
0
0
LAYER
5
6F
100
AcDbSymbolTableRecord
100
AcDbLayerTableRecord
2
80
70
0
62
-6
6
CONTINUOUS
290
1
370
-3
390
0
0
LAYER
5
72
100
AcDbSymbolTableRecord
100
AcDbLayerTableRecord
2
81
70
0
62
-3
6
CONTINUOUS
290
1
370
-3
390
0
0
LAYER
5
76
100
AcDbSymbolTableRecord
100
AcDbLayerTableRecord
2
1
70
0
62
4
6
CONTINUOUS
290
1
370
-3
390
0
0
LAYER
5
195
100
AcDbSymbolTableRecord
100
AcDbLayerTableRecord
2
SK1
70
0
62
4
6
CONTINUOUS
290
1
370
-3
390
0
0
LAYER
5
196
100
AcDbSymbolTableRecord
100
AcDbLayerTableRecord
2
SK6
70
0
62
5
6
CONTINUOUS
290
1
370
-3
390
0
0
LAYER
5
197
100
AcDbSymbolTableRecord
100
AcDbLayerTableRecord
2
SK2
70
0
62
7
6
CONTINUOUS
290
1
370
-3
390
0
0
ENDTAB
0
TABLE
2
STYLE
5
1ab
100
AcDbSymbolTable
0
STYLE
5
11
100
AcDbSymbolTableRecord
100
AcDbTextStyleTableRecord
2
Standard
3
txt
70
0
71
0
40
0
41
1
42
0
50
0
0
STYLE
5
DD
100
AcDbSymbolTableRecord
100
AcDbTextStyleTableRecord
2
iso_b_vert
3
simplex.shx
70
0
71
0
40
0
41
1
42
0
50
0
0
STYLE
5
DE
100
AcDbSymbolTableRecord
100
AcDbTextStyleTableRecord
2
DWGDirectTextStyle
3
simplex
70
0
71
0
40
0
41
1
42
0
50
0
0
ENDTAB
0
TABLE
2
DIMSTYLE
5
1ac
100
AcDbSymbolTable
100
AcDbDimStyleTable
0
DIMSTYLE
105
27
100
AcDbSymbolTableRecord
100
AcDbDimStyleTableRecord
2
Standard
70
0
3
<>
41
0.18
42
0.0625
44
0.18
140
0.18
147
0.09
73
0
74
0
77
1
271
2
275
0
278
52
280
0
340
11
0
ENDTAB
0
TABLE
2
VIEW
5
1ad
100
AcDbSymbolTable
0
ENDTAB
0
TABLE
2
UCS
5
1ae
100
AcDbSymbolTable
0
ENDTAB
0
TABLE
2
APPID
5
1af
100
AcDbSymbolTable
0
APPID
5
12
100
AcDbSymbolTableRecord
100
AcDbRegAppTableRecord
2
ACAD
70
0
0
ENDTAB
0
TABLE
2
BLOCK_RECORD
5
1b0
100
AcDbSymbolTable
0
BLOCK_RECORD
5
1F
100
AcDbSymbolTableRecord
100
AcDbBlockTableRecord
2
*Model_Space
340
0
70
0
0
BLOCK_RECORD
5
1B
100
AcDbSymbolTableRecord
100
AcDbBlockTableRecord
2
*Paper_Space
340
0
70
0
0
BLOCK_RECORD
5
23
100
AcDbSymbolTableRecord
100
AcDbBlockTableRecord
2
*Paper_Space0
340
0
70
0
0
BLOCK_RECORD
5
E0
100
AcDbSymbolTableRecord
100
AcDbBlockTableRecord
2
DimnDraft3D1
340
0
70
0
0
BLOCK_RECORD
5
EE
100
AcDbSymbolTableRecord
100
AcDbBlockTableRecord
2
_CLOSED
340
0
70
0
0
BLOCK_RECORD
5
F5
100
AcDbSymbolTableRecord
100
AcDbBlockTableRecord
2
DimnDraft3D2
340
0
70
0
0
BLOCK_RECORD
5
103
100
AcDbSymbolTableRecord
100
AcDbBlockTableRecord
2
DimnDraft3D3
340
0
70
0
0
BLOCK_RECORD
5
112
100
AcDbSymbolTableRecord
100
AcDbBlockTableRecord
2
DimnDraft3D4
340
0
70
0
0
BLOCK_RECORD
5
120
100
AcDbSymbolTableRecord
100
AcDbBlockTableRecord
2
DimnDraft3D5
340
0
70
0
0
BLOCK_RECORD
5
12E
100
AcDbSymbolTableRecord
100
AcDbBlockTableRecord
2
DimnDraft3D6
340
0
70
0
0
ENDTAB
0
ENDSEC
0
SECTION
2
BLOCKS
0
BLOCK
5
20
100
AcDbEntity
8
0
100
AcDbBlockBegin
2
*Model_Space
70
0
10
0
20
0
30
0
3
*Model_Space
0
ENDBLK
5
21
100
AcDbEntity
8
0
100
AcDbBlockEnd
0
BLOCK
5
1C
100
AcDbEntity
8
0
100
AcDbBlockBegin
2
*Paper_Space
70
0
10
0
20
0
30
0
3
*Paper_Space
0
ENDBLK
5
1D
100
AcDbEntity
8
0
100
AcDbBlockEnd
0
BLOCK
5
24
100
AcDbEntity
8
0
100
AcDbBlockBegin
2
*Paper_Space0
70
0
10
0
20
0
30
0
3
*Paper_Space0
0
ENDBLK
5
25
100
AcDbEntity
8
0
100
AcDbBlockEnd
0
BLOCK
5
EB
100
AcDbEntity
8
0
100
AcDbBlockBegin
2
DimnDraft3D1
70
0
10
0
20
0
30
0
3
DimnDraft3D1
0
MTEXT
5
E1
100
AcDbEntity
8
2
62
256
6
ByLayer
370
18
48
1
60
0
100
AcDbMText
10
45.125
20
1.6875
30
0
210
0
220
0
230
1
1
\W0.5404;3
40
4.5
41
0
44
1.084337
50
90
71
7
72
5
7
iso_b_vert
0
LINE
5
E2
100
AcDbEntity
8
2
62
256
6
ByLayer
370
13
48
1
60
0
100
AcDbLine
10
33.5
20
-6.9375
30
0
11
49.25
21
-6.9375
31
0
39
0
210
0
220
0
230
1
0
LINE
5
E3
100
AcDbEntity
8
2
62
256
6
ByLayer
370
13
48
1
60
0
100
AcDbLine
10
33.5
20
-3.9375
30
0
11
49.25
21
-3.9375
31
0
39
0
210
0
220
0
230
1
0
LINE
5
E4
100
AcDbEntity
8
2
62
256
6
ByLayer
370
13
48
1
60
0
100
AcDbLine
10
46.25
20
2.575658
30
0
11
46.25
21
-18.1875
31
0
39
0
210
0
220
0
230
1
0
LINE
5
E5
100
AcDbEntity
8
2
62
256
6
ByLayer
370
13
48
1
60
0
100
AcDbLine
10
46.25
20
-6.9375
30
0
11
46.644957
21
-9.937499
31
0
39
0
210
0
220
0
230
1
0
LINE
5
E6
100
AcDbEntity
8
2
62
256
6
ByLayer
370
13
48
1
60
0
100
AcDbLine
10
46.25
20
-6.9375
30
0
11
45.855043
21
-9.937501
31
0
39
0
210
0
220
0
230
1
0
LINE
5
E7
100
AcDbEntity
8
2
62
256
6
ByLayer
370
13
48
1
60
0
100
AcDbLine
10
46.644957
20
-9.937499
30
0
11
45.855043
21
-9.937501
31
0
39
0
210
0
220
0
230
1
0
LINE
5
E8
100
AcDbEntity
8
2
62
256
6
ByLayer
370
13
48
1
60
0
100
AcDbLine
10
46.25
20
-3.9375
30
0
11
45.855043
21
-0.937501
31
0
39
0
210
0
220
0
230
1
0
LINE
5
E9
100
AcDbEntity
8
2
62
256
6
ByLayer
370
13
48
1
60
0
100
AcDbLine
10
46.25
20
-3.9375
30
0
11
46.644957
21
-0.937499
31
0
39
0
210
0
220
0
230
1
0
LINE
5
EA
100
AcDbEntity
8
2
62
256
6
ByLayer
370
13
48
1
60
0
100
AcDbLine
10
45.855043
20
-0.937501
30
0
11
46.644957
21
-0.937499
31
0
39
0
210
0
220
0
230
1
0
ENDBLK
5
EC
100
AcDbEntity
8
0
100
AcDbBlockEnd
0
BLOCK
5
EF
100
AcDbEntity
8
0
100
AcDbBlockBegin
2
_CLOSED
70
0
10
0
20
0
30
0
3
_CLOSED
0
LINE
5
F1
100
AcDbEntity
8
0
62
256
6
ByLayer
370
-2
48
1
60
0
100
AcDbLine
10
-1
20
0.166667
30
0
11
0
21
0
31
0
39
0
210
0
220
0
230
1
0
LINE
5
F2
100
AcDbEntity
8
0
62
256
6
ByLayer
370
-2
48
1
60
0
100
AcDbLine
10
0
20
0
30
0
11
-1
21
-0.166667
31
0
39
0
210
0
220
0
230
1
0
LINE
5
F3
100
AcDbEntity
8
0
62
256
6
ByLayer
370
-2
48
1
60
0
100
AcDbLine
10
-1
20
0.166667
30
0
11
-1
21
-0.166667
31
0
39
0
210
0
220
0
230
1
0
LINE
5
F4
100
AcDbEntity
8
0
62
256
6
ByLayer
370
-2
48
1
60
0
100
AcDbLine
10
0
20
0
30
0
11
-1
21
0
31
0
39
0
210
0
220
0
230
1
0
ENDBLK
5
F0
100
AcDbEntity
8
0
100
AcDbBlockEnd
0
BLOCK
5
100
100
AcDbEntity
8
0
100
AcDbBlockBegin
2
DimnDraft3D2
70
0
10
0
20
0
30
0
3
DimnDraft3D2
0
MTEXT
5
F6
100
AcDbEntity
8
2
62
256
6
ByLayer
370
18
48
1
60
0
100
AcDbMText
10
55.125
20
-1.500658
30
0
210
0
220
0
230
1
1
\W0.5321;13
40
4.5
41
0
44
1.084337
50
90
71
7
72
5
7
iso_b_vert
0
LINE
5
F7
100
AcDbEntity
8
2
62
256
6
ByLayer
370
13
48
1
60
0
100
AcDbLine
10
33.5
20
-6.9375
30
0
11
59.25
21
-6.9375
31
0
39
0
210
0
220
0
230
1
0
LINE
5
F8
100
AcDbEntity
8
2
62
256
6
ByLayer
370
13
48
1
60
0
100
AcDbLine
10
1.5
20
5.9375
30
0
11
59.25
21
5.9375
31
0
39
0
210
0
220
0
230
1
0
LINE
5
F9
100
AcDbEntity
8
2
62
256
6
ByLayer
370
13
48
1
60
0
100
AcDbLine
10
56.25
20
-18.1875
30
0
11
56.25
21
17.1875
31
0
39
0
210
0
220
0
230
1
0
LINE
5
FA
100
AcDbEntity
8
2
62
256
6
ByLayer
370
13
48
1
60
0
100
AcDbLine
10
56.25
20
-6.9375
30
0
11
56.644957
21
-9.937499
31
0
39
0
210
0
220
0
230
1
0
LINE
5
FB
100
AcDbEntity
8
2
62
256
6
ByLayer
370
13
48
1
60
0
100
AcDbLine
10
56.25
20
-6.9375
30
0
11
55.855043
21
-9.937501
31
0
39
0
210
0
220
0
230
1
0
LINE
5
FC
100
AcDbEntity
8
2
62
256
6
ByLayer
370
13
48
1
60
0
100
AcDbLine
10
56.644957
20
-9.937499
30
0
11
55.855043
21
-9.937501
31
0
39
0
210
0
220
0
230
1
0
LINE
5
FD
100
AcDbEntity
8
2
62
256
6
ByLayer
370
13
48
1
60
0
100
AcDbLine
10
56.25
20
5.9375
30
0
11
55.855043
21
8.937499
31
0
39
0
210
0
220
0
230
1
0
LINE
5
FE
100
AcDbEntity
8
2
62
256
6
ByLayer
370
13
48
1
60
0
100
AcDbLine
10
56.25
20
5.9375
30
0
11
56.644957
21
8.937501
31
0
39
0
210
0
220
0
230
1
0
LINE
5
FF
100
AcDbEntity
8
2
62
256
6
ByLayer
370
13
48
1
60
0
100
AcDbLine
10
55.855043
20
8.937499
30
0
11
56.644957
21
8.937501
31
0
39
0
210
0
220
0
230
1
0
ENDBLK
5
101
100
AcDbEntity
8
0
100
AcDbBlockEnd
0
BLOCK
5
10F
100
AcDbEntity
8
0
100
AcDbBlockBegin
2
DimnDraft3D3
70
0
10
0
20
0
30
0
3
DimnDraft3D3
0
MTEXT
5
104
100
AcDbEntity
8
SK2
62
256
6
ByLayer
370
18
48
1
60
0
100
AcDbMText
10
-105.225
20
-1.000658
30
0
210
0
220
0
230
1
1
\W0.5321;12
40
4.5
41
0
44
1.084337
50
90
71
7
72
5
7
iso_b_vert
0
LINE
5
106
100
AcDbEntity
8
SK2
62
256
6
ByLayer
370
13
48
1
60
0
100
AcDbLine
10
-95.85
20
5.9375
30
0
11
-107.1
21
5.9375
31
0
39
0
210
0
220
0
230
1
0
LINE
5
107
100
AcDbEntity
8
SK2
62
256
6
ByLayer
370
13
48
1
60
0
100
AcDbLine
10
-95.85
20
-5.9375
30
0
11
-107.1
21
-5.9375
31
0
39
0
210
0
220
0
230
1
0
LINE
5
108
100
AcDbEntity
8
SK2
62
256
6
ByLayer
370
13
48
1
60
0
100
AcDbLine
10
-104.1
20
17.1875
30
0
11
-104.1
21
-17.1875
31
0
39
0
210
0
220
0
230
1
0
LINE
5
109
100
AcDbEntity
8
SK2
62
256
6
ByLayer
370
13
48
1
60
0
100
AcDbLine
10
-104.1
20
5.9375
30
0
11
-104.494957
21
8.937499
31
0
39
0
210
0
220
0
230
1
0
LINE
5
10A
100
AcDbEntity
8
SK2
62
256
6
ByLayer
370
13
48
1
60
0
100
AcDbLine
10
-104.1
20
5.9375
30
0
11
-103.705043
21
8.937501
31
0
39
0
210
0
220
0
230
1
0
LINE
5
10B
100
AcDbEntity
8
SK2
62
256
6
ByLayer
370
13
48
1
60
0
100
AcDbLine
10
-104.494957
20
8.937499
30
0
11
-103.705043
21
8.937501
31
0
39
0
210
0
220
0
230
1
0
LINE
5
10C
100
AcDbEntity
8
SK2
62
256
6
ByLayer
370
13
48
1
60
0
100
AcDbLine
10
-104.1
20
-5.9375
30
0
11
-103.705043
21
-8.937499
31
0
39
0
210
0
220
0
230
1
0
LINE
5
10D
100
AcDbEntity
8
SK2
62
256
6
ByLayer
370
13
48
1
60
0
100
AcDbLine
10
-104.1
20
-5.9375
30
0
11
-104.494957
21
-8.937501
31
0
39
0
210
0
220
0
230
1
0
LINE
5
10E
100
AcDbEntity
8
SK2
62
256
6
ByLayer
370
13
48
1
60
0
100
AcDbLine
10
-103.705043
20
-8.937499
30
0
11
-104.494957
21
-8.937501
31
0
39
0
210
0
220
0
230
1
0
ENDBLK
5
110
100
AcDbEntity
8
0
100
AcDbBlockEnd
0
BLOCK
5
11D
100
AcDbEntity
8
0
100
AcDbBlockBegin
2
DimnDraft3D4
70
0
10
0
20
0
30
0
3
DimnDraft3D4
0
MTEXT
5
113
100
AcDbEntity
8
2
62
256
6
ByLayer
370
18
48
1
60
0
100
AcDbMText
10
24.999342
20
-19.0625
30
0
210
0
220
0
230
1
1
\W0.5321;12
40
4.5
41
0
44
1.084337
50
0
71
7
72
5
7
iso_b_vert
0
LINE
5
114
100
AcDbEntity
8
2
62
256
6
ByLayer
370
13
48
1
60
0
100
AcDbLine
10
32
20
-6.9375
30
0
11
32
21
-23.1875
31
0
39
0
210
0
220
0
230
1
0
LINE
5
115
100
AcDbEntity
8
2
62
256
6
ByLayer
370
13
48
1
60
0
100
AcDbLine
10
20
20
-4.5625
30
0
11
20
21
-23.1875
31
0
39
0
210
0
220
0
230
1
0
LINE
5
116
100
AcDbEntity
8
2
62
256
6
ByLayer
370
13
48
1
60
0
100
AcDbLine
10
43.25
20
-20.1875
30
0
11
8.75
21
-20.1875
31
0
39
0
210
0
220
0
230
1
0
LINE
5
117
100
AcDbEntity
8
2
62
256
6
ByLayer
370
13
48
1
60
0
100
AcDbLine
10
32
20
-20.1875
30
0
11
34.999999
21
-19.792543
31
0
39
0
210
0
220
0
230
1
0
LINE
5
118
100
AcDbEntity
8
2
62
256
6
ByLayer
370
13
48
1
60
0
100
AcDbLine
10
32
20
-20.1875
30
0
11
35.000001
21
-20.582457
31
0
39
0
210
0
220
0
230
1
0
LINE
5
119
100
AcDbEntity
8
2
62
256
6
ByLayer
370
13
48
1
60
0
100
AcDbLine
10
34.999999
20
-19.792543
30
0
11
35.000001
21
-20.582457
31
0
39
0
210
0
220
0
230
1
0
LINE
5
11A
100
AcDbEntity
8
2
62
256
6
ByLayer
370
13
48
1
60
0
100
AcDbLine
10
20
20
-20.1875
30
0
11
17.000001
21
-20.582457
31
0
39
0
210
0
220
0
230
1
0
LINE
5
11B
100
AcDbEntity
8
2
62
256
6
ByLayer
370
13
48
1
60
0
100
AcDbLine
10
20
20
-20.1875
30
0
11
16.999999
21
-19.792543
31
0
39
0
210
0
220
0
230
1
0
LINE
5
11C
100
AcDbEntity
8
2
62
256
6
ByLayer
370
13
48
1
60
0
100
AcDbLine
10
17.000001
20
-20.582457
30
0
11
16.999999
21
-19.792543
31
0
39
0
210
0
220
0
230
1
0
ENDBLK
5
11E
100
AcDbEntity
8
0
100
AcDbBlockEnd
0
BLOCK
5
12B
100
AcDbEntity
8
0
100
AcDbBlockBegin
2
DimnDraft3D5
70
0
10
0
20
0
30
0
3
DimnDraft3D5
0
MTEXT
5
121
100
AcDbEntity
8
2
62
256
6
ByLayer
370
18
48
1
60
0
100
AcDbMText
10
14.436842
20
17.9375
30
0
210
0
220
0
230
1
1
\W0.6740;32
40
4.5
41
0
44
1.084337
50
0
71
7
72
5
7
iso_b_vert
0
LINE
5
122
100
AcDbEntity
8
2
62
256
6
ByLayer
370
13
48
1
60
0
100
AcDbLine
10
32
20
-2.4375
30
0
11
32
21
19.8125
31
0
39
0
210
0
220
0
230
1
0
LINE
5
123
100
AcDbEntity
8
2
62
256
6
ByLayer
370
13
48
1
60
0
100
AcDbLine
10
0
20
7.4375
30
0
11
0
21
19.8125
31
0
39
0
210
0
220
0
230
1
0
LINE
5
124
100
AcDbEntity
8
2
62
256
6
ByLayer
370
13
48
1
60
0
100
AcDbLine
10
32
20
16.8125
30
0
11
0
21
16.8125
31
0
39
0
210
0
220
0
230
1
0
LINE
5
125
100
AcDbEntity
8
2
62
256
6
ByLayer
370
13
48
1
60
0
100
AcDbLine
10
32
20
16.8125
30
0
11
29.000001
21
16.417543
31
0
39
0
210
0
220
0
230
1
0
LINE
5
126
100
AcDbEntity
8
2
62
256
6
ByLayer
370
13
48
1
60
0
100
AcDbLine
10
32
20
16.8125
30
0
11
28.999999
21
17.207457
31
0
39
0
210
0
220
0
230
1
0
LINE
5
127
100
AcDbEntity
8
2
62
256
6
ByLayer
370
13
48
1
60
0
100
AcDbLine
10
29.000001
20
16.417543
30
0
11
28.999999
21
17.207457
31
0
39
0
210
0
220
0
230
1
0
LINE
5
128
100
AcDbEntity
8
2
62
256
6
ByLayer
370
13
48
1
60
0
100
AcDbLine
10
0
20
16.8125
30
0
11
2.999999
21
17.207457
31
0
39
0
210
0
220
0
230
1
0
LINE
5
129
100
AcDbEntity
8
2
62
256
6
ByLayer
370
13
48
1
60
0
100
AcDbLine
10
0
20
16.8125
30
0
11
3.000001
21
16.417543
31
0
39
0
210
0
220
0
230
1
0
LINE
5
12A
100
AcDbEntity
8
2
62
256
6
ByLayer
370
13
48
1
60
0
100
AcDbLine
10
2.999999
20
17.207457
30
0
11
3.000001
21
16.417543
31
0
39
0
210
0
220
0
230
1
0
ENDBLK
5
12C
100
AcDbEntity
8
0
100
AcDbBlockEnd
0
BLOCK
5
139
100
AcDbEntity
8
0
100
AcDbBlockBegin
2
DimnDraft3D6
70
0
10
0
20
0
30
0
3
DimnDraft3D6
0
MTEXT
5
12F
100
AcDbEntity
8
SK2
62
256
6
ByLayer
370
18
48
1
60
0
100
AcDbMText
10
-33.857237
20
27.9375
30
0
210
0
220
0
230
1
1
\W0.6217;125
40
4.5
41
0
44
1.084337
50
0
71
7
72
5
7
iso_b_vert
0
LINE
5
130
100
AcDbEntity
8
SK2
62
256
6
ByLayer
370
13
48
1
60
0
100
AcDbLine
10
32
20
-2.4375
30
0
11
32
21
29.8125
31
0
39
0
210
0
220
0
230
1
0
LINE
5
131
100
AcDbEntity
8
SK2
62
256
6
ByLayer
370
13
48
1
60
0
100
AcDbLine
10
-94.35
20
7.4375
30
0
11
-94.35
21
29.8125
31
0
39
0
210
0
220
0
230
1
0
LINE
5
132
100
AcDbEntity
8
SK2
62
256
6
ByLayer
370
13
48
1
60
0
100
AcDbLine
10
32
20
26.8125
30
0
11
-94.35
21
26.8125
31
0
39
0
210
0
220
0
230
1
0
LINE
5
133
100
AcDbEntity
8
SK2
62
256
6
ByLayer
370
13
48
1
60
0
100
AcDbLine
10
32
20
26.8125
30
0
11
29.000001
21
26.417543
31
0
39
0
210
0
220
0
230
1
0
LINE
5
134
100
AcDbEntity
8
SK2
62
256
6
ByLayer
370
13
48
1
60
0
100
AcDbLine
10
32
20
26.8125
30
0
11
28.999999
21
27.207457
31
0
39
0
210
0
220
0
230
1
0
LINE
5
135
100
AcDbEntity
8
SK2
62
256
6
ByLayer
370
13
48
1
60
0
100
AcDbLine
10
29.000001
20
26.417543
30
0
11
28.999999
21
27.207457
31
0
39
0
210
0
220
0
230
1
0
LINE
5
136
100
AcDbEntity
8
SK2
62
256
6
ByLayer
370
13
48
1
60
0
100
AcDbLine
10
-94.35
20
26.8125
30
0
11
-91.350001
21
27.207457
31
0
39
0
210
0
220
0
230
1
0
LINE
5
137
100
AcDbEntity
8
SK2
62
256
6
ByLayer
370
13
48
1
60
0
100
AcDbLine
10
-94.35
20
26.8125
30
0
11
-91.349999
21
26.417543
31
0
39
0
210
0
220
0
230
1
0
LINE
5
138
100
AcDbEntity
8
SK2
62
256
6
ByLayer
370
13
48
1
60
0
100
AcDbLine
10
-91.350001
20
27.207457
30
0
11
-91.349999
21
26.417543
31
0
39
0
210
0
220
0
230
1
0
ENDBLK
5
13A
100
AcDbEntity
8
0
100
AcDbBlockEnd
0
ENDSEC
0
SECTION
2
ENTITIES
0
ARC
5
A9
100
AcDbEntity
8
1
62
256
6
ByLayer
370
18
48
1
60
0
100
AcDbCircle
39
0
10
20.1
20
-2.6625
30
0
40
1.59999999999986
210
0
220
0
230
1
100
AcDbArc
50
180
51
270
0
ARC
5
AB
100
AcDbEntity
8
1
62
256
6
ByLayer
370
18
48
1
60
0
100
AcDbCircle
39
0
10
25.832089
20
-5.4375
30
0
40
0.50000000002081
210
0
220
0
230
1
100
AcDbArc
50
340
51
20
0
ARC
5
AC
100
AcDbEntity
8
1
62
256
6
ByLayer
370
18
48
1
60
0
100
AcDbCircle
39
0
10
31.8
20
-4.1375
30
0
40
0.2
210
0
220
0
230
1
100
AcDbArc
50
360
51
92.5
0
ARC
5
AD
100
AcDbEntity
8
1
62
256
6
ByLayer
370
18
48
1
60
0
100
AcDbCircle
39
0
10
-31.8
20
-6.7375
30
0
40
0.2
210
0
220
0
230
-1
100
AcDbArc
50
180
51
272.5
0
ARC
5
AE
100
AcDbEntity
8
1
62
256
6
ByLayer
370
18
48
1
60
0
100
AcDbCircle
39
0
10
12.2
20
-6.7375
30
0
40
0.2
210
0
220
0
230
1
100
AcDbArc
50
180
51
272.5
0
ARC
5
AF
100
AcDbEntity
8
1
62
256
6
ByLayer
370
18
48
1
60
0
100
AcDbCircle
39
0
10
26.168406
20
-6.413949
30
0
40
0.150000000006014
210
0
220
0
230
1
100
AcDbArc
50
160
51
180
0
ARC
5
B0
100
AcDbEntity
8
1
62
256
6
ByLayer
370
18
48
1
60
0
100
AcDbCircle
39
0
10
13.5
20
1.5625
30
0
40
1.416
210
0
220
0
230
1
100
AcDbArc
50
96.192438
51
150.190711
0
ARC
5
B1
100
AcDbEntity
8
1
62
256
6
ByLayer
370
18
48
1
60
0
100
AcDbCircle
39
0
10
13.5
20
1.5625
30
0
40
1.416
210
0
220
0
230
1
100
AcDbArc
50
263.807562
51
276.192438
0
ARC
5
B2
100
AcDbEntity
8
1
62
256
6
ByLayer
370
18
48
1
60
0
100
AcDbCircle
39
0
10
13.5
20
1.5625
30
0
40
1.9685
210
0
220
0
230
1
100
AcDbArc
50
120.381422
51
180
0
ARC
5
B3
100
AcDbEntity
8
1
62
256
6
ByLayer
370
18
48
1
60
0
100
AcDbCircle
39
0
10
13.5
20
1.5625
30
0
40
1.416
210
0
220
0
230
1
100
AcDbArc
50
29.809289
51
83.807562
0
ARC
5
B4
100
AcDbEntity
8
1
62
256
6
ByLayer
370
18
48
1
60
0
100
AcDbCircle
39
0
10
13.5
20
1.5625
30
0
40
1.416
210
0
220
0
230
1
100
AcDbArc
50
330.190711
51
29.809289
0
ARC
5
B5
100
AcDbEntity
8
1
62
256
6
ByLayer
370
18
48
1
60
0
100
AcDbCircle
39
0
10
13.5
20
1.5625
30
0
40
1.9685
210
0
220
0
230
1
100
AcDbArc
50
239.618578
51
300.381422
0
ARC
5
B6
100
AcDbEntity
8
1
62
256
6
ByLayer
370
18
48
1
60
0
100
AcDbCircle
39
0
10
13.5
20
1.5625
30
0
40
1.9685
210
0
220
0
230
1
100
AcDbArc
50
180
51
239.618578
0
ARC
5
B7
100
AcDbEntity
8
1
62
256
6
ByLayer
370
18
48
1
60
0
100
AcDbCircle
39
0
10
13.5
20
1.5625
30
0
40
1.416
210
0
220
0
230
1
100
AcDbArc
50
83.807562
51
96.192438
0
ARC
5
B8
100
AcDbEntity
8
1
62
256
6
ByLayer
370
18
48
1
60
0
100
AcDbCircle
39
0
10
13.5
20
1.5625
30
0
40
1.416
210
0
220
0
230
1
100
AcDbArc
50
276.192438
51
330.190711
0
ARC
5
B9
100
AcDbEntity
8
1
62
256
6
ByLayer
370
18
48
1
60
0
100
AcDbCircle
39
0
10
13.5
20
1.5625
30
0
40
1.9685
210
0
220
0
230
1
100
AcDbArc
50
59.618578
51
120.381422
0
ARC
5
BA
100
AcDbEntity
8
1
62
256
6
ByLayer
370
18
48
1
60
0
100
AcDbCircle
39
0
10
13.5
20
1.5625
30
0
40
1.9685
210
0
220
0
230
1
100
AcDbArc
50
360
51
59.618578
0
ARC
5
BB
100
AcDbEntity
8
1
62
256
6
ByLayer
370
18
48
1
60
0
100
AcDbCircle
39
0
10
13.5
20
1.5625
30
0
40
1.416
210
0
220
0
230
1
100
AcDbArc
50
209.809289
51
263.807562
0
ARC
5
BC
100
AcDbEntity
8
1
62
256
6
ByLayer
370
18
48
1
60
0
100
AcDbCircle
39
0
10
13.5
20
1.5625
30
0
40
1.416
210
0
220
0
230
1
100
AcDbArc
50
150.190711
51
209.809289
0
ARC
5
BD
100
AcDbEntity
8
1
62
256
6
ByLayer
370
18
48
1
60
0
100
AcDbCircle
39
0
10
13.5
20
1.5625
30
0
40
1.9685
210
0
220
0
230
1
100
AcDbArc
50
300.381422
51
360
0
CIRCLE
5
AA
100
AcDbEntity
8
1
62
256
6
ByLayer
370
18
48
1
60
0
100
AcDbCircle
10
13.5
20
1.5625
30
0
40
4
39
0
210
0
220
0
230
1
0
CIRCLE
5
BE
100
AcDbEntity
8
1
62
256
6
ByLayer
370
18
48
1
60
0
100
AcDbCircle
10
-13.5
20
1.5625
30
0
40
3
39
0
210
0
220
0
230
-1
0
CIRCLE
5
BF
100
AcDbEntity
8
1
62
256
6
ByLayer
370
18
48
1
60
0
100
AcDbCircle
10
-13.5
20
1.5625
30
0
40
3.5
39
0
210
0
220
0
230
-1
0
ELLIPSE
5
C0
100
AcDbEntity
8
1
62
256
6
ByLayer
370
18
48
1
60
0
100
AcDbEllipse
10
26.168406
20
-4.461051
30
0
11
-0.147972117002324
21
-0.0245815517440224
31
0
210
0
220
0
230
1
40
1
41
-0.164619524508322
42
0.184446325502108
0
POINT
5
6C
100
AcDbEntity
8
2
62
256
6
ByLayer
370
18
48
1
60
0
100
AcDbPoint
10
32
20
5.5625
30
0
39
0
210
0
220
0
230
1
50
360
0
POINT
5
6E
100
AcDbEntity
8
80
62
256
6
ByLayer
370
18
48
1
60
0
100
AcDbPoint
10
0
20
0
30
0
39
0
210
0
220
0
230
1
50
360
0
POINT
5
70
100
AcDbEntity
8
2
62
256
6
ByLayer
370
18
48
1
60
0
100
AcDbPoint
10
32
20
7.0625
30
0
39
0
210
0
220
0
230
1
50
360
0
POINT
5
71
100
AcDbEntity
8
81
62
256
6
ByLayer
370
18
48
1
60
0
100
AcDbPoint
10
32
20
-6.9375
30
0
39
0
210
0
220
0
230
1
50
360
0
SPLINE
5
C1
100
AcDbEntity
8
1
62
256
6
ByLayer
370
18
48
1
60
0
100
AcDbSpline
70
4
71
3
72
8
73
4
40
0
40
0
40
0
40
0
40
1
40
1
40
1
40
1
41
1
10
25.2826711249932
20
-4.70801393293388
30
0
41
1
10
25.3175699355043
20
-4.8141973086438
30
0
41
1
10
25.3520743031073
20
-4.92057439150409
30
0
41
1
10
25.386316606735
20
-5.02707582800923
30
0
0
SPLINE
5
C2
100
AcDbEntity
8
1
62
256
6
ByLayer
370
18
48
1
60
0
100
AcDbSpline
70
4
71
3
72
8
73
4
40
0
40
0
40
0
40
0
40
1
40
1
40
1
40
1
41
1
10
25.2675682415352
20
-4.66771487372623
30
0
41
1
10
25.2731177059794
20
-4.68084195669024
30
0
41
1
10
25.2781651928695
20
-4.69430415094911
30
0
41
1
10
25.2826711249934
20
-4.70801393293377
30
0
0
SPLINE
5
C3
100
AcDbEntity
8
1
62
256
6
ByLayer
370
18
48
1
60
0
100
AcDbSpline
70
4
71
3
72
8
73
4
40
0
40
0
40
0
40
0
40
1
40
1
40
1
40
1
41
1
10
25.0909333748181
20
-4.26250000000004
30
0
41
1
10
25.1516577684963
20
-4.39634800696365
30
0
41
1
10
25.2100885379482
20
-4.53174844934011
30
0
41
1
10
25.2675682415351
20
-4.66771487372634
30
0
0
SPLINE
5
C4
100
AcDbEntity
8
1
62
256
6
ByLayer
370
18
48
1
60
0
100
AcDbSpline
70
4
71
3
72
8
73
4
40
0
40
0
40
0
40
0
40
1
40
1
40
1
40
1
41
1
10
25.2675682415351
20
-6.20728512627372
30
0
41
1
10
25.2100885379482
20
-6.34325155065994
30
0
41
1
10
25.1516577684963
20
-6.47865199303644
30
0
41
1
10
25.0909333748181
20
-6.61250000000004
30
0
0
SPLINE
5
C5
100
AcDbEntity
8
1
62
256
6
ByLayer
370
18
48
1
60
0
100
AcDbSpline
70
4
71
3
72
8
73
4
40
0
40
0
40
0
40
0
40
1
40
1
40
1
40
1
41
1
10
25.2826711249934
20
-6.16698606706632
30
0
41
1
10
25.2781651928695
20
-6.18069584905098
30
0
41
1
10
25.2731177059794
20
-6.19415804330984
30
0
41
1
10
25.2675682415352
20
-6.20728512627386
30
0
0
SPLINE
5
C6
100
AcDbEntity
8
1
62
256
6
ByLayer
370
18
48
1
60
0
100
AcDbSpline
70
4
71
3
72
8
73
4
40
0
40
0
40
0
40
0
40
1
40
1
40
1
40
1
41
1
10
25.386316606735
20
-5.84792417199085
30
0
41
1
10
25.3520743031073
20
-5.95442560849599
30
0
41
1
10
25.3175699355043
20
-6.06080269135629
30
0
41
1
10
25.2826711249932
20
-6.1669860670662
30
0
0
SPLINE
5
C7
100
AcDbEntity
8
1
62
256
6
ByLayer
370
18
48
1
60
0
100
AcDbSpline
70
4
71
3
72
12
73
8
40
0
40
0
40
0
40
0
40
0.476059608016386
40
0.476059608016386
40
0.927101084955898
40
0.927101084955898
40
1
40
1
40
1
40
1
41
1
10
25.386316606735
20
-5.02707582800923
30
0
41
1
10
25.4259653450256
20
-5.1503925192419
30
0
41
1
10
25.4477674153748
20
-5.28443003765094
30
0
41
1
10
25.4516467356135
20
-5.54257978470676
30
0
41
1
10
25.4358013988408
20
-5.67040896947634
30
0
41
1
10
25.3982187180424
20
-5.80935111064784
30
0
41
1
10
25.3924830715351
20
-5.82874504880738
30
0
41
1
10
25.3863166067351
20
-5.84792417199085
30
0
0
SPLINE
5
C8
100
AcDbEntity
8
1
62
256
6
ByLayer
370
18
48
1
60
0
100
AcDbSpline
70
4
71
3
72
14
73
10
40
0
40
0
40
0
40
0
40
0.281038222380406
40
0.281038222380406
40
0.564557857067055
40
0.564557857067055
40
0.820700196130078
40
0.820700196130078
40
1
40
1
40
1
40
1
41
1
10
12.9078822958328
20
3.20608262808875
30
0
41
1
10
12.8813006245732
20
3.23341236906995
30
0
41
1
10
12.849043969095
20
3.2568655245359
30
0
41
1
10
12.777235194489
20
3.29107486042693
30
0
41
1
10
12.7364720760798
20
3.30218475904485
30
0
41
1
10
12.6571729147492
20
3.30784868557421
30
0
41
1
10
12.6175924873016
20
3.30391172564308
30
0
41
1
10
12.5539176730122
20
3.28561543464568
30
0
41
1
10
12.5281706327858
20
3.2746032984634
30
0
41
1
10
12.5044231104048
20
3.26068105833977
30
0
0
SPLINE
5
C9
100
AcDbEntity
8
1
62
256
6
ByLayer
370
18
48
1
60
0
100
AcDbSpline
70
4
71
3
72
16
73
12
40
0
40
0
40
0
40
0
40
0.0645965064171448
40
0.0645965064171448
40
0.282747320500311
40
0.282747320500311
40
0.503851581407189
40
0.503851581407189
40
0.739476498257835
40
0.739476498257835
40
1
40
1
40
1
40
1
41
1
10
12.5044231104048
20
-0.13568105833977
30
0
41
1
10
12.513014252084
20
-0.140717707446782
30
0
41
1
10
12.5218448367852
20
-0.145370614644719
30
0
41
1
10
12.5610594082809
20
-0.163818313271832
30
0
41
1
10
12.5937837130779
20
-0.173436908235658
30
0
41
1
10
12.6593454694517
20
-0.182459550000004
30
0
41
1
10
12.6930080641066
20
-0.181865338622799
30
0
41
1
10
12.7588630387573
20
-0.171031885759845
30
0
41
1
10
12.7916435993957
20
-0.160062379286387
30
0
41
1
10
12.8537963059871
20
-0.128385053530678
30
0
41
1
10
12.8832521428563
20
-0.106405930547794
30
0
41
1
10
12.9078822958328
20
-0.0810826280887795
30
0
0
SPLINE
5
CA
100
AcDbEntity
8
1
62
256
6
ByLayer
370
18
48
1
60
0
100
AcDbSpline
70
4
71
3
72
18
73
14
40
0
40
0
40
0
40
0
40
0.213081262000622
40
0.213081262000622
40
0.387160943926345
40
0.387160943926345
40
0.562948999942008
40
0.562948999942008
40
0.715638435810383
40
0.715638435810383
40
0.919170953808138
40
0.919170953808138
40
1
40
1
40
1
40
1
41
1
10
14.6474510335849
20
2.89065233797856
30
0
41
1
10
14.6253499966635
20
2.80810260339751
30
0
41
1
10
14.6155116663086
20
2.71929631718774
30
0
41
1
10
14.625005262533
20
2.5555591646997
30
0
41
1
10
14.6396283941553
20
2.47923071749949
30
0
41
1
10
14.690791443592
20
2.33203000919164
30
0
41
1
10
14.7285222509958
20
2.25911142498921
30
0
41
1
10
14.814774512508
20
2.13906872419491
30
0
41
1
10
14.8621656692504
20
2.08832306339133
30
0
41
1
10
14.9803089305089
20
1.98870920900276
30
0
41
1
10
15.0554527440065
20
1.94412477171267
30
0
41
1
10
15.1631437334956
20
1.90001928382182
30
0
41
1
10
15.1945032391402
20
1.88935984363914
30
0
41
1
10
15.2260954401443
20
1.88066196954682
30
0
0
SPLINE
5
CB
100
AcDbEntity
8
1
62
256
6
ByLayer
370
18
48
1
60
0
100
AcDbSpline
70
4
71
3
72
18
73
14
40
0
40
0
40
0
40
0
40
0.213081026856098
40
0.213081026856098
40
0.387160750704744
40
0.387160750704744
40
0.562948851464631
40
0.562948851464631
40
0.715638295683689
40
0.715638295683689
40
0.919170771668914
40
0.919170771668914
40
1
40
1
40
1
40
1
41
1
10
11.7739045598557
20
1.88066196954682
30
0
41
1
10
11.8562959735258
20
1.90334573704686
30
0
41
1
10
11.9378828610424
20
1.93977251302653
30
0
41
1
10
12.0743337817464
20
2.03077305590375
30
0
41
1
10
12.1327849506205
20
2.08199151673358
30
0
41
1
10
12.2338958570924
20
2.2005760878861
30
0
41
1
10
12.2777186157693
20
2.27000448969929
30
0
41
1
10
12.3376543890653
20
2.40512448640655
30
0
41
1
10
12.3574632867377
20
2.47167260736038
30
0
41
1
10
12.3836465356628
20
2.62397226392116
30
0
41
1
10
12.3841042679143
20
2.71134590366796
30
0
41
1
10
12.3676879551153
20
2.82655511685175
30
0
41
1
10
12.3610234078263
20
2.85899939374312
30
0
41
1
10
12.3525489664151
20
2.89065233797856
30
0
0
SPLINE
5
CC
100
AcDbEntity
8
1
62
256
6
ByLayer
370
18
48
1
60
0
100
AcDbSpline
70
4
71
3
72
14
73
10
40
0
40
0
40
0
40
0
40
0.285014780844613
40
0.285014780844613
40
0.572350605982613
40
0.572350605982613
40
0.832166772861832
40
0.832166772861832
40
1
40
1
40
1
40
1
41
1
10
12.3525489664151
20
0.234347662021406
30
0
41
1
10
12.3427455383358
20
0.197730810567208
30
0
41
1
10
12.3391008008659
20
0.158228607905585
30
0
41
1
10
12.346306008759
20
0.0794487612488695
30
0
41
1
10
12.3574570886555
20
0.0389597517414302
30
0
41
1
10
12.3927012508891
20
-0.0317746415250042
30
0
41
1
10
12.4160474129793
20
-0.0636679353044087
30
0
41
1
10
12.4622449161042
20
-0.107541437513191
30
0
41
1
10
12.4826741516865
20
-0.122930497634655
30
0
41
1
10
12.5044231104048
20
-0.13568105833977
30
0
0
SPLINE
5
CD
100
AcDbEntity
8
1
62
256
6
ByLayer
370
18
48
1
60
0
100
AcDbSpline
70
4
71
3
72
14
73
10
40
0
40
0
40
0
40
0
40
0.285013984727037
40
0.285013984727037
40
0.572349910643063
40
0.572349910643063
40
0.832166158509308
40
0.832166158509308
40
1
40
1
40
1
40
1
41
1
10
15.2260954401443
20
1.24433803045315
30
0
41
1
10
15.2626420033309
20
1.25439992531963
30
0
41
1
10
15.298562913688
20
1.27123402413133
30
0
41
1
10
15.3628804284091
20
1.31729289787498
30
0
41
1
10
15.392169726513
20
1.34739014603085
30
0
41
1
10
15.4353659032993
20
1.41356868226842
30
0
41
1
10
15.4510721564614
20
1.44983905406571
30
0
41
1
10
15.4655563481768
20
1.51188189848253
30
0
41
1
10
15.4685
20
1.53728891833418
30
0
41
1
10
15.4685
20
1.5625
30
0
0
SPLINE
5
CE
100
AcDbEntity
8
1
62
256
6
ByLayer
370
18
48
1
60
0
100
AcDbSpline
70
4
71
3
72
16
73
12
40
0
40
0
40
0
40
0
40
0.0645965064171449
40
0.0645965064171449
40
0.28274732050031
40
0.28274732050031
40
0.50385158140719
40
0.50385158140719
40
0.739476498257838
40
0.739476498257838
40
1
40
1
40
1
40
1
41
1
10
14.4955768895952
20
3.26068105833977
30
0
41
1
10
14.486985747916
20
3.26571770744675
30
0
41
1
10
14.4781551632148
20
3.27037061464469
30
0
41
1
10
14.4389405917191
20
3.2888183132718
30
0
41
1
10
14.4062162869221
20
3.29843690823563
30
0
41
1
10
14.3406545305483
20
3.30745954999998
30
0
41
1
10
14.3069919358934
20
3.30686533862277
30
0
41
1
10
14.2411369612427
20
3.29603188575982
30
0
41
1
10
14.2083564006042
20
3.28506237928636
30
0
41
1
10
14.1462036940129
20
3.25338505353068
30
0
41
1
10
14.1167478571437
20
3.23140593054779
30
0
41
1
10
14.0921177041672
20
3.20608262808875
30
0
0
SPLINE
5
CF
100
AcDbEntity
8
1
62
256
6
ByLayer
370
18
48
1
60
0
100
AcDbSpline
70
4
71
3
72
16
73
12
40
0
40
0
40
0
40
0
40
0.0660777514109231
40
0.0660777514109231
40
0.28923285819991
40
0.28923285819991
40
0.515409129607304
40
0.515409129607304
40
0.756439127791391
40
0.756439127791391
40
1
40
1
40
1
40
1
41
1
10
11.5315
20
1.5625
30
0
41
1
10
11.5315
20
1.55254139325586
30
0
41
1
10
11.5319521370927
20
1.54257030370826
30
0
41
1
10
11.535870606949
20
1.49941084850116
30
0
41
1
10
11.5441232851387
20
1.4663156675451
30
0
41
1
10
11.5694977332365
20
1.405193743501
30
0
41
1
10
11.5870353182328
20
1.37645428574575
30
0
41
1
10
11.6296874761397
20
1.32512170141609
30
0
41
1
10
11.6557295062842
20
1.30239049739564
30
0
41
1
10
11.7118903369799
20
1.26645746063227
30
0
41
1
10
11.742638287392
20
1.25294617083531
30
0
41
1
10
11.7739045598557
20
1.24433803045315
30
0
0
SPLINE
5
D0
100
AcDbEntity
8
1
62
256
6
ByLayer
370
18
48
1
60
0
100
AcDbSpline
70
4
71
3
72
10
73
6
40
0
40
0
40
0
40
0
40
0.479736826302635
40
0.479736826302635
40
1
40
1
40
1
40
1
41
1
10
13.3472587066235
20
0.154762063700161
30
0
41
1
10
13.2634717620859
20
0.138996559231344
30
0
41
1
10
13.1831344436618
20
0.110049780879223
30
0
41
1
10
13.0347803935531
20
0.0311263054825304
30
0
41
1
10
12.9658766441957
20
-0.0214561846026413
30
0
41
1
10
12.9078822958328
20
-0.0810826280887795
30
0
0
SPLINE
5
D1
100
AcDbEntity
8
1
62
256
6
ByLayer
370
18
48
1
60
0
100
AcDbSpline
70
4
71
3
72
14
73
10
40
0
40
0
40
0
40
0
40
0.281038222380411
40
0.281038222380411
40
0.564557857067072
40
0.564557857067072
40
0.8207001961301
40
0.8207001961301
40
1
40
1
40
1
40
1
41
1
10
14.0921177041672
20
-0.0810826280887795
30
0
41
1
10
14.1186993754268
20
-0.108412369069981
30
0
41
1
10
14.150956030905
20
-0.131865524535925
30
0
41
1
10
14.222764805511
20
-0.16607486042696
30
0
41
1
10
14.2635279239202
20
-0.177184759044877
30
0
41
1
10
14.3428270852508
20
-0.182848685574243
30
0
41
1
10
14.3824075126984
20
-0.178911725643104
30
0
41
1
10
14.4460823269878
20
-0.160615434645678
30
0
41
1
10
14.4718293672142
20
-0.149603298463433
30
0
41
1
10
14.4955768895952
20
-0.135681058339799
30
0
0
SPLINE
5
D2
100
AcDbEntity
8
1
62
256
6
ByLayer
370
18
48
1
60
0
100
AcDbSpline
70
4
71
3
72
14
73
10
40
0
40
0
40
0
40
0
40
0.285014780844608
40
0.285014780844608
40
0.572350605982616
40
0.572350605982616
40
0.832166772861833
40
0.832166772861833
40
1
40
1
40
1
40
1
41
1
10
14.6474510335849
20
2.89065233797856
30
0
41
1
10
14.6572544616642
20
2.92726918943276
30
0
41
1
10
14.6608991991341
20
2.96677139209439
30
0
41
1
10
14.653693991241
20
3.04555123875113
30
0
41
1
10
14.6425429113445
20
3.08604024825854
30
0
41
1
10
14.6072987491109
20
3.15677464152498
30
0
41
1
10
14.5839525870207
20
3.18866793530438
30
0
41
1
10
14.5377550838958
20
3.23254143751316
30
0
41
1
10
14.5173258483134
20
3.24793049763463
30
0
41
1
10
14.4955768895952
20
3.26068105833977
30
0
0
SPLINE
5
D3
100
AcDbEntity
8
1
62
256
6
ByLayer
370
18
48
1
60
0
100
AcDbSpline
70
4
71
3
72
10
73
6
40
0
40
0
40
0
40
0
40
0.541781546917777
40
0.541781546917777
40
1
40
1
40
1
40
1
41
1
10
14.0921177041672
20
-0.0810826280887795
30
0
41
1
10
14.0317893524551
20
-0.0190564969998945
30
0
41
1
10
13.9595938121995
20
0.035382322315229
30
0
41
1
10
13.8098326867734
20
0.112577704758763
30
0
41
1
10
13.7328667479517
20
0.139685511868095
30
0
41
1
10
13.6527412933765
20
0.154762063700161
30
0
0
SPLINE
5
D4
100
AcDbEntity
8
1
62
256
6
ByLayer
370
18
48
1
60
0
100
AcDbSpline
70
4
71
3
72
14
73
10
40
0
40
0
40
0
40
0
40
0.285013984727066
40
0.285013984727066
40
0.572349910643093
40
0.572349910643093
40
0.832166158509312
40
0.832166158509312
40
1
40
1
40
1
40
1
41
1
10
11.7739045598557
20
1.88066196954682
30
0
41
1
10
11.7373579966691
20
1.87060007468034
30
0
41
1
10
11.701437086312
20
1.85376597586864
30
0
41
1
10
11.6371195715909
20
1.80770710212499
30
0
41
1
10
11.607830273487
20
1.77760985396912
30
0
41
1
10
11.5646340967007
20
1.71143131773155
30
0
41
1
10
11.5489278435386
20
1.67516094593427
30
0
41
1
10
11.5344436518232
20
1.61311810151744
30
0
41
1
10
11.5315
20
1.58771108166579
30
0
41
1
10
11.5315
20
1.5625
30
0
0
SPLINE
5
D5
100
AcDbEntity
8
1
62
256
6
ByLayer
370
18
48
1
60
0
100
AcDbSpline
70
4
71
3
72
18
73
14
40
0
40
0
40
0
40
0
40
0.213081026856106
40
0.213081026856106
40
0.38716075070475
40
0.38716075070475
40
0.562948851464635
40
0.562948851464635
40
0.715638295683691
40
0.715638295683691
40
0.919170771668917
40
0.919170771668917
40
1
40
1
40
1
40
1
41
1
10
15.2260954401443
20
1.24433803045315
30
0
41
1
10
15.1437040264742
20
1.22165426295314
30
0
41
1
10
15.0621171389576
20
1.18522748697345
30
0
41
1
10
14.9256662182536
20
1.09422694409622
30
0
41
1
10
14.8672150493795
20
1.04300848326639
30
0
41
1
10
14.7661041429076
20
0.924423912113895
30
0
41
1
10
14.7222813842307
20
0.854995510300682
30
0
41
1
10
14.6623456109347
20
0.719875513593422
30
0
41
1
10
14.6425367132623
20
0.653327392639596
30
0
41
1
10
14.6163534643372
20
0.501027736078811
30
0
41
1
10
14.6158957320857
20
0.41365409633201
30
0
41
1
10
14.6323120448847
20
0.298444883148221
30
0
41
1
10
14.6389765921737
20
0.266000606256853
30
0
41
1
10
14.6474510335849
20
0.234347662021406
30
0
0
SPLINE
5
D6
100
AcDbEntity
8
1
62
256
6
ByLayer
370
18
48
1
60
0
100
AcDbSpline
70
4
71
3
72
10
73
6
40
0
40
0
40
0
40
0
40
0.541781546918586
40
0.541781546918586
40
1
40
1
40
1
40
1
41
1
10
12.9078822958328
20
3.20608262808875
30
0
41
1
10
12.9682106475449
20
3.14405649699987
30
0
41
1
10
13.0404061878005
20
3.08961767768474
30
0
41
1
10
13.1901673132266
20
3.01242229524124
30
0
41
1
10
13.2671332520483
20
2.98531448813188
30
0
41
1
10
13.3472587066235
20
2.97023793629981
30
0
0
SPLINE
5
D7
100
AcDbEntity
8
1
62
256
6
ByLayer
370
18
48
1
60
0
100
AcDbSpline
70
4
71
3
72
18
73
14
40
0
40
0
40
0
40
0
40
0.213081262000623
40
0.213081262000623
40
0.387160943926351
40
0.387160943926351
40
0.562948999942016
40
0.562948999942016
40
0.715638435810392
40
0.715638435810392
40
0.919170953808152
40
0.919170953808152
40
1
40
1
40
1
40
1
41
1
10
12.3525489664151
20
0.234347662021406
30
0
41
1
10
12.3746500033365
20
0.316897396602457
30
0
41
1
10
12.3844883336915
20
0.405703682812231
30
0
41
1
10
12.374994737467
20
0.56944083530027
30
0
41
1
10
12.3603716058447
20
0.645769282500481
30
0
41
1
10
12.309208556408
20
0.792969990808331
30
0
41
1
10
12.2714777490042
20
0.865888575010757
30
0
41
1
10
12.185225487492
20
0.985931275805058
30
0
41
1
10
12.1378343307496
20
1.03667693660864
30
0
41
1
10
12.0196910694911
20
1.13629079099721
30
0
41
1
10
11.9445472559935
20
1.18087522828731
30
0
41
1
10
11.8368562665044
20
1.22498071617818
30
0
41
1
10
11.8054967608598
20
1.23564015636083
30
0
41
1
10
11.7739045598557
20
1.24433803045315
30
0
0
SPLINE
5
D8
100
AcDbEntity
8
1
62
256
6
ByLayer
370
18
48
1
60
0
100
AcDbSpline
70
4
71
3
72
16
73
12
40
0
40
0
40
0
40
0
40
0.0517235387678943
40
0.0517235387678943
40
0.275098677522045
40
0.275098677522045
40
0.500660612380081
40
0.500660612380081
40
0.74039991160262
40
0.74039991160262
40
1
40
1
40
1
40
1
41
1
10
14.4955768895952
20
-0.135681058339799
30
0
41
1
10
14.5023126525051
20
-0.13173214496922
30
0
41
1
10
14.5089132100843
20
-0.127540684688
30
0
41
1
10
14.5429215049886
20
-0.104212298583491
30
0
41
1
10
14.567814066225
20
-0.0807779414416814
30
0
41
1
10
14.6087337148404
20
-0.0286970908180706
30
0
41
1
10
14.6252135093438
20
0.0006448902959448
30
0
41
1
10
14.6490799914639
20
0.062855772662374
30
0
41
1
10
14.6561625753256
20
0.0965961489702352
30
0
41
1
10
14.6602113511054
20
0.165312792381513
30
0
41
1
10
14.6563795299008
20
0.200998774196933
30
0
41
1
10
14.6474510335849
20
0.234347662021406
30
0
0
SPLINE
5
D9
100
AcDbEntity
8
1
62
256
6
ByLayer
370
18
48
1
60
0
100
AcDbSpline
70
4
71
3
72
16
73
12
40
0
40
0
40
0
40
0
40
0.066077751410916
40
0.066077751410916
40
0.289232858199909
40
0.289232858199909
40
0.51540912960732
40
0.51540912960732
40
0.756439127791419
40
0.756439127791419
40
1
40
1
40
1
40
1
41
1
10
15.4685
20
1.5625
30
0
41
1
10
15.4685
20
1.57245860674411
30
0
41
1
10
15.4680478629073
20
1.58242969629171
30
0
41
1
10
15.464129393051
20
1.62558915149882
30
0
41
1
10
15.4558767148613
20
1.65868433245487
30
0
41
1
10
15.4305022667635
20
1.71980625649897
30
0
41
1
10
15.4129646817672
20
1.74854571425422
30
0
41
1
10
15.3703125238603
20
1.79987829858388
30
0
41
1
10
15.3442704937158
20
1.82260950260434
30
0
41
1
10
15.2881096630201
20
1.8585425393677
30
0
41
1
10
15.257361712608
20
1.87205382916466
30
0
41
1
10
15.2260954401444
20
1.88066196954682
30
0
0
SPLINE
5
DA
100
AcDbEntity
8
1
62
256
6
ByLayer
370
18
48
1
60
0
100
AcDbSpline
70
4
71
3
72
10
73
6
40
0
40
0
40
0
40
0
40
0.479736826236772
40
0.479736826236772
40
1
40
1
40
1
40
1
41
1
10
13.6527412933765
20
2.97023793629981
30
0
41
1
10
13.7365282379028
20
2.9860034407665
30
0
41
1
10
13.8168655563164
20
3.01495021911282
30
0
41
1
10
13.9652196064295
20
3.0938736945042
30
0
41
1
10
14.034123355797
20
3.14645618459517
30
0
41
1
10
14.0921177041672
20
3.20608262808875
30
0
0
SPLINE
5
DB
100
AcDbEntity
8
1
62
256
6
ByLayer
370
18
48
1
60
0
100
AcDbSpline
70
4
71
3
72
16
73
12
40
0
40
0
40
0
40
0
40
0.0517235387678664
40
0.0517235387678664
40
0.275098677522024
40
0.275098677522024
40
0.500660612380066
40
0.500660612380066
40
0.740399911602614
40
0.740399911602614
40
1
40
1
40
1
40
1
41
1
10
12.5044231104048
20
3.26068105833977
30
0
41
1
10
12.4976873474949
20
3.25673214496919
30
0
41
1
10
12.4910867899156
20
3.25254068468797
30
0
41
1
10
12.4570784950114
20
3.22921229858349
30
0
41
1
10
12.432185933775
20
3.20577794144168
30
0
41
1
10
12.3912662851596
20
3.15369709081804
30
0
41
1
10
12.3747864906562
20
3.12435510970403
30
0
41
1
10
12.3509200085361
20
3.06214422733763
30
0
41
1
10
12.3438374246744
20
3.02840385102974
30
0
41
1
10
12.3397886488946
20
2.95968720761846
30
0
41
1
10
12.3436204700992
20
2.92400122580304
30
0
41
1
10
12.3525489664151
20
2.89065233797856
30
0
0
LINE
5
73
100
AcDbEntity
8
80
62
256
6
ByLayer
370
18
48
1
60
0
100
AcDbLine
10
0
20
0
30
0
11
-5
21
0
31
0
39
0
210
0
220
0
230
1
0
LINE
5
74
100
AcDbEntity
8
81
62
256
6
ByLayer
370
18
48
1
60
0
100
AcDbLine
10
32
20
-6.9375
30
0
11
37
21
-6.9375
31
0
39
0
210
0
220
0
230
1
0
LINE
5
75
100
AcDbEntity
8
1
62
256
6
ByLayer
370
18
48
1
60
0
100
AcDbLine
10
2.382343
20
6.095334
30
0
11
18.5
21
6.095334
31
0
39
0
210
0
220
0
230
1
0
LINE
5
77
100
AcDbEntity
8
1
62
256
6
ByLayer
370
18
48
1
60
0
100
AcDbLine
10
0.580385
20
-6.6125
30
0
11
0.5
21
-6.3125
31
0
39
0
210
0
220
0
230
1
0
LINE
5
78
100
AcDbEntity
8
1
62
256
6
ByLayer
370
18
48
1
60
0
100
AcDbLine
10
18.5
20
-2.6625
30
0
11
16.624045
21
-2.6625
31
0
39
0
210
0
220
0
230
1
0
LINE
5
79
100
AcDbEntity
8
1
62
256
6
ByLayer
370
18
48
1
60
0
100
AcDbLine
10
16.624045
20
-2.6625
30
0
11
16.624045
21
-6.6125
31
0
39
0
210
0
220
0
230
1
0
LINE
5
7A
100
AcDbEntity
8
1
62
256
6
ByLayer
370
18
48
1
60
0
100
AcDbLine
10
0.580385
20
-6.6125
30
0
11
2.382343
21
-6.6125
31
0
39
0
210
0
220
0
230
1
0
LINE
5
7B
100
AcDbEntity
8
1
62
256
6
ByLayer
370
18
48
1
60
0
100
AcDbLine
10
0.5
20
6.064682
30
0
11
0
21
6.0625
31
0
39
0
210
0
220
0
230
1
0
LINE
5
7C
100
AcDbEntity
8
1
62
256
6
ByLayer
370
18
48
1
60
0
100
AcDbLine
10
25.090908
20
-6.6125
30
0
11
25.900012
21
-6.6125
31
0
39
0
210
0
220
0
230
1
0
LINE
5
7D
100
AcDbEntity
8
1
62
256
6
ByLayer
370
18
48
1
60
0
100
AcDbLine
10
16.624045
20
-6.6125
30
0
11
25.090933
21
-6.6125
31
0
39
0
210
0
220
0
230
1
0
LINE
5
7E
100
AcDbEntity
8
1
62
256
6
ByLayer
370
18
48
1
60
0
100
AcDbLine
10
25.900011
20
-4.287503
30
0
11
25.900012
21
-4.2625
31
0
39
0
210
0
220
0
230
1
0
LINE
5
7F
100
AcDbEntity
8
1
62
256
6
ByLayer
370
18
48
1
60
0
100
AcDbLine
10
2.382343
20
-6.6125
30
0
11
2.382343
21
6.095334
31
0
39
0
210
0
220
0
230
1
0
LINE
5
80
100
AcDbEntity
8
1
62
256
6
ByLayer
370
18
48
1
60
0
100
AcDbLine
10
18.5
20
-2.6625
30
0
11
18.5
21
6.095334
31
0
39
0
210
0
220
0
230
1
0
LINE
5
81
100
AcDbEntity
8
1
62
256
6
ByLayer
370
18
48
1
60
0
100
AcDbLine
10
25.900012
20
-6.6125
30
0
11
25.900011
21
-6.587497
31
0
39
0
210
0
220
0
230
1
0
LINE
5
82
100
AcDbEntity
8
1
62
256
6
ByLayer
370
18
48
1
60
0
100
AcDbLine
10
0.5
20
6.064682
30
0
11
2.382343
21
6.095334
31
0
39
0
210
0
220
0
230
1
0
LINE
5
83
100
AcDbEntity
8
1
62
256
6
ByLayer
370
18
48
1
60
0
100
AcDbLine
10
16.624045
20
-6.6125
30
0
11
2.382343
21
-6.6125
31
0
39
0
210
0
220
0
230
1
0
LINE
5
84
100
AcDbEntity
8
1
62
256
6
ByLayer
370
18
48
1
60
0
100
AcDbLine
10
20.1
20
-4.2625
30
0
11
25.090933
21
-4.2625
31
0
39
0
210
0
220
0
230
1
0
LINE
5
85
100
AcDbEntity
8
1
62
256
6
ByLayer
370
18
48
1
60
0
100
AcDbLine
10
25.090908
20
-4.2625
30
0
11
25.900012
21
-4.2625
31
0
39
0
210
0
220
0
230
1
0
LINE
5
86
100
AcDbEntity
8
1
62
256
6
ByLayer
370
18
48
1
60
0
100
AcDbLine
10
0
20
-5.8125
30
0
11
0
21
6.0625
31
0
39
0
210
0
220
0
230
1
0
LINE
5
87
100
AcDbEntity
8
1
62
256
6
ByLayer
370
18
48
1
60
0
100
AcDbLine
10
25.900012
20
-6.6125
30
0
11
28.186377
21
-6.6125
31
0
39
0
210
0
220
0
230
1
0
LINE
5
88
100
AcDbEntity
8
1
62
256
6
ByLayer
370
18
48
1
60
0
100
AcDbLine
10
25.900012
20
-4.2625
30
0
11
28.186377
21
-4.2625
31
0
39
0
210
0
220
0
230
1
0
LINE
5
89
100
AcDbEntity
8
1
62
256
6
ByLayer
370
18
48
1
60
0
100
AcDbLine
10
0.5
20
-6.3125
30
0
11
0.5
21
6.064682
31
0
39
0
210
0
220
0
230
1
0
LINE
5
8A
100
AcDbEntity
8
1
62
256
6
ByLayer
370
18
48
1
60
0
100
AcDbLine
10
0.5
20
-6.3125
30
0
11
0
21
-5.8125
31
0
39
0
210
0
220
0
230
1
0
LINE
5
8B
100
AcDbEntity
8
SK1
62
256
6
ByLayer
370
18
48
1
60
0
100
AcDbLine
10
-94.35
20
-5.8125
30
0
11
-94.35
21
6.0625
31
0
39
0
210
0
220
0
230
1
0
LINE
5
8D
100
AcDbEntity
8
1
62
256
6
ByLayer
370
18
48
1
60
0
100
AcDbLine
10
12
20
-6.7375
30
0
11
12
21
-6.612497
31
0
39
0
210
0
220
0
230
1
0
LINE
5
8E
100
AcDbEntity
8
1
62
256
6
ByLayer
370
18
48
1
60
0
100
AcDbLine
10
25.177429
20
-6.413949
30
0
11
26.018406
21
-6.413949
31
0
39
0
210
0
220
0
230
1
0
LINE
5
8F
100
AcDbEntity
8
1
62
256
6
ByLayer
370
18
48
1
60
0
100
AcDbLine
10
26.018406
20
-4.2875
30
0
11
25.101707
21
-4.2875
31
0
39
0
210
0
220
0
230
1
0
LINE
5
90
100
AcDbEntity
8
1
62
256
6
ByLayer
370
18
48
1
60
0
100
AcDbLine
10
28.143008
20
-4.2875
30
0
11
28.5
21
-4.081391
31
0
39
0
210
0
220
0
230
1
0
LINE
5
91
100
AcDbEntity
8
1
62
256
6
ByLayer
370
18
48
1
60
0
100
AcDbLine
10
26.018406
20
-6.5875
30
0
11
27.2
21
-6.5875
31
0
39
0
210
0
220
0
230
1
0
LINE
5
92
100
AcDbEntity
8
1
62
256
6
ByLayer
370
18
48
1
60
0
100
AcDbLine
10
25.436305
20
-5.26649
30
0
11
26.301935
21
-5.26649
31
0
39
0
210
0
220
0
230
1
0
LINE
5
93
100
AcDbEntity
8
1
62
256
6
ByLayer
370
18
48
1
60
0
100
AcDbLine
10
15.81369
20
-6.6125
30
0
11
15.5
21
-6.793609
31
0
39
0
210
0
220
0
230
1
0
LINE
5
94
100
AcDbEntity
8
1
62
256
6
ByLayer
370
18
48
1
60
0
100
AcDbLine
10
32
20
-6.7375
30
0
11
32
21
-4.1375
31
0
39
0
210
0
220
0
230
1
0
LINE
5
95
100
AcDbEntity
8
1
62
256
6
ByLayer
370
18
48
1
60
0
100
AcDbLine
10
31.791276
20
-3.93769
30
0
11
28.5
21
-4.081391
31
0
39
0
210
0
220
0
230
1
0
LINE
5
96
100
AcDbEntity
8
1
62
256
6
ByLayer
370
18
48
1
60
0
100
AcDbLine
10
12.208724
20
-6.93731
30
0
11
15.5
21
-6.793609
31
0
39
0
210
0
220
0
230
1
0
LINE
5
97
100
AcDbEntity
8
1
62
256
6
ByLayer
370
18
48
1
60
0
100
AcDbLine
10
26.027452
20
-6.362646
30
0
11
26.301935
21
-5.60851
31
0
39
0
210
0
220
0
230
1
0
LINE
5
98
100
AcDbEntity
8
1
62
256
6
ByLayer
370
18
48
1
60
0
100
AcDbLine
10
25.199811
20
-6.362646
30
0
11
26.027452
21
-6.362646
31
0
39
0
210
0
220
0
230
1
0
LINE
5
99
100
AcDbEntity
8
1
62
256
6
ByLayer
370
18
48
1
60
0
100
AcDbLine
10
26.018406
20
-6.5875
30
0
11
25.101707
21
-6.5875
31
0
39
0
210
0
220
0
230
1
0
LINE
5
9A
100
AcDbEntity
8
1
62
256
6
ByLayer
370
18
48
1
60
0
100
AcDbLine
10
27.2
20
-6.5875
30
0
11
28.143008
21
-6.5875
31
0
39
0
210
0
220
0
230
1
0
LINE
5
9B
100
AcDbEntity
8
1
62
256
6
ByLayer
370
18
48
1
60
0
100
AcDbLine
10
25.438725
20
-5.60851
30
0
11
26.301935
21
-5.60851
31
0
39
0
210
0
220
0
230
1
0
LINE
5
9C
100
AcDbEntity
8
1
62
256
6
ByLayer
370
18
48
1
60
0
100
AcDbLine
10
26.018406
20
-6.413949
30
0
11
26.018406
21
-6.5875
31
0
39
0
210
0
220
0
230
1
0
LINE
5
9D
100
AcDbEntity
8
1
62
256
6
ByLayer
370
18
48
1
60
0
100
AcDbLine
10
28.143008
20
-6.5875
30
0
11
28.5
21
-6.793609
31
0
39
0
210
0
220
0
230
1
0
LINE
5
9E
100
AcDbEntity
8
1
62
256
6
ByLayer
370
18
48
1
60
0
100
AcDbLine
10
31.791276
20
-6.93731
30
0
11
28.5
21
-6.793609
31
0
39
0
210
0
220
0
230
1
0
LINE
5
9F
100
AcDbEntity
8
1
62
256
6
ByLayer
370
18
48
1
60
0
100
AcDbLine
10
25.177429
20
-4.461051
30
0
11
26.018406
21
-4.461051
31
0
39
0
210
0
220
0
230
1
0
LINE
5
A0
100
AcDbEntity
8
1
62
256
6
ByLayer
370
18
48
1
60
0
100
AcDbLine
10
27.2
20
-4.2875
30
0
11
27.2
21
-6.5875
31
0
39
0
210
0
220
0
230
1
0
LINE
5
A1
100
AcDbEntity
8
1
62
256
6
ByLayer
370
18
48
1
60
0
100
AcDbLine
10
26.018406
20
-4.2875
30
0
11
27.2
21
-4.2875
31
0
39
0
210
0
220
0
230
1
0
LINE
5
A2
100
AcDbEntity
8
1
62
256
6
ByLayer
370
18
48
1
60
0
100
AcDbLine
10
26.018406
20
-4.461051
30
0
11
26.018406
21
-4.2875
31
0
39
0
210
0
220
0
230
1
0
LINE
5
A3
100
AcDbEntity
8
1
62
256
6
ByLayer
370
18
48
1
60
0
100
AcDbLine
10
26.027452
20
-4.512354
30
0
11
26.301935
21
-5.26649
31
0
39
0
210
0
220
0
230
1
0
LINE
5
A4
100
AcDbEntity
8
1
62
256
6
ByLayer
370
18
48
1
60
0
100
AcDbLine
10
25.199811
20
-4.512354
30
0
11
26.027452
21
-4.512354
31
0
39
0
210
0
220
0
230
1
0
LINE
5
A5
100
AcDbEntity
8
1
62
256
6
ByLayer
370
18
48
1
60
0
100
AcDbLine
10
27.2
20
-4.2875
30
0
11
28.143008
21
-4.2875
31
0
39
0
210
0
220
0
230
1
0
LINE
5
A6
100
AcDbEntity
8
SK1
62
256
6
ByLayer
370
18
48
1
60
0
100
AcDbLine
10
0
20
-5.8125
30
0
11
0
21
6.0625
31
0
39
0
210
0
220
0
230
1
0
LINE
5
A7
100
AcDbEntity
8
SK1
62
256
6
ByLayer
370
18
48
1
60
0
100
AcDbLine
10
0
20
-5.8125
30
0
11
-94.35
21
-5.8125
31
0
39
0
210
0
220
0
230
1
0
LINE
5
A8
100
AcDbEntity
8
SK1
62
256
6
ByLayer
370
18
48
1
60
0
100
AcDbLine
10
-94.35
20
6.0625
30
0
11
0
21
6.0625
31
0
39
0
210
0
220
0
230
1
0
MTEXT
5
DC
100
AcDbEntity
8
SK6
62
256
6
ByLayer
370
18
48
1
60
0
100
AcDbMText
10
-60.299987
20
-17.796083
30
0
210
0
220
0
230
1
1
\W0.7020;LF123G12-1212B
40
3.5
41
0
44
1.084337
50
0
71
7
72
5
7
iso_b_vert
0
DIMENSION
5
ED
100
AcDbEntity
8
2
62
256
6
ByLayer
370
13
48
1
60
0
100
AcDbDimension
2
DimnDraft3D1
10
46.25
20
-3.9375
30
0
11
46.25
21
0.5625
31
0
70
32
71
5
72
1
41
1
210
0
220
0
230
1
3
Standard
100
AcDbAlignedDimension
13
33.5
23
-6.9375
33
0
14
33.5
24
-3.9375
34
0
50
90
100
AcDbRotatedDimension
1001
ACAD
1000
DSTYLE
1002
{
1070
    74
1070
     0
1070
   279
1070
     0
1070
   172
1070
     1
1070
   173
1070
     1
1070
   340
1005
DD
1070
   271
1070
     3
1070
   272
1070
     3
1070
    77
1070
     1
1070
    73
1070
     0
1070
   171
1070
     4
1070
   274
1070
     4
1070
   177
1070
     2
1070
   176
1070
     2
1070
   178
1070
     7
1070
    78
1070
     8
1070
    41
1041
3.0
1070
   147
1041
2.25
1070
    42
1041
1.5
1070
    44
1041
3.0
1070
   140
1041
4.5
1070
   343
1005
EE
1070
   344
1005
EE
1002
}
0
DIMENSION
5
102
100
AcDbEntity
8
2
62
256
6
ByLayer
370
13
48
1
60
0
100
AcDbDimension
2
DimnDraft3D2
10
56.25
20
5.9375
30
0
11
56.25
21
-2.625658
31
0
70
32
71
5
72
1
41
1
210
0
220
0
230
1
3
Standard
100
AcDbAlignedDimension
13
33.5
23
-6.9375
33
0
14
1.5
24
5.9375
34
0
50
90
100
AcDbRotatedDimension
1001
ACAD
1000
DSTYLE
1002
{
1070
    74
1070
     0
1070
   279
1070
     0
1070
   172
1070
     1
1070
   173
1070
     1
1070
   340
1005
DD
1070
   271
1070
     3
1070
   272
1070
     3
1070
    77
1070
     1
1070
    73
1070
     0
1070
   171
1070
     4
1070
   274
1070
     4
1070
   177
1070
     2
1070
   176
1070
     2
1070
   178
1070
     7
1070
    78
1070
     8
1070
    41
1041
3.0
1070
   147
1041
2.25
1070
    42
1041
1.5
1070
    44
1041
3.0
1070
   140
1041
4.5
1070
   343
1005
EE
1070
   344
1005
EE
1002
}
0
DIMENSION
5
111
100
AcDbEntity
8
SK2
62
256
6
ByLayer
370
13
48
1
60
0
100
AcDbDimension
2
DimnDraft3D3
10
-104.1
20
-5.9375
30
0
11
-104.1
21
-2.125658
31
0
70
32
71
5
72
1
41
1
210
0
220
0
230
1
3
Standard
100
AcDbAlignedDimension
13
-95.85
23
5.9375
33
0
14
-95.85
24
-5.9375
34
0
50
90
100
AcDbRotatedDimension
1001
ACAD
1000
DSTYLE
1002
{
1070
    74
1070
     0
1070
   279
1070
     0
1070
   172
1070
     1
1070
   173
1070
     1
1070
   340
1005
DD
1070
   271
1070
     3
1070
   272
1070
     3
1070
    77
1070
     1
1070
    73
1070
     0
1070
   171
1070
     4
1070
   274
1070
     4
1070
   177
1070
     2
1070
   176
1070
     2
1070
   178
1070
     7
1070
    78
1070
     8
1070
    41
1041
3.0
1070
   147
1041
2.25
1070
    42
1041
1.5
1070
    44
1041
3.0
1070
   140
1041
4.5
1070
   343
1005
EE
1070
   344
1005
EE
1002
}
0
DIMENSION
5
11F
100
AcDbEntity
8
2
62
256
6
ByLayer
370
13
48
1
60
0
100
AcDbDimension
2
DimnDraft3D4
10
20
20
-20.1875
30
0
11
23.874342
21
-20.1875
31
0
70
32
71
5
72
1
41
1
210
0
220
0
230
1
3
Standard
100
AcDbAlignedDimension
13
32
23
-6.9375
33
0
14
20
24
-4.5625
34
0
50
0
100
AcDbRotatedDimension
1001
ACAD
1000
DSTYLE
1002
{
1070
   279
1070
     0
1070
   172
1070
     1
1070
   173
1070
     1
1070
   340
1005
DD
1070
   271
1070
     3
1070
   272
1070
     3
1070
    77
1070
     1
1070
    73
1070
     0
1070
   171
1070
     4
1070
   274
1070
     4
1070
   177
1070
     2
1070
   176
1070
     2
1070
   178
1070
     7
1070
    78
1070
     8
1070
    41
1041
3.0
1070
   147
1041
2.25
1070
    42
1041
1.5
1070
    44
1041
3.0
1070
   140
1041
4.5
1070
   343
1005
EE
1070
   344
1005
EE
1002
}
0
DIMENSION
5
12D
100
AcDbEntity
8
2
62
256
6
ByLayer
370
13
48
1
60
0
100
AcDbDimension
2
DimnDraft3D5
10
0
20
16.8125
30
0
11
13.311842
21
16.8125
31
0
70
32
71
5
72
1
41
1
210
0
220
0
230
1
3
Standard
100
AcDbAlignedDimension
13
32
23
-2.4375
33
0
14
0
24
7.4375
34
0
50
0
100
AcDbRotatedDimension
1001
ACAD
1000
DSTYLE
1002
{
1070
   279
1070
     0
1070
   172
1070
     1
1070
   173
1070
     1
1070
   340
1005
DD
1070
   271
1070
     3
1070
   272
1070
     3
1070
    77
1070
     1
1070
    73
1070
     0
1070
   171
1070
     4
1070
   274
1070
     4
1070
   177
1070
     2
1070
   176
1070
     2
1070
   178
1070
     7
1070
    78
1070
     8
1070
    41
1041
3.0
1070
   147
1041
2.25
1070
    42
1041
1.5
1070
    44
1041
3.0
1070
   140
1041
4.5
1070
   343
1005
EE
1070
   344
1005
EE
1002
}
0
DIMENSION
5
13B
100
AcDbEntity
8
SK2
62
256
6
ByLayer
370
13
48
1
60
0
100
AcDbDimension
2
DimnDraft3D6
10
-94.35
20
26.8125
30
0
11
-34.982237
21
26.8125
31
0
70
32
71
5
72
1
41
1
210
0
220
0
230
1
3
Standard
100
AcDbAlignedDimension
13
32
23
-2.4375
33
0
14
-94.35
24
7.4375
34
0
50
0
100
AcDbRotatedDimension
1001
ACAD
1000
DSTYLE
1002
{
1070
   279
1070
     0
1070
   172
1070
     1
1070
   173
1070
     1
1070
   340
1005
DD
1070
   271
1070
     3
1070
   272
1070
     3
1070
    77
1070
     1
1070
    73
1070
     0
1070
   171
1070
     4
1070
   274
1070
     4
1070
   177
1070
     2
1070
   176
1070
     2
1070
   178
1070
     7
1070
    78
1070
     8
1070
    41
1041
3.0
1070
   147
1041
2.25
1070
    42
1041
1.5
1070
    44
1041
3.0
1070
   140
1041
4.5
1070
   343
1005
EE
1070
   344
1005
EE
1002
}
0
ENDSEC
0
SECTION
2
OBJECTS
0
DICTIONARY
5
1a5
330
0
100
AcDbDictionary
280
0
281
1
3
ACAD_GROUP
350
1a6
3
ACAD_MLINESTYLE
350
1a7
0
DICTIONARY
5
1a6
330
0
100
AcDbDictionary
280
0
281
1
0
DICTIONARY
5
1a7
330
0
100
AcDbDictionary
280
0
281
1
3
Standard
350
18
0
MLINESTYLE
5
18
330
1a7
100
AcDbMlineStyle
2
Standard
70
0
3

62
256
51
90
52
90
71
2
49
-0.5
62
256
6
ByLayer
49
0.5
62
256
6
ByLayer
0
RASTERVARIABLES
5
194
330

100
AcDbRasterVariables
90
0
70
1
71
1
72
1
0
ENDSEC
0
EOF
