0
SECTION
2
HEADER
9
$ACADVER
1
AC1015
9
$DWGCODEPAGE
3
ANSI_1252
9
$HANDSEED
5
1b3
9
$ANGBASE
50
0
9
$ANGDIR
70
0
9
$ATTMODE
70
1
9
$AUNITS
70
0
9
$AUPREC
70
0
9
$CECOLOR
62
256
9
$CELTSCALE
40
1
9
$CELTYPE
6
ByLayer
9
$CELWEIGHT
370
18
9
$CLAYER
8
0
9
$CMLJUST
70
0
9
$CMLSCALE
40
1
9
$CMLSTYLE
2
Standard
9
$DIMSTYLE
2
Standard
9
$TEXTSIZE
40
0.2
9
$TEXTSTYLE
7
Standard
9
$LUNITS
70
2
9
$LUPREC
70
4
9
$EXTNAMES
290
1
9
$INSUNITS
70
4
9
$LTSCALE
40
1
9
$LWDISPLAY
290
1
9
$PDMODE
70
0
9
$PDSIZE
40
0
9
$PLINEGEN
70
0
0
ENDSEC
0
SECTION
2
CLASSES
0
CLASS
1
RASTERVARIABLES
2
AcDbRasterVariables
3
ISM
90
0
280
0
281
0
0
ENDSEC
0
SECTION
2
TABLES
0
TABLE
2
VPORT
5
1a9
100
AcDbSymbolTable
0
VPORT
5
1
100
AcDbSymbolTableRecord
100
AcDbViewportTableRecord
2
*Active
70
0
10
0
20
0
11
1
21
1
12
-1
22
1
13
0
23
0
14
0.5
24
0.5
15
10
25
10
16
0
26
0
36
1
17
0
27
0
37
0
0
ENDTAB
0
TABLE
2
LTYPE
5
1aa
100
AcDbSymbolTable
0
LTYPE
5
14
100
AcDbSymbolTableRecord
100
AcDbLinetypeTableRecord
70
0
2
ByBlock
3

72
65
73
0
40
0
0
LTYPE
5
15
100
AcDbSymbolTableRecord
100
AcDbLinetypeTableRecord
70
0
2
ByLayer
3

72
65
73
0
40
0
0
LTYPE
5
16
100
AcDbSymbolTableRecord
100
AcDbLinetypeTableRecord
70
0
2
CONTINUOUS
3
Solid line
72
65
73
0
40
0
0
LTYPE
5
6A
100
AcDbSymbolTableRecord
100
AcDbLinetypeTableRecord
70
0
2
CENTER
3
____ _ ____ _ ____ _ ____
72
65
73
4
40
47.5
49
22
74
0
49
-8.5
74
0
49
8.5
74
0
49
-8.5
74
0
0
LTYPE
5
6B
100
AcDbSymbolTableRecord
100
AcDbLinetypeTableRecord
70
0
2
DASHED
3
__ __ __ __ __ __ __ __ __
72
65
73
2
40
25.72
49
12.86
74
0
49
-12.86
74
0
0
ENDTAB
0
TABLE
2
LAYER
5
1ab
100
AcDbSymbolTable
0
LAYER
5
10
100
AcDbSymbolTableRecord
100
AcDbLayerTableRecord
2
0
70
0
62
7
6
CONTINUOUS
290
1
370
-3
390
0
0
LAYER
5
6D
100
AcDbSymbolTableRecord
100
AcDbLayerTableRecord
2
2
70
0
62
7
6
CONTINUOUS
290
1
370
-3
390
0
0
LAYER
5
6F
100
AcDbSymbolTableRecord
100
AcDbLayerTableRecord
2
80
70
0
62
-6
6
CONTINUOUS
290
1
370
-3
390
0
0
LAYER
5
72
100
AcDbSymbolTableRecord
100
AcDbLayerTableRecord
2
81
70
0
62
-3
6
CONTINUOUS
290
1
370
-3
390
0
0
LAYER
5
76
100
AcDbSymbolTableRecord
100
AcDbLayerTableRecord
2
1
70
0
62
4
6
CONTINUOUS
290
1
370
-3
390
0
0
LAYER
5
196
100
AcDbSymbolTableRecord
100
AcDbLayerTableRecord
2
SK1
70
0
62
4
6
CONTINUOUS
290
1
370
-3
390
0
0
LAYER
5
197
100
AcDbSymbolTableRecord
100
AcDbLayerTableRecord
2
SK6
70
0
62
5
6
CONTINUOUS
290
1
370
-3
390
0
0
LAYER
5
198
100
AcDbSymbolTableRecord
100
AcDbLayerTableRecord
2
SK2
70
0
62
7
6
CONTINUOUS
290
1
370
-3
390
0
0
ENDTAB
0
TABLE
2
STYLE
5
1ac
100
AcDbSymbolTable
0
STYLE
5
11
100
AcDbSymbolTableRecord
100
AcDbTextStyleTableRecord
2
Standard
3
txt
70
0
71
0
40
0
41
1
42
0
50
0
0
STYLE
5
DE
100
AcDbSymbolTableRecord
100
AcDbTextStyleTableRecord
2
iso_b_vert
3
simplex.shx
70
0
71
0
40
0
41
1
42
0
50
0
0
STYLE
5
DF
100
AcDbSymbolTableRecord
100
AcDbTextStyleTableRecord
2
DWGDirectTextStyle
3
simplex
70
0
71
0
40
0
41
1
42
0
50
0
0
ENDTAB
0
TABLE
2
DIMSTYLE
5
1ad
100
AcDbSymbolTable
100
AcDbDimStyleTable
0
DIMSTYLE
105
27
100
AcDbSymbolTableRecord
100
AcDbDimStyleTableRecord
2
Standard
70
0
3
<>
41
0.18
42
0.0625
44
0.18
140
0.18
147
0.09
73
0
74
0
77
1
271
2
275
0
278
52
280
0
340
11
0
ENDTAB
0
TABLE
2
VIEW
5
1ae
100
AcDbSymbolTable
0
ENDTAB
0
TABLE
2
UCS
5
1af
100
AcDbSymbolTable
0
ENDTAB
0
TABLE
2
APPID
5
1b0
100
AcDbSymbolTable
0
APPID
5
12
100
AcDbSymbolTableRecord
100
AcDbRegAppTableRecord
2
ACAD
70
0
0
ENDTAB
0
TABLE
2
BLOCK_RECORD
5
1b1
100
AcDbSymbolTable
0
BLOCK_RECORD
5
1F
100
AcDbSymbolTableRecord
100
AcDbBlockTableRecord
2
*Model_Space
340
0
70
0
0
BLOCK_RECORD
5
1B
100
AcDbSymbolTableRecord
100
AcDbBlockTableRecord
2
*Paper_Space
340
0
70
0
0
BLOCK_RECORD
5
23
100
AcDbSymbolTableRecord
100
AcDbBlockTableRecord
2
*Paper_Space0
340
0
70
0
0
BLOCK_RECORD
5
E1
100
AcDbSymbolTableRecord
100
AcDbBlockTableRecord
2
DimnDraft3D1
340
0
70
0
0
BLOCK_RECORD
5
EF
100
AcDbSymbolTableRecord
100
AcDbBlockTableRecord
2
_CLOSED
340
0
70
0
0
BLOCK_RECORD
5
F6
100
AcDbSymbolTableRecord
100
AcDbBlockTableRecord
2
DimnDraft3D2
340
0
70
0
0
BLOCK_RECORD
5
104
100
AcDbSymbolTableRecord
100
AcDbBlockTableRecord
2
DimnDraft3D3
340
0
70
0
0
BLOCK_RECORD
5
113
100
AcDbSymbolTableRecord
100
AcDbBlockTableRecord
2
DimnDraft3D4
340
0
70
0
0
BLOCK_RECORD
5
121
100
AcDbSymbolTableRecord
100
AcDbBlockTableRecord
2
DimnDraft3D5
340
0
70
0
0
BLOCK_RECORD
5
12F
100
AcDbSymbolTableRecord
100
AcDbBlockTableRecord
2
DimnDraft3D6
340
0
70
0
0
ENDTAB
0
ENDSEC
0
SECTION
2
BLOCKS
0
BLOCK
5
20
100
AcDbEntity
8
0
100
AcDbBlockBegin
2
*Model_Space
70
0
10
0
20
0
30
0
3
*Model_Space
0
ENDBLK
5
21
100
AcDbEntity
8
0
100
AcDbBlockEnd
0
BLOCK
5
1C
100
AcDbEntity
8
0
100
AcDbBlockBegin
2
*Paper_Space
70
0
10
0
20
0
30
0
3
*Paper_Space
0
ENDBLK
5
1D
100
AcDbEntity
8
0
100
AcDbBlockEnd
0
BLOCK
5
24
100
AcDbEntity
8
0
100
AcDbBlockBegin
2
*Paper_Space0
70
0
10
0
20
0
30
0
3
*Paper_Space0
0
ENDBLK
5
25
100
AcDbEntity
8
0
100
AcDbBlockEnd
0
BLOCK
5
EC
100
AcDbEntity
8
0
100
AcDbBlockBegin
2
DimnDraft3D1
70
0
10
0
20
0
30
0
3
DimnDraft3D1
0
MTEXT
5
E2
100
AcDbEntity
8
2
62
256
6
ByLayer
370
18
48
1
60
0
100
AcDbMText
10
43.125
20
-4.8125
30
0
210
0
220
0
230
1
1
\W0.5404;3
40
4.5
41
0
44
1.084337
50
90
71
7
72
5
7
iso_b_vert
0
LINE
5
E3
100
AcDbEntity
8
2
62
256
6
ByLayer
370
13
48
1
60
0
100
AcDbLine
10
31.5
20
-13.4375
30
0
11
47.25
21
-13.4375
31
0
39
0
210
0
220
0
230
1
0
LINE
5
E4
100
AcDbEntity
8
2
62
256
6
ByLayer
370
13
48
1
60
0
100
AcDbLine
10
31.5
20
-10.4375
30
0
11
47.25
21
-10.4375
31
0
39
0
210
0
220
0
230
1
0
LINE
5
E5
100
AcDbEntity
8
2
62
256
6
ByLayer
370
13
48
1
60
0
100
AcDbLine
10
44.25
20
-3.924342
30
0
11
44.25
21
-24.6875
31
0
39
0
210
0
220
0
230
1
0
LINE
5
E6
100
AcDbEntity
8
2
62
256
6
ByLayer
370
13
48
1
60
0
100
AcDbLine
10
44.25
20
-13.4375
30
0
11
44.644957
21
-16.437499
31
0
39
0
210
0
220
0
230
1
0
LINE
5
E7
100
AcDbEntity
8
2
62
256
6
ByLayer
370
13
48
1
60
0
100
AcDbLine
10
44.25
20
-13.4375
30
0
11
43.855043
21
-16.437501
31
0
39
0
210
0
220
0
230
1
0
LINE
5
E8
100
AcDbEntity
8
2
62
256
6
ByLayer
370
13
48
1
60
0
100
AcDbLine
10
44.644957
20
-16.437499
30
0
11
43.855043
21
-16.437501
31
0
39
0
210
0
220
0
230
1
0
LINE
5
E9
100
AcDbEntity
8
2
62
256
6
ByLayer
370
13
48
1
60
0
100
AcDbLine
10
44.25
20
-10.4375
30
0
11
43.855043
21
-7.437501
31
0
39
0
210
0
220
0
230
1
0
LINE
5
EA
100
AcDbEntity
8
2
62
256
6
ByLayer
370
13
48
1
60
0
100
AcDbLine
10
44.25
20
-10.4375
30
0
11
44.644957
21
-7.437499
31
0
39
0
210
0
220
0
230
1
0
LINE
5
EB
100
AcDbEntity
8
2
62
256
6
ByLayer
370
13
48
1
60
0
100
AcDbLine
10
43.855043
20
-7.437501
30
0
11
44.644957
21
-7.437499
31
0
39
0
210
0
220
0
230
1
0
ENDBLK
5
ED
100
AcDbEntity
8
0
100
AcDbBlockEnd
0
BLOCK
5
F0
100
AcDbEntity
8
0
100
AcDbBlockBegin
2
_CLOSED
70
0
10
0
20
0
30
0
3
_CLOSED
0
LINE
5
F2
100
AcDbEntity
8
0
62
256
6
ByLayer
370
-2
48
1
60
0
100
AcDbLine
10
-1
20
0.166667
30
0
11
0
21
0
31
0
39
0
210
0
220
0
230
1
0
LINE
5
F3
100
AcDbEntity
8
0
62
256
6
ByLayer
370
-2
48
1
60
0
100
AcDbLine
10
0
20
0
30
0
11
-1
21
-0.166667
31
0
39
0
210
0
220
0
230
1
0
LINE
5
F4
100
AcDbEntity
8
0
62
256
6
ByLayer
370
-2
48
1
60
0
100
AcDbLine
10
-1
20
0.166667
30
0
11
-1
21
-0.166667
31
0
39
0
210
0
220
0
230
1
0
LINE
5
F5
100
AcDbEntity
8
0
62
256
6
ByLayer
370
-2
48
1
60
0
100
AcDbLine
10
0
20
0
30
0
11
-1
21
0
31
0
39
0
210
0
220
0
230
1
0
ENDBLK
5
F1
100
AcDbEntity
8
0
100
AcDbBlockEnd
0
BLOCK
5
101
100
AcDbEntity
8
0
100
AcDbBlockBegin
2
DimnDraft3D2
70
0
10
0
20
0
30
0
3
DimnDraft3D2
0
MTEXT
5
F7
100
AcDbEntity
8
2
62
256
6
ByLayer
370
18
48
1
60
0
100
AcDbMText
10
53.125
20
-2.063158
30
0
210
0
220
0
230
1
1
\W0.6740;26
40
4.5
41
0
44
1.084337
50
90
71
7
72
5
7
iso_b_vert
0
LINE
5
F8
100
AcDbEntity
8
2
62
256
6
ByLayer
370
13
48
1
60
0
100
AcDbLine
10
31.5
20
-13.4375
30
0
11
57.25
21
-13.4375
31
0
39
0
210
0
220
0
230
1
0
LINE
5
F9
100
AcDbEntity
8
2
62
256
6
ByLayer
370
13
48
1
60
0
100
AcDbLine
10
1.5
20
12.4375
30
0
11
57.25
21
12.4375
31
0
39
0
210
0
220
0
230
1
0
LINE
5
FA
100
AcDbEntity
8
2
62
256
6
ByLayer
370
13
48
1
60
0
100
AcDbLine
10
54.25
20
-13.4375
30
0
11
54.25
21
12.4375
31
0
39
0
210
0
220
0
230
1
0
LINE
5
FB
100
AcDbEntity
8
2
62
256
6
ByLayer
370
13
48
1
60
0
100
AcDbLine
10
54.25
20
-13.4375
30
0
11
53.855043
21
-10.437501
31
0
39
0
210
0
220
0
230
1
0
LINE
5
FC
100
AcDbEntity
8
2
62
256
6
ByLayer
370
13
48
1
60
0
100
AcDbLine
10
54.25
20
-13.4375
30
0
11
54.644957
21
-10.437499
31
0
39
0
210
0
220
0
230
1
0
LINE
5
FD
100
AcDbEntity
8
2
62
256
6
ByLayer
370
13
48
1
60
0
100
AcDbLine
10
53.855043
20
-10.437501
30
0
11
54.644957
21
-10.437499
31
0
39
0
210
0
220
0
230
1
0
LINE
5
FE
100
AcDbEntity
8
2
62
256
6
ByLayer
370
13
48
1
60
0
100
AcDbLine
10
54.25
20
12.4375
30
0
11
54.644957
21
9.437501
31
0
39
0
210
0
220
0
230
1
0
LINE
5
FF
100
AcDbEntity
8
2
62
256
6
ByLayer
370
13
48
1
60
0
100
AcDbLine
10
54.25
20
12.4375
30
0
11
53.855043
21
9.437499
31
0
39
0
210
0
220
0
230
1
0
LINE
5
100
100
AcDbEntity
8
2
62
256
6
ByLayer
370
13
48
1
60
0
100
AcDbLine
10
54.644957
20
9.437501
30
0
11
53.855043
21
9.437499
31
0
39
0
210
0
220
0
230
1
0
ENDBLK
5
102
100
AcDbEntity
8
0
100
AcDbBlockEnd
0
BLOCK
5
110
100
AcDbEntity
8
0
100
AcDbBlockBegin
2
DimnDraft3D3
70
0
10
0
20
0
30
0
3
DimnDraft3D3
0
MTEXT
5
105
100
AcDbEntity
8
SK2
62
256
6
ByLayer
370
18
48
1
60
0
100
AcDbMText
10
-152.225
20
-1.563158
30
0
210
0
220
0
230
1
1
\W0.6740;25
40
4.5
41
0
44
1.084337
50
90
71
7
72
5
7
iso_b_vert
0
LINE
5
107
100
AcDbEntity
8
SK2
62
256
6
ByLayer
370
13
48
1
60
0
100
AcDbLine
10
-142.85
20
12.4375
30
0
11
-154.1
21
12.4375
31
0
39
0
210
0
220
0
230
1
0
LINE
5
108
100
AcDbEntity
8
SK2
62
256
6
ByLayer
370
13
48
1
60
0
100
AcDbLine
10
-142.85
20
-12.4375
30
0
11
-154.1
21
-12.4375
31
0
39
0
210
0
220
0
230
1
0
LINE
5
109
100
AcDbEntity
8
SK2
62
256
6
ByLayer
370
13
48
1
60
0
100
AcDbLine
10
-151.1
20
12.4375
30
0
11
-151.1
21
-12.4375
31
0
39
0
210
0
220
0
230
1
0
LINE
5
10A
100
AcDbEntity
8
SK2
62
256
6
ByLayer
370
13
48
1
60
0
100
AcDbLine
10
-151.1
20
12.4375
30
0
11
-150.705043
21
9.437501
31
0
39
0
210
0
220
0
230
1
0
LINE
5
10B
100
AcDbEntity
8
SK2
62
256
6
ByLayer
370
13
48
1
60
0
100
AcDbLine
10
-151.1
20
12.4375
30
0
11
-151.494957
21
9.437499
31
0
39
0
210
0
220
0
230
1
0
LINE
5
10C
100
AcDbEntity
8
SK2
62
256
6
ByLayer
370
13
48
1
60
0
100
AcDbLine
10
-150.705043
20
9.437501
30
0
11
-151.494957
21
9.437499
31
0
39
0
210
0
220
0
230
1
0
LINE
5
10D
100
AcDbEntity
8
SK2
62
256
6
ByLayer
370
13
48
1
60
0
100
AcDbLine
10
-151.1
20
-12.4375
30
0
11
-151.494957
21
-9.437501
31
0
39
0
210
0
220
0
230
1
0
LINE
5
10E
100
AcDbEntity
8
SK2
62
256
6
ByLayer
370
13
48
1
60
0
100
AcDbLine
10
-151.1
20
-12.4375
30
0
11
-150.705043
21
-9.437499
31
0
39
0
210
0
220
0
230
1
0
LINE
5
10F
100
AcDbEntity
8
SK2
62
256
6
ByLayer
370
13
48
1
60
0
100
AcDbLine
10
-151.494957
20
-9.437501
30
0
11
-150.705043
21
-9.437499
31
0
39
0
210
0
220
0
230
1
0
ENDBLK
5
111
100
AcDbEntity
8
0
100
AcDbBlockEnd
0
BLOCK
5
11E
100
AcDbEntity
8
0
100
AcDbBlockBegin
2
DimnDraft3D4
70
0
10
0
20
0
30
0
3
DimnDraft3D4
0
MTEXT
5
114
100
AcDbEntity
8
2
62
256
6
ByLayer
370
18
48
1
60
0
100
AcDbMText
10
23.999342
20
-25.5625
30
0
210
0
220
0
230
1
1
\W0.5321;10
40
4.5
41
0
44
1.084337
50
0
71
7
72
5
7
iso_b_vert
0
LINE
5
115
100
AcDbEntity
8
2
62
256
6
ByLayer
370
13
48
1
60
0
100
AcDbLine
10
30
20
-13.4375
30
0
11
30
21
-29.6875
31
0
39
0
210
0
220
0
230
1
0
LINE
5
116
100
AcDbEntity
8
2
62
256
6
ByLayer
370
13
48
1
60
0
100
AcDbLine
10
20
20
-11.0625
30
0
11
20
21
-29.6875
31
0
39
0
210
0
220
0
230
1
0
LINE
5
117
100
AcDbEntity
8
2
62
256
6
ByLayer
370
13
48
1
60
0
100
AcDbLine
10
41.25
20
-26.6875
30
0
11
8.75
21
-26.6875
31
0
39
0
210
0
220
0
230
1
0
LINE
5
118
100
AcDbEntity
8
2
62
256
6
ByLayer
370
13
48
1
60
0
100
AcDbLine
10
30
20
-26.6875
30
0
11
32.999999
21
-26.292543
31
0
39
0
210
0
220
0
230
1
0
LINE
5
119
100
AcDbEntity
8
2
62
256
6
ByLayer
370
13
48
1
60
0
100
AcDbLine
10
30
20
-26.6875
30
0
11
33.000001
21
-27.082457
31
0
39
0
210
0
220
0
230
1
0
LINE
5
11A
100
AcDbEntity
8
2
62
256
6
ByLayer
370
13
48
1
60
0
100
AcDbLine
10
32.999999
20
-26.292543
30
0
11
33.000001
21
-27.082457
31
0
39
0
210
0
220
0
230
1
0
LINE
5
11B
100
AcDbEntity
8
2
62
256
6
ByLayer
370
13
48
1
60
0
100
AcDbLine
10
20
20
-26.6875
30
0
11
17.000001
21
-27.082457
31
0
39
0
210
0
220
0
230
1
0
LINE
5
11C
100
AcDbEntity
8
2
62
256
6
ByLayer
370
13
48
1
60
0
100
AcDbLine
10
20
20
-26.6875
30
0
11
16.999999
21
-26.292543
31
0
39
0
210
0
220
0
230
1
0
LINE
5
11D
100
AcDbEntity
8
2
62
256
6
ByLayer
370
13
48
1
60
0
100
AcDbLine
10
17.000001
20
-27.082457
30
0
11
16.999999
21
-26.292543
31
0
39
0
210
0
220
0
230
1
0
ENDBLK
5
11F
100
AcDbEntity
8
0
100
AcDbBlockEnd
0
BLOCK
5
12C
100
AcDbEntity
8
0
100
AcDbBlockBegin
2
DimnDraft3D5
70
0
10
0
20
0
30
0
3
DimnDraft3D5
0
MTEXT
5
122
100
AcDbEntity
8
2
62
256
6
ByLayer
370
18
48
1
60
0
100
AcDbMText
10
13.436842
20
24.4375
30
0
210
0
220
0
230
1
1
\W0.6740;30
40
4.5
41
0
44
1.084337
50
0
71
7
72
5
7
iso_b_vert
0
LINE
5
123
100
AcDbEntity
8
2
62
256
6
ByLayer
370
13
48
1
60
0
100
AcDbLine
10
30
20
-8.9375
30
0
11
30
21
26.3125
31
0
39
0
210
0
220
0
230
1
0
LINE
5
124
100
AcDbEntity
8
2
62
256
6
ByLayer
370
13
48
1
60
0
100
AcDbLine
10
0
20
13.9375
30
0
11
0
21
26.3125
31
0
39
0
210
0
220
0
230
1
0
LINE
5
125
100
AcDbEntity
8
2
62
256
6
ByLayer
370
13
48
1
60
0
100
AcDbLine
10
30
20
23.3125
30
0
11
0
21
23.3125
31
0
39
0
210
0
220
0
230
1
0
LINE
5
126
100
AcDbEntity
8
2
62
256
6
ByLayer
370
13
48
1
60
0
100
AcDbLine
10
30
20
23.3125
30
0
11
27.000001
21
22.917543
31
0
39
0
210
0
220
0
230
1
0
LINE
5
127
100
AcDbEntity
8
2
62
256
6
ByLayer
370
13
48
1
60
0
100
AcDbLine
10
30
20
23.3125
30
0
11
26.999999
21
23.707457
31
0
39
0
210
0
220
0
230
1
0
LINE
5
128
100
AcDbEntity
8
2
62
256
6
ByLayer
370
13
48
1
60
0
100
AcDbLine
10
27.000001
20
22.917543
30
0
11
26.999999
21
23.707457
31
0
39
0
210
0
220
0
230
1
0
LINE
5
129
100
AcDbEntity
8
2
62
256
6
ByLayer
370
13
48
1
60
0
100
AcDbLine
10
0
20
23.3125
30
0
11
2.999999
21
23.707457
31
0
39
0
210
0
220
0
230
1
0
LINE
5
12A
100
AcDbEntity
8
2
62
256
6
ByLayer
370
13
48
1
60
0
100
AcDbLine
10
0
20
23.3125
30
0
11
3.000001
21
22.917543
31
0
39
0
210
0
220
0
230
1
0
LINE
5
12B
100
AcDbEntity
8
2
62
256
6
ByLayer
370
13
48
1
60
0
100
AcDbLine
10
2.999999
20
23.707457
30
0
11
3.000001
21
22.917543
31
0
39
0
210
0
220
0
230
1
0
ENDBLK
5
12D
100
AcDbEntity
8
0
100
AcDbBlockEnd
0
BLOCK
5
13A
100
AcDbEntity
8
0
100
AcDbBlockBegin
2
DimnDraft3D6
70
0
10
0
20
0
30
0
3
DimnDraft3D6
0
MTEXT
5
130
100
AcDbEntity
8
SK2
62
256
6
ByLayer
370
18
48
1
60
0
100
AcDbMText
10
-58.357237
20
34.4375
30
0
210
0
220
0
230
1
1
\W0.6217;170
40
4.5
41
0
44
1.084337
50
0
71
7
72
5
7
iso_b_vert
0
LINE
5
131
100
AcDbEntity
8
SK2
62
256
6
ByLayer
370
13
48
1
60
0
100
AcDbLine
10
30
20
-8.9375
30
0
11
30
21
36.3125
31
0
39
0
210
0
220
0
230
1
0
LINE
5
132
100
AcDbEntity
8
SK2
62
256
6
ByLayer
370
13
48
1
60
0
100
AcDbLine
10
-141.35
20
13.9375
30
0
11
-141.35
21
36.3125
31
0
39
0
210
0
220
0
230
1
0
LINE
5
133
100
AcDbEntity
8
SK2
62
256
6
ByLayer
370
13
48
1
60
0
100
AcDbLine
10
30
20
33.3125
30
0
11
-141.35
21
33.3125
31
0
39
0
210
0
220
0
230
1
0
LINE
5
134
100
AcDbEntity
8
SK2
62
256
6
ByLayer
370
13
48
1
60
0
100
AcDbLine
10
30
20
33.3125
30
0
11
27.000001
21
32.917543
31
0
39
0
210
0
220
0
230
1
0
LINE
5
135
100
AcDbEntity
8
SK2
62
256
6
ByLayer
370
13
48
1
60
0
100
AcDbLine
10
30
20
33.3125
30
0
11
26.999999
21
33.707457
31
0
39
0
210
0
220
0
230
1
0
LINE
5
136
100
AcDbEntity
8
SK2
62
256
6
ByLayer
370
13
48
1
60
0
100
AcDbLine
10
27.000001
20
32.917543
30
0
11
26.999999
21
33.707457
31
0
39
0
210
0
220
0
230
1
0
LINE
5
137
100
AcDbEntity
8
SK2
62
256
6
ByLayer
370
13
48
1
60
0
100
AcDbLine
10
-141.35
20
33.3125
30
0
11
-138.350001
21
33.707457
31
0
39
0
210
0
220
0
230
1
0
LINE
5
138
100
AcDbEntity
8
SK2
62
256
6
ByLayer
370
13
48
1
60
0
100
AcDbLine
10
-141.35
20
33.3125
30
0
11
-138.349999
21
32.917543
31
0
39
0
210
0
220
0
230
1
0
LINE
5
139
100
AcDbEntity
8
SK2
62
256
6
ByLayer
370
13
48
1
60
0
100
AcDbLine
10
-138.350001
20
33.707457
30
0
11
-138.349999
21
32.917543
31
0
39
0
210
0
220
0
230
1
0
ENDBLK
5
13B
100
AcDbEntity
8
0
100
AcDbBlockEnd
0
ENDSEC
0
SECTION
2
ENTITIES
0
ARC
5
AA
100
AcDbEntity
8
1
62
256
6
ByLayer
370
18
48
1
60
0
100
AcDbCircle
39
0
10
20.1
20
-9.1625
30
0
40
1.59999999999949
210
0
220
0
230
1
100
AcDbArc
50
180
51
270
0
ARC
5
AC
100
AcDbEntity
8
1
62
256
6
ByLayer
370
18
48
1
60
0
100
AcDbCircle
39
0
10
23.832089
20
-11.9375
30
0
40
0.499999999990797
210
0
220
0
230
1
100
AcDbArc
50
340
51
20
0
ARC
5
AD
100
AcDbEntity
8
1
62
256
6
ByLayer
370
18
48
1
60
0
100
AcDbCircle
39
0
10
10.2
20
-13.2375
30
0
40
0.2
210
0
220
0
230
1
100
AcDbArc
50
180
51
272.5
0
ARC
5
AE
100
AcDbEntity
8
1
62
256
6
ByLayer
370
18
48
1
60
0
100
AcDbCircle
39
0
10
29.8
20
-10.6375
30
0
40
0.2
210
0
220
0
230
1
100
AcDbArc
50
360
51
92.5
0
ARC
5
AF
100
AcDbEntity
8
1
62
256
6
ByLayer
370
18
48
1
60
0
100
AcDbCircle
39
0
10
-29.8
20
-13.2375
30
0
40
0.2
210
0
220
0
230
-1
100
AcDbArc
50
180
51
272.5
0
ARC
5
B0
100
AcDbEntity
8
1
62
256
6
ByLayer
370
18
48
1
60
0
100
AcDbCircle
39
0
10
12.5
20
-3.4375
30
0
40
1.416
210
0
220
0
230
1
100
AcDbArc
50
96.192438
51
150.190711
0
ARC
5
B1
100
AcDbEntity
8
1
62
256
6
ByLayer
370
18
48
1
60
0
100
AcDbCircle
39
0
10
12.5
20
-3.4375
30
0
40
1.416
210
0
220
0
230
1
100
AcDbArc
50
263.807562
51
276.192438
0
ARC
5
B2
100
AcDbEntity
8
1
62
256
6
ByLayer
370
18
48
1
60
0
100
AcDbCircle
39
0
10
12.5
20
-3.4375
30
0
40
1.9685
210
0
220
0
230
1
100
AcDbArc
50
120.381422
51
180
0
ARC
5
B3
100
AcDbEntity
8
1
62
256
6
ByLayer
370
18
48
1
60
0
100
AcDbCircle
39
0
10
12.5
20
-3.4375
30
0
40
1.416
210
0
220
0
230
1
100
AcDbArc
50
29.809289
51
83.807562
0
ARC
5
B4
100
AcDbEntity
8
1
62
256
6
ByLayer
370
18
48
1
60
0
100
AcDbCircle
39
0
10
12.5
20
-3.4375
30
0
40
1.416
210
0
220
0
230
1
100
AcDbArc
50
330.190711
51
29.809289
0
ARC
5
B5
100
AcDbEntity
8
1
62
256
6
ByLayer
370
18
48
1
60
0
100
AcDbCircle
39
0
10
12.5
20
-3.4375
30
0
40
1.9685
210
0
220
0
230
1
100
AcDbArc
50
239.618578
51
300.381422
0
ARC
5
B6
100
AcDbEntity
8
1
62
256
6
ByLayer
370
18
48
1
60
0
100
AcDbCircle
39
0
10
12.5
20
-3.4375
30
0
40
1.9685
210
0
220
0
230
1
100
AcDbArc
50
180
51
239.618578
0
ARC
5
B7
100
AcDbEntity
8
1
62
256
6
ByLayer
370
18
48
1
60
0
100
AcDbCircle
39
0
10
12.5
20
-3.4375
30
0
40
1.416
210
0
220
0
230
1
100
AcDbArc
50
83.807562
51
96.192438
0
ARC
5
B8
100
AcDbEntity
8
1
62
256
6
ByLayer
370
18
48
1
60
0
100
AcDbCircle
39
0
10
12.5
20
-3.4375
30
0
40
1.416
210
0
220
0
230
1
100
AcDbArc
50
276.192438
51
330.190711
0
ARC
5
B9
100
AcDbEntity
8
1
62
256
6
ByLayer
370
18
48
1
60
0
100
AcDbCircle
39
0
10
12.5
20
-3.4375
30
0
40
1.9685
210
0
220
0
230
1
100
AcDbArc
50
59.618578
51
120.381422
0
ARC
5
BA
100
AcDbEntity
8
1
62
256
6
ByLayer
370
18
48
1
60
0
100
AcDbCircle
39
0
10
12.5
20
-3.4375
30
0
40
1.9685
210
0
220
0
230
1
100
AcDbArc
50
360
51
59.618578
0
ARC
5
BB
100
AcDbEntity
8
1
62
256
6
ByLayer
370
18
48
1
60
0
100
AcDbCircle
39
0
10
12.5
20
-3.4375
30
0
40
1.416
210
0
220
0
230
1
100
AcDbArc
50
209.809289
51
263.807562
0
ARC
5
BC
100
AcDbEntity
8
1
62
256
6
ByLayer
370
18
48
1
60
0
100
AcDbCircle
39
0
10
12.5
20
-3.4375
30
0
40
1.416
210
0
220
0
230
1
100
AcDbArc
50
150.190711
51
209.809289
0
ARC
5
BD
100
AcDbEntity
8
1
62
256
6
ByLayer
370
18
48
1
60
0
100
AcDbCircle
39
0
10
12.5
20
-3.4375
30
0
40
1.9685
210
0
220
0
230
1
100
AcDbArc
50
300.381422
51
360
0
CIRCLE
5
AB
100
AcDbEntity
8
1
62
256
6
ByLayer
370
18
48
1
60
0
100
AcDbCircle
10
12.5
20
-3.4375
30
0
40
5
39
0
210
0
220
0
230
1
0
CIRCLE
5
BE
100
AcDbEntity
8
1
62
256
6
ByLayer
370
18
48
1
60
0
100
AcDbCircle
10
-12.5
20
-3.4375
30
0
40
3.75
39
0
210
0
220
0
230
-1
0
CIRCLE
5
BF
100
AcDbEntity
8
1
62
256
6
ByLayer
370
18
48
1
60
0
100
AcDbCircle
10
-12.5
20
-3.4375
30
0
40
4.25
39
0
210
0
220
0
230
-1
0
ELLIPSE
5
C0
100
AcDbEntity
8
1
62
256
6
ByLayer
370
18
48
1
60
0
100
AcDbEllipse
10
24.168406
20
-12.913949
30
0
11
-0.022667293135953
21
-0.148277421586956
31
0
210
0
220
0
230
1
40
1
41
-1.76816575735093
42
-1.41909990642216
0
ELLIPSE
5
C1
100
AcDbEntity
8
1
62
256
6
ByLayer
370
18
48
1
60
0
100
AcDbEllipse
10
24.168406
20
-10.961051
30
0
11
-0.0226609481156595
21
0.148278391416799
31
0
210
0
220
0
230
1
40
1
41
1.41914269783
42
1.76820854875825
0
POINT
5
6C
100
AcDbEntity
8
2
62
256
6
ByLayer
370
18
48
1
60
0
100
AcDbPoint
10
30
20
12.0625
30
0
39
0
210
0
220
0
230
1
50
360
0
POINT
5
6E
100
AcDbEntity
8
80
62
256
6
ByLayer
370
18
48
1
60
0
100
AcDbPoint
10
0
20
0
30
0
39
0
210
0
220
0
230
1
50
360
0
POINT
5
70
100
AcDbEntity
8
2
62
256
6
ByLayer
370
18
48
1
60
0
100
AcDbPoint
10
30
20
13.5625
30
0
39
0
210
0
220
0
230
1
50
360
0
POINT
5
71
100
AcDbEntity
8
81
62
256
6
ByLayer
370
18
48
1
60
0
100
AcDbPoint
10
30
20
-13.4375
30
0
39
0
210
0
220
0
230
1
50
360
0
SPLINE
5
C2
100
AcDbEntity
8
1
62
256
6
ByLayer
370
18
48
1
60
0
100
AcDbSpline
70
4
71
3
72
8
73
4
40
0
40
0
40
0
40
0
40
1
40
1
40
1
40
1
41
1
10
23.2675682415352
20
-11.1677148737262
30
0
41
1
10
23.2731177059794
20
-11.1808419566902
30
0
41
1
10
23.2781651928695
20
-11.1943041509491
30
0
41
1
10
23.2826711249934
20
-11.2080139329338
30
0
0
SPLINE
5
C3
100
AcDbEntity
8
1
62
256
6
ByLayer
370
18
48
1
60
0
100
AcDbSpline
70
4
71
3
72
8
73
4
40
0
40
0
40
0
40
0
40
1
40
1
40
1
40
1
41
1
10
23.0909333748181
20
-10.7625000000001
30
0
41
1
10
23.1516577684963
20
-10.8963480069637
30
0
41
1
10
23.2100885379482
20
-11.0317484493401
30
0
41
1
10
23.2675682415351
20
-11.1677148737264
30
0
0
SPLINE
5
C4
100
AcDbEntity
8
1
62
256
6
ByLayer
370
18
48
1
60
0
100
AcDbSpline
70
4
71
3
72
8
73
4
40
0
40
0
40
0
40
0
40
1
40
1
40
1
40
1
41
1
10
23.2675682415351
20
-12.7072851262737
30
0
41
1
10
23.2100885379482
20
-12.84325155066
30
0
41
1
10
23.1516577684963
20
-12.9786519930364
30
0
41
1
10
23.0909333748181
20
-13.1125
30
0
0
SPLINE
5
C5
100
AcDbEntity
8
1
62
256
6
ByLayer
370
18
48
1
60
0
100
AcDbSpline
70
4
71
3
72
8
73
4
40
0
40
0
40
0
40
0
40
1
40
1
40
1
40
1
41
1
10
23.2826711249934
20
-12.6669860670664
30
0
41
1
10
23.2781651928695
20
-12.680695849051
30
0
41
1
10
23.2731177059794
20
-12.6941580433099
30
0
41
1
10
23.2675682415352
20
-12.7072851262739
30
0
0
SPLINE
5
C6
100
AcDbEntity
8
1
62
256
6
ByLayer
370
18
48
1
60
0
100
AcDbSpline
70
4
71
3
72
8
73
4
40
0
40
0
40
0
40
0
40
1
40
1
40
1
40
1
41
1
10
23.386316606735
20
-12.3479241719909
30
0
41
1
10
23.3520743031073
20
-12.454425608496
30
0
41
1
10
23.3175699355043
20
-12.5608026913563
30
0
41
1
10
23.2826711249932
20
-12.6669860670662
30
0
0
SPLINE
5
C7
100
AcDbEntity
8
1
62
256
6
ByLayer
370
18
48
1
60
0
100
AcDbSpline
70
4
71
3
72
12
73
8
40
0
40
0
40
0
40
0
40
0.476059608016391
40
0.476059608016391
40
0.927101084955895
40
0.927101084955895
40
1
40
1
40
1
40
1
41
1
10
23.386316606735
20
-11.5270758280092
30
0
41
1
10
23.4259653450256
20
-11.6503925192419
30
0
41
1
10
23.4477674153748
20
-11.7844300376509
30
0
41
1
10
23.4516467356134
20
-12.0425797847068
30
0
41
1
10
23.4358013988408
20
-12.1704089694763
30
0
41
1
10
23.3982187180424
20
-12.3093511106478
30
0
41
1
10
23.3924830715351
20
-12.3287450488074
30
0
41
1
10
23.3863166067351
20
-12.3479241719909
30
0
0
SPLINE
5
C8
100
AcDbEntity
8
1
62
256
6
ByLayer
370
18
48
1
60
0
100
AcDbSpline
70
4
71
3
72
8
73
4
40
0
40
0
40
0
40
0
40
1
40
1
40
1
40
1
41
1
10
23.2826711249932
20
-11.2080139329339
30
0
41
1
10
23.3175699355043
20
-11.3141973086438
30
0
41
1
10
23.3520743031073
20
-11.4205743915041
30
0
41
1
10
23.386316606735
20
-11.5270758280092
30
0
0
SPLINE
5
C9
100
AcDbEntity
8
1
62
256
6
ByLayer
370
18
48
1
60
0
100
AcDbSpline
70
4
71
3
72
14
73
10
40
0
40
0
40
0
40
0
40
0.281038222380426
40
0.281038222380426
40
0.564557857067115
40
0.564557857067115
40
0.820700196129994
40
0.820700196129994
40
1
40
1
40
1
40
1
41
1
10
11.9078822958328
20
-1.79391737191128
30
0
41
1
10
11.8813006245732
20
-1.76658763093005
30
0
41
1
10
11.849043969095
20
-1.74313447546407
30
0
41
1
10
11.777235194489
20
-1.70892513957304
30
0
41
1
10
11.7364720760798
20
-1.69781524095515
30
0
41
1
10
11.6571729147492
20
-1.69215131442579
30
0
41
1
10
11.6175924873016
20
-1.69608827435692
30
0
41
1
10
11.5539176730122
20
-1.71438456535432
30
0
41
1
10
11.5281706327858
20
-1.7253967015366
30
0
41
1
10
11.5044231104048
20
-1.73931894166026
30
0
0
SPLINE
5
CA
100
AcDbEntity
8
1
62
256
6
ByLayer
370
18
48
1
60
0
100
AcDbSpline
70
4
71
3
72
16
73
12
40
0
40
0
40
0
40
0
40
0.0645965064171942
40
0.0645965064171942
40
0.282747320500349
40
0.282747320500349
40
0.503851581407258
40
0.503851581407258
40
0.739476498257857
40
0.739476498257857
40
1
40
1
40
1
40
1
41
1
10
11.5044231104048
20
-5.1356810583398
30
0
41
1
10
11.513014252084
20
-5.14071770744678
30
0
41
1
10
11.5218448367853
20
-5.14537061464472
30
0
41
1
10
11.5610594082809
20
-5.16381831327183
30
0
41
1
10
11.5937837130779
20
-5.17343690823566
30
0
41
1
10
11.6593454694517
20
-5.18245955
30
0
41
1
10
11.6930080641066
20
-5.1818653386228
30
0
41
1
10
11.7588630387573
20
-5.17103188575985
30
0
41
1
10
11.7916435993957
20
-5.16006237928636
30
0
41
1
10
11.8537963059871
20
-5.12838505353068
30
0
41
1
10
11.8832521428563
20
-5.10640593054779
30
0
41
1
10
11.9078822958328
20
-5.08108262808878
30
0
0
SPLINE
5
CB
100
AcDbEntity
8
1
62
256
6
ByLayer
370
18
48
1
60
0
100
AcDbSpline
70
4
71
3
72
18
73
14
40
0
40
0
40
0
40
0
40
0.213081262000626
40
0.213081262000626
40
0.387160943926345
40
0.387160943926345
40
0.562948999942013
40
0.562948999942013
40
0.715638435810381
40
0.715638435810381
40
0.919170953808144
40
0.919170953808144
40
1
40
1
40
1
40
1
41
1
10
13.6474510335848
20
-2.10934766202144
30
0
41
1
10
13.6253499966635
20
-2.19189739660249
30
0
41
1
10
13.6155116663085
20
-2.28070368281226
30
0
41
1
10
13.625005262533
20
-2.44444083530033
30
0
41
1
10
13.6396283941553
20
-2.52076928250051
30
0
41
1
10
13.690791443592
20
-2.66796999080836
30
0
41
1
10
13.7285222509958
20
-2.74088857501079
30
0
41
1
10
13.8147745125081
20
-2.86093127580509
30
0
41
1
10
13.8621656692504
20
-2.91167693660867
30
0
41
1
10
13.9803089305089
20
-3.01129079099721
30
0
41
1
10
14.0554527440065
20
-3.05587522828731
30
0
41
1
10
14.1631437334956
20
-3.09998071617818
30
0
41
1
10
14.1945032391402
20
-3.11064015636086
30
0
41
1
10
14.2260954401443
20
-3.11933803045318
30
0
0
SPLINE
5
CC
100
AcDbEntity
8
1
62
256
6
ByLayer
370
18
48
1
60
0
100
AcDbSpline
70
4
71
3
72
18
73
14
40
0
40
0
40
0
40
0
40
0.213081026856105
40
0.213081026856105
40
0.387160750704737
40
0.387160750704737
40
0.562948851464637
40
0.562948851464637
40
0.715638295683679
40
0.715638295683679
40
0.919170771668901
40
0.919170771668901
40
1
40
1
40
1
40
1
41
1
10
10.7739045598557
20
-3.11933803045318
30
0
41
1
10
10.8562959735258
20
-3.09665426295317
30
0
41
1
10
10.9378828610424
20
-3.06022748697347
30
0
41
1
10
11.0743337817464
20
-2.96922694409625
30
0
41
1
10
11.1327849506204
20
-2.91800848326642
30
0
41
1
10
11.2338958570924
20
-2.79942391211392
30
0
41
1
10
11.2777186157693
20
-2.72999551030074
30
0
41
1
10
11.3376543890653
20
-2.59487551359348
30
0
41
1
10
11.3574632867377
20
-2.52832739263965
30
0
41
1
10
11.3836465356628
20
-2.37602773607887
30
0
41
1
10
11.3841042679144
20
-2.28865409633204
30
0
41
1
10
11.3676879551153
20
-2.17344488314825
30
0
41
1
10
11.3610234078263
20
-2.14100060625688
30
0
41
1
10
11.3525489664151
20
-2.10934766202144
30
0
0
SPLINE
5
CD
100
AcDbEntity
8
1
62
256
6
ByLayer
370
18
48
1
60
0
100
AcDbSpline
70
4
71
3
72
14
73
10
40
0
40
0
40
0
40
0
40
0.285014780844667
40
0.285014780844667
40
0.572350605982679
40
0.572350605982679
40
0.83216677286188
40
0.83216677286188
40
1
40
1
40
1
40
1
41
1
10
11.3525489664151
20
-4.76565233797857
30
0
41
1
10
11.3427455383358
20
-4.80226918943279
30
0
41
1
10
11.3391008008659
20
-4.84177139209442
30
0
41
1
10
11.346306008759
20
-4.92055123875116
30
0
41
1
10
11.3574570886556
20
-4.9610402482586
30
0
41
1
10
11.3927012508891
20
-5.031774641525
30
0
41
1
10
11.4160474129793
20
-5.06366793530441
30
0
41
1
10
11.4622449161042
20
-5.10754143751319
30
0
41
1
10
11.4826741516866
20
-5.12293049763465
30
0
41
1
10
11.5044231104048
20
-5.1356810583398
30
0
0
SPLINE
5
CE
100
AcDbEntity
8
1
62
256
6
ByLayer
370
18
48
1
60
0
100
AcDbSpline
70
4
71
3
72
14
73
10
40
0
40
0
40
0
40
0
40
0.285013984727082
40
0.285013984727082
40
0.572349910643094
40
0.572349910643094
40
0.832166158509345
40
0.832166158509345
40
1
40
1
40
1
40
1
41
1
10
14.2260954401443
20
-3.75566196954685
30
0
41
1
10
14.2626420033309
20
-3.7456000746804
30
0
41
1
10
14.298562913688
20
-3.72876597586867
30
0
41
1
10
14.3628804284091
20
-3.68270710212502
30
0
41
1
10
14.3921697265129
20
-3.65260985396915
30
0
41
1
10
14.4353659032993
20
-3.58643131773158
30
0
41
1
10
14.4510721564614
20
-3.55016094593429
30
0
41
1
10
14.4655563481768
20
-3.48811810151747
30
0
41
1
10
14.4685
20
-3.46271108166582
30
0
41
1
10
14.4685
20
-3.43750000000003
30
0
0
SPLINE
5
CF
100
AcDbEntity
8
1
62
256
6
ByLayer
370
18
48
1
60
0
100
AcDbSpline
70
4
71
3
72
16
73
12
40
0
40
0
40
0
40
0
40
0.0645965064171782
40
0.0645965064171782
40
0.282747320500333
40
0.282747320500333
40
0.503851581407241
40
0.503851581407241
40
0.739476498257763
40
0.739476498257763
40
1
40
1
40
1
40
1
41
1
10
13.4955768895952
20
-1.73931894166023
30
0
41
1
10
13.486985747916
20
-1.73428229255325
30
0
41
1
10
13.4781551632147
20
-1.72962938535531
30
0
41
1
10
13.438940591719
20
-1.71118168672817
30
0
41
1
10
13.4062162869221
20
-1.70156309176437
30
0
41
1
10
13.3406545305482
20
-1.69254045000002
30
0
41
1
10
13.3069919358934
20
-1.6931346613772
30
0
41
1
10
13.2411369612427
20
-1.70396811424018
30
0
41
1
10
13.2083564006043
20
-1.71493762071364
30
0
41
1
10
13.1462036940129
20
-1.74661494646932
30
0
41
1
10
13.1167478571437
20
-1.76859406945221
30
0
41
1
10
13.0921177041671
20
-1.79391737191125
30
0
0
SPLINE
5
D0
100
AcDbEntity
8
1
62
256
6
ByLayer
370
18
48
1
60
0
100
AcDbSpline
70
4
71
3
72
16
73
12
40
0
40
0
40
0
40
0
40
0.066077751410877
40
0.066077751410877
40
0.289232858199886
40
0.289232858199886
40
0.515409129607281
40
0.515409129607281
40
0.756439127791309
40
0.756439127791309
40
1
40
1
40
1
40
1
41
1
10
10.5315
20
-3.4375
30
0
41
1
10
10.5315
20
-3.44745860674414
30
0
41
1
10
10.5319521370926
20
-3.45742969629174
30
0
41
1
10
10.535870606949
20
-3.50058915149882
30
0
41
1
10
10.5441232851387
20
-3.53368433245487
30
0
41
1
10
10.5694977332365
20
-3.59480625649897
30
0
41
1
10
10.5870353182328
20
-3.62354571425425
30
0
41
1
10
10.6296874761397
20
-3.67487829858391
30
0
41
1
10
10.6557295062841
20
-3.69760950260437
30
0
41
1
10
10.7118903369798
20
-3.7335425393677
30
0
41
1
10
10.742638287392
20
-3.74705382916466
30
0
41
1
10
10.7739045598557
20
-3.75566196954685
30
0
0
SPLINE
5
D1
100
AcDbEntity
8
1
62
256
6
ByLayer
370
18
48
1
60
0
100
AcDbSpline
70
4
71
3
72
10
73
6
40
0
40
0
40
0
40
0
40
0.479736826302654
40
0.479736826302654
40
1
40
1
40
1
40
1
41
1
10
12.3472587066235
20
-4.84523793629984
30
0
41
1
10
12.2634717620858
20
-4.86100344076866
30
0
41
1
10
12.1831344436618
20
-4.88995021912078
30
0
41
1
10
12.0347803935531
20
-4.96887369451744
30
0
41
1
10
11.9658766441957
20
-5.02145618460264
30
0
41
1
10
11.9078822958328
20
-5.08108262808875
30
0
0
SPLINE
5
D2
100
AcDbEntity
8
1
62
256
6
ByLayer
370
18
48
1
60
0
100
AcDbSpline
70
4
71
3
72
14
73
10
40
0
40
0
40
0
40
0
40
0.281038222380441
40
0.281038222380441
40
0.564557857067148
40
0.564557857067148
40
0.820700196130044
40
0.820700196130044
40
1
40
1
40
1
40
1
41
1
10
13.0921177041671
20
-5.08108262808875
30
0
41
1
10
13.1186993754268
20
-5.10841236906995
30
0
41
1
10
13.150956030905
20
-5.13186552453593
30
0
41
1
10
13.222764805511
20
-5.16607486042696
30
0
41
1
10
13.2635279239202
20
-5.17718475904488
30
0
41
1
10
13.3428270852508
20
-5.18284868557421
30
0
41
1
10
13.3824075126984
20
-5.17891172564308
30
0
41
1
10
13.4460823269878
20
-5.16061543464571
30
0
41
1
10
13.4718293672142
20
-5.14960329846343
30
0
41
1
10
13.4955768895952
20
-5.1356810583398
30
0
0
SPLINE
5
D3
100
AcDbEntity
8
1
62
256
6
ByLayer
370
18
48
1
60
0
100
AcDbSpline
70
4
71
3
72
14
73
10
40
0
40
0
40
0
40
0
40
0.285014780844658
40
0.285014780844658
40
0.572350605982662
40
0.572350605982662
40
0.832166772861866
40
0.832166772861866
40
1
40
1
40
1
40
1
41
1
10
13.6474510335848
20
-2.10934766202144
30
0
41
1
10
13.6572544616641
20
-2.07273081056724
30
0
41
1
10
13.6608991991341
20
-2.03322860790561
30
0
41
1
10
13.6536939912409
20
-1.95444876124887
30
0
41
1
10
13.6425429113444
20
-1.91395975174143
30
0
41
1
10
13.6072987491109
20
-1.84322535847502
30
0
41
1
10
13.5839525870207
20
-1.81133206469562
30
0
41
1
10
13.5377550838958
20
-1.76745856248684
30
0
41
1
10
13.5173258483134
20
-1.75206950236537
30
0
41
1
10
13.4955768895952
20
-1.73931894166023
30
0
0
SPLINE
5
D4
100
AcDbEntity
8
1
62
256
6
ByLayer
370
18
48
1
60
0
100
AcDbSpline
70
4
71
3
72
10
73
6
40
0
40
0
40
0
40
0
40
0.541781546917683
40
0.541781546917683
40
1
40
1
40
1
40
1
41
1
10
13.0921177041671
20
-5.08108262808878
30
0
41
1
10
13.0317893524551
20
-5.0190564969999
30
0
41
1
10
12.9595938121995
20
-4.96461767768477
30
0
41
1
10
12.8098326867734
20
-4.88742229524124
30
0
41
1
10
12.7328667479517
20
-4.86031448813191
30
0
41
1
10
12.6527412933764
20
-4.84523793629984
30
0
0
SPLINE
5
D5
100
AcDbEntity
8
1
62
256
6
ByLayer
370
18
48
1
60
0
100
AcDbSpline
70
4
71
3
72
14
73
10
40
0
40
0
40
0
40
0
40
0.285013984727019
40
0.285013984727019
40
0.572349910642995
40
0.572349910642995
40
0.832166158509251
40
0.832166158509251
40
1
40
1
40
1
40
1
41
1
10
10.7739045598557
20
-3.11933803045318
30
0
41
1
10
10.7373579966691
20
-3.12939992531966
30
0
41
1
10
10.701437086312
20
-3.14623402413136
30
0
41
1
10
10.6371195715909
20
-3.19229289787501
30
0
41
1
10
10.607830273487
20
-3.22239014603085
30
0
41
1
10
10.5646340967007
20
-3.28856868226842
30
0
41
1
10
10.5489278435386
20
-3.32483905406571
30
0
41
1
10
10.5344436518232
20
-3.38688189848253
30
0
41
1
10
10.5315
20
-3.41228891833421
30
0
41
1
10
10.5315
20
-3.4375
30
0
0
SPLINE
5
D6
100
AcDbEntity
8
1
62
256
6
ByLayer
370
18
48
1
60
0
100
AcDbSpline
70
4
71
3
72
18
73
14
40
0
40
0
40
0
40
0
40
0.213081026856088
40
0.213081026856088
40
0.387160750704725
40
0.387160750704725
40
0.562948851464623
40
0.562948851464623
40
0.715638295683669
40
0.715638295683669
40
0.91917077166889
40
0.91917077166889
40
1
40
1
40
1
40
1
41
1
10
14.2260954401443
20
-3.75566196954685
30
0
41
1
10
14.1437040264742
20
-3.77834573704686
30
0
41
1
10
14.0621171389576
20
-3.81477251302655
30
0
41
1
10
13.9256662182536
20
-3.90577305590375
30
0
41
1
10
13.8672150493795
20
-3.95699151673358
30
0
41
1
10
13.7661041429076
20
-4.07557608788608
30
0
41
1
10
13.7222813842307
20
-4.14500448969929
30
0
41
1
10
13.6623456109347
20
-4.28012448640652
30
0
41
1
10
13.6425367132623
20
-4.34667260736038
30
0
41
1
10
13.6163534643372
20
-4.49897226392113
30
0
41
1
10
13.6158957320856
20
-4.58634590366796
30
0
41
1
10
13.6323120448847
20
-4.70155511685175
30
0
41
1
10
13.6389765921737
20
-4.73399939374312
30
0
41
1
10
13.6474510335848
20
-4.76565233797857
30
0
0
SPLINE
5
D7
100
AcDbEntity
8
1
62
256
6
ByLayer
370
18
48
1
60
0
100
AcDbSpline
70
4
71
3
72
10
73
6
40
0
40
0
40
0
40
0
40
0.541781546918545
40
0.541781546918545
40
1
40
1
40
1
40
1
41
1
10
11.9078822958328
20
-1.79391737191128
30
0
41
1
10
11.9682106475449
20
-1.85594350300013
30
0
41
1
10
12.0404061878005
20
-1.91038232231526
30
0
41
1
10
12.1901673132265
20
-1.98757770475876
30
0
41
1
10
12.2671332520483
20
-2.01468551186812
30
0
41
1
10
12.3472587066235
20
-2.02976206370019
30
0
0
SPLINE
5
D8
100
AcDbEntity
8
1
62
256
6
ByLayer
370
18
48
1
60
0
100
AcDbSpline
70
4
71
3
72
18
73
14
40
0
40
0
40
0
40
0
40
0.213081262000622
40
0.213081262000622
40
0.387160943926339
40
0.387160943926339
40
0.562948999942001
40
0.562948999942001
40
0.715638435810364
40
0.715638435810364
40
0.91917095380812
40
0.91917095380812
40
1
40
1
40
1
40
1
41
1
10
11.3525489664151
20
-4.76565233797857
30
0
41
1
10
11.3746500033364
20
-4.68310260339754
30
0
41
1
10
11.3844883336915
20
-4.59429631718777
30
0
41
1
10
11.374994737467
20
-4.4305591646997
30
0
41
1
10
11.3603716058447
20
-4.35423071749952
30
0
41
1
10
11.309208556408
20
-4.20703000919167
30
0
41
1
10
11.2714777490042
20
-4.13411142498921
30
0
41
1
10
11.1852254874919
20
-4.01406872419494
30
0
41
1
10
11.1378343307496
20
-3.96332306339136
30
0
41
1
10
11.019691069491
20
-3.86370920900279
30
0
41
1
10
10.9445472559935
20
-3.81912477171269
30
0
41
1
10
10.8368562665044
20
-3.77501928382182
30
0
41
1
10
10.8054967608597
20
-3.76435984363917
30
0
41
1
10
10.7739045598556
20
-3.75566196954685
30
0
0
SPLINE
5
D9
100
AcDbEntity
8
1
62
256
6
ByLayer
370
18
48
1
60
0
100
AcDbSpline
70
4
71
3
72
16
73
12
40
0
40
0
40
0
40
0
40
0.0517235387678956
40
0.0517235387678956
40
0.275098677522087
40
0.275098677522087
40
0.500660612380048
40
0.500660612380048
40
0.740399911602632
40
0.740399911602632
40
1
40
1
40
1
40
1
41
1
10
13.4955768895952
20
-5.1356810583398
30
0
41
1
10
13.5023126525051
20
-5.13173214496922
30
0
41
1
10
13.5089132100843
20
-5.127540684688
30
0
41
1
10
13.5429215049886
20
-5.10421229858349
30
0
41
1
10
13.567814066225
20
-5.08077794144168
30
0
41
1
10
13.6087337148404
20
-5.02869709081804
30
0
41
1
10
13.6252135093438
20
-4.99935510970406
30
0
41
1
10
13.6490799914639
20
-4.93714422733763
30
0
41
1
10
13.6561625753256
20
-4.90340385102976
30
0
41
1
10
13.6602113511054
20
-4.83468720761849
30
0
41
1
10
13.6563795299008
20
-4.79900122580307
30
0
41
1
10
13.6474510335848
20
-4.76565233797859
30
0
0
SPLINE
5
DA
100
AcDbEntity
8
1
62
256
6
ByLayer
370
18
48
1
60
0
100
AcDbSpline
70
4
71
3
72
16
73
12
40
0
40
0
40
0
40
0
40
0.0660777514108962
40
0.0660777514108962
40
0.289232858199889
40
0.289232858199889
40
0.515409129607257
40
0.515409129607257
40
0.756439127791316
40
0.756439127791316
40
1
40
1
40
1
40
1
41
1
10
14.4685
20
-3.43750000000003
30
0
41
1
10
14.4685
20
-3.42754139325589
30
0
41
1
10
14.4680478629074
20
-3.41757030370829
30
0
41
1
10
14.464129393051
20
-3.37441084850121
30
0
41
1
10
14.4558767148612
20
-3.34131566754513
30
0
41
1
10
14.4305022667634
20
-3.28019374350103
30
0
41
1
10
14.4129646817672
20
-3.25145428574578
30
0
41
1
10
14.3703125238603
20
-3.20012170141612
30
0
41
1
10
14.3442704937158
20
-3.17739049739566
30
0
41
1
10
14.2881096630202
20
-3.1414574606323
30
0
41
1
10
14.257361712608
20
-3.12794617083534
30
0
41
1
10
14.2260954401443
20
-3.11933803045318
30
0
0
SPLINE
5
DB
100
AcDbEntity
8
1
62
256
6
ByLayer
370
18
48
1
60
0
100
AcDbSpline
70
4
71
3
72
10
73
6
40
0
40
0
40
0
40
0
40
0.47973682623679
40
0.47973682623679
40
1
40
1
40
1
40
1
41
1
10
12.6527412933764
20
-2.02976206370019
30
0
41
1
10
12.7365282379027
20
-2.01399655923351
30
0
41
1
10
12.8168655563164
20
-1.98504978088718
30
0
41
1
10
12.9652196064295
20
-1.9061263054958
30
0
41
1
10
13.034123355797
20
-1.85354381540483
30
0
41
1
10
13.0921177041671
20
-1.79391737191125
30
0
0
SPLINE
5
DC
100
AcDbEntity
8
1
62
256
6
ByLayer
370
18
48
1
60
0
100
AcDbSpline
70
4
71
3
72
16
73
12
40
0
40
0
40
0
40
0
40
0.051723538767837
40
0.051723538767837
40
0.275098677522048
40
0.275098677522048
40
0.500660612380025
40
0.500660612380025
40
0.740399911602623
40
0.740399911602623
40
1
40
1
40
1
40
1
41
1
10
11.5044231104048
20
-1.73931894166026
30
0
41
1
10
11.4976873474949
20
-1.74326785503081
30
0
41
1
10
11.4910867899156
20
-1.74745931531203
30
0
41
1
10
11.4570784950114
20
-1.77078770141654
30
0
41
1
10
11.432185933775
20
-1.79422205855835
30
0
41
1
10
11.3912662851596
20
-1.84630290918196
30
0
41
1
10
11.3747864906562
20
-1.87564489029597
30
0
41
1
10
11.3509200085361
20
-1.93785577266237
30
0
41
1
10
11.3438374246743
20
-1.97159614897026
30
0
41
1
10
11.3397886488946
20
-2.04031279238154
30
0
41
1
10
11.3436204700991
20
-2.07599877419696
30
0
41
1
10
11.3525489664151
20
-2.10934766202144
30
0
0
LINE
5
73
100
AcDbEntity
8
80
62
256
6
ByLayer
370
18
48
1
60
0
100
AcDbLine
10
0
20
0
30
0
11
-5
21
0
31
0
39
0
210
0
220
0
230
1
0
LINE
5
74
100
AcDbEntity
8
81
62
256
6
ByLayer
370
18
48
1
60
0
100
AcDbLine
10
30
20
-13.4375
30
0
11
35
21
-13.4375
31
0
39
0
210
0
220
0
230
1
0
LINE
5
75
100
AcDbEntity
8
1
62
256
6
ByLayer
370
18
48
1
60
0
100
AcDbLine
10
15.338119
20
-9.1625
30
0
11
15.338119
21
-13.1125
31
0
39
0
210
0
220
0
230
1
0
LINE
5
77
100
AcDbEntity
8
1
62
256
6
ByLayer
370
18
48
1
60
0
100
AcDbLine
10
2.255067
20
12.593262
30
0
11
9.029367
21
12.593262
31
0
39
0
210
0
220
0
230
1
0
LINE
5
78
100
AcDbEntity
8
1
62
256
6
ByLayer
370
18
48
1
60
0
100
AcDbLine
10
0.5
20
12.564682
30
0
11
2.255067
21
12.593262
31
0
39
0
210
0
220
0
230
1
0
LINE
5
79
100
AcDbEntity
8
1
62
256
6
ByLayer
370
18
48
1
60
0
100
AcDbLine
10
20.1
20
-10.7625
30
0
11
23.090933
21
-10.7625
31
0
39
0
210
0
220
0
230
1
0
LINE
5
7A
100
AcDbEntity
8
1
62
256
6
ByLayer
370
18
48
1
60
0
100
AcDbLine
10
0.5
20
12.564682
30
0
11
0
21
12.5625
31
0
39
0
210
0
220
0
230
1
0
LINE
5
7B
100
AcDbEntity
8
1
62
256
6
ByLayer
370
18
48
1
60
0
100
AcDbLine
10
18.5
20
-9.1625
30
0
11
15.338119
21
-9.1625
31
0
39
0
210
0
220
0
230
1
0
LINE
5
7C
100
AcDbEntity
8
1
62
256
6
ByLayer
370
18
48
1
60
0
100
AcDbLine
10
23.900011
20
-10.787503
30
0
11
23.900012
21
-10.7625
31
0
39
0
210
0
220
0
230
1
0
LINE
5
7D
100
AcDbEntity
8
1
62
256
6
ByLayer
370
18
48
1
60
0
100
AcDbLine
10
2.255067
20
-13.1125
30
0
11
2.255067
21
12.593262
31
0
39
0
210
0
220
0
230
1
0
LINE
5
7E
100
AcDbEntity
8
1
62
256
6
ByLayer
370
18
48
1
60
0
100
AcDbLine
10
9.029367
20
12.593262
30
0
11
18.5
21
1.5625
31
0
39
0
210
0
220
0
230
1
0
LINE
5
7F
100
AcDbEntity
8
1
62
256
6
ByLayer
370
18
48
1
60
0
100
AcDbLine
10
23.900012
20
-13.1125
30
0
11
23.900011
21
-13.087497
31
0
39
0
210
0
220
0
230
1
0
LINE
5
80
100
AcDbEntity
8
1
62
256
6
ByLayer
370
18
48
1
60
0
100
AcDbLine
10
0.580385
20
-13.1125
30
0
11
2.255067
21
-13.1125
31
0
39
0
210
0
220
0
230
1
0
LINE
5
81
100
AcDbEntity
8
1
62
256
6
ByLayer
370
18
48
1
60
0
100
AcDbLine
10
18.5
20
-9.1625
30
0
11
18.5
21
1.5625
31
0
39
0
210
0
220
0
230
1
0
LINE
5
82
100
AcDbEntity
8
1
62
256
6
ByLayer
370
18
48
1
60
0
100
AcDbLine
10
23.090908
20
-10.7625
30
0
11
23.900012
21
-10.7625
31
0
39
0
210
0
220
0
230
1
0
LINE
5
83
100
AcDbEntity
8
1
62
256
6
ByLayer
370
18
48
1
60
0
100
AcDbLine
10
0
20
-12.3125
30
0
11
0
21
12.5625
31
0
39
0
210
0
220
0
230
1
0
LINE
5
84
100
AcDbEntity
8
1
62
256
6
ByLayer
370
18
48
1
60
0
100
AcDbLine
10
23.090908
20
-13.1125
30
0
11
23.900012
21
-13.1125
31
0
39
0
210
0
220
0
230
1
0
LINE
5
85
100
AcDbEntity
8
1
62
256
6
ByLayer
370
18
48
1
60
0
100
AcDbLine
10
23.900012
20
-13.1125
30
0
11
26.186377
21
-13.1125
31
0
39
0
210
0
220
0
230
1
0
LINE
5
86
100
AcDbEntity
8
1
62
256
6
ByLayer
370
18
48
1
60
0
100
AcDbLine
10
0.5
20
-12.8125
30
0
11
0
21
-12.3125
31
0
39
0
210
0
220
0
230
1
0
LINE
5
87
100
AcDbEntity
8
1
62
256
6
ByLayer
370
18
48
1
60
0
100
AcDbLine
10
23.900012
20
-10.7625
30
0
11
26.186377
21
-10.7625
31
0
39
0
210
0
220
0
230
1
0
LINE
5
88
100
AcDbEntity
8
1
62
256
6
ByLayer
370
18
48
1
60
0
100
AcDbLine
10
0.5
20
-12.8125
30
0
11
0.5
21
12.564682
31
0
39
0
210
0
220
0
230
1
0
LINE
5
89
100
AcDbEntity
8
1
62
256
6
ByLayer
370
18
48
1
60
0
100
AcDbLine
10
15.338119
20
-13.1125
30
0
11
2.255067
21
-13.1125
31
0
39
0
210
0
220
0
230
1
0
LINE
5
8A
100
AcDbEntity
8
1
62
256
6
ByLayer
370
18
48
1
60
0
100
AcDbLine
10
15.338119
20
-13.1125
30
0
11
23.090933
21
-13.1125
31
0
39
0
210
0
220
0
230
1
0
LINE
5
8B
100
AcDbEntity
8
1
62
256
6
ByLayer
370
18
48
1
60
0
100
AcDbLine
10
0.580385
20
-13.1125
30
0
11
0.5
21
-12.8125
31
0
39
0
210
0
220
0
230
1
0
LINE
5
8C
100
AcDbEntity
8
SK1
62
256
6
ByLayer
370
18
48
1
60
0
100
AcDbLine
10
-141.35
20
-12.3125
30
0
11
-141.35
21
12.5625
31
0
39
0
210
0
220
0
230
1
0
LINE
5
8E
100
AcDbEntity
8
SK1
62
256
6
ByLayer
370
18
48
1
60
0
100
AcDbLine
10
0
20
-12.3125
30
0
11
-141.35
21
-12.3125
31
0
39
0
210
0
220
0
230
1
0
LINE
5
8F
100
AcDbEntity
8
SK1
62
256
6
ByLayer
370
18
48
1
60
0
100
AcDbLine
10
0
20
-12.3125
30
0
11
0
21
12.5625
31
0
39
0
210
0
220
0
230
1
0
LINE
5
90
100
AcDbEntity
8
1
62
256
6
ByLayer
370
18
48
1
60
0
100
AcDbLine
10
25.2
20
-10.7875
30
0
11
25.2
21
-13.0875
31
0
39
0
210
0
220
0
230
1
0
LINE
5
91
100
AcDbEntity
8
1
62
256
6
ByLayer
370
18
48
1
60
0
100
AcDbLine
10
23.177429
20
-12.913949
30
0
11
24.018406
21
-12.913949
31
0
39
0
210
0
220
0
230
1
0
LINE
5
92
100
AcDbEntity
8
1
62
256
6
ByLayer
370
18
48
1
60
0
100
AcDbLine
10
23.436305
20
-11.76649
30
0
11
24.301935
21
-11.76649
31
0
39
0
210
0
220
0
230
1
0
LINE
5
93
100
AcDbEntity
8
1
62
256
6
ByLayer
370
18
48
1
60
0
100
AcDbLine
10
26.143008
20
-13.0875
30
0
11
26.5
21
-13.293609
31
0
39
0
210
0
220
0
230
1
0
LINE
5
94
100
AcDbEntity
8
1
62
256
6
ByLayer
370
18
48
1
60
0
100
AcDbLine
10
24.027452
20
-12.862646
30
0
11
24.301935
21
-12.10851
31
0
39
0
210
0
220
0
230
1
0
LINE
5
95
100
AcDbEntity
8
1
62
256
6
ByLayer
370
18
48
1
60
0
100
AcDbLine
10
24.018406
20
-13.0875
30
0
11
25.2
21
-13.0875
31
0
39
0
210
0
220
0
230
1
0
LINE
5
96
100
AcDbEntity
8
1
62
256
6
ByLayer
370
18
48
1
60
0
100
AcDbLine
10
23.438725
20
-12.10851
30
0
11
24.301935
21
-12.10851
31
0
39
0
210
0
220
0
230
1
0
LINE
5
97
100
AcDbEntity
8
1
62
256
6
ByLayer
370
18
48
1
60
0
100
AcDbLine
10
24.018406
20
-10.7875
30
0
11
25.2
21
-10.7875
31
0
39
0
210
0
220
0
230
1
0
LINE
5
98
100
AcDbEntity
8
1
62
256
6
ByLayer
370
18
48
1
60
0
100
AcDbLine
10
25.2
20
-10.7875
30
0
11
26.143008
21
-10.7875
31
0
39
0
210
0
220
0
230
1
0
LINE
5
99
100
AcDbEntity
8
1
62
256
6
ByLayer
370
18
48
1
60
0
100
AcDbLine
10
24.018406
20
-10.961051
30
0
11
24.018406
21
-10.7875
31
0
39
0
210
0
220
0
230
1
0
LINE
5
9A
100
AcDbEntity
8
1
62
256
6
ByLayer
370
18
48
1
60
0
100
AcDbLine
10
23.177429
20
-10.961051
30
0
11
24.018406
21
-10.961051
31
0
39
0
210
0
220
0
230
1
0
LINE
5
9B
100
AcDbEntity
8
1
62
256
6
ByLayer
370
18
48
1
60
0
100
AcDbLine
10
24.027452
20
-11.012354
30
0
11
24.301935
21
-11.76649
31
0
39
0
210
0
220
0
230
1
0
LINE
5
9C
100
AcDbEntity
8
1
62
256
6
ByLayer
370
18
48
1
60
0
100
AcDbLine
10
23.199811
20
-11.012354
30
0
11
24.027452
21
-11.012354
31
0
39
0
210
0
220
0
230
1
0
LINE
5
9D
100
AcDbEntity
8
1
62
256
6
ByLayer
370
18
48
1
60
0
100
AcDbLine
10
24.018406
20
-12.913949
30
0
11
24.018406
21
-13.0875
31
0
39
0
210
0
220
0
230
1
0
LINE
5
9E
100
AcDbEntity
8
1
62
256
6
ByLayer
370
18
48
1
60
0
100
AcDbLine
10
30
20
-13.2375
30
0
11
30
21
-10.6375
31
0
39
0
210
0
220
0
230
1
0
LINE
5
9F
100
AcDbEntity
8
1
62
256
6
ByLayer
370
18
48
1
60
0
100
AcDbLine
10
26.143008
20
-10.7875
30
0
11
26.5
21
-10.581391
31
0
39
0
210
0
220
0
230
1
0
LINE
5
A0
100
AcDbEntity
8
1
62
256
6
ByLayer
370
18
48
1
60
0
100
AcDbLine
10
23.199811
20
-12.862646
30
0
11
24.027452
21
-12.862646
31
0
39
0
210
0
220
0
230
1
0
LINE
5
A1
100
AcDbEntity
8
1
62
256
6
ByLayer
370
18
48
1
60
0
100
AcDbLine
10
10.208724
20
-13.43731
30
0
11
13.5
21
-13.293609
31
0
39
0
210
0
220
0
230
1
0
LINE
5
A2
100
AcDbEntity
8
1
62
256
6
ByLayer
370
18
48
1
60
0
100
AcDbLine
10
24.018406
20
-13.0875
30
0
11
23.101707
21
-13.0875
31
0
39
0
210
0
220
0
230
1
0
LINE
5
A3
100
AcDbEntity
8
1
62
256
6
ByLayer
370
18
48
1
60
0
100
AcDbLine
10
25.2
20
-13.0875
30
0
11
26.143008
21
-13.0875
31
0
39
0
210
0
220
0
230
1
0
LINE
5
A4
100
AcDbEntity
8
1
62
256
6
ByLayer
370
18
48
1
60
0
100
AcDbLine
10
10
20
-13.2375
30
0
11
10
21
-13.112497
31
0
39
0
210
0
220
0
230
1
0
LINE
5
A5
100
AcDbEntity
8
1
62
256
6
ByLayer
370
18
48
1
60
0
100
AcDbLine
10
29.791276
20
-13.43731
30
0
11
26.5
21
-13.293609
31
0
39
0
210
0
220
0
230
1
0
LINE
5
A6
100
AcDbEntity
8
1
62
256
6
ByLayer
370
18
48
1
60
0
100
AcDbLine
10
29.791276
20
-10.43769
30
0
11
26.5
21
-10.581391
31
0
39
0
210
0
220
0
230
1
0
LINE
5
A7
100
AcDbEntity
8
1
62
256
6
ByLayer
370
18
48
1
60
0
100
AcDbLine
10
24.018406
20
-10.7875
30
0
11
23.101707
21
-10.7875
31
0
39
0
210
0
220
0
230
1
0
LINE
5
A8
100
AcDbEntity
8
1
62
256
6
ByLayer
370
18
48
1
60
0
100
AcDbLine
10
13.81369
20
-13.1125
30
0
11
13.5
21
-13.293609
31
0
39
0
210
0
220
0
230
1
0
LINE
5
A9
100
AcDbEntity
8
SK1
62
256
6
ByLayer
370
18
48
1
60
0
100
AcDbLine
10
-141.35
20
12.5625
30
0
11
0
21
12.5625
31
0
39
0
210
0
220
0
230
1
0
MTEXT
5
DD
100
AcDbEntity
8
SK6
62
256
6
ByLayer
370
18
48
1
60
0
100
AcDbMText
10
-84.799987
20
-24.297119
30
0
210
0
220
0
230
1
1
\W0.7395;LF123G10-3225B
40
3.5
41
0
44
1.084337
50
0
71
7
72
5
7
iso_b_vert
0
DIMENSION
5
EE
100
AcDbEntity
8
2
62
256
6
ByLayer
370
13
48
1
60
0
100
AcDbDimension
2
DimnDraft3D1
10
44.25
20
-10.4375
30
0
11
44.25
21
-5.9375
31
0
70
32
71
5
72
1
41
1
210
0
220
0
230
1
3
Standard
100
AcDbAlignedDimension
13
31.5
23
-13.4375
33
0
14
31.5
24
-10.4375
34
0
50
90
100
AcDbRotatedDimension
1001
ACAD
1000
DSTYLE
1002
{
1070
    74
1070
     0
1070
   279
1070
     0
1070
   172
1070
     1
1070
   173
1070
     1
1070
   340
1005
DE
1070
   271
1070
     3
1070
   272
1070
     3
1070
    77
1070
     1
1070
    73
1070
     0
1070
   171
1070
     4
1070
   274
1070
     4
1070
   177
1070
     2
1070
   176
1070
     2
1070
   178
1070
     7
1070
    78
1070
     8
1070
    41
1041
3.0
1070
   147
1041
2.25
1070
    42
1041
1.5
1070
    44
1041
3.0
1070
   140
1041
4.5
1070
   343
1005
EF
1070
   344
1005
EF
1002
}
0
DIMENSION
5
103
100
AcDbEntity
8
2
62
256
6
ByLayer
370
13
48
1
60
0
100
AcDbDimension
2
DimnDraft3D2
10
54.25
20
12.4375
30
0
11
54.25
21
-3.188158
31
0
70
32
71
5
72
1
41
1
210
0
220
0
230
1
3
Standard
100
AcDbAlignedDimension
13
31.5
23
-13.4375
33
0
14
1.5
24
12.4375
34
0
50
90
100
AcDbRotatedDimension
1001
ACAD
1000
DSTYLE
1002
{
1070
    74
1070
     0
1070
   279
1070
     0
1070
   172
1070
     1
1070
   173
1070
     1
1070
   340
1005
DE
1070
   271
1070
     3
1070
   272
1070
     3
1070
    77
1070
     1
1070
    73
1070
     0
1070
   171
1070
     4
1070
   274
1070
     4
1070
   177
1070
     2
1070
   176
1070
     2
1070
   178
1070
     7
1070
    78
1070
     8
1070
    41
1041
3.0
1070
   147
1041
2.25
1070
    42
1041
1.5
1070
    44
1041
3.0
1070
   140
1041
4.5
1070
   343
1005
EF
1070
   344
1005
EF
1002
}
0
DIMENSION
5
112
100
AcDbEntity
8
SK2
62
256
6
ByLayer
370
13
48
1
60
0
100
AcDbDimension
2
DimnDraft3D3
10
-151.1
20
-12.4375
30
0
11
-151.1
21
-2.688158
31
0
70
32
71
5
72
1
41
1
210
0
220
0
230
1
3
Standard
100
AcDbAlignedDimension
13
-142.85
23
12.4375
33
0
14
-142.85
24
-12.4375
34
0
50
90
100
AcDbRotatedDimension
1001
ACAD
1000
DSTYLE
1002
{
1070
    74
1070
     0
1070
   279
1070
     0
1070
   172
1070
     1
1070
   173
1070
     1
1070
   340
1005
DE
1070
   271
1070
     3
1070
   272
1070
     3
1070
    77
1070
     1
1070
    73
1070
     0
1070
   171
1070
     4
1070
   274
1070
     4
1070
   177
1070
     2
1070
   176
1070
     2
1070
   178
1070
     7
1070
    78
1070
     8
1070
    41
1041
3.0
1070
   147
1041
2.25
1070
    42
1041
1.5
1070
    44
1041
3.0
1070
   140
1041
4.5
1070
   343
1005
EF
1070
   344
1005
EF
1002
}
0
DIMENSION
5
120
100
AcDbEntity
8
2
62
256
6
ByLayer
370
13
48
1
60
0
100
AcDbDimension
2
DimnDraft3D4
10
20
20
-26.6875
30
0
11
22.874342
21
-26.6875
31
0
70
32
71
5
72
1
41
1
210
0
220
0
230
1
3
Standard
100
AcDbAlignedDimension
13
30
23
-13.4375
33
0
14
20
24
-11.0625
34
0
50
0
100
AcDbRotatedDimension
1001
ACAD
1000
DSTYLE
1002
{
1070
   279
1070
     0
1070
   172
1070
     1
1070
   173
1070
     1
1070
   340
1005
DE
1070
   271
1070
     3
1070
   272
1070
     3
1070
    77
1070
     1
1070
    73
1070
     0
1070
   171
1070
     4
1070
   274
1070
     4
1070
   177
1070
     2
1070
   176
1070
     2
1070
   178
1070
     7
1070
    78
1070
     8
1070
    41
1041
3.0
1070
   147
1041
2.25
1070
    42
1041
1.5
1070
    44
1041
3.0
1070
   140
1041
4.5
1070
   343
1005
EF
1070
   344
1005
EF
1002
}
0
DIMENSION
5
12E
100
AcDbEntity
8
2
62
256
6
ByLayer
370
13
48
1
60
0
100
AcDbDimension
2
DimnDraft3D5
10
0
20
23.3125
30
0
11
12.311842
21
23.3125
31
0
70
32
71
5
72
1
41
1
210
0
220
0
230
1
3
Standard
100
AcDbAlignedDimension
13
30
23
-8.9375
33
0
14
0
24
13.9375
34
0
50
0
100
AcDbRotatedDimension
1001
ACAD
1000
DSTYLE
1002
{
1070
   279
1070
     0
1070
   172
1070
     1
1070
   173
1070
     1
1070
   340
1005
DE
1070
   271
1070
     3
1070
   272
1070
     3
1070
    77
1070
     1
1070
    73
1070
     0
1070
   171
1070
     4
1070
   274
1070
     4
1070
   177
1070
     2
1070
   176
1070
     2
1070
   178
1070
     7
1070
    78
1070
     8
1070
    41
1041
3.0
1070
   147
1041
2.25
1070
    42
1041
1.5
1070
    44
1041
3.0
1070
   140
1041
4.5
1070
   343
1005
EF
1070
   344
1005
EF
1002
}
0
DIMENSION
5
13C
100
AcDbEntity
8
SK2
62
256
6
ByLayer
370
13
48
1
60
0
100
AcDbDimension
2
DimnDraft3D6
10
-141.35
20
33.3125
30
0
11
-59.482237
21
33.3125
31
0
70
32
71
5
72
1
41
1
210
0
220
0
230
1
3
Standard
100
AcDbAlignedDimension
13
30
23
-8.9375
33
0
14
-141.35
24
13.9375
34
0
50
0
100
AcDbRotatedDimension
1001
ACAD
1000
DSTYLE
1002
{
1070
   279
1070
     0
1070
   172
1070
     1
1070
   173
1070
     1
1070
   340
1005
DE
1070
   271
1070
     3
1070
   272
1070
     3
1070
    77
1070
     1
1070
    73
1070
     0
1070
   171
1070
     4
1070
   274
1070
     4
1070
   177
1070
     2
1070
   176
1070
     2
1070
   178
1070
     7
1070
    78
1070
     8
1070
    41
1041
3.0
1070
   147
1041
2.25
1070
    42
1041
1.5
1070
    44
1041
3.0
1070
   140
1041
4.5
1070
   343
1005
EF
1070
   344
1005
EF
1002
}
0
ENDSEC
0
SECTION
2
OBJECTS
0
DICTIONARY
5
1a6
330
0
100
AcDbDictionary
280
0
281
1
3
ACAD_GROUP
350
1a7
3
ACAD_MLINESTYLE
350
1a8
0
DICTIONARY
5
1a7
330
0
100
AcDbDictionary
280
0
281
1
0
DICTIONARY
5
1a8
330
0
100
AcDbDictionary
280
0
281
1
3
Standard
350
18
0
MLINESTYLE
5
18
330
1a8
100
AcDbMlineStyle
2
Standard
70
0
3

62
256
51
90
52
90
71
2
49
-0.5
62
256
6
ByLayer
49
0.5
62
256
6
ByLayer
0
RASTERVARIABLES
5
195
330

100
AcDbRasterVariables
90
0
70
1
71
1
72
1
0
ENDSEC
0
EOF
