0
SECTION
2
HEADER
9
$ACADVER
1
AC1015
9
$DWGCODEPAGE
3
ANSI_1252
9
$HANDSEED
5
1bb
9
$ANGBASE
50
0
9
$ANGDIR
70
0
9
$ATTMODE
70
1
9
$AUNITS
70
0
9
$AUPREC
70
0
9
$CECOLOR
62
256
9
$CELTSCALE
40
1
9
$CELTYPE
6
ByLayer
9
$CELWEIGHT
370
18
9
$CLAYER
8
0
9
$CMLJUST
70
0
9
$CMLSCALE
40
1
9
$CMLSTYLE
2
Standard
9
$DIMSTYLE
2
Standard
9
$TEXTSIZE
40
0.2
9
$TEXTSTYLE
7
Standard
9
$LUNITS
70
2
9
$LUPREC
70
4
9
$EXTNAMES
290
1
9
$INSUNITS
70
4
9
$LTSCALE
40
1
9
$LWDISPLAY
290
1
9
$PDMODE
70
0
9
$PDSIZE
40
0
9
$PLINEGEN
70
0
0
ENDSEC
0
SECTION
2
CLASSES
0
CLASS
1
RASTERVARIABLES
2
AcDbRasterVariables
3
ISM
90
0
280
0
281
0
0
ENDSEC
0
SECTION
2
TABLES
0
TABLE
2
VPORT
5
1b1
100
AcDbSymbolTable
0
VPORT
5
1
100
AcDbSymbolTableRecord
100
AcDbViewportTableRecord
2
*Active
70
0
10
0
20
0
11
1
21
1
12
-1
22
1
13
0
23
0
14
0.5
24
0.5
15
10
25
10
16
0
26
0
36
1
17
0
27
0
37
0
0
ENDTAB
0
TABLE
2
LTYPE
5
1b2
100
AcDbSymbolTable
0
LTYPE
5
14
100
AcDbSymbolTableRecord
100
AcDbLinetypeTableRecord
70
0
2
ByBlock
3

72
65
73
0
40
0
0
LTYPE
5
15
100
AcDbSymbolTableRecord
100
AcDbLinetypeTableRecord
70
0
2
ByLayer
3

72
65
73
0
40
0
0
LTYPE
5
16
100
AcDbSymbolTableRecord
100
AcDbLinetypeTableRecord
70
0
2
CONTINUOUS
3
Solid line
72
65
73
0
40
0
0
LTYPE
5
6A
100
AcDbSymbolTableRecord
100
AcDbLinetypeTableRecord
70
0
2
CENTER
3
____ _ ____ _ ____ _ ____
72
65
73
4
40
47.5
49
22
74
0
49
-8.5
74
0
49
8.5
74
0
49
-8.5
74
0
0
LTYPE
5
6B
100
AcDbSymbolTableRecord
100
AcDbLinetypeTableRecord
70
0
2
DASHED
3
__ __ __ __ __ __ __ __ __
72
65
73
2
40
25.72
49
12.86
74
0
49
-12.86
74
0
0
ENDTAB
0
TABLE
2
LAYER
5
1b3
100
AcDbSymbolTable
0
LAYER
5
10
100
AcDbSymbolTableRecord
100
AcDbLayerTableRecord
2
0
70
0
62
7
6
CONTINUOUS
290
1
370
-3
390
0
0
LAYER
5
6D
100
AcDbSymbolTableRecord
100
AcDbLayerTableRecord
2
2
70
0
62
7
6
CONTINUOUS
290
1
370
-3
390
0
0
LAYER
5
6F
100
AcDbSymbolTableRecord
100
AcDbLayerTableRecord
2
80
70
0
62
-6
6
CONTINUOUS
290
1
370
-3
390
0
0
LAYER
5
72
100
AcDbSymbolTableRecord
100
AcDbLayerTableRecord
2
81
70
0
62
-3
6
CONTINUOUS
290
1
370
-3
390
0
0
LAYER
5
76
100
AcDbSymbolTableRecord
100
AcDbLayerTableRecord
2
1
70
0
62
4
6
CONTINUOUS
290
1
370
-3
390
0
0
LAYER
5
19e
100
AcDbSymbolTableRecord
100
AcDbLayerTableRecord
2
SK1
70
0
62
4
6
CONTINUOUS
290
1
370
-3
390
0
0
LAYER
5
19f
100
AcDbSymbolTableRecord
100
AcDbLayerTableRecord
2
SK6
70
0
62
5
6
CONTINUOUS
290
1
370
-3
390
0
0
LAYER
5
1a0
100
AcDbSymbolTableRecord
100
AcDbLayerTableRecord
2
SK2
70
0
62
7
6
CONTINUOUS
290
1
370
-3
390
0
0
ENDTAB
0
TABLE
2
STYLE
5
1b4
100
AcDbSymbolTable
0
STYLE
5
11
100
AcDbSymbolTableRecord
100
AcDbTextStyleTableRecord
2
Standard
3
txt
70
0
71
0
40
0
41
1
42
0
50
0
0
STYLE
5
E6
100
AcDbSymbolTableRecord
100
AcDbTextStyleTableRecord
2
iso_b_vert
3
simplex.shx
70
0
71
0
40
0
41
1
42
0
50
0
0
STYLE
5
E7
100
AcDbSymbolTableRecord
100
AcDbTextStyleTableRecord
2
DWGDirectTextStyle
3
simplex
70
0
71
0
40
0
41
1
42
0
50
0
0
ENDTAB
0
TABLE
2
DIMSTYLE
5
1b5
100
AcDbSymbolTable
100
AcDbDimStyleTable
0
DIMSTYLE
105
27
100
AcDbSymbolTableRecord
100
AcDbDimStyleTableRecord
2
Standard
70
0
3
<>
41
0.18
42
0.0625
44
0.18
140
0.18
147
0.09
73
0
74
0
77
1
271
2
275
0
278
52
280
0
340
11
0
ENDTAB
0
TABLE
2
VIEW
5
1b6
100
AcDbSymbolTable
0
ENDTAB
0
TABLE
2
UCS
5
1b7
100
AcDbSymbolTable
0
ENDTAB
0
TABLE
2
APPID
5
1b8
100
AcDbSymbolTable
0
APPID
5
12
100
AcDbSymbolTableRecord
100
AcDbRegAppTableRecord
2
ACAD
70
0
0
ENDTAB
0
TABLE
2
BLOCK_RECORD
5
1b9
100
AcDbSymbolTable
0
BLOCK_RECORD
5
1F
100
AcDbSymbolTableRecord
100
AcDbBlockTableRecord
2
*Model_Space
340
0
70
0
0
BLOCK_RECORD
5
1B
100
AcDbSymbolTableRecord
100
AcDbBlockTableRecord
2
*Paper_Space
340
0
70
0
0
BLOCK_RECORD
5
23
100
AcDbSymbolTableRecord
100
AcDbBlockTableRecord
2
*Paper_Space0
340
0
70
0
0
BLOCK_RECORD
5
E9
100
AcDbSymbolTableRecord
100
AcDbBlockTableRecord
2
DimnDraft3D1
340
0
70
0
0
BLOCK_RECORD
5
F7
100
AcDbSymbolTableRecord
100
AcDbBlockTableRecord
2
_CLOSED
340
0
70
0
0
BLOCK_RECORD
5
FE
100
AcDbSymbolTableRecord
100
AcDbBlockTableRecord
2
DimnDraft3D2
340
0
70
0
0
BLOCK_RECORD
5
10C
100
AcDbSymbolTableRecord
100
AcDbBlockTableRecord
2
DimnDraft3D3
340
0
70
0
0
BLOCK_RECORD
5
11B
100
AcDbSymbolTableRecord
100
AcDbBlockTableRecord
2
DimnDraft3D4
340
0
70
0
0
BLOCK_RECORD
5
129
100
AcDbSymbolTableRecord
100
AcDbBlockTableRecord
2
DimnDraft3D5
340
0
70
0
0
BLOCK_RECORD
5
137
100
AcDbSymbolTableRecord
100
AcDbBlockTableRecord
2
DimnDraft3D6
340
0
70
0
0
ENDTAB
0
ENDSEC
0
SECTION
2
BLOCKS
0
BLOCK
5
20
100
AcDbEntity
8
0
100
AcDbBlockBegin
2
*Model_Space
70
0
10
0
20
0
30
0
3
*Model_Space
0
ENDBLK
5
21
100
AcDbEntity
8
0
100
AcDbBlockEnd
0
BLOCK
5
1C
100
AcDbEntity
8
0
100
AcDbBlockBegin
2
*Paper_Space
70
0
10
0
20
0
30
0
3
*Paper_Space
0
ENDBLK
5
1D
100
AcDbEntity
8
0
100
AcDbBlockEnd
0
BLOCK
5
24
100
AcDbEntity
8
0
100
AcDbBlockBegin
2
*Paper_Space0
70
0
10
0
20
0
30
0
3
*Paper_Space0
0
ENDBLK
5
25
100
AcDbEntity
8
0
100
AcDbBlockEnd
0
BLOCK
5
F4
100
AcDbEntity
8
0
100
AcDbBlockBegin
2
DimnDraft3D1
70
0
10
0
20
0
30
0
3
DimnDraft3D1
0
MTEXT
5
EA
100
AcDbEntity
8
2
62
256
6
ByLayer
370
18
48
1
60
0
100
AcDbMText
10
40.125
20
-2.3125
30
0
210
0
220
0
230
1
1
\W0.5404;3
40
4.5
41
0
44
1.084337
50
90
71
7
72
5
7
iso_b_vert
0
LINE
5
EB
100
AcDbEntity
8
2
62
256
6
ByLayer
370
13
48
1
60
0
100
AcDbLine
10
28.5
20
-10.9375
30
0
11
44.25
21
-10.9375
31
0
39
0
210
0
220
0
230
1
0
LINE
5
EC
100
AcDbEntity
8
2
62
256
6
ByLayer
370
13
48
1
60
0
100
AcDbLine
10
28.5
20
-7.9375
30
0
11
44.25
21
-7.9375
31
0
39
0
210
0
220
0
230
1
0
LINE
5
ED
100
AcDbEntity
8
2
62
256
6
ByLayer
370
13
48
1
60
0
100
AcDbLine
10
41.25
20
-1.424342
30
0
11
41.25
21
-22.1875
31
0
39
0
210
0
220
0
230
1
0
LINE
5
EE
100
AcDbEntity
8
2
62
256
6
ByLayer
370
13
48
1
60
0
100
AcDbLine
10
41.25
20
-10.9375
30
0
11
41.644957
21
-13.937499
31
0
39
0
210
0
220
0
230
1
0
LINE
5
EF
100
AcDbEntity
8
2
62
256
6
ByLayer
370
13
48
1
60
0
100
AcDbLine
10
41.25
20
-10.9375
30
0
11
40.855043
21
-13.937501
31
0
39
0
210
0
220
0
230
1
0
LINE
5
F0
100
AcDbEntity
8
2
62
256
6
ByLayer
370
13
48
1
60
0
100
AcDbLine
10
41.644957
20
-13.937499
30
0
11
40.855043
21
-13.937501
31
0
39
0
210
0
220
0
230
1
0
LINE
5
F1
100
AcDbEntity
8
2
62
256
6
ByLayer
370
13
48
1
60
0
100
AcDbLine
10
41.25
20
-7.9375
30
0
11
40.855043
21
-4.937501
31
0
39
0
210
0
220
0
230
1
0
LINE
5
F2
100
AcDbEntity
8
2
62
256
6
ByLayer
370
13
48
1
60
0
100
AcDbLine
10
41.25
20
-7.9375
30
0
11
41.644957
21
-4.937499
31
0
39
0
210
0
220
0
230
1
0
LINE
5
F3
100
AcDbEntity
8
2
62
256
6
ByLayer
370
13
48
1
60
0
100
AcDbLine
10
40.855043
20
-4.937501
30
0
11
41.644957
21
-4.937499
31
0
39
0
210
0
220
0
230
1
0
ENDBLK
5
F5
100
AcDbEntity
8
0
100
AcDbBlockEnd
0
BLOCK
5
F8
100
AcDbEntity
8
0
100
AcDbBlockBegin
2
_CLOSED
70
0
10
0
20
0
30
0
3
_CLOSED
0
LINE
5
FA
100
AcDbEntity
8
0
62
256
6
ByLayer
370
-2
48
1
60
0
100
AcDbLine
10
-1
20
0.166667
30
0
11
0
21
0
31
0
39
0
210
0
220
0
230
1
0
LINE
5
FB
100
AcDbEntity
8
0
62
256
6
ByLayer
370
-2
48
1
60
0
100
AcDbLine
10
0
20
0
30
0
11
-1
21
-0.166667
31
0
39
0
210
0
220
0
230
1
0
LINE
5
FC
100
AcDbEntity
8
0
62
256
6
ByLayer
370
-2
48
1
60
0
100
AcDbLine
10
-1
20
0.166667
30
0
11
-1
21
-0.166667
31
0
39
0
210
0
220
0
230
1
0
LINE
5
FD
100
AcDbEntity
8
0
62
256
6
ByLayer
370
-2
48
1
60
0
100
AcDbLine
10
0
20
0
30
0
11
-1
21
0
31
0
39
0
210
0
220
0
230
1
0
ENDBLK
5
F9
100
AcDbEntity
8
0
100
AcDbBlockEnd
0
BLOCK
5
109
100
AcDbEntity
8
0
100
AcDbBlockBegin
2
DimnDraft3D2
70
0
10
0
20
0
30
0
3
DimnDraft3D2
0
MTEXT
5
FF
100
AcDbEntity
8
2
62
256
6
ByLayer
370
18
48
1
60
0
100
AcDbMText
10
50.125
20
-1.500658
30
0
210
0
220
0
230
1
1
\W0.6351;21
40
4.5
41
0
44
1.084337
50
90
71
7
72
5
7
iso_b_vert
0
LINE
5
100
100
AcDbEntity
8
2
62
256
6
ByLayer
370
13
48
1
60
0
100
AcDbLine
10
28.5
20
-10.9375
30
0
11
54.25
21
-10.9375
31
0
39
0
210
0
220
0
230
1
0
LINE
5
101
100
AcDbEntity
8
2
62
256
6
ByLayer
370
13
48
1
60
0
100
AcDbLine
10
1.5
20
9.9375
30
0
11
54.25
21
9.9375
31
0
39
0
210
0
220
0
230
1
0
LINE
5
102
100
AcDbEntity
8
2
62
256
6
ByLayer
370
13
48
1
60
0
100
AcDbLine
10
51.25
20
-10.9375
30
0
11
51.25
21
9.9375
31
0
39
0
210
0
220
0
230
1
0
LINE
5
103
100
AcDbEntity
8
2
62
256
6
ByLayer
370
13
48
1
60
0
100
AcDbLine
10
51.25
20
-10.9375
30
0
11
50.855043
21
-7.937501
31
0
39
0
210
0
220
0
230
1
0
LINE
5
104
100
AcDbEntity
8
2
62
256
6
ByLayer
370
13
48
1
60
0
100
AcDbLine
10
51.25
20
-10.9375
30
0
11
51.644957
21
-7.937499
31
0
39
0
210
0
220
0
230
1
0
LINE
5
105
100
AcDbEntity
8
2
62
256
6
ByLayer
370
13
48
1
60
0
100
AcDbLine
10
50.855043
20
-7.937501
30
0
11
51.644957
21
-7.937499
31
0
39
0
210
0
220
0
230
1
0
LINE
5
106
100
AcDbEntity
8
2
62
256
6
ByLayer
370
13
48
1
60
0
100
AcDbLine
10
51.25
20
9.9375
30
0
11
51.644957
21
6.937501
31
0
39
0
210
0
220
0
230
1
0
LINE
5
107
100
AcDbEntity
8
2
62
256
6
ByLayer
370
13
48
1
60
0
100
AcDbLine
10
51.25
20
9.9375
30
0
11
50.855043
21
6.937499
31
0
39
0
210
0
220
0
230
1
0
LINE
5
108
100
AcDbEntity
8
2
62
256
6
ByLayer
370
13
48
1
60
0
100
AcDbLine
10
51.644957
20
6.937501
30
0
11
50.855043
21
6.937499
31
0
39
0
210
0
220
0
230
1
0
ENDBLK
5
10A
100
AcDbEntity
8
0
100
AcDbBlockEnd
0
BLOCK
5
118
100
AcDbEntity
8
0
100
AcDbBlockBegin
2
DimnDraft3D3
70
0
10
0
20
0
30
0
3
DimnDraft3D3
0
MTEXT
5
10D
100
AcDbEntity
8
SK2
62
256
6
ByLayer
370
18
48
1
60
0
100
AcDbMText
10
-110.225
20
-1.563158
30
0
210
0
220
0
230
1
1
\W0.6740;20
40
4.5
41
0
44
1.084337
50
90
71
7
72
5
7
iso_b_vert
0
LINE
5
10F
100
AcDbEntity
8
SK2
62
256
6
ByLayer
370
13
48
1
60
0
100
AcDbLine
10
-100.85
20
9.9375
30
0
11
-112.1
21
9.9375
31
0
39
0
210
0
220
0
230
1
0
LINE
5
110
100
AcDbEntity
8
SK2
62
256
6
ByLayer
370
13
48
1
60
0
100
AcDbLine
10
-100.85
20
-9.9375
30
0
11
-112.1
21
-9.9375
31
0
39
0
210
0
220
0
230
1
0
LINE
5
111
100
AcDbEntity
8
SK2
62
256
6
ByLayer
370
13
48
1
60
0
100
AcDbLine
10
-109.1
20
9.9375
30
0
11
-109.1
21
-9.9375
31
0
39
0
210
0
220
0
230
1
0
LINE
5
112
100
AcDbEntity
8
SK2
62
256
6
ByLayer
370
13
48
1
60
0
100
AcDbLine
10
-109.1
20
9.9375
30
0
11
-108.705043
21
6.937501
31
0
39
0
210
0
220
0
230
1
0
LINE
5
113
100
AcDbEntity
8
SK2
62
256
6
ByLayer
370
13
48
1
60
0
100
AcDbLine
10
-109.1
20
9.9375
30
0
11
-109.494957
21
6.937499
31
0
39
0
210
0
220
0
230
1
0
LINE
5
114
100
AcDbEntity
8
SK2
62
256
6
ByLayer
370
13
48
1
60
0
100
AcDbLine
10
-108.705043
20
6.937501
30
0
11
-109.494957
21
6.937499
31
0
39
0
210
0
220
0
230
1
0
LINE
5
115
100
AcDbEntity
8
SK2
62
256
6
ByLayer
370
13
48
1
60
0
100
AcDbLine
10
-109.1
20
-9.9375
30
0
11
-109.494957
21
-6.937501
31
0
39
0
210
0
220
0
230
1
0
LINE
5
116
100
AcDbEntity
8
SK2
62
256
6
ByLayer
370
13
48
1
60
0
100
AcDbLine
10
-109.1
20
-9.9375
30
0
11
-108.705043
21
-6.937499
31
0
39
0
210
0
220
0
230
1
0
LINE
5
117
100
AcDbEntity
8
SK2
62
256
6
ByLayer
370
13
48
1
60
0
100
AcDbLine
10
-109.494957
20
-6.937501
30
0
11
-108.705043
21
-6.937499
31
0
39
0
210
0
220
0
230
1
0
ENDBLK
5
119
100
AcDbEntity
8
0
100
AcDbBlockEnd
0
BLOCK
5
126
100
AcDbEntity
8
0
100
AcDbBlockBegin
2
DimnDraft3D4
70
0
10
0
20
0
30
0
3
DimnDraft3D4
0
MTEXT
5
11C
100
AcDbEntity
8
2
62
256
6
ByLayer
370
18
48
1
60
0
100
AcDbMText
10
23.618421
20
-23.0625
30
0
210
0
220
0
230
1
1
\W0.5404;7
40
4.5
41
0
44
1.084337
50
0
71
7
72
5
7
iso_b_vert
0
LINE
5
11D
100
AcDbEntity
8
2
62
256
6
ByLayer
370
13
48
1
60
0
100
AcDbLine
10
27
20
-10.9375
30
0
11
27
21
-27.1875
31
0
39
0
210
0
220
0
230
1
0
LINE
5
11E
100
AcDbEntity
8
2
62
256
6
ByLayer
370
13
48
1
60
0
100
AcDbLine
10
20
20
-8.5625
30
0
11
20
21
-27.1875
31
0
39
0
210
0
220
0
230
1
0
LINE
5
11F
100
AcDbEntity
8
2
62
256
6
ByLayer
370
13
48
1
60
0
100
AcDbLine
10
38.25
20
-24.1875
30
0
11
8.75
21
-24.1875
31
0
39
0
210
0
220
0
230
1
0
LINE
5
120
100
AcDbEntity
8
2
62
256
6
ByLayer
370
13
48
1
60
0
100
AcDbLine
10
27
20
-24.1875
30
0
11
29.999999
21
-23.792543
31
0
39
0
210
0
220
0
230
1
0
LINE
5
121
100
AcDbEntity
8
2
62
256
6
ByLayer
370
13
48
1
60
0
100
AcDbLine
10
27
20
-24.1875
30
0
11
30.000001
21
-24.582457
31
0
39
0
210
0
220
0
230
1
0
LINE
5
122
100
AcDbEntity
8
2
62
256
6
ByLayer
370
13
48
1
60
0
100
AcDbLine
10
29.999999
20
-23.792543
30
0
11
30.000001
21
-24.582457
31
0
39
0
210
0
220
0
230
1
0
LINE
5
123
100
AcDbEntity
8
2
62
256
6
ByLayer
370
13
48
1
60
0
100
AcDbLine
10
20
20
-24.1875
30
0
11
17.000001
21
-24.582457
31
0
39
0
210
0
220
0
230
1
0
LINE
5
124
100
AcDbEntity
8
2
62
256
6
ByLayer
370
13
48
1
60
0
100
AcDbLine
10
20
20
-24.1875
30
0
11
16.999999
21
-23.792543
31
0
39
0
210
0
220
0
230
1
0
LINE
5
125
100
AcDbEntity
8
2
62
256
6
ByLayer
370
13
48
1
60
0
100
AcDbLine
10
17.000001
20
-24.582457
30
0
11
16.999999
21
-23.792543
31
0
39
0
210
0
220
0
230
1
0
ENDBLK
5
127
100
AcDbEntity
8
0
100
AcDbBlockEnd
0
BLOCK
5
134
100
AcDbEntity
8
0
100
AcDbBlockBegin
2
DimnDraft3D5
70
0
10
0
20
0
30
0
3
DimnDraft3D5
0
MTEXT
5
12A
100
AcDbEntity
8
2
62
256
6
ByLayer
370
18
48
1
60
0
100
AcDbMText
10
11.936842
20
21.9375
30
0
210
0
220
0
230
1
1
\W0.6740;27
40
4.5
41
0
44
1.084337
50
0
71
7
72
5
7
iso_b_vert
0
LINE
5
12B
100
AcDbEntity
8
2
62
256
6
ByLayer
370
13
48
1
60
0
100
AcDbLine
10
27
20
-6.4375
30
0
11
27
21
23.8125
31
0
39
0
210
0
220
0
230
1
0
LINE
5
12C
100
AcDbEntity
8
2
62
256
6
ByLayer
370
13
48
1
60
0
100
AcDbLine
10
0
20
11.4375
30
0
11
0
21
23.8125
31
0
39
0
210
0
220
0
230
1
0
LINE
5
12D
100
AcDbEntity
8
2
62
256
6
ByLayer
370
13
48
1
60
0
100
AcDbLine
10
27
20
20.8125
30
0
11
0
21
20.8125
31
0
39
0
210
0
220
0
230
1
0
LINE
5
12E
100
AcDbEntity
8
2
62
256
6
ByLayer
370
13
48
1
60
0
100
AcDbLine
10
27
20
20.8125
30
0
11
24.000001
21
20.417543
31
0
39
0
210
0
220
0
230
1
0
LINE
5
12F
100
AcDbEntity
8
2
62
256
6
ByLayer
370
13
48
1
60
0
100
AcDbLine
10
27
20
20.8125
30
0
11
23.999999
21
21.207457
31
0
39
0
210
0
220
0
230
1
0
LINE
5
130
100
AcDbEntity
8
2
62
256
6
ByLayer
370
13
48
1
60
0
100
AcDbLine
10
24.000001
20
20.417543
30
0
11
23.999999
21
21.207457
31
0
39
0
210
0
220
0
230
1
0
LINE
5
131
100
AcDbEntity
8
2
62
256
6
ByLayer
370
13
48
1
60
0
100
AcDbLine
10
0
20
20.8125
30
0
11
2.999999
21
21.207457
31
0
39
0
210
0
220
0
230
1
0
LINE
5
132
100
AcDbEntity
8
2
62
256
6
ByLayer
370
13
48
1
60
0
100
AcDbLine
10
0
20
20.8125
30
0
11
3.000001
21
20.417543
31
0
39
0
210
0
220
0
230
1
0
LINE
5
133
100
AcDbEntity
8
2
62
256
6
ByLayer
370
13
48
1
60
0
100
AcDbLine
10
2.999999
20
21.207457
30
0
11
3.000001
21
20.417543
31
0
39
0
210
0
220
0
230
1
0
ENDBLK
5
135
100
AcDbEntity
8
0
100
AcDbBlockEnd
0
BLOCK
5
142
100
AcDbEntity
8
0
100
AcDbBlockBegin
2
DimnDraft3D6
70
0
10
0
20
0
30
0
3
DimnDraft3D6
0
MTEXT
5
138
100
AcDbEntity
8
SK2
62
256
6
ByLayer
370
18
48
1
60
0
100
AcDbMText
10
-38.857237
20
31.9375
30
0
210
0
220
0
230
1
1
\W0.6217;125
40
4.5
41
0
44
1.084337
50
0
71
7
72
5
7
iso_b_vert
0
LINE
5
139
100
AcDbEntity
8
SK2
62
256
6
ByLayer
370
13
48
1
60
0
100
AcDbLine
10
27
20
-6.4375
30
0
11
27
21
33.8125
31
0
39
0
210
0
220
0
230
1
0
LINE
5
13A
100
AcDbEntity
8
SK2
62
256
6
ByLayer
370
13
48
1
60
0
100
AcDbLine
10
-99.35
20
11.4375
30
0
11
-99.35
21
33.8125
31
0
39
0
210
0
220
0
230
1
0
LINE
5
13B
100
AcDbEntity
8
SK2
62
256
6
ByLayer
370
13
48
1
60
0
100
AcDbLine
10
27
20
30.8125
30
0
11
-99.35
21
30.8125
31
0
39
0
210
0
220
0
230
1
0
LINE
5
13C
100
AcDbEntity
8
SK2
62
256
6
ByLayer
370
13
48
1
60
0
100
AcDbLine
10
27
20
30.8125
30
0
11
24.000001
21
30.417543
31
0
39
0
210
0
220
0
230
1
0
LINE
5
13D
100
AcDbEntity
8
SK2
62
256
6
ByLayer
370
13
48
1
60
0
100
AcDbLine
10
27
20
30.8125
30
0
11
23.999999
21
31.207457
31
0
39
0
210
0
220
0
230
1
0
LINE
5
13E
100
AcDbEntity
8
SK2
62
256
6
ByLayer
370
13
48
1
60
0
100
AcDbLine
10
24.000001
20
30.417543
30
0
11
23.999999
21
31.207457
31
0
39
0
210
0
220
0
230
1
0
LINE
5
13F
100
AcDbEntity
8
SK2
62
256
6
ByLayer
370
13
48
1
60
0
100
AcDbLine
10
-99.35
20
30.8125
30
0
11
-96.350001
21
31.207457
31
0
39
0
210
0
220
0
230
1
0
LINE
5
140
100
AcDbEntity
8
SK2
62
256
6
ByLayer
370
13
48
1
60
0
100
AcDbLine
10
-99.35
20
30.8125
30
0
11
-96.349999
21
30.417543
31
0
39
0
210
0
220
0
230
1
0
LINE
5
141
100
AcDbEntity
8
SK2
62
256
6
ByLayer
370
13
48
1
60
0
100
AcDbLine
10
-96.350001
20
31.207457
30
0
11
-96.349999
21
30.417543
31
0
39
0
210
0
220
0
230
1
0
ENDBLK
5
143
100
AcDbEntity
8
0
100
AcDbBlockEnd
0
ENDSEC
0
SECTION
2
ENTITIES
0
ARC
5
B1
100
AcDbEntity
8
1
62
256
6
ByLayer
370
18
48
1
60
0
100
AcDbCircle
39
0
10
20.1
20
-6.6625
30
0
40
1.59999999999987
210
0
220
0
230
1
100
AcDbArc
50
180
51
269.674905
0
ARC
5
B3
100
AcDbEntity
8
1
62
256
6
ByLayer
370
18
48
1
60
0
100
AcDbCircle
39
0
10
12.5
20
-0.9375
30
0
40
1.416
210
0
220
0
230
1
100
AcDbArc
50
96.192438
51
150.190711
0
ARC
5
B4
100
AcDbEntity
8
1
62
256
6
ByLayer
370
18
48
1
60
0
100
AcDbCircle
39
0
10
12.5
20
-0.9375
30
0
40
1.416
210
0
220
0
230
1
100
AcDbArc
50
263.807562
51
276.192438
0
ARC
5
B5
100
AcDbEntity
8
1
62
256
6
ByLayer
370
18
48
1
60
0
100
AcDbCircle
39
0
10
12.5
20
-0.9375
30
0
40
1.9685
210
0
220
0
230
1
100
AcDbArc
50
120.381422
51
180
0
ARC
5
B6
100
AcDbEntity
8
1
62
256
6
ByLayer
370
18
48
1
60
0
100
AcDbCircle
39
0
10
12.5
20
-0.9375
30
0
40
1.416
210
0
220
0
230
1
100
AcDbArc
50
29.809289
51
83.807562
0
ARC
5
B7
100
AcDbEntity
8
1
62
256
6
ByLayer
370
18
48
1
60
0
100
AcDbCircle
39
0
10
12.5
20
-0.9375
30
0
40
1.416
210
0
220
0
230
1
100
AcDbArc
50
330.190711
51
29.809289
0
ARC
5
B8
100
AcDbEntity
8
1
62
256
6
ByLayer
370
18
48
1
60
0
100
AcDbCircle
39
0
10
12.5
20
-0.9375
30
0
40
1.9685
210
0
220
0
230
1
100
AcDbArc
50
239.618578
51
300.381422
0
ARC
5
B9
100
AcDbEntity
8
1
62
256
6
ByLayer
370
18
48
1
60
0
100
AcDbCircle
39
0
10
12.5
20
-0.9375
30
0
40
1.9685
210
0
220
0
230
1
100
AcDbArc
50
180
51
239.618578
0
ARC
5
BA
100
AcDbEntity
8
1
62
256
6
ByLayer
370
18
48
1
60
0
100
AcDbCircle
39
0
10
12.5
20
-0.9375
30
0
40
1.416
210
0
220
0
230
1
100
AcDbArc
50
83.807562
51
96.192438
0
ARC
5
BB
100
AcDbEntity
8
1
62
256
6
ByLayer
370
18
48
1
60
0
100
AcDbCircle
39
0
10
12.5
20
-0.9375
30
0
40
1.416
210
0
220
0
230
1
100
AcDbArc
50
276.192438
51
330.190711
0
ARC
5
BC
100
AcDbEntity
8
1
62
256
6
ByLayer
370
18
48
1
60
0
100
AcDbCircle
39
0
10
12.5
20
-0.9375
30
0
40
1.9685
210
0
220
0
230
1
100
AcDbArc
50
59.618578
51
120.381422
0
ARC
5
BD
100
AcDbEntity
8
1
62
256
6
ByLayer
370
18
48
1
60
0
100
AcDbCircle
39
0
10
12.5
20
-0.9375
30
0
40
1.9685
210
0
220
0
230
1
100
AcDbArc
50
360
51
59.618578
0
ARC
5
BE
100
AcDbEntity
8
1
62
256
6
ByLayer
370
18
48
1
60
0
100
AcDbCircle
39
0
10
12.5
20
-0.9375
30
0
40
1.416
210
0
220
0
230
1
100
AcDbArc
50
209.809289
51
263.807562
0
ARC
5
BF
100
AcDbEntity
8
1
62
256
6
ByLayer
370
18
48
1
60
0
100
AcDbCircle
39
0
10
12.5
20
-0.9375
30
0
40
1.416
210
0
220
0
230
1
100
AcDbArc
50
150.190711
51
209.809289
0
ARC
5
C0
100
AcDbEntity
8
1
62
256
6
ByLayer
370
18
48
1
60
0
100
AcDbCircle
39
0
10
12.5
20
-0.9375
30
0
40
1.9685
210
0
220
0
230
1
100
AcDbArc
50
300.381422
51
360
0
CIRCLE
5
B2
100
AcDbEntity
8
1
62
256
6
ByLayer
370
18
48
1
60
0
100
AcDbCircle
10
12.5
20
-0.9375
30
0
40
5
39
0
210
0
220
0
230
1
0
CIRCLE
5
C1
100
AcDbEntity
8
1
62
256
6
ByLayer
370
18
48
1
60
0
100
AcDbCircle
10
-12.5
20
-0.9375
30
0
40
3.75
39
0
210
0
220
0
230
-1
0
CIRCLE
5
C2
100
AcDbEntity
8
1
62
256
6
ByLayer
370
18
48
1
60
0
100
AcDbCircle
10
-12.5
20
-0.9375
30
0
40
4.25
39
0
210
0
220
0
230
-1
0
ELLIPSE
5
C3
100
AcDbEntity
8
1
62
256
6
ByLayer
370
18
48
1
60
0
100
AcDbEllipse
10
21.966964
20
-10.413949
30
0
11
-0.601617139604748
21
1.40953281796948E-15
31
0
210
0
220
0
230
1
40
0.249328
41
-0.349057207475028
42
0
0
ELLIPSE
5
C4
100
AcDbEntity
8
1
62
256
6
ByLayer
370
18
48
1
60
0
100
AcDbEllipse
10
21.966964
20
-8.461051
30
0
11
-0.601617139605611
21
1.4095328179715E-15
31
0
210
0
220
0
230
1
40
0.249328
41
0
42
0.349057207474782
0
POINT
5
6C
100
AcDbEntity
8
2
62
256
6
ByLayer
370
18
48
1
60
0
100
AcDbPoint
10
27
20
9.5625
30
0
39
0
210
0
220
0
230
1
50
360
0
POINT
5
6E
100
AcDbEntity
8
80
62
256
6
ByLayer
370
18
48
1
60
0
100
AcDbPoint
10
0
20
0
30
0
39
0
210
0
220
0
230
1
50
360
0
POINT
5
70
100
AcDbEntity
8
2
62
256
6
ByLayer
370
18
48
1
60
0
100
AcDbPoint
10
27
20
11.0625
30
0
39
0
210
0
220
0
230
1
50
360
0
POINT
5
71
100
AcDbEntity
8
81
62
256
6
ByLayer
370
18
48
1
60
0
100
AcDbPoint
10
27
20
-10.9375
30
0
39
0
210
0
220
0
230
1
50
360
0
SPLINE
5
C5
100
AcDbEntity
8
1
62
256
6
ByLayer
370
18
48
1
60
0
100
AcDbSpline
70
4
71
3
72
12
73
8
40
0
40
0
40
0
40
0
40
0.476059608016396
40
0.476059608016396
40
0.927101084955904
40
0.927101084955904
40
1
40
1
40
1
40
1
41
1
10
20.386316606735
20
-9.02707582800923
30
0
41
1
10
20.4259653450256
20
-9.15039251924193
30
0
41
1
10
20.4477674153748
20
-9.28443003765094
30
0
41
1
10
20.4516467356135
20
-9.54257978470679
30
0
41
1
10
20.4358013988408
20
-9.67040896947637
30
0
41
1
10
20.3982187180424
20
-9.80935111064784
30
0
41
1
10
20.3924830715351
20
-9.82874504880738
30
0
41
1
10
20.3863166067351
20
-9.84792417199085
30
0
0
SPLINE
5
C6
100
AcDbEntity
8
1
62
256
6
ByLayer
370
18
48
1
60
0
100
AcDbSpline
70
4
71
3
72
8
73
4
40
0
40
0
40
0
40
0
40
1
40
1
40
1
40
1
41
1
10
20.2826711249932
20
-8.70801393293388
30
0
41
1
10
20.3175699355043
20
-8.8141973086438
30
0
41
1
10
20.3520743031073
20
-8.92057439150409
30
0
41
1
10
20.386316606735
20
-9.02707582800923
30
0
0
SPLINE
5
C7
100
AcDbEntity
8
1
62
256
6
ByLayer
370
18
48
1
60
0
100
AcDbSpline
70
4
71
3
72
8
73
4
40
0
40
0
40
0
40
0
40
1
40
1
40
1
40
1
41
1
10
20.2675682415352
20
-8.66771487372625
30
0
41
1
10
20.2731177059794
20
-8.68084195669024
30
0
41
1
10
20.2781651928695
20
-8.69430415094911
30
0
41
1
10
20.2826711249934
20
-8.70801393293377
30
0
0
SPLINE
5
C8
100
AcDbEntity
8
1
62
256
6
ByLayer
370
18
48
1
60
0
100
AcDbSpline
70
4
71
3
72
8
73
4
40
0
40
0
40
0
40
0
40
1
40
1
40
1
40
1
41
1
10
20.090921690153
20
-8.26247424488352
30
0
41
1
10
20.151650292663
20
-8.39633062304677
30
0
41
1
10
20.2100848517031
20
-8.53173972964365
30
0
41
1
10
20.2675682415351
20
-8.66771487372637
30
0
0
SPLINE
5
C9
100
AcDbEntity
8
1
62
256
6
ByLayer
370
18
48
1
60
0
100
AcDbSpline
70
4
71
3
72
8
73
4
40
0
40
0
40
0
40
0
40
1
40
1
40
1
40
1
41
1
10
20.2675682415351
20
-10.2072851262737
30
0
41
1
10
20.2100885379482
20
-10.34325155066
30
0
41
1
10
20.1516577684963
20
-10.4786519930364
30
0
41
1
10
20.0909333748181
20
-10.6125
30
0
0
SPLINE
5
CA
100
AcDbEntity
8
1
62
256
6
ByLayer
370
18
48
1
60
0
100
AcDbSpline
70
4
71
3
72
8
73
4
40
0
40
0
40
0
40
0
40
1
40
1
40
1
40
1
41
1
10
20.2826711249934
20
-10.1669860670663
30
0
41
1
10
20.2781651928695
20
-10.180695849051
30
0
41
1
10
20.2731177059794
20
-10.1941580433098
30
0
41
1
10
20.2675682415352
20
-10.2072851262739
30
0
0
SPLINE
5
CB
100
AcDbEntity
8
1
62
256
6
ByLayer
370
18
48
1
60
0
100
AcDbSpline
70
4
71
3
72
8
73
4
40
0
40
0
40
0
40
0
40
1
40
1
40
1
40
1
41
1
10
20.386316606735
20
-9.84792417199085
30
0
41
1
10
20.3520743031073
20
-9.954425608496
30
0
41
1
10
20.3175699355043
20
-10.0608026913563
30
0
41
1
10
20.2826711249932
20
-10.1669860670662
30
0
0
SPLINE
5
CC
100
AcDbEntity
8
1
62
256
6
ByLayer
370
18
48
1
60
0
100
AcDbSpline
70
4
71
9
72
20
73
10
40
0
40
0
40
0
40
0
40
0
40
0
40
0
40
0
40
0
40
0
40
1
40
1
40
1
40
1
40
1
40
1
40
1
40
1
40
1
40
1
41
1
10
26.9999999992943
20
-10.656395895103
30
0
41
1
10
26.9999999992943
20
-10.7106950075026
30
0
41
1
10
26.9889435254918
20
-10.764994118753
30
0
41
1
10
26.9668305643238
20
-10.8167202759628
30
0
41
1
10
26.9343597090938
20
-10.8633005233826
30
0
41
1
10
26.8929279263538
20
-10.9023894324026
30
0
41
1
10
26.8445384727138
20
-10.9320969702231
30
0
41
1
10
26.7916140964338
20
-10.9511649461926
30
0
41
1
10
26.7367639744538
20
-10.9590455331226
30
0
41
1
10
26.6825567255638
20
-10.9558883520527
30
0
0
SPLINE
5
CD
100
AcDbEntity
8
1
62
256
6
ByLayer
370
18
48
1
60
0
100
AcDbSpline
70
4
71
3
72
9
73
5
40
0
40
0
40
0
40
0
40
0.421427700695351
40
1
40
1
40
1
40
1
41
1
10
22.6234596151003
20
-9.43749027019825
30
0
41
1
10
22.6158890370542
20
-9.4069579770927
30
0
41
1
10
22.5979249164386
20
-9.33450831833702
30
0
41
1
10
22.5374873023802
20
-9.2914197692557
30
0
41
1
10
22.50251977305
20
-9.26648992834004
30
0
0
SPLINE
5
CE
100
AcDbEntity
8
1
62
256
6
ByLayer
370
18
48
1
60
0
100
AcDbSpline
70
4
71
2
72
6
73
3
40
0
40
0
40
0
40
1
40
1
40
1
41
1
10
22.623459615129
20
-9.43749027019825
30
0
41
1
10
22.6230933262053
20
-9.52574458524583
30
0
41
1
10
22.5025197730492
20
-9.60851007166002
30
0
0
SPLINE
5
CF
100
AcDbEntity
8
1
62
256
6
ByLayer
370
18
48
1
60
0
100
AcDbSpline
70
4
71
2
72
9
73
6
40
0
40
0
40
0
40
0.25
40
0.5
40
0.75
40
1
40
1
40
1
41
1
10
26.9999999993
20
-8.21860410489003
30
0
41
1
10
26.9998914336468
20
-8.15637800046721
30
0
41
1
10
26.9509737652151
20
-8.04299738630363
30
0
41
1
10
26.8614275758866
20
-7.95833567380257
30
0
41
1
10
26.7453310680371
20
-7.91556746681763
30
0
41
1
10
26.68255672556
20
-7.91911164795005
30
0
0
SPLINE
5
D0
100
AcDbEntity
8
1
62
256
6
ByLayer
370
18
48
1
60
0
100
AcDbSpline
70
4
71
2
72
9
73
6
40
0
40
0
40
0
40
0.25
40
0.5
40
0.75
40
1
40
1
40
1
41
1
10
7.00000000069997
20
-10.65639589511
30
0
41
1
10
7.00010856635319
20
-10.7186219995328
30
0
41
1
10
7.04902623478495
20
-10.8320026136964
30
0
41
1
10
7.13857242411336
20
-10.9166643261975
30
0
41
1
10
7.25466893196278
20
-10.9594325331824
30
0
41
1
10
7.31744327444
20
-10.95588835205
30
0
0
SPLINE
5
D1
100
AcDbEntity
8
1
62
256
6
ByLayer
370
18
48
1
60
0
100
AcDbSpline
70
4
71
3
72
14
73
10
40
0
40
0
40
0
40
0
40
0.281038222380433
40
0.281038222380433
40
0.564557857067082
40
0.564557857067082
40
0.820700196130104
40
0.820700196130104
40
1
40
1
40
1
40
1
41
1
10
11.9078822958328
20
0.706082628088751
30
0
41
1
10
11.8813006245732
20
0.733412369069953
30
0
41
1
10
11.849043969095
20
0.756865524535897
30
0
41
1
10
11.777235194489
20
0.791074860426932
30
0
41
1
10
11.7364720760798
20
0.802184759044849
30
0
41
1
10
11.6571729147492
20
0.807848685574214
30
0
41
1
10
11.6175924873016
20
0.803911725643047
30
0
41
1
10
11.5539176730122
20
0.785615434645649
30
0
41
1
10
11.5281706327858
20
0.774603298463404
30
0
41
1
10
11.5044231104048
20
0.76068105833977
30
0
0
SPLINE
5
D2
100
AcDbEntity
8
1
62
256
6
ByLayer
370
18
48
1
60
0
100
AcDbSpline
70
4
71
3
72
16
73
12
40
0
40
0
40
0
40
0
40
0.0645965064171439
40
0.0645965064171439
40
0.282747320500309
40
0.282747320500309
40
0.503851581407221
40
0.503851581407221
40
0.739476498257833
40
0.739476498257833
40
1
40
1
40
1
40
1
41
1
10
11.5044231104048
20
-2.6356810583398
30
0
41
1
10
11.513014252084
20
-2.64071770744678
30
0
41
1
10
11.5218448367852
20
-2.64537061464472
30
0
41
1
10
11.5610594082809
20
-2.66381831327183
30
0
41
1
10
11.5937837130779
20
-2.67343690823566
30
0
41
1
10
11.6593454694517
20
-2.68245955
30
0
41
1
10
11.6930080641066
20
-2.6818653386228
30
0
41
1
10
11.7588630387573
20
-2.67103188575985
30
0
41
1
10
11.7916435993958
20
-2.66006237928639
30
0
41
1
10
11.8537963059871
20
-2.62838505353071
30
0
41
1
10
11.8832521428563
20
-2.60640593054782
30
0
41
1
10
11.9078822958328
20
-2.58108262808878
30
0
0
SPLINE
5
D3
100
AcDbEntity
8
1
62
256
6
ByLayer
370
18
48
1
60
0
100
AcDbSpline
70
4
71
3
72
18
73
14
40
0
40
0
40
0
40
0
40
0.213081262000625
40
0.213081262000625
40
0.387160943926355
40
0.387160943926355
40
0.562948999942016
40
0.562948999942016
40
0.715638435810393
40
0.715638435810393
40
0.91917095380816
40
0.91917095380816
40
1
40
1
40
1
40
1
41
1
10
13.6474510335849
20
0.390652337978565
30
0
41
1
10
13.6253499966635
20
0.308102603397515
30
0
41
1
10
13.6155116663086
20
0.219296317187741
30
0
41
1
10
13.625005262533
20
0.0555591646997016
30
0
41
1
10
13.6396283941553
20
-0.0207692825005097
30
0
41
1
10
13.690791443592
20
-0.167969990808359
30
0
41
1
10
13.7285222509958
20
-0.240888575010814
30
0
41
1
10
13.814774512508
20
-0.360931275805086
30
0
41
1
10
13.8621656692504
20
-0.411676936608671
30
0
41
1
10
13.9803089305089
20
-0.511290790997236
30
0
41
1
10
14.0554527440065
20
-0.555875228287334
30
0
41
1
10
14.1631437334956
20
-0.599980716178209
30
0
41
1
10
14.1945032391402
20
-0.610640156360859
30
0
41
1
10
14.2260954401443
20
-0.619338030453179
30
0
0
SPLINE
5
D4
100
AcDbEntity
8
1
62
256
6
ByLayer
370
18
48
1
60
0
100
AcDbSpline
70
4
71
3
72
18
73
14
40
0
40
0
40
0
40
0
40
0.213081026856107
40
0.213081026856107
40
0.387160750704751
40
0.387160750704751
40
0.562948851464637
40
0.562948851464637
40
0.715638295683695
40
0.715638295683695
40
0.919170771668921
40
0.919170771668921
40
1
40
1
40
1
40
1
41
1
10
10.7739045598557
20
-0.619338030453179
30
0
41
1
10
10.8562959735258
20
-0.596654262953166
30
0
41
1
10
10.9378828610424
20
-0.560227486973474
30
0
41
1
10
11.0743337817464
20
-0.469226944096249
30
0
41
1
10
11.1327849506205
20
-0.418008483266419
30
0
41
1
10
11.2338958570924
20
-0.299423912113923
30
0
41
1
10
11.2777186157693
20
-0.229995510300711
30
0
41
1
10
11.3376543890653
20
-0.0948755135934789
30
0
41
1
10
11.3574632867377
20
-0.0283273926396248
30
0
41
1
10
11.3836465356628
20
0.123972263921161
30
0
41
1
10
11.3841042679143
20
0.211345903667961
30
0
41
1
10
11.3676879551153
20
0.32655511685175
30
0
41
1
10
11.3610234078263
20
0.358999393743119
30
0
41
1
10
11.3525489664151
20
0.390652337978565
30
0
0
SPLINE
5
D5
100
AcDbEntity
8
1
62
256
6
ByLayer
370
18
48
1
60
0
100
AcDbSpline
70
4
71
3
72
14
73
10
40
0
40
0
40
0
40
0
40
0.285014780844619
40
0.285014780844619
40
0.572350605982622
40
0.572350605982622
40
0.832166772861833
40
0.832166772861833
40
1
40
1
40
1
40
1
41
1
10
11.3525489664151
20
-2.26565233797859
30
0
41
1
10
11.3427455383358
20
-2.30226918943279
30
0
41
1
10
11.3391008008659
20
-2.34177139209442
30
0
41
1
10
11.346306008759
20
-2.42055123875116
30
0
41
1
10
11.3574570886555
20
-2.46104024825857
30
0
41
1
10
11.3927012508891
20
-2.531774641525
30
0
41
1
10
11.4160474129793
20
-2.56366793530441
30
0
41
1
10
11.4622449161042
20
-2.60754143751319
30
0
41
1
10
11.4826741516866
20
-2.62293049763466
30
0
41
1
10
11.5044231104048
20
-2.6356810583398
30
0
0
SPLINE
5
D6
100
AcDbEntity
8
1
62
256
6
ByLayer
370
18
48
1
60
0
100
AcDbSpline
70
4
71
3
72
14
73
10
40
0
40
0
40
0
40
0
40
0.285013984727064
40
0.285013984727064
40
0.572349910643093
40
0.572349910643093
40
0.832166158509313
40
0.832166158509313
40
1
40
1
40
1
40
1
41
1
10
14.2260954401443
20
-1.25566196954685
30
0
41
1
10
14.2626420033309
20
-1.2456000746804
30
0
41
1
10
14.298562913688
20
-1.22876597586867
30
0
41
1
10
14.3628804284091
20
-1.18270710212502
30
0
41
1
10
14.392169726513
20
-1.15260985396915
30
0
41
1
10
14.4353659032993
20
-1.08643131773158
30
0
41
1
10
14.4510721564614
20
-1.05016094593429
30
0
41
1
10
14.4655563481768
20
-0.988118101517472
30
0
41
1
10
14.4685
20
-0.962711081665816
30
0
41
1
10
14.4685
20
-0.937500000000028
30
0
0
SPLINE
5
D7
100
AcDbEntity
8
1
62
256
6
ByLayer
370
18
48
1
60
0
100
AcDbSpline
70
4
71
3
72
16
73
12
40
0
40
0
40
0
40
0
40
0.064596506417147
40
0.064596506417147
40
0.282747320500312
40
0.282747320500312
40
0.503851581407191
40
0.503851581407191
40
0.739476498257838
40
0.739476498257838
40
1
40
1
40
1
40
1
41
1
10
13.4955768895952
20
0.760681058339742
30
0
41
1
10
13.486985747916
20
0.765717707446754
30
0
41
1
10
13.4781551632148
20
0.77037061464469
30
0
41
1
10
13.4389405917191
20
0.788818313271804
30
0
41
1
10
13.4062162869221
20
0.79843690823563
30
0
41
1
10
13.3406545305483
20
0.807459549999976
30
0
41
1
10
13.3069919358934
20
0.806865338622771
30
0
41
1
10
13.2411369612427
20
0.796031885759817
30
0
41
1
10
13.2083564006042
20
0.785062379286359
30
0
41
1
10
13.1462036940129
20
0.75338505353065
30
0
41
1
10
13.1167478571437
20
0.731405930547766
30
0
41
1
10
13.0921177041672
20
0.706082628088751
30
0
0
SPLINE
5
D8
100
AcDbEntity
8
1
62
256
6
ByLayer
370
18
48
1
60
0
100
AcDbSpline
70
4
71
3
72
16
73
12
40
0
40
0
40
0
40
0
40
0.0660777514109123
40
0.0660777514109123
40
0.289232858199892
40
0.289232858199892
40
0.51540912960732
40
0.51540912960732
40
0.756439127791381
40
0.756439127791381
40
1
40
1
40
1
40
1
41
1
10
10.5315
20
-0.9375
30
0
41
1
10
10.5315
20
-0.947458606744135
30
0
41
1
10
10.5319521370927
20
-0.95742969629174
30
0
41
1
10
10.535870606949
20
-1.00058915149882
30
0
41
1
10
10.5441232851387
20
-1.0336843324549
30
0
41
1
10
10.5694977332365
20
-1.094806256499
30
0
41
1
10
10.5870353182328
20
-1.12354571425425
30
0
41
1
10
10.6296874761397
20
-1.17487829858391
30
0
41
1
10
10.6557295062842
20
-1.19760950260436
30
0
41
1
10
10.7118903369799
20
-1.23354253936773
30
0
41
1
10
10.742638287392
20
-1.24705382916469
30
0
41
1
10
10.7739045598557
20
-1.25566196954685
30
0
0
SPLINE
5
D9
100
AcDbEntity
8
1
62
256
6
ByLayer
370
18
48
1
60
0
100
AcDbSpline
70
4
71
3
72
10
73
6
40
0
40
0
40
0
40
0
40
0.479736826302589
40
0.479736826302589
40
1
40
1
40
1
40
1
41
1
10
12.3472587066235
20
-2.34523793629984
30
0
41
1
10
12.2634717620859
20
-2.36100344076866
30
0
41
1
10
12.1831344436618
20
-2.38995021912078
30
0
41
1
10
12.0347803935531
20
-2.46887369451744
30
0
41
1
10
11.9658766441957
20
-2.52145618460264
30
0
41
1
10
11.9078822958328
20
-2.58108262808878
30
0
0
SPLINE
5
DA
100
AcDbEntity
8
1
62
256
6
ByLayer
370
18
48
1
60
0
100
AcDbSpline
70
4
71
3
72
14
73
10
40
0
40
0
40
0
40
0
40
0.281038222380404
40
0.281038222380404
40
0.564557857067055
40
0.564557857067055
40
0.820700196130076
40
0.820700196130076
40
1
40
1
40
1
40
1
41
1
10
13.0921177041672
20
-2.58108262808878
30
0
41
1
10
13.1186993754269
20
-2.60841236906998
30
0
41
1
10
13.150956030905
20
-2.63186552453592
30
0
41
1
10
13.222764805511
20
-2.66607486042696
30
0
41
1
10
13.2635279239202
20
-2.67718475904488
30
0
41
1
10
13.3428270852508
20
-2.68284868557424
30
0
41
1
10
13.3824075126984
20
-2.6789117256431
30
0
41
1
10
13.4460823269878
20
-2.66061543464571
30
0
41
1
10
13.4718293672142
20
-2.64960329846343
30
0
41
1
10
13.4955768895952
20
-2.6356810583398
30
0
0
SPLINE
5
DB
100
AcDbEntity
8
1
62
256
6
ByLayer
370
18
48
1
60
0
100
AcDbSpline
70
4
71
3
72
14
73
10
40
0
40
0
40
0
40
0
40
0.285014780844603
40
0.285014780844603
40
0.572350605982609
40
0.572350605982609
40
0.832166772861835
40
0.832166772861835
40
1
40
1
40
1
40
1
41
1
10
13.6474510335849
20
0.390652337978565
30
0
41
1
10
13.6572544616642
20
0.427269189432764
30
0
41
1
10
13.6608991991341
20
0.466771392094387
30
0
41
1
10
13.653693991241
20
0.545551238751102
30
0
41
1
10
13.6425429113445
20
0.586040248258541
30
0
41
1
10
13.6072987491109
20
0.656774641524976
30
0
41
1
10
13.5839525870207
20
0.68866793530438
30
0
41
1
10
13.5377550838958
20
0.732541437513163
30
0
41
1
10
13.5173258483135
20
0.747930497634627
30
0
41
1
10
13.4955768895952
20
0.760681058339742
30
0
0
SPLINE
5
DC
100
AcDbEntity
8
1
62
256
6
ByLayer
370
18
48
1
60
0
100
AcDbSpline
70
4
71
3
72
10
73
6
40
0
40
0
40
0
40
0
40
0.541781546917743
40
0.541781546917743
40
1
40
1
40
1
40
1
41
1
10
13.0921177041672
20
-2.58108262808878
30
0
41
1
10
13.0317893524551
20
-2.5190564969999
30
0
41
1
10
12.9595938121995
20
-2.46461767768477
30
0
41
1
10
12.8098326867734
20
-2.38742229524124
30
0
41
1
10
12.7328667479517
20
-2.3603144881319
30
0
41
1
10
12.6527412933764
20
-2.34523793629984
30
0
0
SPLINE
5
DD
100
AcDbEntity
8
1
62
256
6
ByLayer
370
18
48
1
60
0
100
AcDbSpline
70
4
71
3
72
14
73
10
40
0
40
0
40
0
40
0
40
0.285013984727037
40
0.285013984727037
40
0.572349910643061
40
0.572349910643061
40
0.832166158509304
40
0.832166158509304
40
1
40
1
40
1
40
1
41
1
10
10.7739045598557
20
-0.619338030453179
30
0
41
1
10
10.7373579966691
20
-0.62939992531966
30
0
41
1
10
10.701437086312
20
-0.64623402413136
30
0
41
1
10
10.6371195715909
20
-0.692292897875006
30
0
41
1
10
10.607830273487
20
-0.722390146030875
30
0
41
1
10
10.5646340967007
20
-0.788568682268448
30
0
41
1
10
10.5489278435386
20
-0.824839054065734
30
0
41
1
10
10.5344436518232
20
-0.886881898482557
30
0
41
1
10
10.5315
20
-0.912288918334212
30
0
41
1
10
10.5315
20
-0.9375
30
0
0
SPLINE
5
DE
100
AcDbEntity
8
1
62
256
6
ByLayer
370
18
48
1
60
0
100
AcDbSpline
70
4
71
3
72
18
73
14
40
0
40
0
40
0
40
0
40
0.213081026856098
40
0.213081026856098
40
0.387160750704743
40
0.387160750704743
40
0.56294885146463
40
0.56294885146463
40
0.715638295683687
40
0.715638295683687
40
0.919170771668909
40
0.919170771668909
40
1
40
1
40
1
40
1
41
1
10
14.2260954401443
20
-1.25566196954685
30
0
41
1
10
14.1437040264742
20
-1.27834573704689
30
0
41
1
10
14.0621171389576
20
-1.31477251302655
30
0
41
1
10
13.9256662182536
20
-1.40577305590378
30
0
41
1
10
13.8672150493795
20
-1.45699151673361
30
0
41
1
10
13.7661041429076
20
-1.57557608788613
30
0
41
1
10
13.7222813842307
20
-1.64500448969932
30
0
41
1
10
13.6623456109347
20
-1.78012448640658
30
0
41
1
10
13.6425367132623
20
-1.8466726073604
30
0
41
1
10
13.6163534643372
20
-1.99897226392119
30
0
41
1
10
13.6158957320857
20
-2.08634590366799
30
0
41
1
10
13.6323120448847
20
-2.20155511685178
30
0
41
1
10
13.6389765921737
20
-2.23399939374315
30
0
41
1
10
13.6474510335849
20
-2.26565233797859
30
0
0
SPLINE
5
DF
100
AcDbEntity
8
1
62
256
6
ByLayer
370
18
48
1
60
0
100
AcDbSpline
70
4
71
3
72
10
73
6
40
0
40
0
40
0
40
0
40
0.54178154691857
40
0.54178154691857
40
1
40
1
40
1
40
1
41
1
10
11.9078822958328
20
0.706082628088751
30
0
41
1
10
11.9682106475449
20
0.644056496999866
30
0
41
1
10
12.0404061878005
20
0.589617677684743
30
0
41
1
10
12.1901673132265
20
0.512422295241208
30
0
41
1
10
12.2671332520483
20
0.485314488131877
30
0
41
1
10
12.3472587066235
20
0.47023793629981
30
0
0
SPLINE
5
E0
100
AcDbEntity
8
1
62
256
6
ByLayer
370
18
48
1
60
0
100
AcDbSpline
70
4
71
3
72
18
73
14
40
0
40
0
40
0
40
0
40
0.213081262000622
40
0.213081262000622
40
0.387160943926347
40
0.387160943926347
40
0.562948999942009
40
0.562948999942009
40
0.715638435810383
40
0.715638435810383
40
0.919170953808141
40
0.919170953808141
40
1
40
1
40
1
40
1
41
1
10
11.3525489664151
20
-2.26565233797859
30
0
41
1
10
11.3746500033365
20
-2.18310260339754
30
0
41
1
10
11.3844883336915
20
-2.09429631718777
30
0
41
1
10
11.374994737467
20
-1.93055916469973
30
0
41
1
10
11.3603716058447
20
-1.85423071749952
30
0
41
1
10
11.309208556408
20
-1.70703000919167
30
0
41
1
10
11.2714777490042
20
-1.63411142498924
30
0
41
1
10
11.185225487492
20
-1.51406872419494
30
0
41
1
10
11.1378343307496
20
-1.46332306339136
30
0
41
1
10
11.0196910694911
20
-1.36370920900279
30
0
41
1
10
10.9445472559935
20
-1.31912477171269
30
0
41
1
10
10.8368562665044
20
-1.27501928382185
30
0
41
1
10
10.8054967608598
20
-1.26435984363917
30
0
41
1
10
10.7739045598557
20
-1.25566196954685
30
0
0
SPLINE
5
E1
100
AcDbEntity
8
1
62
256
6
ByLayer
370
18
48
1
60
0
100
AcDbSpline
70
4
71
3
72
16
73
12
40
0
40
0
40
0
40
0
40
0.051723538767866
40
0.051723538767866
40
0.275098677522024
40
0.275098677522024
40
0.500660612380064
40
0.500660612380064
40
0.740399911602613
40
0.740399911602613
40
1
40
1
40
1
40
1
41
1
10
13.4955768895952
20
-2.6356810583398
30
0
41
1
10
13.5023126525051
20
-2.63173214496922
30
0
41
1
10
13.5089132100844
20
-2.627540684688
30
0
41
1
10
13.5429215049886
20
-2.60421229858349
30
0
41
1
10
13.567814066225
20
-2.58077794144171
30
0
41
1
10
13.6087337148404
20
-2.52869709081807
30
0
41
1
10
13.6252135093438
20
-2.49935510970406
30
0
41
1
10
13.6490799914639
20
-2.43714422733765
30
0
41
1
10
13.6561625753256
20
-2.40340385102976
30
0
41
1
10
13.6602113511054
20
-2.33468720761849
30
0
41
1
10
13.6563795299009
20
-2.29900122580307
30
0
41
1
10
13.6474510335849
20
-2.26565233797859
30
0
0
SPLINE
5
E2
100
AcDbEntity
8
1
62
256
6
ByLayer
370
18
48
1
60
0
100
AcDbSpline
70
4
71
3
72
16
73
12
40
0
40
0
40
0
40
0
40
0.0660777514109213
40
0.0660777514109213
40
0.289232858199907
40
0.289232858199907
40
0.515409129607307
40
0.515409129607307
40
0.75643912779139
40
0.75643912779139
40
1
40
1
40
1
40
1
41
1
10
14.4685
20
-0.937500000000028
30
0
41
1
10
14.4685
20
-0.927541393255893
30
0
41
1
10
14.4680478629073
20
-0.917570303708288
30
0
41
1
10
14.464129393051
20
-0.874410848501213
30
0
41
1
10
14.4558767148613
20
-0.841315667545132
30
0
41
1
10
14.4305022667635
20
-0.78019374350103
30
0
41
1
10
14.4129646817672
20
-0.75145428574578
30
0
41
1
10
14.3703125238603
20
-0.700121701416123
30
0
41
1
10
14.3442704937158
20
-0.677390497395663
30
0
41
1
10
14.2881096630201
20
-0.641457460632296
30
0
41
1
10
14.257361712608
20
-0.627946170835344
30
0
41
1
10
14.2260954401443
20
-0.619338030453179
30
0
0
SPLINE
5
E3
100
AcDbEntity
8
1
62
256
6
ByLayer
370
18
48
1
60
0
100
AcDbSpline
70
4
71
3
72
10
73
6
40
0
40
0
40
0
40
0
40
0.479736826236765
40
0.479736826236765
40
1
40
1
40
1
40
1
41
1
10
12.6527412933764
20
0.47023793629981
30
0
41
1
10
12.7365282379028
20
0.486003440766495
30
0
41
1
10
12.8168655563164
20
0.514950219112819
30
0
41
1
10
12.9652196064295
20
0.593873694504197
30
0
41
1
10
13.034123355797
20
0.646456184595166
30
0
41
1
10
13.0921177041672
20
0.706082628088751
30
0
0
SPLINE
5
E4
100
AcDbEntity
8
1
62
256
6
ByLayer
370
18
48
1
60
0
100
AcDbSpline
70
4
71
3
72
16
73
12
40
0
40
0
40
0
40
0
40
0.0517235387678945
40
0.0517235387678945
40
0.275098677522043
40
0.275098677522043
40
0.50066061238008
40
0.50066061238008
40
0.740399911602621
40
0.740399911602621
40
1
40
1
40
1
40
1
41
1
10
11.5044231104048
20
0.76068105833977
30
0
41
1
10
11.4976873474949
20
0.756732144969192
30
0
41
1
10
11.4910867899156
20
0.752540684687972
30
0
41
1
10
11.4570784950114
20
0.729212298583462
30
0
41
1
10
11.432185933775
20
0.705777941441653
30
0
41
1
10
11.3912662851596
20
0.653697090818042
30
0
41
1
10
11.3747864906562
20
0.624355109704027
30
0
41
1
10
11.3509200085361
20
0.562144227337598
30
0
41
1
10
11.3438374246744
20
0.528403851029736
30
0
41
1
10
11.3397886488947
20
0.459687207618458
30
0
41
1
10
11.3436204700992
20
0.424001225803039
30
0
41
1
10
11.3525489664151
20
0.390652337978565
30
0
0
LINE
5
73
100
AcDbEntity
8
80
62
256
6
ByLayer
370
18
48
1
60
0
100
AcDbLine
10
0
20
0
30
0
11
-5
21
0
31
0
39
0
210
0
220
0
230
1
0
LINE
5
74
100
AcDbEntity
8
81
62
256
6
ByLayer
370
18
48
1
60
0
100
AcDbLine
10
27
20
-10.9375
30
0
11
32
21
-10.9375
31
0
39
0
210
0
220
0
230
1
0
LINE
5
75
100
AcDbEntity
8
1
62
256
6
ByLayer
370
18
48
1
60
0
100
AcDbLine
10
18.5
20
-6.6625
30
0
11
12.338119
21
-6.6625
31
0
39
0
210
0
220
0
230
1
0
LINE
5
77
100
AcDbEntity
8
1
62
256
6
ByLayer
370
18
48
1
60
0
100
AcDbLine
10
0.5
20
10.064682
30
0
11
2.248368
21
10.093153
31
0
39
0
210
0
220
0
230
1
0
LINE
5
78
100
AcDbEntity
8
1
62
256
6
ByLayer
370
18
48
1
60
0
100
AcDbLine
10
0.5
20
-10.3125
30
0
11
0.5
21
10.064682
31
0
39
0
210
0
220
0
230
1
0
LINE
5
79
100
AcDbEntity
8
1
62
256
6
ByLayer
370
18
48
1
60
0
100
AcDbLine
10
20.090908
20
-10.6125
30
0
11
20.900012
21
-10.6125
31
0
39
0
210
0
220
0
230
1
0
LINE
5
7A
100
AcDbEntity
8
1
62
256
6
ByLayer
370
18
48
1
60
0
100
AcDbLine
10
12.338119
20
-10.6125
30
0
11
2.248368
21
-10.6125
31
0
39
0
210
0
220
0
230
1
0
LINE
5
7B
100
AcDbEntity
8
1
62
256
6
ByLayer
370
18
48
1
60
0
100
AcDbLine
10
9.000797
20
10.093153
30
0
11
18.5
21
4.0625
31
0
39
0
210
0
220
0
230
1
0
LINE
5
7C
100
AcDbEntity
8
1
62
256
6
ByLayer
370
18
48
1
60
0
100
AcDbLine
10
18.5
20
-6.6625
30
0
11
18.5
21
4.0625
31
0
39
0
210
0
220
0
230
1
0
LINE
5
7D
100
AcDbEntity
8
1
62
256
6
ByLayer
370
18
48
1
60
0
100
AcDbLine
10
20.900012
20
-10.6125
30
0
11
22.855772
21
-10.6125
31
0
39
0
210
0
220
0
230
1
0
LINE
5
7E
100
AcDbEntity
8
1
62
256
6
ByLayer
370
18
48
1
60
0
100
AcDbLine
10
2.248368
20
10.093153
30
0
11
9.000797
21
10.093153
31
0
39
0
210
0
220
0
230
1
0
LINE
5
7F
100
AcDbEntity
8
1
62
256
6
ByLayer
370
18
48
1
60
0
100
AcDbLine
10
20.900012
20
-10.6125
30
0
11
20.900011
21
-10.587497
31
0
39
0
210
0
220
0
230
1
0
LINE
5
80
100
AcDbEntity
8
1
62
256
6
ByLayer
370
18
48
1
60
0
100
AcDbLine
10
20.900012
20
-8.2625
30
0
11
22.855772
21
-8.2625
31
0
39
0
210
0
220
0
230
1
0
LINE
5
81
100
AcDbEntity
8
1
62
256
6
ByLayer
370
18
48
1
60
0
100
AcDbLine
10
20.900011
20
-8.287503
30
0
11
20.900012
21
-8.2625
31
0
39
0
210
0
220
0
230
1
0
LINE
5
82
100
AcDbEntity
8
1
62
256
6
ByLayer
370
18
48
1
60
0
100
AcDbLine
10
0.580385
20
-10.6125
30
0
11
2.248368
21
-10.6125
31
0
39
0
210
0
220
0
230
1
0
LINE
5
83
100
AcDbEntity
8
1
62
256
6
ByLayer
370
18
48
1
60
0
100
AcDbLine
10
0.5
20
10.064682
30
0
11
0
21
10.0625
31
0
39
0
210
0
220
0
230
1
0
LINE
5
84
100
AcDbEntity
8
1
62
256
6
ByLayer
370
18
48
1
60
0
100
AcDbLine
10
12.338119
20
-6.6625
30
0
11
12.338119
21
-10.6125
31
0
39
0
210
0
220
0
230
1
0
LINE
5
85
100
AcDbEntity
8
1
62
256
6
ByLayer
370
18
48
1
60
0
100
AcDbLine
10
20.1
20
-8.2625
30
0
11
20.900012
21
-8.2625
31
0
39
0
210
0
220
0
230
1
0
LINE
5
86
100
AcDbEntity
8
1
62
256
6
ByLayer
370
18
48
1
60
0
100
AcDbLine
10
2.248368
20
-10.6125
30
0
11
2.248368
21
10.093153
31
0
39
0
210
0
220
0
230
1
0
LINE
5
87
100
AcDbEntity
8
1
62
256
6
ByLayer
370
18
48
1
60
0
100
AcDbLine
10
0.5
20
-10.3125
30
0
11
0
21
-9.8125
31
0
39
0
210
0
220
0
230
1
0
LINE
5
88
100
AcDbEntity
8
1
62
256
6
ByLayer
370
18
48
1
60
0
100
AcDbLine
10
12.338119
20
-10.6125
30
0
11
20.090933
21
-10.6125
31
0
39
0
210
0
220
0
230
1
0
LINE
5
89
100
AcDbEntity
8
1
62
256
6
ByLayer
370
18
48
1
60
0
100
AcDbLine
10
0.580385
20
-10.6125
30
0
11
0.5
21
-10.3125
31
0
39
0
210
0
220
0
230
1
0
LINE
5
8A
100
AcDbEntity
8
1
62
256
6
ByLayer
370
18
48
1
60
0
100
AcDbLine
10
0
20
-9.8125
30
0
11
0
21
10.0625
31
0
39
0
210
0
220
0
230
1
0
LINE
5
8B
100
AcDbEntity
8
SK1
62
256
6
ByLayer
370
18
48
1
60
0
100
AcDbLine
10
0
20
-9.8125
30
0
11
0
21
10.0625
31
0
39
0
210
0
220
0
230
1
0
LINE
5
8D
100
AcDbEntity
8
1
62
256
6
ByLayer
370
18
48
1
60
0
100
AcDbLine
10
24.51463
20
-8.001894
30
0
11
24.51463
21
-10.873106
31
0
39
0
210
0
220
0
230
1
0
LINE
5
8E
100
AcDbEntity
8
1
62
256
6
ByLayer
370
18
48
1
60
0
100
AcDbLine
10
10.737748
20
-10.834362
30
0
11
11.144217
21
-10.612502
31
0
39
0
210
0
220
0
230
1
0
LINE
5
8F
100
AcDbEntity
8
1
62
256
6
ByLayer
370
18
48
1
60
0
100
AcDbLine
10
20.438731
20
-9.60851
30
0
11
22.50252
21
-9.60851
31
0
39
0
210
0
220
0
230
1
0
LINE
5
90
100
AcDbEntity
8
1
62
256
6
ByLayer
370
18
48
1
60
0
100
AcDbLine
10
23.262252
20
-10.834362
30
0
11
24.51463
21
-10.873106
31
0
39
0
210
0
220
0
230
1
0
LINE
5
91
100
AcDbEntity
8
1
62
256
6
ByLayer
370
18
48
1
60
0
100
AcDbLine
10
24.91102
20
-10.852781
30
0
11
24.51463
21
-10.873106
31
0
39
0
210
0
220
0
230
1
0
LINE
5
92
100
AcDbEntity
8
1
62
256
6
ByLayer
370
18
48
1
60
0
100
AcDbLine
10
21.401626
20
-8.512354
30
0
11
20.199844
21
-8.512354
31
0
39
0
210
0
220
0
230
1
0
LINE
5
93
100
AcDbEntity
8
1
62
256
6
ByLayer
370
18
48
1
60
0
100
AcDbLine
10
20.448587
20
-9.43751
30
0
11
22.62346
21
-9.43751
31
0
39
0
210
0
220
0
230
1
0
LINE
5
94
100
AcDbEntity
8
1
62
256
6
ByLayer
370
18
48
1
60
0
100
AcDbLine
10
20.101715
20
-8.2875
30
0
11
21.365346
21
-8.2875
31
0
39
0
210
0
220
0
230
1
0
LINE
5
95
100
AcDbEntity
8
1
62
256
6
ByLayer
370
18
48
1
60
0
100
AcDbLine
10
20.436238
20
-9.26649
30
0
11
22.50252
21
-9.26649
31
0
39
0
210
0
220
0
230
1
0
LINE
5
96
100
AcDbEntity
8
1
62
256
6
ByLayer
370
18
48
1
60
0
100
AcDbLine
10
9.48537
20
-10.612499
30
0
11
9.48537
21
-10.873106
31
0
39
0
210
0
220
0
230
1
0
LINE
5
97
100
AcDbEntity
8
1
62
256
6
ByLayer
370
18
48
1
60
0
100
AcDbLine
10
20.101715
20
-10.5875
30
0
11
21.365346
21
-10.5875
31
0
39
0
210
0
220
0
230
1
0
LINE
5
98
100
AcDbEntity
8
1
62
256
6
ByLayer
370
18
48
1
60
0
100
AcDbLine
10
22.50252
20
-9.26649
30
0
11
21.401627
21
-8.512353
31
0
39
0
210
0
220
0
230
1
0
LINE
5
99
100
AcDbEntity
8
1
62
256
6
ByLayer
370
18
48
1
60
0
100
AcDbLine
10
9.08898
20
-10.852781
30
0
11
7.317447
21
-10.95596
31
0
39
0
210
0
220
0
230
1
0
LINE
5
9A
100
AcDbEntity
8
1
62
256
6
ByLayer
370
18
48
1
60
0
100
AcDbLine
10
21.365346
20
-8.2875
30
0
11
21.365346
21
-8.461051
31
0
39
0
210
0
220
0
230
1
0
LINE
5
9B
100
AcDbEntity
8
1
62
256
6
ByLayer
370
18
48
1
60
0
100
AcDbLine
10
9.08898
20
-10.612493
30
0
11
9.08898
21
-10.852781
31
0
39
0
210
0
220
0
230
1
0
LINE
5
9C
100
AcDbEntity
8
1
62
256
6
ByLayer
370
18
48
1
60
0
100
AcDbLine
10
24.91102
20
-10.852781
30
0
11
26.682553
21
-10.95596
31
0
39
0
210
0
220
0
230
1
0
LINE
5
9D
100
AcDbEntity
8
1
62
256
6
ByLayer
370
18
48
1
60
0
100
AcDbLine
10
10.737748
20
-10.834362
30
0
11
9.48537
21
-10.873106
31
0
39
0
210
0
220
0
230
1
0
LINE
5
9E
100
AcDbEntity
8
1
62
256
6
ByLayer
370
18
48
1
60
0
100
AcDbLine
10
27
20
-10.656396
30
0
11
27
21
-8.218604
31
0
39
0
210
0
220
0
230
1
0
LINE
5
9F
100
AcDbEntity
8
1
62
256
6
ByLayer
370
18
48
1
60
0
100
AcDbLine
10
21.365346
20
-8.2875
30
0
11
22.809976
21
-8.2875
31
0
39
0
210
0
220
0
230
1
0
LINE
5
A0
100
AcDbEntity
8
1
62
256
6
ByLayer
370
18
48
1
60
0
100
AcDbLine
10
7
20
-10.656396
30
0
11
7
21
-10.612478
31
0
39
0
210
0
220
0
230
1
0
LINE
5
A1
100
AcDbEntity
8
1
62
256
6
ByLayer
370
18
48
1
60
0
100
AcDbLine
10
23.262252
20
-8.040638
30
0
11
22.809976
21
-8.2875
31
0
39
0
210
0
220
0
230
1
0
LINE
5
A2
100
AcDbEntity
8
1
62
256
6
ByLayer
370
18
48
1
60
0
100
AcDbLine
10
22.50252
20
-9.60851
30
0
11
21.401627
21
-10.362647
31
0
39
0
210
0
220
0
230
1
0
LINE
5
A3
100
AcDbEntity
8
1
62
256
6
ByLayer
370
18
48
1
60
0
100
AcDbLine
10
24.91102
20
-8.022219
30
0
11
24.51463
21
-8.001894
31
0
39
0
210
0
220
0
230
1
0
LINE
5
A4
100
AcDbEntity
8
1
62
256
6
ByLayer
370
18
48
1
60
0
100
AcDbLine
10
24.91102
20
-8.022219
30
0
11
24.91102
21
-10.852781
31
0
39
0
210
0
220
0
230
1
0
LINE
5
A5
100
AcDbEntity
8
1
62
256
6
ByLayer
370
18
48
1
60
0
100
AcDbLine
10
21.365346
20
-10.413949
30
0
11
20.177427
21
-10.413949
31
0
39
0
210
0
220
0
230
1
0
LINE
5
A6
100
AcDbEntity
8
1
62
256
6
ByLayer
370
18
48
1
60
0
100
AcDbLine
10
21.365346
20
-10.5875
30
0
11
22.809976
21
-10.5875
31
0
39
0
210
0
220
0
230
1
0
LINE
5
A7
100
AcDbEntity
8
1
62
256
6
ByLayer
370
18
48
1
60
0
100
AcDbLine
10
24.91102
20
-8.022219
30
0
11
26.682553
21
-7.91904
31
0
39
0
210
0
220
0
230
1
0
LINE
5
A8
100
AcDbEntity
8
1
62
256
6
ByLayer
370
18
48
1
60
0
100
AcDbLine
10
21.365346
20
-10.5875
30
0
11
21.365346
21
-10.413949
31
0
39
0
210
0
220
0
230
1
0
LINE
5
A9
100
AcDbEntity
8
1
62
256
6
ByLayer
370
18
48
1
60
0
100
AcDbLine
10
23.262252
20
-10.834362
30
0
11
22.809976
21
-10.5875
31
0
39
0
210
0
220
0
230
1
0
LINE
5
AA
100
AcDbEntity
8
1
62
256
6
ByLayer
370
18
48
1
60
0
100
AcDbLine
10
9.08898
20
-10.852781
30
0
11
9.48537
21
-10.873106
31
0
39
0
210
0
220
0
230
1
0
LINE
5
AB
100
AcDbEntity
8
1
62
256
6
ByLayer
370
18
48
1
60
0
100
AcDbLine
10
21.365346
20
-8.461051
30
0
11
20.177427
21
-8.461051
31
0
39
0
210
0
220
0
230
1
0
LINE
5
AC
100
AcDbEntity
8
1
62
256
6
ByLayer
370
18
48
1
60
0
100
AcDbLine
10
21.401626
20
-10.362646
30
0
11
20.199844
21
-10.362646
31
0
39
0
210
0
220
0
230
1
0
LINE
5
AD
100
AcDbEntity
8
1
62
256
6
ByLayer
370
18
48
1
60
0
100
AcDbLine
10
23.262252
20
-8.040638
30
0
11
24.51463
21
-8.001894
31
0
39
0
210
0
220
0
230
1
0
LINE
5
AE
100
AcDbEntity
8
SK1
62
256
6
ByLayer
370
18
48
1
60
0
100
AcDbLine
10
-99.35
20
10.0625
30
0
11
0
21
10.0625
31
0
39
0
210
0
220
0
230
1
0
LINE
5
AF
100
AcDbEntity
8
SK1
62
256
6
ByLayer
370
18
48
1
60
0
100
AcDbLine
10
0
20
-9.8125
30
0
11
-99.35
21
-9.8125
31
0
39
0
210
0
220
0
230
1
0
LINE
5
B0
100
AcDbEntity
8
SK1
62
256
6
ByLayer
370
18
48
1
60
0
100
AcDbLine
10
-99.35
20
-9.8125
30
0
11
-99.35
21
10.0625
31
0
39
0
210
0
220
0
230
1
0
MTEXT
5
E5
100
AcDbEntity
8
SK6
62
256
6
ByLayer
370
18
48
1
60
0
100
AcDbMText
10
-65.297475
20
-21.809779
30
0
210
0
220
0
230
1
1
\W0.7512;LF123G07-2020C
40
3.5
41
0
44
1.084337
50
0
71
7
72
5
7
iso_b_vert
0
DIMENSION
5
F6
100
AcDbEntity
8
2
62
256
6
ByLayer
370
13
48
1
60
0
100
AcDbDimension
2
DimnDraft3D1
10
41.25
20
-7.9375
30
0
11
41.25
21
-3.4375
31
0
70
32
71
5
72
1
41
1
210
0
220
0
230
1
3
Standard
100
AcDbAlignedDimension
13
28.5
23
-10.9375
33
0
14
28.5
24
-7.9375
34
0
50
90
100
AcDbRotatedDimension
1001
ACAD
1000
DSTYLE
1002
{
1070
    74
1070
     0
1070
   279
1070
     0
1070
   172
1070
     1
1070
   173
1070
     1
1070
   340
1005
E6
1070
   271
1070
     3
1070
   272
1070
     3
1070
    77
1070
     1
1070
    73
1070
     0
1070
   171
1070
     4
1070
   274
1070
     4
1070
   177
1070
     2
1070
   176
1070
     2
1070
   178
1070
     7
1070
    78
1070
     8
1070
    41
1041
3.0
1070
   147
1041
2.25
1070
    42
1041
1.5
1070
    44
1041
3.0
1070
   140
1041
4.5
1070
   343
1005
F7
1070
   344
1005
F7
1002
}
0
DIMENSION
5
10B
100
AcDbEntity
8
2
62
256
6
ByLayer
370
13
48
1
60
0
100
AcDbDimension
2
DimnDraft3D2
10
51.25
20
9.9375
30
0
11
51.25
21
-2.625658
31
0
70
32
71
5
72
1
41
1
210
0
220
0
230
1
3
Standard
100
AcDbAlignedDimension
13
28.5
23
-10.9375
33
0
14
1.5
24
9.9375
34
0
50
90
100
AcDbRotatedDimension
1001
ACAD
1000
DSTYLE
1002
{
1070
    74
1070
     0
1070
   279
1070
     0
1070
   172
1070
     1
1070
   173
1070
     1
1070
   340
1005
E6
1070
   271
1070
     3
1070
   272
1070
     3
1070
    77
1070
     1
1070
    73
1070
     0
1070
   171
1070
     4
1070
   274
1070
     4
1070
   177
1070
     2
1070
   176
1070
     2
1070
   178
1070
     7
1070
    78
1070
     8
1070
    41
1041
3.0
1070
   147
1041
2.25
1070
    42
1041
1.5
1070
    44
1041
3.0
1070
   140
1041
4.5
1070
   343
1005
F7
1070
   344
1005
F7
1002
}
0
DIMENSION
5
11A
100
AcDbEntity
8
SK2
62
256
6
ByLayer
370
13
48
1
60
0
100
AcDbDimension
2
DimnDraft3D3
10
-109.1
20
-9.9375
30
0
11
-109.1
21
-2.688158
31
0
70
32
71
5
72
1
41
1
210
0
220
0
230
1
3
Standard
100
AcDbAlignedDimension
13
-100.85
23
9.9375
33
0
14
-100.85
24
-9.9375
34
0
50
90
100
AcDbRotatedDimension
1001
ACAD
1000
DSTYLE
1002
{
1070
    74
1070
     0
1070
   279
1070
     0
1070
   172
1070
     1
1070
   173
1070
     1
1070
   340
1005
E6
1070
   271
1070
     3
1070
   272
1070
     3
1070
    77
1070
     1
1070
    73
1070
     0
1070
   171
1070
     4
1070
   274
1070
     4
1070
   177
1070
     2
1070
   176
1070
     2
1070
   178
1070
     7
1070
    78
1070
     8
1070
    41
1041
3.0
1070
   147
1041
2.25
1070
    42
1041
1.5
1070
    44
1041
3.0
1070
   140
1041
4.5
1070
   343
1005
F7
1070
   344
1005
F7
1002
}
0
DIMENSION
5
128
100
AcDbEntity
8
2
62
256
6
ByLayer
370
13
48
1
60
0
100
AcDbDimension
2
DimnDraft3D4
10
20
20
-24.1875
30
0
11
22.493421
21
-24.1875
31
0
70
32
71
5
72
1
41
1
210
0
220
0
230
1
3
Standard
100
AcDbAlignedDimension
13
27
23
-10.9375
33
0
14
20
24
-8.5625
34
0
50
0
100
AcDbRotatedDimension
1001
ACAD
1000
DSTYLE
1002
{
1070
   279
1070
     0
1070
   172
1070
     1
1070
   173
1070
     1
1070
   340
1005
E6
1070
   271
1070
     3
1070
   272
1070
     3
1070
    77
1070
     1
1070
    73
1070
     0
1070
   171
1070
     4
1070
   274
1070
     4
1070
   177
1070
     2
1070
   176
1070
     2
1070
   178
1070
     7
1070
    78
1070
     8
1070
    41
1041
3.0
1070
   147
1041
2.25
1070
    42
1041
1.5
1070
    44
1041
3.0
1070
   140
1041
4.5
1070
   343
1005
F7
1070
   344
1005
F7
1002
}
0
DIMENSION
5
136
100
AcDbEntity
8
2
62
256
6
ByLayer
370
13
48
1
60
0
100
AcDbDimension
2
DimnDraft3D5
10
0
20
20.8125
30
0
11
10.811842
21
20.8125
31
0
70
32
71
5
72
1
41
1
210
0
220
0
230
1
3
Standard
100
AcDbAlignedDimension
13
27
23
-6.4375
33
0
14
0
24
11.4375
34
0
50
0
100
AcDbRotatedDimension
1001
ACAD
1000
DSTYLE
1002
{
1070
   279
1070
     0
1070
   172
1070
     1
1070
   173
1070
     1
1070
   340
1005
E6
1070
   271
1070
     3
1070
   272
1070
     3
1070
    77
1070
     1
1070
    73
1070
     0
1070
   171
1070
     4
1070
   274
1070
     4
1070
   177
1070
     2
1070
   176
1070
     2
1070
   178
1070
     7
1070
    78
1070
     8
1070
    41
1041
3.0
1070
   147
1041
2.25
1070
    42
1041
1.5
1070
    44
1041
3.0
1070
   140
1041
4.5
1070
   343
1005
F7
1070
   344
1005
F7
1002
}
0
DIMENSION
5
144
100
AcDbEntity
8
SK2
62
256
6
ByLayer
370
13
48
1
60
0
100
AcDbDimension
2
DimnDraft3D6
10
-99.35
20
30.8125
30
0
11
-39.982237
21
30.8125
31
0
70
32
71
5
72
1
41
1
210
0
220
0
230
1
3
Standard
100
AcDbAlignedDimension
13
27
23
-6.4375
33
0
14
-99.35
24
11.4375
34
0
50
0
100
AcDbRotatedDimension
1001
ACAD
1000
DSTYLE
1002
{
1070
   279
1070
     0
1070
   172
1070
     1
1070
   173
1070
     1
1070
   340
1005
E6
1070
   271
1070
     3
1070
   272
1070
     3
1070
    77
1070
     1
1070
    73
1070
     0
1070
   171
1070
     4
1070
   274
1070
     4
1070
   177
1070
     2
1070
   176
1070
     2
1070
   178
1070
     7
1070
    78
1070
     8
1070
    41
1041
3.0
1070
   147
1041
2.25
1070
    42
1041
1.5
1070
    44
1041
3.0
1070
   140
1041
4.5
1070
   343
1005
F7
1070
   344
1005
F7
1002
}
0
ENDSEC
0
SECTION
2
OBJECTS
0
DICTIONARY
5
1ae
330
0
100
AcDbDictionary
280
0
281
1
3
ACAD_GROUP
350
1af
3
ACAD_MLINESTYLE
350
1b0
0
DICTIONARY
5
1af
330
0
100
AcDbDictionary
280
0
281
1
0
DICTIONARY
5
1b0
330
0
100
AcDbDictionary
280
0
281
1
3
Standard
350
18
0
MLINESTYLE
5
18
330
1b0
100
AcDbMlineStyle
2
Standard
70
0
3

62
256
51
90
52
90
71
2
49
-0.5
62
256
6
ByLayer
49
0.5
62
256
6
ByLayer
0
RASTERVARIABLES
5
19d
330

100
AcDbRasterVariables
90
0
70
1
71
1
72
1
0
ENDSEC
0
EOF
