0
SECTION
2
HEADER
9
$ACADVER
1
AC1015
9
$DWGCODEPAGE
3
ANSI_1252
9
$HANDSEED
5
1ae
9
$ANGBASE
50
0
9
$ANGDIR
70
0
9
$ATTMODE
70
1
9
$AUNITS
70
0
9
$AUPREC
70
0
9
$CECOLOR
62
256
9
$CELTSCALE
40
1
9
$CELTYPE
6
ByLayer
9
$CELWEIGHT
370
18
9
$CLAYER
8
0
9
$CMLJUST
70
0
9
$CMLSCALE
40
1
9
$CMLSTYLE
2
Standard
9
$DIMSTYLE
2
Standard
9
$TEXTSIZE
40
0.2
9
$TEXTSTYLE
7
Standard
9
$LUNITS
70
2
9
$LUPREC
70
4
9
$EXTNAMES
290
1
9
$INSUNITS
70
4
9
$LTSCALE
40
1
9
$LWDISPLAY
290
1
9
$PDMODE
70
0
9
$PDSIZE
40
0
9
$PLINEGEN
70
0
0
ENDSEC
0
SECTION
2
CLASSES
0
CLASS
1
RASTERVARIABLES
2
AcDbRasterVariables
3
ISM
90
0
280
0
281
0
0
ENDSEC
0
SECTION
2
TABLES
0
TABLE
2
VPORT
5
1a4
100
AcDbSymbolTable
0
VPORT
5
1
100
AcDbSymbolTableRecord
100
AcDbViewportTableRecord
2
*Active
70
0
10
0
20
0
11
1
21
1
12
-1
22
1
13
0
23
0
14
0.5
24
0.5
15
10
25
10
16
0
26
0
36
1
17
0
27
0
37
0
0
ENDTAB
0
TABLE
2
LTYPE
5
1a5
100
AcDbSymbolTable
0
LTYPE
5
14
100
AcDbSymbolTableRecord
100
AcDbLinetypeTableRecord
70
0
2
ByBlock
3

72
65
73
0
40
0
0
LTYPE
5
15
100
AcDbSymbolTableRecord
100
AcDbLinetypeTableRecord
70
0
2
ByLayer
3

72
65
73
0
40
0
0
LTYPE
5
16
100
AcDbSymbolTableRecord
100
AcDbLinetypeTableRecord
70
0
2
CONTINUOUS
3
Solid line
72
65
73
0
40
0
0
LTYPE
5
6A
100
AcDbSymbolTableRecord
100
AcDbLinetypeTableRecord
70
0
2
CENTER
3
____ _ ____ _ ____ _ ____
72
65
73
4
40
47.5
49
22
74
0
49
-8.5
74
0
49
8.5
74
0
49
-8.5
74
0
0
LTYPE
5
6B
100
AcDbSymbolTableRecord
100
AcDbLinetypeTableRecord
70
0
2
DASHED
3
__ __ __ __ __ __ __ __ __
72
65
73
2
40
25.72
49
12.86
74
0
49
-12.86
74
0
0
ENDTAB
0
TABLE
2
LAYER
5
1a6
100
AcDbSymbolTable
0
LAYER
5
10
100
AcDbSymbolTableRecord
100
AcDbLayerTableRecord
2
0
70
0
62
7
6
CONTINUOUS
290
1
370
-3
390
0
0
LAYER
5
6D
100
AcDbSymbolTableRecord
100
AcDbLayerTableRecord
2
2
70
0
62
7
6
CONTINUOUS
290
1
370
-3
390
0
0
LAYER
5
6F
100
AcDbSymbolTableRecord
100
AcDbLayerTableRecord
2
80
70
0
62
-6
6
CONTINUOUS
290
1
370
-3
390
0
0
LAYER
5
72
100
AcDbSymbolTableRecord
100
AcDbLayerTableRecord
2
81
70
0
62
-3
6
CONTINUOUS
290
1
370
-3
390
0
0
LAYER
5
76
100
AcDbSymbolTableRecord
100
AcDbLayerTableRecord
2
1
70
0
62
4
6
CONTINUOUS
290
1
370
-3
390
0
0
LAYER
5
191
100
AcDbSymbolTableRecord
100
AcDbLayerTableRecord
2
SK1
70
0
62
4
6
CONTINUOUS
290
1
370
-3
390
0
0
LAYER
5
192
100
AcDbSymbolTableRecord
100
AcDbLayerTableRecord
2
SK6
70
0
62
5
6
CONTINUOUS
290
1
370
-3
390
0
0
LAYER
5
193
100
AcDbSymbolTableRecord
100
AcDbLayerTableRecord
2
SK2
70
0
62
7
6
CONTINUOUS
290
1
370
-3
390
0
0
ENDTAB
0
TABLE
2
STYLE
5
1a7
100
AcDbSymbolTable
0
STYLE
5
11
100
AcDbSymbolTableRecord
100
AcDbTextStyleTableRecord
2
Standard
3
txt
70
0
71
0
40
0
41
1
42
0
50
0
0
STYLE
5
D9
100
AcDbSymbolTableRecord
100
AcDbTextStyleTableRecord
2
iso_b_vert
3
simplex.shx
70
0
71
0
40
0
41
1
42
0
50
0
0
STYLE
5
DA
100
AcDbSymbolTableRecord
100
AcDbTextStyleTableRecord
2
DWGDirectTextStyle
3
simplex
70
0
71
0
40
0
41
1
42
0
50
0
0
ENDTAB
0
TABLE
2
DIMSTYLE
5
1a8
100
AcDbSymbolTable
100
AcDbDimStyleTable
0
DIMSTYLE
105
27
100
AcDbSymbolTableRecord
100
AcDbDimStyleTableRecord
2
Standard
70
0
3
<>
41
0.18
42
0.0625
44
0.18
140
0.18
147
0.09
73
0
74
0
77
1
271
2
275
0
278
52
280
0
340
11
0
ENDTAB
0
TABLE
2
VIEW
5
1a9
100
AcDbSymbolTable
0
ENDTAB
0
TABLE
2
UCS
5
1aa
100
AcDbSymbolTable
0
ENDTAB
0
TABLE
2
APPID
5
1ab
100
AcDbSymbolTable
0
APPID
5
12
100
AcDbSymbolTableRecord
100
AcDbRegAppTableRecord
2
ACAD
70
0
0
ENDTAB
0
TABLE
2
BLOCK_RECORD
5
1ac
100
AcDbSymbolTable
0
BLOCK_RECORD
5
1F
100
AcDbSymbolTableRecord
100
AcDbBlockTableRecord
2
*Model_Space
340
0
70
0
0
BLOCK_RECORD
5
1B
100
AcDbSymbolTableRecord
100
AcDbBlockTableRecord
2
*Paper_Space
340
0
70
0
0
BLOCK_RECORD
5
23
100
AcDbSymbolTableRecord
100
AcDbBlockTableRecord
2
*Paper_Space0
340
0
70
0
0
BLOCK_RECORD
5
DC
100
AcDbSymbolTableRecord
100
AcDbBlockTableRecord
2
DimnDraft3D1
340
0
70
0
0
BLOCK_RECORD
5
EA
100
AcDbSymbolTableRecord
100
AcDbBlockTableRecord
2
_CLOSED
340
0
70
0
0
BLOCK_RECORD
5
F1
100
AcDbSymbolTableRecord
100
AcDbBlockTableRecord
2
DimnDraft3D2
340
0
70
0
0
BLOCK_RECORD
5
FF
100
AcDbSymbolTableRecord
100
AcDbBlockTableRecord
2
DimnDraft3D3
340
0
70
0
0
BLOCK_RECORD
5
10E
100
AcDbSymbolTableRecord
100
AcDbBlockTableRecord
2
DimnDraft3D4
340
0
70
0
0
BLOCK_RECORD
5
11C
100
AcDbSymbolTableRecord
100
AcDbBlockTableRecord
2
DimnDraft3D5
340
0
70
0
0
BLOCK_RECORD
5
12A
100
AcDbSymbolTableRecord
100
AcDbBlockTableRecord
2
DimnDraft3D6
340
0
70
0
0
ENDTAB
0
ENDSEC
0
SECTION
2
BLOCKS
0
BLOCK
5
20
100
AcDbEntity
8
0
100
AcDbBlockBegin
2
*Model_Space
70
0
10
0
20
0
30
0
3
*Model_Space
0
ENDBLK
5
21
100
AcDbEntity
8
0
100
AcDbBlockEnd
0
BLOCK
5
1C
100
AcDbEntity
8
0
100
AcDbBlockBegin
2
*Paper_Space
70
0
10
0
20
0
30
0
3
*Paper_Space
0
ENDBLK
5
1D
100
AcDbEntity
8
0
100
AcDbBlockEnd
0
BLOCK
5
24
100
AcDbEntity
8
0
100
AcDbBlockBegin
2
*Paper_Space0
70
0
10
0
20
0
30
0
3
*Paper_Space0
0
ENDBLK
5
25
100
AcDbEntity
8
0
100
AcDbBlockEnd
0
BLOCK
5
E7
100
AcDbEntity
8
0
100
AcDbBlockBegin
2
DimnDraft3D1
70
0
10
0
20
0
30
0
3
DimnDraft3D1
0
MTEXT
5
DD
100
AcDbEntity
8
2
62
256
6
ByLayer
370
18
48
1
60
0
100
AcDbMText
10
42.125
20
-0.8125
30
0
210
0
220
0
230
1
1
\W0.7121;2.5
40
4.5
41
0
44
1.084337
50
90
71
7
72
5
7
iso_b_vert
0
LINE
5
DE
100
AcDbEntity
8
2
62
256
6
ByLayer
370
13
48
1
60
0
100
AcDbLine
10
30.5
20
-8.9375
30
0
11
46.25
21
-8.9375
31
0
39
0
210
0
220
0
230
1
0
LINE
5
DF
100
AcDbEntity
8
2
62
256
6
ByLayer
370
13
48
1
60
0
100
AcDbLine
10
30.5
20
-6.4375
30
0
11
46.25
21
-6.4375
31
0
39
0
210
0
220
0
230
1
0
LINE
5
E0
100
AcDbEntity
8
2
62
256
6
ByLayer
370
13
48
1
60
0
100
AcDbLine
10
43.25
20
5.2625
30
0
11
43.25
21
-20.1875
31
0
39
0
210
0
220
0
230
1
0
LINE
5
E1
100
AcDbEntity
8
2
62
256
6
ByLayer
370
13
48
1
60
0
100
AcDbLine
10
43.25
20
-8.9375
30
0
11
43.644957
21
-11.937499
31
0
39
0
210
0
220
0
230
1
0
LINE
5
E2
100
AcDbEntity
8
2
62
256
6
ByLayer
370
13
48
1
60
0
100
AcDbLine
10
43.25
20
-8.9375
30
0
11
42.855043
21
-11.937501
31
0
39
0
210
0
220
0
230
1
0
LINE
5
E3
100
AcDbEntity
8
2
62
256
6
ByLayer
370
13
48
1
60
0
100
AcDbLine
10
43.644957
20
-11.937499
30
0
11
42.855043
21
-11.937501
31
0
39
0
210
0
220
0
230
1
0
LINE
5
E4
100
AcDbEntity
8
2
62
256
6
ByLayer
370
13
48
1
60
0
100
AcDbLine
10
43.25
20
-6.4375
30
0
11
42.855043
21
-3.437501
31
0
39
0
210
0
220
0
230
1
0
LINE
5
E5
100
AcDbEntity
8
2
62
256
6
ByLayer
370
13
48
1
60
0
100
AcDbLine
10
43.25
20
-6.4375
30
0
11
43.644957
21
-3.437499
31
0
39
0
210
0
220
0
230
1
0
LINE
5
E6
100
AcDbEntity
8
2
62
256
6
ByLayer
370
13
48
1
60
0
100
AcDbLine
10
42.855043
20
-3.437501
30
0
11
43.644957
21
-3.437499
31
0
39
0
210
0
220
0
230
1
0
ENDBLK
5
E8
100
AcDbEntity
8
0
100
AcDbBlockEnd
0
BLOCK
5
EB
100
AcDbEntity
8
0
100
AcDbBlockBegin
2
_CLOSED
70
0
10
0
20
0
30
0
3
_CLOSED
0
LINE
5
ED
100
AcDbEntity
8
0
62
256
6
ByLayer
370
-2
48
1
60
0
100
AcDbLine
10
-1
20
0.166667
30
0
11
0
21
0
31
0
39
0
210
0
220
0
230
1
0
LINE
5
EE
100
AcDbEntity
8
0
62
256
6
ByLayer
370
-2
48
1
60
0
100
AcDbLine
10
0
20
0
30
0
11
-1
21
-0.166667
31
0
39
0
210
0
220
0
230
1
0
LINE
5
EF
100
AcDbEntity
8
0
62
256
6
ByLayer
370
-2
48
1
60
0
100
AcDbLine
10
-1
20
0.166667
30
0
11
-1
21
-0.166667
31
0
39
0
210
0
220
0
230
1
0
LINE
5
F0
100
AcDbEntity
8
0
62
256
6
ByLayer
370
-2
48
1
60
0
100
AcDbLine
10
0
20
0
30
0
11
-1
21
0
31
0
39
0
210
0
220
0
230
1
0
ENDBLK
5
EC
100
AcDbEntity
8
0
100
AcDbBlockEnd
0
BLOCK
5
FC
100
AcDbEntity
8
0
100
AcDbBlockBegin
2
DimnDraft3D2
70
0
10
0
20
0
30
0
3
DimnDraft3D2
0
MTEXT
5
F2
100
AcDbEntity
8
2
62
256
6
ByLayer
370
18
48
1
60
0
100
AcDbMText
10
52.125
20
-1.500658
30
0
210
0
220
0
230
1
1
\W0.5321;17
40
4.5
41
0
44
1.084337
50
90
71
7
72
5
7
iso_b_vert
0
LINE
5
F3
100
AcDbEntity
8
2
62
256
6
ByLayer
370
13
48
1
60
0
100
AcDbLine
10
30.5
20
-8.9375
30
0
11
56.25
21
-8.9375
31
0
39
0
210
0
220
0
230
1
0
LINE
5
F4
100
AcDbEntity
8
2
62
256
6
ByLayer
370
13
48
1
60
0
100
AcDbLine
10
1.5
20
7.9375
30
0
11
56.25
21
7.9375
31
0
39
0
210
0
220
0
230
1
0
LINE
5
F5
100
AcDbEntity
8
2
62
256
6
ByLayer
370
13
48
1
60
0
100
AcDbLine
10
53.25
20
-8.9375
30
0
11
53.25
21
7.9375
31
0
39
0
210
0
220
0
230
1
0
LINE
5
F6
100
AcDbEntity
8
2
62
256
6
ByLayer
370
13
48
1
60
0
100
AcDbLine
10
53.25
20
-8.9375
30
0
11
52.855043
21
-5.937501
31
0
39
0
210
0
220
0
230
1
0
LINE
5
F7
100
AcDbEntity
8
2
62
256
6
ByLayer
370
13
48
1
60
0
100
AcDbLine
10
53.25
20
-8.9375
30
0
11
53.644957
21
-5.937499
31
0
39
0
210
0
220
0
230
1
0
LINE
5
F8
100
AcDbEntity
8
2
62
256
6
ByLayer
370
13
48
1
60
0
100
AcDbLine
10
52.855043
20
-5.937501
30
0
11
53.644957
21
-5.937499
31
0
39
0
210
0
220
0
230
1
0
LINE
5
F9
100
AcDbEntity
8
2
62
256
6
ByLayer
370
13
48
1
60
0
100
AcDbLine
10
53.25
20
7.9375
30
0
11
53.644957
21
4.937501
31
0
39
0
210
0
220
0
230
1
0
LINE
5
FA
100
AcDbEntity
8
2
62
256
6
ByLayer
370
13
48
1
60
0
100
AcDbLine
10
53.25
20
7.9375
30
0
11
52.855043
21
4.937499
31
0
39
0
210
0
220
0
230
1
0
LINE
5
FB
100
AcDbEntity
8
2
62
256
6
ByLayer
370
13
48
1
60
0
100
AcDbLine
10
53.644957
20
4.937501
30
0
11
52.855043
21
4.937499
31
0
39
0
210
0
220
0
230
1
0
ENDBLK
5
FD
100
AcDbEntity
8
0
100
AcDbBlockEnd
0
BLOCK
5
10B
100
AcDbEntity
8
0
100
AcDbBlockBegin
2
DimnDraft3D3
70
0
10
0
20
0
30
0
3
DimnDraft3D3
0
MTEXT
5
100
100
AcDbEntity
8
SK2
62
256
6
ByLayer
370
18
48
1
60
0
100
AcDbMText
10
-108.225
20
-1.000658
30
0
210
0
220
0
230
1
1
\W0.5321;16
40
4.5
41
0
44
1.084337
50
90
71
7
72
5
7
iso_b_vert
0
LINE
5
102
100
AcDbEntity
8
SK2
62
256
6
ByLayer
370
13
48
1
60
0
100
AcDbLine
10
-98.85
20
7.9375
30
0
11
-110.1
21
7.9375
31
0
39
0
210
0
220
0
230
1
0
LINE
5
103
100
AcDbEntity
8
SK2
62
256
6
ByLayer
370
13
48
1
60
0
100
AcDbLine
10
-98.85
20
-7.9375
30
0
11
-110.1
21
-7.9375
31
0
39
0
210
0
220
0
230
1
0
LINE
5
104
100
AcDbEntity
8
SK2
62
256
6
ByLayer
370
13
48
1
60
0
100
AcDbLine
10
-107.1
20
7.9375
30
0
11
-107.1
21
-7.9375
31
0
39
0
210
0
220
0
230
1
0
LINE
5
105
100
AcDbEntity
8
SK2
62
256
6
ByLayer
370
13
48
1
60
0
100
AcDbLine
10
-107.1
20
7.9375
30
0
11
-106.705043
21
4.937501
31
0
39
0
210
0
220
0
230
1
0
LINE
5
106
100
AcDbEntity
8
SK2
62
256
6
ByLayer
370
13
48
1
60
0
100
AcDbLine
10
-107.1
20
7.9375
30
0
11
-107.494957
21
4.937499
31
0
39
0
210
0
220
0
230
1
0
LINE
5
107
100
AcDbEntity
8
SK2
62
256
6
ByLayer
370
13
48
1
60
0
100
AcDbLine
10
-106.705043
20
4.937501
30
0
11
-107.494957
21
4.937499
31
0
39
0
210
0
220
0
230
1
0
LINE
5
108
100
AcDbEntity
8
SK2
62
256
6
ByLayer
370
13
48
1
60
0
100
AcDbLine
10
-107.1
20
-7.9375
30
0
11
-107.494957
21
-4.937501
31
0
39
0
210
0
220
0
230
1
0
LINE
5
109
100
AcDbEntity
8
SK2
62
256
6
ByLayer
370
13
48
1
60
0
100
AcDbLine
10
-107.1
20
-7.9375
30
0
11
-106.705043
21
-4.937499
31
0
39
0
210
0
220
0
230
1
0
LINE
5
10A
100
AcDbEntity
8
SK2
62
256
6
ByLayer
370
13
48
1
60
0
100
AcDbLine
10
-107.494957
20
-4.937501
30
0
11
-106.705043
21
-4.937499
31
0
39
0
210
0
220
0
230
1
0
ENDBLK
5
10C
100
AcDbEntity
8
0
100
AcDbBlockEnd
0
BLOCK
5
119
100
AcDbEntity
8
0
100
AcDbBlockBegin
2
DimnDraft3D4
70
0
10
0
20
0
30
0
3
DimnDraft3D4
0
MTEXT
5
10F
100
AcDbEntity
8
2
62
256
6
ByLayer
370
18
48
1
60
0
100
AcDbMText
10
22.999342
20
-21.0625
30
0
210
0
220
0
230
1
1
\W0.5321;10
40
4.5
41
0
44
1.084337
50
0
71
7
72
5
7
iso_b_vert
0
LINE
5
110
100
AcDbEntity
8
2
62
256
6
ByLayer
370
13
48
1
60
0
100
AcDbLine
10
29
20
-9.1875
30
0
11
29
21
-25.1875
31
0
39
0
210
0
220
0
230
1
0
LINE
5
111
100
AcDbEntity
8
2
62
256
6
ByLayer
370
13
48
1
60
0
100
AcDbLine
10
19
20
-7.0625
30
0
11
19
21
-25.1875
31
0
39
0
210
0
220
0
230
1
0
LINE
5
112
100
AcDbEntity
8
2
62
256
6
ByLayer
370
13
48
1
60
0
100
AcDbLine
10
40.25
20
-22.1875
30
0
11
7.75
21
-22.1875
31
0
39
0
210
0
220
0
230
1
0
LINE
5
113
100
AcDbEntity
8
2
62
256
6
ByLayer
370
13
48
1
60
0
100
AcDbLine
10
29
20
-22.1875
30
0
11
31.999999
21
-21.792543
31
0
39
0
210
0
220
0
230
1
0
LINE
5
114
100
AcDbEntity
8
2
62
256
6
ByLayer
370
13
48
1
60
0
100
AcDbLine
10
29
20
-22.1875
30
0
11
32.000001
21
-22.582457
31
0
39
0
210
0
220
0
230
1
0
LINE
5
115
100
AcDbEntity
8
2
62
256
6
ByLayer
370
13
48
1
60
0
100
AcDbLine
10
31.999999
20
-21.792543
30
0
11
32.000001
21
-22.582457
31
0
39
0
210
0
220
0
230
1
0
LINE
5
116
100
AcDbEntity
8
2
62
256
6
ByLayer
370
13
48
1
60
0
100
AcDbLine
10
19
20
-22.1875
30
0
11
16.000001
21
-22.582457
31
0
39
0
210
0
220
0
230
1
0
LINE
5
117
100
AcDbEntity
8
2
62
256
6
ByLayer
370
13
48
1
60
0
100
AcDbLine
10
19
20
-22.1875
30
0
11
15.999999
21
-21.792543
31
0
39
0
210
0
220
0
230
1
0
LINE
5
118
100
AcDbEntity
8
2
62
256
6
ByLayer
370
13
48
1
60
0
100
AcDbLine
10
16.000001
20
-22.582457
30
0
11
15.999999
21
-21.792543
31
0
39
0
210
0
220
0
230
1
0
ENDBLK
5
11A
100
AcDbEntity
8
0
100
AcDbBlockEnd
0
BLOCK
5
127
100
AcDbEntity
8
0
100
AcDbBlockBegin
2
DimnDraft3D5
70
0
10
0
20
0
30
0
3
DimnDraft3D5
0
MTEXT
5
11D
100
AcDbEntity
8
2
62
256
6
ByLayer
370
18
48
1
60
0
100
AcDbMText
10
12.936842
20
19.9375
30
0
210
0
220
0
230
1
1
\W0.6927;29
40
4.5
41
0
44
1.084337
50
0
71
7
72
5
7
iso_b_vert
0
LINE
5
11E
100
AcDbEntity
8
2
62
256
6
ByLayer
370
13
48
1
60
0
100
AcDbLine
10
29
20
-4.9375
30
0
11
29
21
21.8125
31
0
39
0
210
0
220
0
230
1
0
LINE
5
11F
100
AcDbEntity
8
2
62
256
6
ByLayer
370
13
48
1
60
0
100
AcDbLine
10
0
20
9.4375
30
0
11
0
21
21.8125
31
0
39
0
210
0
220
0
230
1
0
LINE
5
120
100
AcDbEntity
8
2
62
256
6
ByLayer
370
13
48
1
60
0
100
AcDbLine
10
29
20
18.8125
30
0
11
0
21
18.8125
31
0
39
0
210
0
220
0
230
1
0
LINE
5
121
100
AcDbEntity
8
2
62
256
6
ByLayer
370
13
48
1
60
0
100
AcDbLine
10
29
20
18.8125
30
0
11
26.000001
21
18.417543
31
0
39
0
210
0
220
0
230
1
0
LINE
5
122
100
AcDbEntity
8
2
62
256
6
ByLayer
370
13
48
1
60
0
100
AcDbLine
10
29
20
18.8125
30
0
11
25.999999
21
19.207457
31
0
39
0
210
0
220
0
230
1
0
LINE
5
123
100
AcDbEntity
8
2
62
256
6
ByLayer
370
13
48
1
60
0
100
AcDbLine
10
26.000001
20
18.417543
30
0
11
25.999999
21
19.207457
31
0
39
0
210
0
220
0
230
1
0
LINE
5
124
100
AcDbEntity
8
2
62
256
6
ByLayer
370
13
48
1
60
0
100
AcDbLine
10
0
20
18.8125
30
0
11
2.999999
21
19.207457
31
0
39
0
210
0
220
0
230
1
0
LINE
5
125
100
AcDbEntity
8
2
62
256
6
ByLayer
370
13
48
1
60
0
100
AcDbLine
10
0
20
18.8125
30
0
11
3.000001
21
18.417543
31
0
39
0
210
0
220
0
230
1
0
LINE
5
126
100
AcDbEntity
8
2
62
256
6
ByLayer
370
13
48
1
60
0
100
AcDbLine
10
2.999999
20
19.207457
30
0
11
3.000001
21
18.417543
31
0
39
0
210
0
220
0
230
1
0
ENDBLK
5
128
100
AcDbEntity
8
0
100
AcDbBlockEnd
0
BLOCK
5
135
100
AcDbEntity
8
0
100
AcDbBlockBegin
2
DimnDraft3D6
70
0
10
0
20
0
30
0
3
DimnDraft3D6
0
MTEXT
5
12B
100
AcDbEntity
8
SK2
62
256
6
ByLayer
370
18
48
1
60
0
100
AcDbMText
10
-36.857237
20
29.9375
30
0
210
0
220
0
230
1
1
\W0.6217;125
40
4.5
41
0
44
1.084337
50
0
71
7
72
5
7
iso_b_vert
0
LINE
5
12C
100
AcDbEntity
8
SK2
62
256
6
ByLayer
370
13
48
1
60
0
100
AcDbLine
10
29
20
-4.9375
30
0
11
29
21
31.8125
31
0
39
0
210
0
220
0
230
1
0
LINE
5
12D
100
AcDbEntity
8
SK2
62
256
6
ByLayer
370
13
48
1
60
0
100
AcDbLine
10
-97.35
20
9.4375
30
0
11
-97.35
21
31.8125
31
0
39
0
210
0
220
0
230
1
0
LINE
5
12E
100
AcDbEntity
8
SK2
62
256
6
ByLayer
370
13
48
1
60
0
100
AcDbLine
10
29
20
28.8125
30
0
11
-97.35
21
28.8125
31
0
39
0
210
0
220
0
230
1
0
LINE
5
12F
100
AcDbEntity
8
SK2
62
256
6
ByLayer
370
13
48
1
60
0
100
AcDbLine
10
29
20
28.8125
30
0
11
26.000001
21
28.417543
31
0
39
0
210
0
220
0
230
1
0
LINE
5
130
100
AcDbEntity
8
SK2
62
256
6
ByLayer
370
13
48
1
60
0
100
AcDbLine
10
29
20
28.8125
30
0
11
25.999999
21
29.207457
31
0
39
0
210
0
220
0
230
1
0
LINE
5
131
100
AcDbEntity
8
SK2
62
256
6
ByLayer
370
13
48
1
60
0
100
AcDbLine
10
26.000001
20
28.417543
30
0
11
25.999999
21
29.207457
31
0
39
0
210
0
220
0
230
1
0
LINE
5
132
100
AcDbEntity
8
SK2
62
256
6
ByLayer
370
13
48
1
60
0
100
AcDbLine
10
-97.35
20
28.8125
30
0
11
-94.350001
21
29.207457
31
0
39
0
210
0
220
0
230
1
0
LINE
5
133
100
AcDbEntity
8
SK2
62
256
6
ByLayer
370
13
48
1
60
0
100
AcDbLine
10
-97.35
20
28.8125
30
0
11
-94.349999
21
28.417543
31
0
39
0
210
0
220
0
230
1
0
LINE
5
134
100
AcDbEntity
8
SK2
62
256
6
ByLayer
370
13
48
1
60
0
100
AcDbLine
10
-94.350001
20
29.207457
30
0
11
-94.349999
21
28.417543
31
0
39
0
210
0
220
0
230
1
0
ENDBLK
5
136
100
AcDbEntity
8
0
100
AcDbBlockEnd
0
ENDSEC
0
SECTION
2
ENTITIES
0
ARC
5
A4
100
AcDbEntity
8
1
62
256
6
ByLayer
370
18
48
1
60
0
100
AcDbCircle
39
0
10
19.1
20
-5.0875
30
0
40
1.60000000000021
210
0
220
0
230
1
100
AcDbArc
50
180
51
270
0
ARC
5
A6
100
AcDbEntity
8
1
62
256
6
ByLayer
370
18
48
1
60
0
100
AcDbCircle
39
0
10
12.5
20
-1.1875
30
0
40
1.416
210
0
220
0
230
1
100
AcDbArc
50
96.192438
51
150.190711
0
ARC
5
A7
100
AcDbEntity
8
1
62
256
6
ByLayer
370
18
48
1
60
0
100
AcDbCircle
39
0
10
12.5
20
-1.1875
30
0
40
1.416
210
0
220
0
230
1
100
AcDbArc
50
263.807562
51
276.192438
0
ARC
5
A8
100
AcDbEntity
8
1
62
256
6
ByLayer
370
18
48
1
60
0
100
AcDbCircle
39
0
10
12.5
20
-1.1875
30
0
40
1.9685
210
0
220
0
230
1
100
AcDbArc
50
120.381422
51
180
0
ARC
5
A9
100
AcDbEntity
8
1
62
256
6
ByLayer
370
18
48
1
60
0
100
AcDbCircle
39
0
10
12.5
20
-1.1875
30
0
40
1.416
210
0
220
0
230
1
100
AcDbArc
50
29.809289
51
83.807562
0
ARC
5
AA
100
AcDbEntity
8
1
62
256
6
ByLayer
370
18
48
1
60
0
100
AcDbCircle
39
0
10
12.5
20
-1.1875
30
0
40
1.416
210
0
220
0
230
1
100
AcDbArc
50
330.190711
51
29.809289
0
ARC
5
AB
100
AcDbEntity
8
1
62
256
6
ByLayer
370
18
48
1
60
0
100
AcDbCircle
39
0
10
12.5
20
-1.1875
30
0
40
1.9685
210
0
220
0
230
1
100
AcDbArc
50
239.618578
51
300.381422
0
ARC
5
AC
100
AcDbEntity
8
1
62
256
6
ByLayer
370
18
48
1
60
0
100
AcDbCircle
39
0
10
12.5
20
-1.1875
30
0
40
1.9685
210
0
220
0
230
1
100
AcDbArc
50
180
51
239.618578
0
ARC
5
AD
100
AcDbEntity
8
1
62
256
6
ByLayer
370
18
48
1
60
0
100
AcDbCircle
39
0
10
12.5
20
-1.1875
30
0
40
1.416
210
0
220
0
230
1
100
AcDbArc
50
83.807562
51
96.192438
0
ARC
5
AE
100
AcDbEntity
8
1
62
256
6
ByLayer
370
18
48
1
60
0
100
AcDbCircle
39
0
10
12.5
20
-1.1875
30
0
40
1.416
210
0
220
0
230
1
100
AcDbArc
50
276.192438
51
330.190711
0
ARC
5
AF
100
AcDbEntity
8
1
62
256
6
ByLayer
370
18
48
1
60
0
100
AcDbCircle
39
0
10
12.5
20
-1.1875
30
0
40
1.9685
210
0
220
0
230
1
100
AcDbArc
50
59.618578
51
120.381422
0
ARC
5
B0
100
AcDbEntity
8
1
62
256
6
ByLayer
370
18
48
1
60
0
100
AcDbCircle
39
0
10
12.5
20
-1.1875
30
0
40
1.9685
210
0
220
0
230
1
100
AcDbArc
50
360
51
59.618578
0
ARC
5
B1
100
AcDbEntity
8
1
62
256
6
ByLayer
370
18
48
1
60
0
100
AcDbCircle
39
0
10
12.5
20
-1.1875
30
0
40
1.416
210
0
220
0
230
1
100
AcDbArc
50
209.809289
51
263.807562
0
ARC
5
B2
100
AcDbEntity
8
1
62
256
6
ByLayer
370
18
48
1
60
0
100
AcDbCircle
39
0
10
12.5
20
-1.1875
30
0
40
1.416
210
0
220
0
230
1
100
AcDbArc
50
150.190711
51
209.809289
0
ARC
5
B3
100
AcDbEntity
8
1
62
256
6
ByLayer
370
18
48
1
60
0
100
AcDbCircle
39
0
10
12.5
20
-1.1875
30
0
40
1.9685
210
0
220
0
230
1
100
AcDbArc
50
300.381422
51
360
0
CIRCLE
5
A5
100
AcDbEntity
8
1
62
256
6
ByLayer
370
18
48
1
60
0
100
AcDbCircle
10
12.5
20
-1.1875
30
0
40
4
39
0
210
0
220
0
230
1
0
CIRCLE
5
B4
100
AcDbEntity
8
1
62
256
6
ByLayer
370
18
48
1
60
0
100
AcDbCircle
10
-12.5
20
-1.1875
30
0
40
3.5
39
0
210
0
220
0
230
-1
0
CIRCLE
5
B5
100
AcDbEntity
8
1
62
256
6
ByLayer
370
18
48
1
60
0
100
AcDbCircle
10
-12.5
20
-1.1875
30
0
40
3
39
0
210
0
220
0
230
-1
0
POINT
5
6C
100
AcDbEntity
8
2
62
256
6
ByLayer
370
18
48
1
60
0
100
AcDbPoint
10
29
20
7.8125
30
0
39
0
210
0
220
0
230
1
50
360
0
POINT
5
6E
100
AcDbEntity
8
80
62
256
6
ByLayer
370
18
48
1
60
0
100
AcDbPoint
10
0
20
0
30
0
39
0
210
0
220
0
230
1
50
360
0
POINT
5
70
100
AcDbEntity
8
2
62
256
6
ByLayer
370
18
48
1
60
0
100
AcDbPoint
10
29
20
9.0625
30
0
39
0
210
0
220
0
230
1
50
360
0
POINT
5
71
100
AcDbEntity
8
81
62
256
6
ByLayer
370
18
48
1
60
0
100
AcDbPoint
10
29
20
-8.9375
30
0
39
0
210
0
220
0
230
1
50
360
0
SPLINE
5
B6
100
AcDbEntity
8
1
62
256
6
ByLayer
370
18
48
1
60
0
100
AcDbSpline
70
4
71
3
72
8
73
4
40
0
40
0
40
0
40
0
40
1
40
1
40
1
40
1
41
1
10
22.3347213363938
20
-7.10801393293389
30
0
41
1
10
22.3640675746453
20
-7.19846921559815
30
0
41
1
10
22.393183301483
20
-7.28903619766396
30
0
41
1
10
22.4221326592751
20
-7.37968187100694
30
0
0
SPLINE
5
B7
100
AcDbEntity
8
1
62
256
6
ByLayer
370
18
48
1
60
0
100
AcDbSpline
70
4
71
3
72
8
73
4
40
0
40
0
40
0
40
0
40
1
40
1
40
1
40
1
41
1
10
22.3198188192063
20
-7.06771487372626
30
0
41
1
10
22.3252956695267
20
-7.08084948474769
30
0
41
1
10
22.3302757516627
20
-7.09431109919962
30
0
41
1
10
22.334721336394
20
-7.1080139329338
30
0
0
SPLINE
5
B8
100
AcDbEntity
8
1
62
256
6
ByLayer
370
18
48
1
60
0
100
AcDbSpline
70
4
71
3
72
8
73
4
40
0
40
0
40
0
40
0
40
1
40
1
40
1
40
1
41
1
10
22.1577271893195
20
-6.68750000000003
30
0
41
1
10
22.2129473875573
20
-6.8134815264203
30
0
41
1
10
22.2667235871477
20
-6.94038161110512
30
0
41
1
10
22.3198188192064
20
-7.06771487372617
30
0
0
SPLINE
5
B9
100
AcDbEntity
8
1
62
256
6
ByLayer
370
18
48
1
60
0
100
AcDbSpline
70
4
71
3
72
8
73
4
40
0
40
0
40
0
40
0
40
1
40
1
40
1
40
1
41
1
10
22.3198188192061
20
-8.30728512627371
30
0
41
1
10
22.2667259854331
20
-8.43461263731356
30
0
41
1
10
22.2129440813546
20
-8.5615260164804
30
0
41
1
10
22.1577271893195
20
-8.68750000000006
30
0
0
SPLINE
5
BA
100
AcDbEntity
8
1
62
256
6
ByLayer
370
18
48
1
60
0
100
AcDbSpline
70
4
71
3
72
8
73
4
40
0
40
0
40
0
40
0
40
1
40
1
40
1
40
1
41
1
10
22.334721336394
20
-8.26698606706631
30
0
41
1
10
22.3302757516627
20
-8.28068890080047
30
0
41
1
10
22.3252956695267
20
-8.2941505152524
30
0
41
1
10
22.3198188192063
20
-8.30728512627383
30
0
0
SPLINE
5
BB
100
AcDbEntity
8
1
62
256
6
ByLayer
370
18
48
1
60
0
100
AcDbSpline
70
4
71
3
72
8
73
4
40
0
40
0
40
0
40
0
40
1
40
1
40
1
40
1
41
1
10
22.4221326592751
20
-7.99531812899315
30
0
41
1
10
22.393183301483
20
-8.08596380233612
30
0
41
1
10
22.3640675746453
20
-8.17653078440193
30
0
41
1
10
22.3347213363938
20
-8.2669860670662
30
0
0
SPLINE
5
BC
100
AcDbEntity
8
1
62
256
6
ByLayer
370
18
48
1
60
0
100
AcDbSpline
70
4
71
3
72
12
73
8
40
0
40
0
40
0
40
0
40
0.453618056453297
40
0.453618056453297
40
0.907615393973133
40
0.907615393973133
40
1
40
1
40
1
40
1
41
1
10
22.4221326592751
20
-7.37968187100694
30
0
41
1
10
22.4503228797728
20
-7.46795054822769
30
0
41
1
10
22.4664694738804
20
-7.56335788430059
30
0
41
1
10
22.4718769401848
20
-7.75280034330444
30
0
41
1
10
22.4611888871252
20
-7.84943468857881
30
0
41
1
10
22.4332611352417
20
-7.95861312750981
30
0
41
1
10
22.4279529458995
20
-7.9770937592539
30
0
41
1
10
22.4221326592752
20
-7.99531812899318
30
0
0
SPLINE
5
BD
100
AcDbEntity
8
1
62
256
6
ByLayer
370
18
48
1
60
0
100
AcDbSpline
70
4
71
11
72
24
73
12
40
0
40
0
40
0
40
0
40
0
40
0
40
0
40
0
40
0
40
0
40
0
40
0
40
1
40
1
40
1
40
1
40
1
40
1
40
1
40
1
40
1
40
1
40
1
40
1
41
1
10
23.33208888614
20
-7.68749027019905
30
0
41
1
10
23.3320885774034
20
-7.67162452505707
30
0
41
1
10
23.3315344805201
20
-7.65575879094251
30
0
41
1
10
23.3304265959462
20
-7.63991454517381
30
0
41
1
10
23.3287658611896
20
-7.62411326516997
30
0
41
1
10
23.3265541508386
20
-7.60837638166925
30
0
41
1
10
23.3237942738315
20
-7.59272523196981
30
0
41
1
10
23.3204899680386
20
-7.57718101337486
30
0
41
1
10
23.3166458920959
20
-7.56176473702496
30
0
41
1
10
23.3122676146404
20
-7.54649718230507
30
0
41
1
10
23.3073616008477
20
-7.53139885200235
30
0
41
1
10
23.30193519646
20
-7.51648992839702
30
0
0
SPLINE
5
BE
100
AcDbEntity
8
1
62
256
6
ByLayer
370
18
48
1
60
0
100
AcDbSpline
70
4
71
11
72
24
73
12
40
0
40
0
40
0
40
0
40
0
40
0
40
0
40
0
40
0
40
0
40
0
40
0
40
1
40
1
40
1
40
1
40
1
40
1
40
1
40
1
40
1
40
1
40
1
40
1
41
1
10
23.33208888614
20
-7.68749027019905
30
0
41
1
10
23.33208919492
20
-7.70335778439602
30
0
41
1
10
23.33153559205
20
-7.71922530912073
30
0
41
1
10
23.33042807715
20
-7.73507135986972
30
0
41
1
10
23.32876758731
20
-7.75087445200254
30
0
41
1
10
23.32655599712
20
-7.76661314754884
30
0
41
1
10
23.32379611594
20
-7.78226610199423
30
0
41
1
10
23.32049168248
20
-7.79781211086103
30
0
41
1
10
23.31664735663
20
-7.81323015590203
30
0
41
1
10
23.31226870869
20
-7.82849945071902
30
0
41
1
10
23.3073622059
20
-7.84359948563002
30
0
41
1
10
23.30193519646
20
-7.85851007160304
30
0
0
SPLINE
5
BF
100
AcDbEntity
8
1
62
256
6
ByLayer
370
18
48
1
60
0
100
AcDbSpline
70
4
71
5
72
12
73
6
40
0
40
0
40
0
40
0
40
0
40
0
40
1
40
1
40
1
40
1
40
1
40
1
41
1
10
28.99999999993
20
-8.73750000305003
30
0
41
1
10
28.99997799049
20
-8.80205770093002
30
0
41
1
10
28.97403753287
20
-8.86673703550002
30
0
41
1
10
28.92152261689
20
-8.91700912960005
30
0
41
1
10
28.85577333583
20
-8.94010362439005
30
0
41
1
10
28.79127612253
20
-8.93730964432004
30
0
0
SPLINE
5
C0
100
AcDbEntity
8
1
62
256
6
ByLayer
370
18
48
1
60
0
100
AcDbSpline
70
4
71
5
72
12
73
6
40
0
40
0
40
0
40
0
40
0
40
0
40
1
40
1
40
1
40
1
40
1
40
1
41
1
10
28.99999999993
20
-6.63749999695003
30
0
41
1
10
28.99997799049
20
-6.57294229907004
30
0
41
1
10
28.97403753287
20
-6.50826296450003
30
0
41
1
10
28.92152261689
20
-6.45799087040004
30
0
41
1
10
28.85577333583
20
-6.43489637561004
30
0
41
1
10
28.79127612253
20
-6.43769035568005
30
0
0
SPLINE
5
C1
100
AcDbEntity
8
1
62
256
6
ByLayer
370
18
48
1
60
0
100
AcDbSpline
70
4
71
11
72
24
73
12
40
0
40
0
40
0
40
0
40
0
40
0
40
0
40
0
40
0
40
0
40
0
40
0
40
1
40
1
40
1
40
1
40
1
40
1
40
1
40
1
40
1
40
1
40
1
40
1
41
1
10
23.07300158507
20
-8.51394904710602
30
0
41
1
10
23.07300158507
20
-8.50918905823704
30
0
41
1
10
23.07316774002
20
-8.50442906936902
30
0
41
1
10
23.07350004993
20
-8.49967552483602
30
0
41
1
10
23.07399823361
20
-8.49493486897504
30
0
41
1
10
23.07466172868
20
-8.49021353209804
30
0
41
1
10
23.0754896924
20
-8.48551791647802
30
0
41
1
10
23.07648100329
20
-8.48085438237402
30
0
41
1
10
23.07763426355
20
-8.47622923418902
30
0
41
1
10
23.07894780236
20
-8.47164870678603
30
0
41
1
10
23.08041967985
20
-8.46711895202904
30
0
41
1
10
23.08204769193
20
-8.46264602561502
30
0
0
SPLINE
5
C2
100
AcDbEntity
8
1
62
256
6
ByLayer
370
18
48
1
60
0
100
AcDbSpline
70
4
71
11
72
24
73
12
40
0
40
0
40
0
40
0
40
0
40
0
40
0
40
0
40
0
40
0
40
0
40
0
40
1
40
1
40
1
40
1
40
1
40
1
40
1
40
1
40
1
40
1
40
1
40
1
41
1
10
23.07300158507
20
-6.86105095289403
30
0
41
1
10
23.07300158507
20
-6.86581094176302
30
0
41
1
10
23.07316774002
20
-6.87057093063103
30
0
41
1
10
23.07350004993
20
-6.87532447516404
30
0
41
1
10
23.07399823361
20
-6.88006513102502
30
0
41
1
10
23.07466172868
20
-6.88478646790202
30
0
41
1
10
23.0754896924
20
-6.88948208352204
30
0
41
1
10
23.07648100329
20
-6.89414561762604
30
0
41
1
10
23.07763426355
20
-6.89877076581104
30
0
41
1
10
23.07894780236
20
-6.90335129321403
30
0
41
1
10
23.08041967985
20
-6.90788104797102
30
0
41
1
10
23.08204769193
20
-6.91235397438501
30
0
0
SPLINE
5
C3
100
AcDbEntity
8
1
62
256
6
ByLayer
370
18
48
1
60
0
100
AcDbSpline
70
4
71
5
72
12
73
6
40
0
40
0
40
0
40
0
40
0
40
0
40
1
40
1
40
1
40
1
40
1
40
1
41
1
10
9.00000000006997
20
-8.73750000305
30
0
41
1
10
9.00002200950999
20
-8.80205770093002
30
0
41
1
10
9.02596246712997
20
-8.86673703550002
30
0
41
1
10
9.07847738310997
20
-8.91700912960002
30
0
41
1
10
9.14422666416999
20
-8.94010362439002
30
0
41
1
10
9.20872387746996
20
-8.93730964432001
30
0
0
SPLINE
5
C4
100
AcDbEntity
8
1
62
256
6
ByLayer
370
18
48
1
60
0
100
AcDbSpline
70
4
71
3
72
14
73
10
40
0
40
0
40
0
40
0
40
0.281038222380406
40
0.281038222380406
40
0.564557857067056
40
0.564557857067056
40
0.820700196130078
40
0.820700196130078
40
1
40
1
40
1
40
1
41
1
10
11.9078822958328
20
0.456082628088751
30
0
41
1
10
11.8813006245731
20
0.483412369069953
30
0
41
1
10
11.849043969095
20
0.506865524535897
30
0
41
1
10
11.777235194489
20
0.541074860426932
30
0
41
1
10
11.7364720760798
20
0.552184759044849
30
0
41
1
10
11.6571729147492
20
0.557848685574214
30
0
41
1
10
11.6175924873016
20
0.553911725643076
30
0
41
1
10
11.5539176730121
20
0.535615434645649
30
0
41
1
10
11.5281706327858
20
0.524603298463404
30
0
41
1
10
11.5044231104048
20
0.51068105833977
30
0
0
SPLINE
5
C5
100
AcDbEntity
8
1
62
256
6
ByLayer
370
18
48
1
60
0
100
AcDbSpline
70
4
71
3
72
16
73
12
40
0
40
0
40
0
40
0
40
0.0645965064171439
40
0.0645965064171439
40
0.282747320500309
40
0.282747320500309
40
0.50385158140722
40
0.50385158140722
40
0.739476498257835
40
0.739476498257835
40
1
40
1
40
1
40
1
41
1
10
11.5044231104048
20
-2.88568105833977
30
0
41
1
10
11.513014252084
20
-2.89071770744678
30
0
41
1
10
11.5218448367852
20
-2.89537061464472
30
0
41
1
10
11.5610594082809
20
-2.91381831327183
30
0
41
1
10
11.5937837130779
20
-2.92343690823566
30
0
41
1
10
11.6593454694517
20
-2.93245955
30
0
41
1
10
11.6930080641066
20
-2.9318653386228
30
0
41
1
10
11.7588630387573
20
-2.92103188575985
30
0
41
1
10
11.7916435993958
20
-2.91006237928639
30
0
41
1
10
11.8537963059871
20
-2.87838505353068
30
0
41
1
10
11.8832521428563
20
-2.85640593054782
30
0
41
1
10
11.9078822958328
20
-2.83108262808878
30
0
0
SPLINE
5
C6
100
AcDbEntity
8
1
62
256
6
ByLayer
370
18
48
1
60
0
100
AcDbSpline
70
4
71
3
72
18
73
14
40
0
40
0
40
0
40
0
40
0.213081262000625
40
0.213081262000625
40
0.387160943926351
40
0.387160943926351
40
0.562948999942016
40
0.562948999942016
40
0.715638435810392
40
0.715638435810392
40
0.919170953808141
40
0.919170953808141
40
1
40
1
40
1
40
1
41
1
10
13.6474510335849
20
0.140652337978565
30
0
41
1
10
13.6253499966636
20
0.0581026033975149
30
0
41
1
10
13.6155116663085
20
-0.0307036828122591
30
0
41
1
10
13.625005262533
20
-0.194440835300298
30
0
41
1
10
13.6396283941553
20
-0.27076928250051
30
0
41
1
10
13.690791443592
20
-0.417969990808359
30
0
41
1
10
13.7285222509958
20
-0.490888575010786
30
0
41
1
10
13.814774512508
20
-0.610931275805086
30
0
41
1
10
13.8621656692504
20
-0.661676936608671
30
0
41
1
10
13.9803089305089
20
-0.761290790997236
30
0
41
1
10
14.0554527440064
20
-0.805875228287334
30
0
41
1
10
14.1631437334956
20
-0.84998071617818
30
0
41
1
10
14.1945032391402
20
-0.860640156360859
30
0
41
1
10
14.2260954401443
20
-0.869338030453179
30
0
0
SPLINE
5
C7
100
AcDbEntity
8
1
62
256
6
ByLayer
370
18
48
1
60
0
100
AcDbSpline
70
4
71
3
72
18
73
14
40
0
40
0
40
0
40
0
40
0.213081026856097
40
0.213081026856097
40
0.387160750704744
40
0.387160750704744
40
0.562948851464631
40
0.562948851464631
40
0.715638295683688
40
0.715638295683688
40
0.919170771668914
40
0.919170771668914
40
1
40
1
40
1
40
1
41
1
10
10.7739045598557
20
-0.869338030453179
30
0
41
1
10
10.8562959735258
20
-0.846654262953138
30
0
41
1
10
10.9378828610424
20
-0.810227486973474
30
0
41
1
10
11.0743337817464
20
-0.719226944096249
30
0
41
1
10
11.1327849506205
20
-0.668008483266419
30
0
41
1
10
11.2338958570924
20
-0.549423912113923
30
0
41
1
10
11.2777186157693
20
-0.479995510300711
30
0
41
1
10
11.3376543890653
20
-0.34487551359345
30
0
41
1
10
11.3574632867377
20
-0.278327392639625
30
0
41
1
10
11.3836465356628
20
-0.126027736078839
30
0
41
1
10
11.3841042679143
20
-0.0386540963320385
30
0
41
1
10
11.3676879551153
20
0.0765551168517504
30
0
41
1
10
11.3610234078263
20
0.108999393743119
30
0
41
1
10
11.3525489664151
20
0.140652337978565
30
0
0
SPLINE
5
C8
100
AcDbEntity
8
1
62
256
6
ByLayer
370
18
48
1
60
0
100
AcDbSpline
70
4
71
3
72
14
73
10
40
0
40
0
40
0
40
0
40
0.285014780844613
40
0.285014780844613
40
0.572350605982614
40
0.572350605982614
40
0.832166772861832
40
0.832166772861832
40
1
40
1
40
1
40
1
41
1
10
11.3525489664151
20
-2.51565233797859
30
0
41
1
10
11.3427455383358
20
-2.55226918943279
30
0
41
1
10
11.3391008008659
20
-2.59177139209442
30
0
41
1
10
11.346306008759
20
-2.67055123875113
30
0
41
1
10
11.3574570886555
20
-2.71104024825857
30
0
41
1
10
11.3927012508891
20
-2.781774641525
30
0
41
1
10
11.4160474129793
20
-2.81366793530441
30
0
41
1
10
11.4622449161042
20
-2.85754143751319
30
0
41
1
10
11.4826741516866
20
-2.87293049763466
30
0
41
1
10
11.5044231104048
20
-2.88568105833977
30
0
0
SPLINE
5
C9
100
AcDbEntity
8
1
62
256
6
ByLayer
370
18
48
1
60
0
100
AcDbSpline
70
4
71
3
72
14
73
10
40
0
40
0
40
0
40
0
40
0.285013984727063
40
0.285013984727063
40
0.572349910643091
40
0.572349910643091
40
0.832166158509311
40
0.832166158509311
40
1
40
1
40
1
40
1
41
1
10
14.2260954401443
20
-1.50566196954685
30
0
41
1
10
14.2626420033309
20
-1.49560007468037
30
0
41
1
10
14.298562913688
20
-1.47876597586867
30
0
41
1
10
14.3628804284091
20
-1.43270710212502
30
0
41
1
10
14.392169726513
20
-1.40260985396915
30
0
41
1
10
14.4353659032993
20
-1.33643131773158
30
0
41
1
10
14.4510721564613
20
-1.30016094593429
30
0
41
1
10
14.4655563481768
20
-1.23811810151747
30
0
41
1
10
14.4685
20
-1.21271108166582
30
0
41
1
10
14.4685
20
-1.18750000000003
30
0
0
SPLINE
5
CA
100
AcDbEntity
8
1
62
256
6
ByLayer
370
18
48
1
60
0
100
AcDbSpline
70
4
71
3
72
16
73
12
40
0
40
0
40
0
40
0
40
0.0645965064171447
40
0.0645965064171447
40
0.28274732050031
40
0.28274732050031
40
0.503851581407188
40
0.503851581407188
40
0.739476498257835
40
0.739476498257835
40
1
40
1
40
1
40
1
41
1
10
13.4955768895952
20
0.51068105833977
30
0
41
1
10
13.486985747916
20
0.515717707446754
30
0
41
1
10
13.4781551632148
20
0.52037061464469
30
0
41
1
10
13.4389405917191
20
0.538818313271804
30
0
41
1
10
13.4062162869221
20
0.54843690823563
30
0
41
1
10
13.3406545305483
20
0.557459549999976
30
0
41
1
10
13.3069919358934
20
0.556865338622771
30
0
41
1
10
13.2411369612427
20
0.546031885759817
30
0
41
1
10
13.2083564006042
20
0.535062379286359
30
0
41
1
10
13.1462036940129
20
0.50338505353065
30
0
41
1
10
13.1167478571437
20
0.481405930547766
30
0
41
1
10
13.0921177041672
20
0.456082628088751
30
0
0
SPLINE
5
CB
100
AcDbEntity
8
1
62
256
6
ByLayer
370
18
48
1
60
0
100
AcDbSpline
70
4
71
3
72
16
73
12
40
0
40
0
40
0
40
0
40
0.0660777514109192
40
0.0660777514109192
40
0.289232858199903
40
0.289232858199903
40
0.515409129607303
40
0.515409129607303
40
0.756439127791391
40
0.756439127791391
40
1
40
1
40
1
40
1
41
1
10
10.5315
20
-1.1875
30
0
41
1
10
10.5315
20
-1.19745860674414
30
0
41
1
10
10.5319521370927
20
-1.20742969629174
30
0
41
1
10
10.535870606949
20
-1.25058915149882
30
0
41
1
10
10.5441232851387
20
-1.2836843324549
30
0
41
1
10
10.5694977332366
20
-1.344806256499
30
0
41
1
10
10.5870353182329
20
-1.37354571425425
30
0
41
1
10
10.6296874761397
20
-1.42487829858391
30
0
41
1
10
10.6557295062842
20
-1.44760950260436
30
0
41
1
10
10.7118903369799
20
-1.48354253936773
30
0
41
1
10
10.742638287392
20
-1.49705382916469
30
0
41
1
10
10.7739045598557
20
-1.50566196954685
30
0
0
SPLINE
5
CC
100
AcDbEntity
8
1
62
256
6
ByLayer
370
18
48
1
60
0
100
AcDbSpline
70
4
71
3
72
10
73
6
40
0
40
0
40
0
40
0
40
0.479736826302613
40
0.479736826302613
40
1
40
1
40
1
40
1
41
1
10
12.3472587066235
20
-2.59523793629984
30
0
41
1
10
12.2634717620859
20
-2.61100344076866
30
0
41
1
10
12.1831344436618
20
-2.63995021912078
30
0
41
1
10
12.0347803935531
20
-2.71887369451744
30
0
41
1
10
11.9658766441957
20
-2.77145618460264
30
0
41
1
10
11.9078822958328
20
-2.83108262808878
30
0
0
SPLINE
5
CD
100
AcDbEntity
8
1
62
256
6
ByLayer
370
18
48
1
60
0
100
AcDbSpline
70
4
71
3
72
14
73
10
40
0
40
0
40
0
40
0
40
0.281038222380407
40
0.281038222380407
40
0.564557857067056
40
0.564557857067056
40
0.820700196130078
40
0.820700196130078
40
1
40
1
40
1
40
1
41
1
10
13.0921177041672
20
-2.83108262808878
30
0
41
1
10
13.1186993754269
20
-2.85841236906998
30
0
41
1
10
13.150956030905
20
-2.88186552453592
30
0
41
1
10
13.222764805511
20
-2.91607486042696
30
0
41
1
10
13.2635279239202
20
-2.92718475904488
30
0
41
1
10
13.3428270852508
20
-2.93284868557424
30
0
41
1
10
13.3824075126984
20
-2.9289117256431
30
0
41
1
10
13.4460823269878
20
-2.91061543464568
30
0
41
1
10
13.4718293672142
20
-2.89960329846343
30
0
41
1
10
13.4955768895952
20
-2.88568105833977
30
0
0
SPLINE
5
CE
100
AcDbEntity
8
1
62
256
6
ByLayer
370
18
48
1
60
0
100
AcDbSpline
70
4
71
3
72
14
73
10
40
0
40
0
40
0
40
0
40
0.285014780844605
40
0.285014780844605
40
0.572350605982616
40
0.572350605982616
40
0.832166772861833
40
0.832166772861833
40
1
40
1
40
1
40
1
41
1
10
13.6474510335849
20
0.140652337978565
30
0
41
1
10
13.6572544616642
20
0.177269189432764
30
0
41
1
10
13.6608991991341
20
0.216771392094387
30
0
41
1
10
13.6536939912409
20
0.295551238751102
30
0
41
1
10
13.6425429113445
20
0.336040248258541
30
0
41
1
10
13.6072987491109
20
0.406774641524976
30
0
41
1
10
13.5839525870207
20
0.43866793530438
30
0
41
1
10
13.5377550838958
20
0.482541437513163
30
0
41
1
10
13.5173258483134
20
0.497930497634627
30
0
41
1
10
13.4955768895952
20
0.51068105833977
30
0
0
SPLINE
5
CF
100
AcDbEntity
8
1
62
256
6
ByLayer
370
18
48
1
60
0
100
AcDbSpline
70
4
71
3
72
10
73
6
40
0
40
0
40
0
40
0
40
0.54178154691776
40
0.54178154691776
40
1
40
1
40
1
40
1
41
1
10
13.0921177041672
20
-2.83108262808878
30
0
41
1
10
13.0317893524551
20
-2.7690564969999
30
0
41
1
10
12.9595938121995
20
-2.71461767768477
30
0
41
1
10
12.8098326867734
20
-2.63742229524124
30
0
41
1
10
12.7328667479517
20
-2.6103144881319
30
0
41
1
10
12.6527412933765
20
-2.59523793629984
30
0
0
SPLINE
5
D0
100
AcDbEntity
8
1
62
256
6
ByLayer
370
18
48
1
60
0
100
AcDbSpline
70
4
71
3
72
14
73
10
40
0
40
0
40
0
40
0
40
0.285013984727066
40
0.285013984727066
40
0.572349910643093
40
0.572349910643093
40
0.832166158509312
40
0.832166158509312
40
1
40
1
40
1
40
1
41
1
10
10.7739045598557
20
-0.869338030453179
30
0
41
1
10
10.7373579966691
20
-0.87939992531966
30
0
41
1
10
10.701437086312
20
-0.89623402413136
30
0
41
1
10
10.6371195715909
20
-0.942292897875006
30
0
41
1
10
10.607830273487
20
-0.972390146030875
30
0
41
1
10
10.5646340967007
20
-1.03856868226845
30
0
41
1
10
10.5489278435387
20
-1.07483905406573
30
0
41
1
10
10.5344436518232
20
-1.13688189848256
30
0
41
1
10
10.5315
20
-1.16228891833421
30
0
41
1
10
10.5315
20
-1.1875
30
0
0
SPLINE
5
D1
100
AcDbEntity
8
1
62
256
6
ByLayer
370
18
48
1
60
0
100
AcDbSpline
70
4
71
3
72
18
73
14
40
0
40
0
40
0
40
0
40
0.213081026856097
40
0.213081026856097
40
0.387160750704743
40
0.387160750704743
40
0.562948851464629
40
0.562948851464629
40
0.715638295683685
40
0.715638295683685
40
0.919170771668909
40
0.919170771668909
40
1
40
1
40
1
40
1
41
1
10
14.2260954401443
20
-1.50566196954685
30
0
41
1
10
14.1437040264742
20
-1.52834573704689
30
0
41
1
10
14.0621171389576
20
-1.56477251302655
30
0
41
1
10
13.9256662182536
20
-1.65577305590378
30
0
41
1
10
13.8672150493795
20
-1.70699151673361
30
0
41
1
10
13.7661041429076
20
-1.8255760878861
30
0
41
1
10
13.7222813842307
20
-1.89500448969932
30
0
41
1
10
13.6623456109347
20
-2.03012448640655
30
0
41
1
10
13.6425367132623
20
-2.0966726073604
30
0
41
1
10
13.6163534643372
20
-2.24897226392119
30
0
41
1
10
13.6158957320857
20
-2.33634590366799
30
0
41
1
10
13.6323120448847
20
-2.45155511685178
30
0
41
1
10
13.6389765921737
20
-2.48399939374315
30
0
41
1
10
13.6474510335849
20
-2.51565233797859
30
0
0
SPLINE
5
D2
100
AcDbEntity
8
1
62
256
6
ByLayer
370
18
48
1
60
0
100
AcDbSpline
70
4
71
3
72
10
73
6
40
0
40
0
40
0
40
0
40
0.541781546918577
40
0.541781546918577
40
1
40
1
40
1
40
1
41
1
10
11.9078822958328
20
0.456082628088751
30
0
41
1
10
11.9682106475449
20
0.394056496999866
30
0
41
1
10
12.0404061878005
20
0.339617677684743
30
0
41
1
10
12.1901673132266
20
0.262422295241208
30
0
41
1
10
12.2671332520483
20
0.235314488131877
30
0
41
1
10
12.3472587066235
20
0.22023793629981
30
0
0
SPLINE
5
D3
100
AcDbEntity
8
1
62
256
6
ByLayer
370
18
48
1
60
0
100
AcDbSpline
70
4
71
3
72
18
73
14
40
0
40
0
40
0
40
0
40
0.213081262000626
40
0.213081262000626
40
0.387160943926353
40
0.387160943926353
40
0.562948999942016
40
0.562948999942016
40
0.715638435810392
40
0.715638435810392
40
0.919170953808152
40
0.919170953808152
40
1
40
1
40
1
40
1
41
1
10
11.3525489664151
20
-2.51565233797859
30
0
41
1
10
11.3746500033364
20
-2.43310260339754
30
0
41
1
10
11.3844883336915
20
-2.34429631718777
30
0
41
1
10
11.374994737467
20
-2.18055916469973
30
0
41
1
10
11.3603716058447
20
-2.10423071749952
30
0
41
1
10
11.309208556408
20
-1.95703000919167
30
0
41
1
10
11.2714777490042
20
-1.88411142498924
30
0
41
1
10
11.185225487492
20
-1.76406872419494
30
0
41
1
10
11.1378343307496
20
-1.71332306339136
30
0
41
1
10
11.0196910694911
20
-1.61370920900279
30
0
41
1
10
10.9445472559936
20
-1.56912477171269
30
0
41
1
10
10.8368562665044
20
-1.52501928382182
30
0
41
1
10
10.8054967608598
20
-1.51435984363917
30
0
41
1
10
10.7739045598557
20
-1.50566196954685
30
0
0
SPLINE
5
D4
100
AcDbEntity
8
1
62
256
6
ByLayer
370
18
48
1
60
0
100
AcDbSpline
70
4
71
3
72
16
73
12
40
0
40
0
40
0
40
0
40
0.0517235387678673
40
0.0517235387678673
40
0.275098677522024
40
0.275098677522024
40
0.500660612380065
40
0.500660612380065
40
0.740399911602612
40
0.740399911602612
40
1
40
1
40
1
40
1
41
1
10
13.4955768895952
20
-2.88568105833977
30
0
41
1
10
13.5023126525051
20
-2.88173214496922
30
0
41
1
10
13.5089132100843
20
-2.877540684688
30
0
41
1
10
13.5429215049886
20
-2.85421229858349
30
0
41
1
10
13.567814066225
20
-2.83077794144171
30
0
41
1
10
13.6087337148404
20
-2.77869709081807
30
0
41
1
10
13.6252135093438
20
-2.74935510970406
30
0
41
1
10
13.6490799914639
20
-2.68714422733763
30
0
41
1
10
13.6561625753256
20
-2.65340385102976
30
0
41
1
10
13.6602113511053
20
-2.58468720761849
30
0
41
1
10
13.6563795299008
20
-2.54900122580307
30
0
41
1
10
13.6474510335849
20
-2.51565233797859
30
0
0
SPLINE
5
D5
100
AcDbEntity
8
1
62
256
6
ByLayer
370
18
48
1
60
0
100
AcDbSpline
70
4
71
3
72
16
73
12
40
0
40
0
40
0
40
0
40
0.0660777514109194
40
0.0660777514109194
40
0.289232858199909
40
0.289232858199909
40
0.515409129607303
40
0.515409129607303
40
0.756439127791391
40
0.756439127791391
40
1
40
1
40
1
40
1
41
1
10
14.4685
20
-1.18750000000003
30
0
41
1
10
14.4685
20
-1.17754139325589
30
0
41
1
10
14.4680478629073
20
-1.16757030370829
30
0
41
1
10
14.464129393051
20
-1.12441084850119
30
0
41
1
10
14.4558767148613
20
-1.09131566754513
30
0
41
1
10
14.4305022667634
20
-1.03019374350103
30
0
41
1
10
14.4129646817671
20
-1.00145428574578
30
0
41
1
10
14.3703125238603
20
-0.950121701416123
30
0
41
1
10
14.3442704937158
20
-0.927390497395663
30
0
41
1
10
14.2881096630201
20
-0.891457460632296
30
0
41
1
10
14.257361712608
20
-0.877946170835344
30
0
41
1
10
14.2260954401444
20
-0.869338030453179
30
0
0
SPLINE
5
D6
100
AcDbEntity
8
1
62
256
6
ByLayer
370
18
48
1
60
0
100
AcDbSpline
70
4
71
3
72
10
73
6
40
0
40
0
40
0
40
0
40
0.47973682623678
40
0.47973682623678
40
1
40
1
40
1
40
1
41
1
10
12.6527412933765
20
0.22023793629981
30
0
41
1
10
12.7365282379028
20
0.236003440766495
30
0
41
1
10
12.8168655563164
20
0.264950219112819
30
0
41
1
10
12.9652196064295
20
0.343873694504197
30
0
41
1
10
13.034123355797
20
0.396456184595166
30
0
41
1
10
13.0921177041672
20
0.456082628088751
30
0
0
SPLINE
5
D7
100
AcDbEntity
8
1
62
256
6
ByLayer
370
18
48
1
60
0
100
AcDbSpline
70
4
71
3
72
16
73
12
40
0
40
0
40
0
40
0
40
0.0517235387678665
40
0.0517235387678665
40
0.275098677522024
40
0.275098677522024
40
0.500660612380066
40
0.500660612380066
40
0.740399911602615
40
0.740399911602615
40
1
40
1
40
1
40
1
41
1
10
11.5044231104048
20
0.51068105833977
30
0
41
1
10
11.4976873474949
20
0.506732144969192
30
0
41
1
10
11.4910867899157
20
0.502540684687972
30
0
41
1
10
11.4570784950114
20
0.479212298583462
30
0
41
1
10
11.432185933775
20
0.455777941441653
30
0
41
1
10
11.3912662851596
20
0.403697090818042
30
0
41
1
10
11.3747864906562
20
0.374355109704027
30
0
41
1
10
11.3509200085361
20
0.312144227337598
30
0
41
1
10
11.3438374246744
20
0.278403851029736
30
0
41
1
10
11.3397886488947
20
0.209687207618458
30
0
41
1
10
11.3436204700991
20
0.174001225803039
30
0
41
1
10
11.3525489664151
20
0.140652337978565
30
0
0
LINE
5
73
100
AcDbEntity
8
80
62
256
6
ByLayer
370
18
48
1
60
0
100
AcDbLine
10
0
20
0
30
0
11
-5
21
0
31
0
39
0
210
0
220
0
230
1
0
LINE
5
74
100
AcDbEntity
8
81
62
256
6
ByLayer
370
18
48
1
60
0
100
AcDbLine
10
29
20
-8.9375
30
0
11
34
21
-8.9375
31
0
39
0
210
0
220
0
230
1
0
LINE
5
75
100
AcDbEntity
8
1
62
256
6
ByLayer
370
18
48
1
60
0
100
AcDbLine
10
17.5
20
-5.0875
30
0
11
17.5
21
2.8125
31
0
39
0
210
0
220
0
230
1
0
LINE
5
77
100
AcDbEntity
8
1
62
256
6
ByLayer
370
18
48
1
60
0
100
AcDbLine
10
0.5
20
-8.3125
30
0
11
0
21
-7.8125
31
0
39
0
210
0
220
0
230
1
0
LINE
5
78
100
AcDbEntity
8
1
62
256
6
ByLayer
370
18
48
1
60
0
100
AcDbLine
10
0.600481
20
-8.6875
30
0
11
2.248368
21
-8.6875
31
0
39
0
210
0
220
0
230
1
0
LINE
5
79
100
AcDbEntity
8
1
62
256
6
ByLayer
370
18
48
1
60
0
100
AcDbLine
10
0.5
20
8.064682
30
0
11
0
21
8.0625
31
0
39
0
210
0
220
0
230
1
0
LINE
5
7A
100
AcDbEntity
8
1
62
256
6
ByLayer
370
18
48
1
60
0
100
AcDbLine
10
2.248368
20
-8.6875
30
0
11
2.248368
21
8.093153
31
0
39
0
210
0
220
0
230
1
0
LINE
5
7B
100
AcDbEntity
8
1
62
256
6
ByLayer
370
18
48
1
60
0
100
AcDbLine
10
0.600481
20
-8.6875
30
0
11
0.5
21
-8.3125
31
0
39
0
210
0
220
0
230
1
0
LINE
5
7C
100
AcDbEntity
8
1
62
256
6
ByLayer
370
18
48
1
60
0
100
AcDbLine
10
8.999738
20
8.093153
30
0
11
17.5
21
2.8125
31
0
39
0
210
0
220
0
230
1
0
LINE
5
7D
100
AcDbEntity
8
1
62
256
6
ByLayer
370
18
48
1
60
0
100
AcDbLine
10
14.343838
20
-5.0875
30
0
11
14.343838
21
-8.6875
31
0
39
0
210
0
220
0
230
1
0
LINE
5
7E
100
AcDbEntity
8
1
62
256
6
ByLayer
370
18
48
1
60
0
100
AcDbLine
10
0
20
-7.8125
30
0
11
0
21
8.0625
31
0
39
0
210
0
220
0
230
1
0
LINE
5
7F
100
AcDbEntity
8
1
62
256
6
ByLayer
370
18
48
1
60
0
100
AcDbLine
10
14.343838
20
-8.6875
30
0
11
22.157727
21
-8.6875
31
0
39
0
210
0
220
0
230
1
0
LINE
5
80
100
AcDbEntity
8
1
62
256
6
ByLayer
370
18
48
1
60
0
100
AcDbLine
10
0.5
20
-8.3125
30
0
11
0.5
21
8.064682
31
0
39
0
210
0
220
0
230
1
0
LINE
5
81
100
AcDbEntity
8
1
62
256
6
ByLayer
370
18
48
1
60
0
100
AcDbLine
10
0.5
20
8.064682
30
0
11
2.248368
21
8.093153
31
0
39
0
210
0
220
0
230
1
0
LINE
5
82
100
AcDbEntity
8
1
62
256
6
ByLayer
370
18
48
1
60
0
100
AcDbLine
10
19.1
20
-6.6875
30
0
11
22.157727
21
-6.6875
31
0
39
0
210
0
220
0
230
1
0
LINE
5
83
100
AcDbEntity
8
1
62
256
6
ByLayer
370
18
48
1
60
0
100
AcDbLine
10
14.343838
20
-8.6875
30
0
11
2.248368
21
-8.6875
31
0
39
0
210
0
220
0
230
1
0
LINE
5
84
100
AcDbEntity
8
1
62
256
6
ByLayer
370
18
48
1
60
0
100
AcDbLine
10
17.5
20
-5.0875
30
0
11
14.343838
21
-5.0875
31
0
39
0
210
0
220
0
230
1
0
LINE
5
85
100
AcDbEntity
8
1
62
256
6
ByLayer
370
18
48
1
60
0
100
AcDbLine
10
2.248368
20
8.093153
30
0
11
8.999738
21
8.093153
31
0
39
0
210
0
220
0
230
1
0
LINE
5
86
100
AcDbEntity
8
SK1
62
256
6
ByLayer
370
18
48
1
60
0
100
AcDbLine
10
0
20
-7.8125
30
0
11
0
21
8.0625
31
0
39
0
210
0
220
0
230
1
0
LINE
5
88
100
AcDbEntity
8
SK1
62
256
6
ByLayer
370
18
48
1
60
0
100
AcDbLine
10
-97.35
20
8.0625
30
0
11
0
21
8.0625
31
0
39
0
210
0
220
0
230
1
0
LINE
5
89
100
AcDbEntity
8
SK1
62
256
6
ByLayer
370
18
48
1
60
0
100
AcDbLine
10
-97.35
20
-7.8125
30
0
11
-97.35
21
8.0625
31
0
39
0
210
0
220
0
230
1
0
LINE
5
8A
100
AcDbEntity
8
SK1
62
256
6
ByLayer
370
18
48
1
60
0
100
AcDbLine
10
0
20
-7.8125
30
0
11
-97.35
21
-7.8125
31
0
39
0
210
0
220
0
230
1
0
LINE
5
8B
100
AcDbEntity
8
1
62
256
6
ByLayer
370
18
48
1
60
0
100
AcDbLine
10
12
20
-8.81544
30
0
11
9.208724
21
-8.93731
31
0
39
0
210
0
220
0
230
1
0
LINE
5
8C
100
AcDbEntity
8
1
62
256
6
ByLayer
370
18
48
1
60
0
100
AcDbLine
10
23.073002
20
-8.6875
30
0
11
23.073002
21
-8.513949
31
0
39
0
210
0
220
0
230
1
0
LINE
5
8D
100
AcDbEntity
8
1
62
256
6
ByLayer
370
18
48
1
60
0
100
AcDbLine
10
26
20
-8.81544
30
0
11
28.791276
21
-8.93731
31
0
39
0
210
0
220
0
230
1
0
LINE
5
8E
100
AcDbEntity
8
1
62
256
6
ByLayer
370
18
48
1
60
0
100
AcDbLine
10
23.073002
20
-6.6875
30
0
11
23.073002
21
-6.861051
31
0
39
0
210
0
220
0
230
1
0
LINE
5
8F
100
AcDbEntity
8
1
62
256
6
ByLayer
370
18
48
1
60
0
100
AcDbLine
10
24.2
20
-8.6875
30
0
11
24.2
21
-6.6875
31
0
39
0
210
0
220
0
230
1
0
LINE
5
90
100
AcDbEntity
8
1
62
256
6
ByLayer
370
18
48
1
60
0
100
AcDbLine
10
22.25352
20
-6.912354
30
0
11
23.082048
21
-6.912354
31
0
39
0
210
0
220
0
230
1
0
LINE
5
91
100
AcDbEntity
8
1
62
256
6
ByLayer
370
18
48
1
60
0
100
AcDbLine
10
22.157722
20
-6.6875
30
0
11
23.073002
21
-6.6875
31
0
39
0
210
0
220
0
230
1
0
LINE
5
92
100
AcDbEntity
8
1
62
256
6
ByLayer
370
18
48
1
60
0
100
AcDbLine
10
9
20
-8.7375
30
0
11
9
21
-8.687494
31
0
39
0
210
0
220
0
230
1
0
LINE
5
93
100
AcDbEntity
8
1
62
256
6
ByLayer
370
18
48
1
60
0
100
AcDbLine
10
22.446926
20
-7.85851
30
0
11
23.301935
21
-7.85851
31
0
39
0
210
0
220
0
230
1
0
LINE
5
94
100
AcDbEntity
8
1
62
256
6
ByLayer
370
18
48
1
60
0
100
AcDbLine
10
22.157722
20
-8.6875
30
0
11
23.073002
21
-8.6875
31
0
39
0
210
0
220
0
230
1
0
LINE
5
95
100
AcDbEntity
8
1
62
256
6
ByLayer
370
18
48
1
60
0
100
AcDbLine
10
23.073002
20
-6.6875
30
0
11
24.2
21
-6.6875
31
0
39
0
210
0
220
0
230
1
0
LINE
5
96
100
AcDbEntity
8
1
62
256
6
ByLayer
370
18
48
1
60
0
100
AcDbLine
10
23.082048
20
-8.462646
30
0
11
23.301935
21
-7.85851
31
0
39
0
210
0
220
0
230
1
0
LINE
5
97
100
AcDbEntity
8
1
62
256
6
ByLayer
370
18
48
1
60
0
100
AcDbLine
10
23.073002
20
-8.6875
30
0
11
24.2
21
-8.6875
31
0
39
0
210
0
220
0
230
1
0
LINE
5
98
100
AcDbEntity
8
1
62
256
6
ByLayer
370
18
48
1
60
0
100
AcDbLine
10
22.445178
20
-7.51649
30
0
11
23.301935
21
-7.51649
31
0
39
0
210
0
220
0
230
1
0
LINE
5
99
100
AcDbEntity
8
1
62
256
6
ByLayer
370
18
48
1
60
0
100
AcDbLine
10
22.25352
20
-8.462646
30
0
11
23.082048
21
-8.462646
31
0
39
0
210
0
220
0
230
1
0
LINE
5
9A
100
AcDbEntity
8
1
62
256
6
ByLayer
370
18
48
1
60
0
100
AcDbLine
10
24.2
20
-8.6875
30
0
11
25.648488
21
-8.6875
31
0
39
0
210
0
220
0
230
1
0
LINE
5
9B
100
AcDbEntity
8
1
62
256
6
ByLayer
370
18
48
1
60
0
100
AcDbLine
10
25.648488
20
-6.6875
30
0
11
26
21
-6.55956
31
0
39
0
210
0
220
0
230
1
0
LINE
5
9C
100
AcDbEntity
8
1
62
256
6
ByLayer
370
18
48
1
60
0
100
AcDbLine
10
12.351512
20
-8.6875
30
0
11
12
21
-8.81544
31
0
39
0
210
0
220
0
230
1
0
LINE
5
9D
100
AcDbEntity
8
1
62
256
6
ByLayer
370
18
48
1
60
0
100
AcDbLine
10
29
20
-8.7375
30
0
11
29
21
-6.6375
31
0
39
0
210
0
220
0
230
1
0
LINE
5
9E
100
AcDbEntity
8
1
62
256
6
ByLayer
370
18
48
1
60
0
100
AcDbLine
10
22.231672
20
-8.513949
30
0
11
23.073002
21
-8.513949
31
0
39
0
210
0
220
0
230
1
0
LINE
5
9F
100
AcDbEntity
8
1
62
256
6
ByLayer
370
18
48
1
60
0
100
AcDbLine
10
25.648488
20
-8.6875
30
0
11
26
21
-8.81544
31
0
39
0
210
0
220
0
230
1
0
LINE
5
A0
100
AcDbEntity
8
1
62
256
6
ByLayer
370
18
48
1
60
0
100
AcDbLine
10
23.082048
20
-6.912354
30
0
11
23.301935
21
-7.51649
31
0
39
0
210
0
220
0
230
1
0
LINE
5
A1
100
AcDbEntity
8
1
62
256
6
ByLayer
370
18
48
1
60
0
100
AcDbLine
10
26
20
-6.55956
30
0
11
28.791276
21
-6.43769
31
0
39
0
210
0
220
0
230
1
0
LINE
5
A2
100
AcDbEntity
8
1
62
256
6
ByLayer
370
18
48
1
60
0
100
AcDbLine
10
22.231672
20
-6.861051
30
0
11
23.073002
21
-6.861051
31
0
39
0
210
0
220
0
230
1
0
LINE
5
A3
100
AcDbEntity
8
1
62
256
6
ByLayer
370
18
48
1
60
0
100
AcDbLine
10
24.2
20
-6.6875
30
0
11
25.648488
21
-6.6875
31
0
39
0
210
0
220
0
230
1
0
MTEXT
5
D8
100
AcDbEntity
8
SK6
62
256
6
ByLayer
370
18
48
1
60
0
100
AcDbMText
10
-63.299987
20
-19.797777
30
0
210
0
220
0
230
1
1
\W0.7024;LF123F10-1616B
40
3.5
41
0
44
1.084337
50
0
71
7
72
5
7
iso_b_vert
0
DIMENSION
5
E9
100
AcDbEntity
8
2
62
256
6
ByLayer
370
13
48
1
60
0
100
AcDbDimension
2
DimnDraft3D1
10
43.25
20
-6.4375
30
0
11
43.25
21
-1.9375
31
0
70
32
71
5
72
1
41
1
210
0
220
0
230
1
3
Standard
100
AcDbAlignedDimension
13
30.5
23
-8.9375
33
0
14
30.5
24
-6.4375
34
0
50
90
100
AcDbRotatedDimension
1001
ACAD
1000
DSTYLE
1002
{
1070
    74
1070
     0
1070
   279
1070
     0
1070
   172
1070
     1
1070
   173
1070
     1
1070
   340
1005
D9
1070
   271
1070
     3
1070
   272
1070
     3
1070
    77
1070
     1
1070
    73
1070
     0
1070
   171
1070
     4
1070
   274
1070
     4
1070
   177
1070
     2
1070
   176
1070
     2
1070
   178
1070
     7
1070
    78
1070
     8
1070
    41
1041
3.0
1070
   147
1041
2.25
1070
    42
1041
1.5
1070
    44
1041
3.0
1070
   140
1041
4.5
1070
   343
1005
EA
1070
   344
1005
EA
1002
}
0
DIMENSION
5
FE
100
AcDbEntity
8
2
62
256
6
ByLayer
370
13
48
1
60
0
100
AcDbDimension
2
DimnDraft3D2
10
53.25
20
7.9375
30
0
11
53.25
21
-2.625658
31
0
70
32
71
5
72
1
41
1
210
0
220
0
230
1
3
Standard
100
AcDbAlignedDimension
13
30.5
23
-8.9375
33
0
14
1.5
24
7.9375
34
0
50
90
100
AcDbRotatedDimension
1001
ACAD
1000
DSTYLE
1002
{
1070
    74
1070
     0
1070
   279
1070
     0
1070
   172
1070
     1
1070
   173
1070
     1
1070
   340
1005
D9
1070
   271
1070
     3
1070
   272
1070
     3
1070
    77
1070
     1
1070
    73
1070
     0
1070
   171
1070
     4
1070
   274
1070
     4
1070
   177
1070
     2
1070
   176
1070
     2
1070
   178
1070
     7
1070
    78
1070
     8
1070
    41
1041
3.0
1070
   147
1041
2.25
1070
    42
1041
1.5
1070
    44
1041
3.0
1070
   140
1041
4.5
1070
   343
1005
EA
1070
   344
1005
EA
1002
}
0
DIMENSION
5
10D
100
AcDbEntity
8
SK2
62
256
6
ByLayer
370
13
48
1
60
0
100
AcDbDimension
2
DimnDraft3D3
10
-107.1
20
-7.9375
30
0
11
-107.1
21
-2.125658
31
0
70
32
71
5
72
1
41
1
210
0
220
0
230
1
3
Standard
100
AcDbAlignedDimension
13
-98.85
23
7.9375
33
0
14
-98.85
24
-7.9375
34
0
50
90
100
AcDbRotatedDimension
1001
ACAD
1000
DSTYLE
1002
{
1070
    74
1070
     0
1070
   279
1070
     0
1070
   172
1070
     1
1070
   173
1070
     1
1070
   340
1005
D9
1070
   271
1070
     3
1070
   272
1070
     3
1070
    77
1070
     1
1070
    73
1070
     0
1070
   171
1070
     4
1070
   274
1070
     4
1070
   177
1070
     2
1070
   176
1070
     2
1070
   178
1070
     7
1070
    78
1070
     8
1070
    41
1041
3.0
1070
   147
1041
2.25
1070
    42
1041
1.5
1070
    44
1041
3.0
1070
   140
1041
4.5
1070
   343
1005
EA
1070
   344
1005
EA
1002
}
0
DIMENSION
5
11B
100
AcDbEntity
8
2
62
256
6
ByLayer
370
13
48
1
60
0
100
AcDbDimension
2
DimnDraft3D4
10
19
20
-22.1875
30
0
11
21.874342
21
-22.1875
31
0
70
32
71
5
72
1
41
1
210
0
220
0
230
1
3
Standard
100
AcDbAlignedDimension
13
29
23
-9.1875
33
0
14
19
24
-7.0625
34
0
50
0
100
AcDbRotatedDimension
1001
ACAD
1000
DSTYLE
1002
{
1070
   279
1070
     0
1070
   172
1070
     1
1070
   173
1070
     1
1070
   340
1005
D9
1070
   271
1070
     3
1070
   272
1070
     3
1070
    77
1070
     1
1070
    73
1070
     0
1070
   171
1070
     4
1070
   274
1070
     4
1070
   177
1070
     2
1070
   176
1070
     2
1070
   178
1070
     7
1070
    78
1070
     8
1070
    41
1041
3.0
1070
   147
1041
2.25
1070
    42
1041
1.5
1070
    44
1041
3.0
1070
   140
1041
4.5
1070
   343
1005
EA
1070
   344
1005
EA
1002
}
0
DIMENSION
5
129
100
AcDbEntity
8
2
62
256
6
ByLayer
370
13
48
1
60
0
100
AcDbDimension
2
DimnDraft3D5
10
0
20
18.8125
30
0
11
11.811842
21
18.8125
31
0
70
32
71
5
72
1
41
1
210
0
220
0
230
1
3
Standard
100
AcDbAlignedDimension
13
29
23
-4.9375
33
0
14
0
24
9.4375
34
0
50
0
100
AcDbRotatedDimension
1001
ACAD
1000
DSTYLE
1002
{
1070
   279
1070
     0
1070
   172
1070
     1
1070
   173
1070
     1
1070
   340
1005
D9
1070
   271
1070
     3
1070
   272
1070
     3
1070
    77
1070
     1
1070
    73
1070
     0
1070
   171
1070
     4
1070
   274
1070
     4
1070
   177
1070
     2
1070
   176
1070
     2
1070
   178
1070
     7
1070
    78
1070
     8
1070
    41
1041
3.0
1070
   147
1041
2.25
1070
    42
1041
1.5
1070
    44
1041
3.0
1070
   140
1041
4.5
1070
   343
1005
EA
1070
   344
1005
EA
1002
}
0
DIMENSION
5
137
100
AcDbEntity
8
SK2
62
256
6
ByLayer
370
13
48
1
60
0
100
AcDbDimension
2
DimnDraft3D6
10
-97.35
20
28.8125
30
0
11
-37.982237
21
28.8125
31
0
70
32
71
5
72
1
41
1
210
0
220
0
230
1
3
Standard
100
AcDbAlignedDimension
13
29
23
-4.9375
33
0
14
-97.35
24
9.4375
34
0
50
0
100
AcDbRotatedDimension
1001
ACAD
1000
DSTYLE
1002
{
1070
   279
1070
     0
1070
   172
1070
     1
1070
   173
1070
     1
1070
   340
1005
D9
1070
   271
1070
     3
1070
   272
1070
     3
1070
    77
1070
     1
1070
    73
1070
     0
1070
   171
1070
     4
1070
   274
1070
     4
1070
   177
1070
     2
1070
   176
1070
     2
1070
   178
1070
     7
1070
    78
1070
     8
1070
    41
1041
3.0
1070
   147
1041
2.25
1070
    42
1041
1.5
1070
    44
1041
3.0
1070
   140
1041
4.5
1070
   343
1005
EA
1070
   344
1005
EA
1002
}
0
ENDSEC
0
SECTION
2
OBJECTS
0
DICTIONARY
5
1a1
330
0
100
AcDbDictionary
280
0
281
1
3
ACAD_GROUP
350
1a2
3
ACAD_MLINESTYLE
350
1a3
0
DICTIONARY
5
1a2
330
0
100
AcDbDictionary
280
0
281
1
0
DICTIONARY
5
1a3
330
0
100
AcDbDictionary
280
0
281
1
3
Standard
350
18
0
MLINESTYLE
5
18
330
1a3
100
AcDbMlineStyle
2
Standard
70
0
3

62
256
51
90
52
90
71
2
49
-0.5
62
256
6
ByLayer
49
0.5
62
256
6
ByLayer
0
RASTERVARIABLES
5
190
330

100
AcDbRasterVariables
90
0
70
1
71
1
72
1
0
ENDSEC
0
EOF
