0
SECTION
2
HEADER
9
$ACADVER
1
AC1015
9
$DWGCODEPAGE
3
ANSI_1252
9
$HANDSEED
5
1c3
9
$ANGBASE
50
0
9
$ANGDIR
70
0
9
$ATTMODE
70
1
9
$AUNITS
70
0
9
$AUPREC
70
0
9
$CECOLOR
62
256
9
$CELTSCALE
40
1
9
$CELTYPE
6
ByLayer
9
$CELWEIGHT
370
18
9
$CLAYER
8
0
9
$CMLJUST
70
0
9
$CMLSCALE
40
1
9
$CMLSTYLE
2
Standard
9
$DIMSTYLE
2
Standard
9
$TEXTSIZE
40
0.2
9
$TEXTSTYLE
7
Standard
9
$LUNITS
70
2
9
$LUPREC
70
4
9
$EXTNAMES
290
1
9
$INSUNITS
70
4
9
$LTSCALE
40
1
9
$LWDISPLAY
290
1
9
$PDMODE
70
0
9
$PDSIZE
40
0
9
$PLINEGEN
70
0
0
ENDSEC
0
SECTION
2
CLASSES
0
CLASS
1
RASTERVARIABLES
2
AcDbRasterVariables
3
ISM
90
0
280
0
281
0
0
ENDSEC
0
SECTION
2
TABLES
0
TABLE
2
VPORT
5
1b9
100
AcDbSymbolTable
0
VPORT
5
1
100
AcDbSymbolTableRecord
100
AcDbViewportTableRecord
2
*Active
70
0
10
0
20
0
11
1
21
1
12
-1
22
1
13
0
23
0
14
0.5
24
0.5
15
10
25
10
16
0
26
0
36
1
17
0
27
0
37
0
0
ENDTAB
0
TABLE
2
LTYPE
5
1ba
100
AcDbSymbolTable
0
LTYPE
5
14
100
AcDbSymbolTableRecord
100
AcDbLinetypeTableRecord
70
0
2
ByBlock
3

72
65
73
0
40
0
0
LTYPE
5
15
100
AcDbSymbolTableRecord
100
AcDbLinetypeTableRecord
70
0
2
ByLayer
3

72
65
73
0
40
0
0
LTYPE
5
16
100
AcDbSymbolTableRecord
100
AcDbLinetypeTableRecord
70
0
2
CONTINUOUS
3
Solid line
72
65
73
0
40
0
0
LTYPE
5
6A
100
AcDbSymbolTableRecord
100
AcDbLinetypeTableRecord
70
0
2
CENTER
3
____ _ ____ _ ____ _ ____
72
65
73
4
40
47.5
49
22
74
0
49
-8.5
74
0
49
8.5
74
0
49
-8.5
74
0
0
LTYPE
5
6B
100
AcDbSymbolTableRecord
100
AcDbLinetypeTableRecord
70
0
2
DASHED
3
__ __ __ __ __ __ __ __ __
72
65
73
2
40
25.72
49
12.86
74
0
49
-12.86
74
0
0
ENDTAB
0
TABLE
2
LAYER
5
1bb
100
AcDbSymbolTable
0
LAYER
5
10
100
AcDbSymbolTableRecord
100
AcDbLayerTableRecord
2
0
70
0
62
7
6
CONTINUOUS
290
1
370
-3
390
0
0
LAYER
5
6D
100
AcDbSymbolTableRecord
100
AcDbLayerTableRecord
2
2
70
0
62
7
6
CONTINUOUS
290
1
370
-3
390
0
0
LAYER
5
6F
100
AcDbSymbolTableRecord
100
AcDbLayerTableRecord
2
80
70
0
62
-6
6
CONTINUOUS
290
1
370
-3
390
0
0
LAYER
5
72
100
AcDbSymbolTableRecord
100
AcDbLayerTableRecord
2
81
70
0
62
-3
6
CONTINUOUS
290
1
370
-3
390
0
0
LAYER
5
76
100
AcDbSymbolTableRecord
100
AcDbLayerTableRecord
2
1
70
0
62
4
6
CONTINUOUS
290
1
370
-3
390
0
0
LAYER
5
1a6
100
AcDbSymbolTableRecord
100
AcDbLayerTableRecord
2
SK1
70
0
62
4
6
CONTINUOUS
290
1
370
-3
390
0
0
LAYER
5
1a7
100
AcDbSymbolTableRecord
100
AcDbLayerTableRecord
2
SK6
70
0
62
5
6
CONTINUOUS
290
1
370
-3
390
0
0
LAYER
5
1a8
100
AcDbSymbolTableRecord
100
AcDbLayerTableRecord
2
SK2
70
0
62
7
6
CONTINUOUS
290
1
370
-3
390
0
0
ENDTAB
0
TABLE
2
STYLE
5
1bc
100
AcDbSymbolTable
0
STYLE
5
11
100
AcDbSymbolTableRecord
100
AcDbTextStyleTableRecord
2
Standard
3
txt
70
0
71
0
40
0
41
1
42
0
50
0
0
STYLE
5
EE
100
AcDbSymbolTableRecord
100
AcDbTextStyleTableRecord
2
iso_b_vert
3
simplex.shx
70
0
71
0
40
0
41
1
42
0
50
0
0
STYLE
5
EF
100
AcDbSymbolTableRecord
100
AcDbTextStyleTableRecord
2
DWGDirectTextStyle
3
simplex
70
0
71
0
40
0
41
1
42
0
50
0
0
ENDTAB
0
TABLE
2
DIMSTYLE
5
1bd
100
AcDbSymbolTable
100
AcDbDimStyleTable
0
DIMSTYLE
105
27
100
AcDbSymbolTableRecord
100
AcDbDimStyleTableRecord
2
Standard
70
0
3
<>
41
0.18
42
0.0625
44
0.18
140
0.18
147
0.09
73
0
74
0
77
1
271
2
275
0
278
52
280
0
340
11
0
ENDTAB
0
TABLE
2
VIEW
5
1be
100
AcDbSymbolTable
0
ENDTAB
0
TABLE
2
UCS
5
1bf
100
AcDbSymbolTable
0
ENDTAB
0
TABLE
2
APPID
5
1c0
100
AcDbSymbolTable
0
APPID
5
12
100
AcDbSymbolTableRecord
100
AcDbRegAppTableRecord
2
ACAD
70
0
0
ENDTAB
0
TABLE
2
BLOCK_RECORD
5
1c1
100
AcDbSymbolTable
0
BLOCK_RECORD
5
1F
100
AcDbSymbolTableRecord
100
AcDbBlockTableRecord
2
*Model_Space
340
0
70
0
0
BLOCK_RECORD
5
1B
100
AcDbSymbolTableRecord
100
AcDbBlockTableRecord
2
*Paper_Space
340
0
70
0
0
BLOCK_RECORD
5
23
100
AcDbSymbolTableRecord
100
AcDbBlockTableRecord
2
*Paper_Space0
340
0
70
0
0
BLOCK_RECORD
5
F1
100
AcDbSymbolTableRecord
100
AcDbBlockTableRecord
2
DimnDraft3D1
340
0
70
0
0
BLOCK_RECORD
5
FF
100
AcDbSymbolTableRecord
100
AcDbBlockTableRecord
2
_CLOSED
340
0
70
0
0
BLOCK_RECORD
5
106
100
AcDbSymbolTableRecord
100
AcDbBlockTableRecord
2
DimnDraft3D2
340
0
70
0
0
BLOCK_RECORD
5
114
100
AcDbSymbolTableRecord
100
AcDbBlockTableRecord
2
DimnDraft3D3
340
0
70
0
0
BLOCK_RECORD
5
123
100
AcDbSymbolTableRecord
100
AcDbBlockTableRecord
2
DimnDraft3D4
340
0
70
0
0
BLOCK_RECORD
5
131
100
AcDbSymbolTableRecord
100
AcDbBlockTableRecord
2
DimnDraft3D5
340
0
70
0
0
BLOCK_RECORD
5
13F
100
AcDbSymbolTableRecord
100
AcDbBlockTableRecord
2
DimnDraft3D6
340
0
70
0
0
ENDTAB
0
ENDSEC
0
SECTION
2
BLOCKS
0
BLOCK
5
20
100
AcDbEntity
8
0
100
AcDbBlockBegin
2
*Model_Space
70
0
10
0
20
0
30
0
3
*Model_Space
0
ENDBLK
5
21
100
AcDbEntity
8
0
100
AcDbBlockEnd
0
BLOCK
5
1C
100
AcDbEntity
8
0
100
AcDbBlockBegin
2
*Paper_Space
70
0
10
0
20
0
30
0
3
*Paper_Space
0
ENDBLK
5
1D
100
AcDbEntity
8
0
100
AcDbBlockEnd
0
BLOCK
5
24
100
AcDbEntity
8
0
100
AcDbBlockBegin
2
*Paper_Space0
70
0
10
0
20
0
30
0
3
*Paper_Space0
0
ENDBLK
5
25
100
AcDbEntity
8
0
100
AcDbBlockEnd
0
BLOCK
5
FC
100
AcDbEntity
8
0
100
AcDbBlockBegin
2
DimnDraft3D1
70
0
10
0
20
0
30
0
3
DimnDraft3D1
0
MTEXT
5
F2
100
AcDbEntity
8
2
62
256
6
ByLayer
370
18
48
1
60
0
100
AcDbMText
10
48.625
20
-2.8125
30
0
210
0
220
0
230
1
1
\W0.5404;2
40
4.5
41
0
44
1.084337
50
90
71
7
72
5
7
iso_b_vert
0
LINE
5
F3
100
AcDbEntity
8
2
62
256
6
ByLayer
370
13
48
1
60
0
100
AcDbLine
10
37
20
-10.4375
30
0
11
52.75
21
-10.4375
31
0
39
0
210
0
220
0
230
1
0
LINE
5
F4
100
AcDbEntity
8
2
62
256
6
ByLayer
370
13
48
1
60
0
100
AcDbLine
10
37
20
-8.4375
30
0
11
52.75
21
-8.4375
31
0
39
0
210
0
220
0
230
1
0
LINE
5
F5
100
AcDbEntity
8
2
62
256
6
ByLayer
370
13
48
1
60
0
100
AcDbLine
10
49.75
20
-1.924342
30
0
11
49.75
21
-21.6875
31
0
39
0
210
0
220
0
230
1
0
LINE
5
F6
100
AcDbEntity
8
2
62
256
6
ByLayer
370
13
48
1
60
0
100
AcDbLine
10
49.75
20
-10.4375
30
0
11
50.144957
21
-13.437499
31
0
39
0
210
0
220
0
230
1
0
LINE
5
F7
100
AcDbEntity
8
2
62
256
6
ByLayer
370
13
48
1
60
0
100
AcDbLine
10
49.75
20
-10.4375
30
0
11
49.355043
21
-13.437501
31
0
39
0
210
0
220
0
230
1
0
LINE
5
F8
100
AcDbEntity
8
2
62
256
6
ByLayer
370
13
48
1
60
0
100
AcDbLine
10
50.144957
20
-13.437499
30
0
11
49.355043
21
-13.437501
31
0
39
0
210
0
220
0
230
1
0
LINE
5
F9
100
AcDbEntity
8
2
62
256
6
ByLayer
370
13
48
1
60
0
100
AcDbLine
10
49.75
20
-8.4375
30
0
11
49.355043
21
-5.437501
31
0
39
0
210
0
220
0
230
1
0
LINE
5
FA
100
AcDbEntity
8
2
62
256
6
ByLayer
370
13
48
1
60
0
100
AcDbLine
10
49.75
20
-8.4375
30
0
11
50.144957
21
-5.437499
31
0
39
0
210
0
220
0
230
1
0
LINE
5
FB
100
AcDbEntity
8
2
62
256
6
ByLayer
370
13
48
1
60
0
100
AcDbLine
10
49.355043
20
-5.437501
30
0
11
50.144957
21
-5.437499
31
0
39
0
210
0
220
0
230
1
0
ENDBLK
5
FD
100
AcDbEntity
8
0
100
AcDbBlockEnd
0
BLOCK
5
100
100
AcDbEntity
8
0
100
AcDbBlockBegin
2
_CLOSED
70
0
10
0
20
0
30
0
3
_CLOSED
0
LINE
5
102
100
AcDbEntity
8
0
62
256
6
ByLayer
370
-2
48
1
60
0
100
AcDbLine
10
-1
20
0.166667
30
0
11
0
21
0
31
0
39
0
210
0
220
0
230
1
0
LINE
5
103
100
AcDbEntity
8
0
62
256
6
ByLayer
370
-2
48
1
60
0
100
AcDbLine
10
0
20
0
30
0
11
-1
21
-0.166667
31
0
39
0
210
0
220
0
230
1
0
LINE
5
104
100
AcDbEntity
8
0
62
256
6
ByLayer
370
-2
48
1
60
0
100
AcDbLine
10
-1
20
0.166667
30
0
11
-1
21
-0.166667
31
0
39
0
210
0
220
0
230
1
0
LINE
5
105
100
AcDbEntity
8
0
62
256
6
ByLayer
370
-2
48
1
60
0
100
AcDbLine
10
0
20
0
30
0
11
-1
21
0
31
0
39
0
210
0
220
0
230
1
0
ENDBLK
5
101
100
AcDbEntity
8
0
100
AcDbBlockEnd
0
BLOCK
5
111
100
AcDbEntity
8
0
100
AcDbBlockBegin
2
DimnDraft3D2
70
0
10
0
20
0
30
0
3
DimnDraft3D2
0
MTEXT
5
107
100
AcDbEntity
8
2
62
256
6
ByLayer
370
18
48
1
60
0
100
AcDbMText
10
58.625
20
-4.406579
30
0
210
0
220
0
230
1
1
\W0.7346;20.5
40
4.5
41
0
44
1.084337
50
90
71
7
72
5
7
iso_b_vert
0
LINE
5
108
100
AcDbEntity
8
2
62
256
6
ByLayer
370
13
48
1
60
0
100
AcDbLine
10
37
20
-10.4375
30
0
11
62.75
21
-10.4375
31
0
39
0
210
0
220
0
230
1
0
LINE
5
109
100
AcDbEntity
8
2
62
256
6
ByLayer
370
13
48
1
60
0
100
AcDbLine
10
1.5
20
9.9375
30
0
11
62.75
21
9.9375
31
0
39
0
210
0
220
0
230
1
0
LINE
5
10A
100
AcDbEntity
8
2
62
256
6
ByLayer
370
13
48
1
60
0
100
AcDbLine
10
59.75
20
-10.4375
30
0
11
59.75
21
9.9375
31
0
39
0
210
0
220
0
230
1
0
LINE
5
10B
100
AcDbEntity
8
2
62
256
6
ByLayer
370
13
48
1
60
0
100
AcDbLine
10
59.75
20
-10.4375
30
0
11
59.355043
21
-7.437501
31
0
39
0
210
0
220
0
230
1
0
LINE
5
10C
100
AcDbEntity
8
2
62
256
6
ByLayer
370
13
48
1
60
0
100
AcDbLine
10
59.75
20
-10.4375
30
0
11
60.144957
21
-7.437499
31
0
39
0
210
0
220
0
230
1
0
LINE
5
10D
100
AcDbEntity
8
2
62
256
6
ByLayer
370
13
48
1
60
0
100
AcDbLine
10
59.355043
20
-7.437501
30
0
11
60.144957
21
-7.437499
31
0
39
0
210
0
220
0
230
1
0
LINE
5
10E
100
AcDbEntity
8
2
62
256
6
ByLayer
370
13
48
1
60
0
100
AcDbLine
10
59.75
20
9.9375
30
0
11
60.144957
21
6.937501
31
0
39
0
210
0
220
0
230
1
0
LINE
5
10F
100
AcDbEntity
8
2
62
256
6
ByLayer
370
13
48
1
60
0
100
AcDbLine
10
59.75
20
9.9375
30
0
11
59.355043
21
6.937499
31
0
39
0
210
0
220
0
230
1
0
LINE
5
110
100
AcDbEntity
8
2
62
256
6
ByLayer
370
13
48
1
60
0
100
AcDbLine
10
60.144957
20
6.937501
30
0
11
59.355043
21
6.937499
31
0
39
0
210
0
220
0
230
1
0
ENDBLK
5
112
100
AcDbEntity
8
0
100
AcDbBlockEnd
0
BLOCK
5
120
100
AcDbEntity
8
0
100
AcDbBlockBegin
2
DimnDraft3D3
70
0
10
0
20
0
30
0
3
DimnDraft3D3
0
MTEXT
5
115
100
AcDbEntity
8
SK2
62
256
6
ByLayer
370
18
48
1
60
0
100
AcDbMText
10
-101.725
20
-1.563158
30
0
210
0
220
0
230
1
1
\W0.6740;20
40
4.5
41
0
44
1.084337
50
90
71
7
72
5
7
iso_b_vert
0
LINE
5
117
100
AcDbEntity
8
SK2
62
256
6
ByLayer
370
13
48
1
60
0
100
AcDbLine
10
-92.35
20
9.9375
30
0
11
-103.6
21
9.9375
31
0
39
0
210
0
220
0
230
1
0
LINE
5
118
100
AcDbEntity
8
SK2
62
256
6
ByLayer
370
13
48
1
60
0
100
AcDbLine
10
-92.35
20
-9.9375
30
0
11
-103.6
21
-9.9375
31
0
39
0
210
0
220
0
230
1
0
LINE
5
119
100
AcDbEntity
8
SK2
62
256
6
ByLayer
370
13
48
1
60
0
100
AcDbLine
10
-100.6
20
9.9375
30
0
11
-100.6
21
-9.9375
31
0
39
0
210
0
220
0
230
1
0
LINE
5
11A
100
AcDbEntity
8
SK2
62
256
6
ByLayer
370
13
48
1
60
0
100
AcDbLine
10
-100.6
20
9.9375
30
0
11
-100.205043
21
6.937501
31
0
39
0
210
0
220
0
230
1
0
LINE
5
11B
100
AcDbEntity
8
SK2
62
256
6
ByLayer
370
13
48
1
60
0
100
AcDbLine
10
-100.6
20
9.9375
30
0
11
-100.994957
21
6.937499
31
0
39
0
210
0
220
0
230
1
0
LINE
5
11C
100
AcDbEntity
8
SK2
62
256
6
ByLayer
370
13
48
1
60
0
100
AcDbLine
10
-100.205043
20
6.937501
30
0
11
-100.994957
21
6.937499
31
0
39
0
210
0
220
0
230
1
0
LINE
5
11D
100
AcDbEntity
8
SK2
62
256
6
ByLayer
370
13
48
1
60
0
100
AcDbLine
10
-100.6
20
-9.9375
30
0
11
-100.994957
21
-6.937501
31
0
39
0
210
0
220
0
230
1
0
LINE
5
11E
100
AcDbEntity
8
SK2
62
256
6
ByLayer
370
13
48
1
60
0
100
AcDbLine
10
-100.6
20
-9.9375
30
0
11
-100.205043
21
-6.937499
31
0
39
0
210
0
220
0
230
1
0
LINE
5
11F
100
AcDbEntity
8
SK2
62
256
6
ByLayer
370
13
48
1
60
0
100
AcDbLine
10
-100.994957
20
-6.937501
30
0
11
-100.205043
21
-6.937499
31
0
39
0
210
0
220
0
230
1
0
ENDBLK
5
121
100
AcDbEntity
8
0
100
AcDbBlockEnd
0
BLOCK
5
12E
100
AcDbEntity
8
0
100
AcDbBlockBegin
2
DimnDraft3D4
70
0
10
0
20
0
30
0
3
DimnDraft3D4
0
MTEXT
5
124
100
AcDbEntity
8
2
62
256
6
ByLayer
370
18
48
1
60
0
100
AcDbMText
10
25.999342
20
-23.0625
30
0
210
0
220
0
230
1
1
\W0.5321;17
40
4.5
41
0
44
1.084337
50
0
71
7
72
5
7
iso_b_vert
0
LINE
5
125
100
AcDbEntity
8
2
62
256
6
ByLayer
370
13
48
1
60
0
100
AcDbLine
10
35.5
20
-10.9375
30
0
11
35.5
21
-27.1875
31
0
39
0
210
0
220
0
230
1
0
LINE
5
126
100
AcDbEntity
8
2
62
256
6
ByLayer
370
13
48
1
60
0
100
AcDbLine
10
18.5
20
-9.0625
30
0
11
18.5
21
-27.1875
31
0
39
0
210
0
220
0
230
1
0
LINE
5
127
100
AcDbEntity
8
2
62
256
6
ByLayer
370
13
48
1
60
0
100
AcDbLine
10
35.5
20
-24.1875
30
0
11
18.5
21
-24.1875
31
0
39
0
210
0
220
0
230
1
0
LINE
5
128
100
AcDbEntity
8
2
62
256
6
ByLayer
370
13
48
1
60
0
100
AcDbLine
10
35.5
20
-24.1875
30
0
11
32.500001
21
-24.582457
31
0
39
0
210
0
220
0
230
1
0
LINE
5
129
100
AcDbEntity
8
2
62
256
6
ByLayer
370
13
48
1
60
0
100
AcDbLine
10
35.5
20
-24.1875
30
0
11
32.499999
21
-23.792543
31
0
39
0
210
0
220
0
230
1
0
LINE
5
12A
100
AcDbEntity
8
2
62
256
6
ByLayer
370
13
48
1
60
0
100
AcDbLine
10
32.500001
20
-24.582457
30
0
11
32.499999
21
-23.792543
31
0
39
0
210
0
220
0
230
1
0
LINE
5
12B
100
AcDbEntity
8
2
62
256
6
ByLayer
370
13
48
1
60
0
100
AcDbLine
10
18.5
20
-24.1875
30
0
11
21.499999
21
-23.792543
31
0
39
0
210
0
220
0
230
1
0
LINE
5
12C
100
AcDbEntity
8
2
62
256
6
ByLayer
370
13
48
1
60
0
100
AcDbLine
10
18.5
20
-24.1875
30
0
11
21.500001
21
-24.582457
31
0
39
0
210
0
220
0
230
1
0
LINE
5
12D
100
AcDbEntity
8
2
62
256
6
ByLayer
370
13
48
1
60
0
100
AcDbLine
10
21.499999
20
-23.792543
30
0
11
21.500001
21
-24.582457
31
0
39
0
210
0
220
0
230
1
0
ENDBLK
5
12F
100
AcDbEntity
8
0
100
AcDbBlockEnd
0
BLOCK
5
13C
100
AcDbEntity
8
0
100
AcDbBlockBegin
2
DimnDraft3D5
70
0
10
0
20
0
30
0
3
DimnDraft3D5
0
MTEXT
5
132
100
AcDbEntity
8
2
62
256
6
ByLayer
370
18
48
1
60
0
100
AcDbMText
10
13.593421
20
21.4375
30
0
210
0
220
0
230
1
1
\W0.7346;35.5
40
4.5
41
0
44
1.084337
50
0
71
7
72
5
7
iso_b_vert
0
LINE
5
133
100
AcDbEntity
8
2
62
256
6
ByLayer
370
13
48
1
60
0
100
AcDbLine
10
35.5
20
-6.9375
30
0
11
35.5
21
23.3125
31
0
39
0
210
0
220
0
230
1
0
LINE
5
134
100
AcDbEntity
8
2
62
256
6
ByLayer
370
13
48
1
60
0
100
AcDbLine
10
0
20
11.4375
30
0
11
0
21
23.3125
31
0
39
0
210
0
220
0
230
1
0
LINE
5
135
100
AcDbEntity
8
2
62
256
6
ByLayer
370
13
48
1
60
0
100
AcDbLine
10
35.5
20
20.3125
30
0
11
0
21
20.3125
31
0
39
0
210
0
220
0
230
1
0
LINE
5
136
100
AcDbEntity
8
2
62
256
6
ByLayer
370
13
48
1
60
0
100
AcDbLine
10
35.5
20
20.3125
30
0
11
32.500001
21
19.917543
31
0
39
0
210
0
220
0
230
1
0
LINE
5
137
100
AcDbEntity
8
2
62
256
6
ByLayer
370
13
48
1
60
0
100
AcDbLine
10
35.5
20
20.3125
30
0
11
32.499999
21
20.707457
31
0
39
0
210
0
220
0
230
1
0
LINE
5
138
100
AcDbEntity
8
2
62
256
6
ByLayer
370
13
48
1
60
0
100
AcDbLine
10
32.500001
20
19.917543
30
0
11
32.499999
21
20.707457
31
0
39
0
210
0
220
0
230
1
0
LINE
5
139
100
AcDbEntity
8
2
62
256
6
ByLayer
370
13
48
1
60
0
100
AcDbLine
10
0
20
20.3125
30
0
11
2.999999
21
20.707457
31
0
39
0
210
0
220
0
230
1
0
LINE
5
13A
100
AcDbEntity
8
2
62
256
6
ByLayer
370
13
48
1
60
0
100
AcDbLine
10
0
20
20.3125
30
0
11
3.000001
21
19.917543
31
0
39
0
210
0
220
0
230
1
0
LINE
5
13B
100
AcDbEntity
8
2
62
256
6
ByLayer
370
13
48
1
60
0
100
AcDbLine
10
2.999999
20
20.707457
30
0
11
3.000001
21
19.917543
31
0
39
0
210
0
220
0
230
1
0
ENDBLK
5
13D
100
AcDbEntity
8
0
100
AcDbBlockEnd
0
BLOCK
5
14A
100
AcDbEntity
8
0
100
AcDbBlockBegin
2
DimnDraft3D6
70
0
10
0
20
0
30
0
3
DimnDraft3D6
0
MTEXT
5
140
100
AcDbEntity
8
SK2
62
256
6
ByLayer
370
18
48
1
60
0
100
AcDbMText
10
-30.357237
20
31.4375
30
0
210
0
220
0
230
1
1
\W0.6217;125
40
4.5
41
0
44
1.084337
50
0
71
7
72
5
7
iso_b_vert
0
LINE
5
141
100
AcDbEntity
8
SK2
62
256
6
ByLayer
370
13
48
1
60
0
100
AcDbLine
10
35.5
20
-6.9375
30
0
11
35.5
21
33.3125
31
0
39
0
210
0
220
0
230
1
0
LINE
5
142
100
AcDbEntity
8
SK2
62
256
6
ByLayer
370
13
48
1
60
0
100
AcDbLine
10
-90.85
20
11.4375
30
0
11
-90.85
21
33.3125
31
0
39
0
210
0
220
0
230
1
0
LINE
5
143
100
AcDbEntity
8
SK2
62
256
6
ByLayer
370
13
48
1
60
0
100
AcDbLine
10
35.5
20
30.3125
30
0
11
-90.85
21
30.3125
31
0
39
0
210
0
220
0
230
1
0
LINE
5
144
100
AcDbEntity
8
SK2
62
256
6
ByLayer
370
13
48
1
60
0
100
AcDbLine
10
35.5
20
30.3125
30
0
11
32.500001
21
29.917543
31
0
39
0
210
0
220
0
230
1
0
LINE
5
145
100
AcDbEntity
8
SK2
62
256
6
ByLayer
370
13
48
1
60
0
100
AcDbLine
10
35.5
20
30.3125
30
0
11
32.499999
21
30.707457
31
0
39
0
210
0
220
0
230
1
0
LINE
5
146
100
AcDbEntity
8
SK2
62
256
6
ByLayer
370
13
48
1
60
0
100
AcDbLine
10
32.500001
20
29.917543
30
0
11
32.499999
21
30.707457
31
0
39
0
210
0
220
0
230
1
0
LINE
5
147
100
AcDbEntity
8
SK2
62
256
6
ByLayer
370
13
48
1
60
0
100
AcDbLine
10
-90.85
20
30.3125
30
0
11
-87.850001
21
30.707457
31
0
39
0
210
0
220
0
230
1
0
LINE
5
148
100
AcDbEntity
8
SK2
62
256
6
ByLayer
370
13
48
1
60
0
100
AcDbLine
10
-90.85
20
30.3125
30
0
11
-87.849999
21
29.917543
31
0
39
0
210
0
220
0
230
1
0
LINE
5
149
100
AcDbEntity
8
SK2
62
256
6
ByLayer
370
13
48
1
60
0
100
AcDbLine
10
-87.850001
20
30.707457
30
0
11
-87.849999
21
29.917543
31
0
39
0
210
0
220
0
230
1
0
ENDBLK
5
14B
100
AcDbEntity
8
0
100
AcDbBlockEnd
0
ENDSEC
0
SECTION
2
ENTITIES
0
ARC
5
B9
100
AcDbEntity
8
1
62
256
6
ByLayer
370
18
48
1
60
0
100
AcDbCircle
39
0
10
18.6
20
-7.0875
30
0
40
1.6
210
0
220
0
230
1
100
AcDbArc
50
180
51
270
0
ARC
5
BB
100
AcDbEntity
8
1
62
256
6
ByLayer
370
18
48
1
60
0
100
AcDbCircle
39
0
10
15.7
20
-10.2375
30
0
40
0.2
210
0
220
0
230
1
100
AcDbArc
50
180
51
272.5
0
ARC
5
BC
100
AcDbEntity
8
1
62
256
6
ByLayer
370
18
48
1
60
0
100
AcDbCircle
39
0
10
-35.3
20
-10.2375
30
0
40
0.2
210
0
220
0
230
-1
100
AcDbArc
50
180
51
272.5
0
ARC
5
BD
100
AcDbEntity
8
1
62
256
6
ByLayer
370
18
48
1
60
0
100
AcDbCircle
39
0
10
29.332089
20
-9.4375
30
0
40
0.499999999990796
210
0
220
0
230
1
100
AcDbArc
50
340
51
20
0
ARC
5
BE
100
AcDbEntity
8
1
62
256
6
ByLayer
370
18
48
1
60
0
100
AcDbCircle
39
0
10
35.3
20
-8.6375
30
0
40
0.2
210
0
220
0
230
1
100
AcDbArc
50
360
51
92.5
0
ARC
5
BF
100
AcDbEntity
8
1
62
256
6
ByLayer
370
18
48
1
60
0
100
AcDbCircle
39
0
10
12
20
-2.4375
30
0
40
1.416
210
0
220
0
230
1
100
AcDbArc
50
96.192438
51
150.190711
0
ARC
5
C0
100
AcDbEntity
8
1
62
256
6
ByLayer
370
18
48
1
60
0
100
AcDbCircle
39
0
10
12
20
-2.4375
30
0
40
1.416
210
0
220
0
230
1
100
AcDbArc
50
263.807562
51
276.192438
0
ARC
5
C1
100
AcDbEntity
8
1
62
256
6
ByLayer
370
18
48
1
60
0
100
AcDbCircle
39
0
10
12
20
-2.4375
30
0
40
1.9685
210
0
220
0
230
1
100
AcDbArc
50
120.381422
51
180
0
ARC
5
C2
100
AcDbEntity
8
1
62
256
6
ByLayer
370
18
48
1
60
0
100
AcDbCircle
39
0
10
12
20
-2.4375
30
0
40
1.416
210
0
220
0
230
1
100
AcDbArc
50
29.809289
51
83.807562
0
ARC
5
C3
100
AcDbEntity
8
1
62
256
6
ByLayer
370
18
48
1
60
0
100
AcDbCircle
39
0
10
12
20
-2.4375
30
0
40
1.416
210
0
220
0
230
1
100
AcDbArc
50
330.190711
51
29.809289
0
ARC
5
C4
100
AcDbEntity
8
1
62
256
6
ByLayer
370
18
48
1
60
0
100
AcDbCircle
39
0
10
12
20
-2.4375
30
0
40
1.9685
210
0
220
0
230
1
100
AcDbArc
50
239.618578
51
300.381422
0
ARC
5
C5
100
AcDbEntity
8
1
62
256
6
ByLayer
370
18
48
1
60
0
100
AcDbCircle
39
0
10
12
20
-2.4375
30
0
40
1.9685
210
0
220
0
230
1
100
AcDbArc
50
180
51
239.618578
0
ARC
5
C6
100
AcDbEntity
8
1
62
256
6
ByLayer
370
18
48
1
60
0
100
AcDbCircle
39
0
10
12
20
-2.4375
30
0
40
1.416
210
0
220
0
230
1
100
AcDbArc
50
83.807562
51
96.192438
0
ARC
5
C7
100
AcDbEntity
8
1
62
256
6
ByLayer
370
18
48
1
60
0
100
AcDbCircle
39
0
10
12
20
-2.4375
30
0
40
1.416
210
0
220
0
230
1
100
AcDbArc
50
276.192438
51
330.190711
0
ARC
5
C8
100
AcDbEntity
8
1
62
256
6
ByLayer
370
18
48
1
60
0
100
AcDbCircle
39
0
10
12
20
-2.4375
30
0
40
1.9685
210
0
220
0
230
1
100
AcDbArc
50
59.618578
51
120.381422
0
ARC
5
C9
100
AcDbEntity
8
1
62
256
6
ByLayer
370
18
48
1
60
0
100
AcDbCircle
39
0
10
12
20
-2.4375
30
0
40
1.9685
210
0
220
0
230
1
100
AcDbArc
50
360
51
59.618578
0
ARC
5
CA
100
AcDbEntity
8
1
62
256
6
ByLayer
370
18
48
1
60
0
100
AcDbCircle
39
0
10
12
20
-2.4375
30
0
40
1.416
210
0
220
0
230
1
100
AcDbArc
50
209.809289
51
263.807562
0
ARC
5
CB
100
AcDbEntity
8
1
62
256
6
ByLayer
370
18
48
1
60
0
100
AcDbCircle
39
0
10
12
20
-2.4375
30
0
40
1.416
210
0
220
0
230
1
100
AcDbArc
50
150.190711
51
209.809289
0
ARC
5
CC
100
AcDbEntity
8
1
62
256
6
ByLayer
370
18
48
1
60
0
100
AcDbCircle
39
0
10
12
20
-2.4375
30
0
40
1.9685
210
0
220
0
230
1
100
AcDbArc
50
300.381422
51
360
0
CIRCLE
5
BA
100
AcDbEntity
8
1
62
256
6
ByLayer
370
18
48
1
60
0
100
AcDbCircle
10
12
20
-2.4375
30
0
40
4
39
0
210
0
220
0
230
1
0
CIRCLE
5
CD
100
AcDbEntity
8
1
62
256
6
ByLayer
370
18
48
1
60
0
100
AcDbCircle
10
-12
20
-2.4375
30
0
40
3.5
39
0
210
0
220
0
230
-1
0
CIRCLE
5
CE
100
AcDbEntity
8
1
62
256
6
ByLayer
370
18
48
1
60
0
100
AcDbCircle
10
-12
20
-2.4375
30
0
40
3
39
0
210
0
220
0
230
-1
0
ELLIPSE
5
CF
100
AcDbEntity
8
1
62
256
6
ByLayer
370
18
48
1
60
0
100
AcDbEllipse
10
17.100001
20
-8.622587
30
0
11
-1.0867009146744E-08
21
2.89508328382538
31
0
210
0
220
0
230
1
40
0.466307
41
-1.54826490594377
42
-1.53982580603627
0
ELLIPSE
5
D0
100
AcDbEntity
8
1
62
256
6
ByLayer
370
18
48
1
60
0
100
AcDbEllipse
10
29.795796
20
-10.063949
30
0
11
-0.0262818784739319
21
-0.147679592063645
31
0
210
0
220
0
230
1
40
1
41
-1.74374055072316
42
-1.39467469295102
0
ELLIPSE
5
D1
100
AcDbEntity
8
1
62
256
6
ByLayer
370
18
48
1
60
0
100
AcDbEllipse
10
29.795796
20
-8.811051
30
0
11
-0.0262847644586728
21
0.147679078428928
31
0
210
0
220
0
230
1
40
1
41
1.39465515071333
42
1.74372100848497
0
POINT
5
6C
100
AcDbEntity
8
2
62
256
6
ByLayer
370
18
48
1
60
0
100
AcDbPoint
10
35.5
20
9.5625
30
0
39
0
210
0
220
0
230
1
50
360
0
POINT
5
6E
100
AcDbEntity
8
80
62
256
6
ByLayer
370
18
48
1
60
0
100
AcDbPoint
10
0
20
0
30
0
39
0
210
0
220
0
230
1
50
360
0
POINT
5
70
100
AcDbEntity
8
2
62
256
6
ByLayer
370
18
48
1
60
0
100
AcDbPoint
10
35.5
20
10.5625
30
0
39
0
210
0
220
0
230
1
50
360
0
POINT
5
71
100
AcDbEntity
8
81
62
256
6
ByLayer
370
18
48
1
60
0
100
AcDbPoint
10
35.5
20
-10.4375
30
0
39
0
210
0
220
0
230
1
50
360
0
SPLINE
5
D2
100
AcDbEntity
8
1
62
256
6
ByLayer
370
18
48
1
60
0
100
AcDbSpline
70
4
71
3
72
12
73
8
40
0
40
0
40
0
40
0
40
0.367292260733823
40
0.367292260733823
40
0.734922303957971
40
0.734922303957971
40
1
40
1
40
1
40
1
41
1
10
28.906851383867
20
-9.05714356443343
30
0
41
1
10
28.9417035961607
20
-9.14312174588983
30
0
41
1
10
28.9649302976673
20
-9.23760421876705
30
0
41
1
10
28.9841590431068
20
-9.42810593788261
30
0
41
1
10
28.9804000460794
20
-9.52674862201991
30
0
41
1
10
28.9513806104925
20
-9.68863656782449
30
0
41
1
10
28.9321762389184
20
-9.75538163585756
30
0
41
1
10
28.9068513838719
20
-9.81785643556881
30
0
0
SPLINE
5
D3
100
AcDbEntity
8
1
62
256
6
ByLayer
370
18
48
1
60
0
100
AcDbSpline
70
4
71
3
72
16
73
12
40
0
40
0
40
0
40
0
40
0.214485405290774
40
0.214485405290774
40
0.455892218501679
40
0.455892218501679
40
0.687381151353188
40
0.687381151353188
40
0.925665412870792
40
0.925665412870792
40
1
40
1
40
1
40
1
41
1
10
18.4493526100059
20
-8.53293944287287
30
0
41
1
10
18.4458385019349
20
-8.5189975982243
30
0
41
1
10
18.4275602236084
20
-8.49688501318806
30
0
41
1
10
18.3631135990126
20
-8.42760801785991
30
0
41
1
10
18.3126648808971
20
-8.37615968590941
30
0
41
1
10
18.2014532672789
20
-8.2452740214701
30
0
41
1
10
18.140173576502
20
-8.16530150611052
30
0
41
1
10
18.0239781286101
20
-7.98056488075693
30
0
41
1
10
17.9681058709495
20
-7.87314058615999
30
0
41
1
10
17.9089097168015
20
-7.72337923752403
30
0
41
1
10
17.895704491701
20
-7.68672799105278
30
0
41
1
10
17.8836173169058
20
-7.64950000000005
30
0
0
SPLINE
5
D4
100
AcDbEntity
8
1
62
256
6
ByLayer
370
18
48
1
60
0
100
AcDbSpline
70
4
71
3
72
8
73
4
40
0
40
0
40
0
40
0
40
1
40
1
40
1
40
1
41
1
10
28.906851383867
20
-9.81785643556668
30
0
41
1
10
28.8567751647697
20
-9.94139126933621
30
0
41
1
10
28.8062919217127
20
-10.064684347282
30
0
41
1
10
28.755042424375
20
-10.1875000000001
30
0
0
SPLINE
5
D5
100
AcDbEntity
8
1
62
256
6
ByLayer
370
18
48
1
60
0
100
AcDbSpline
70
4
71
3
72
10
73
6
40
0
40
0
40
0
40
0
40
0.668921762663497
40
0.668921762663497
40
1
40
1
40
1
40
1
41
1
10
18.7528308956005
20
-8.6417148850274
30
0
41
1
10
18.682422593404
20
-8.62461131412692
30
0
41
1
10
18.6135454939304
20
-8.60277894346689
30
0
41
1
10
18.5141378127097
20
-8.56302191183676
30
0
41
1
10
18.4814001148549
20
-8.5485372069239
30
0
41
1
10
18.44935261002
20
-8.53293944287896
30
0
0
SPLINE
5
D6
100
AcDbEntity
8
1
62
256
6
ByLayer
370
18
48
1
60
0
100
AcDbSpline
70
4
71
3
72
16
73
12
40
0
40
0
40
0
40
0
40
0.158761701327268
40
0.158761701327268
40
0.413883488318153
40
0.413883488318153
40
0.668234485406418
40
0.668234485406418
40
0.921719740848495
40
0.921719740848495
40
1
40
1
40
1
40
1
41
1
10
29.6681514473865
20
-8.6411659304095
30
0
41
1
10
29.6133280714617
20
-8.61426642830196
30
0
41
1
10
29.5597831006495
20
-8.57591207269786
30
0
41
1
10
29.4281676356533
20
-8.44869628448166
30
0
41
1
10
29.3526899887172
20
-8.34112874600027
30
0
41
1
10
29.225862004272
20
-8.0858351739432
30
0
41
1
10
29.1726877508042
20
-7.93469377489834
30
0
41
1
10
29.0956968832975
20
-7.61068082917546
30
0
41
1
10
29.0707200922096
20
-7.43340696525286
30
0
41
1
10
29.0583503248763
20
-7.19962137603881
30
0
41
1
10
29.0568702503226
20
-7.14352189027417
30
0
41
1
10
29.0568702503226
20
-7.08750000000006
30
0
0
SPLINE
5
D7
100
AcDbEntity
8
1
62
256
6
ByLayer
370
18
48
1
60
0
100
AcDbSpline
70
4
71
3
72
8
73
4
40
0
40
0
40
0
40
0
40
1
40
1
40
1
40
1
41
1
10
28.755042424375
20
-8.68750000000006
30
0
41
1
10
28.8062919217127
20
-8.81031565271806
30
0
41
1
10
28.8567751647697
20
-8.93360873066388
30
0
41
1
10
28.906851383867
20
-9.05714356443343
30
0
0
SPLINE
5
D8
100
AcDbEntity
8
1
62
256
6
ByLayer
370
18
48
1
60
0
100
AcDbSpline
70
4
71
3
72
10
73
6
40
0
40
0
40
0
40
0
40
0.0690840029017593
40
0.0690840029017593
40
1
40
1
40
1
40
1
41
1
10
17.1047624447828
20
-7.08750000000003
30
0
41
1
10
17.1047624447828
20
-7.10081971678704
30
0
41
1
10
17.1049296277159
20
-7.11414048230307
30
0
41
1
10
17.1097136806323
20
-7.30470265129657
30
0
41
1
10
17.1446705782577
20
-7.48359828046324
30
0
41
1
10
17.2072229082709
20
-7.64950000000005
30
0
0
SPLINE
5
D9
100
AcDbEntity
8
1
62
256
6
ByLayer
370
18
48
1
60
0
100
AcDbSpline
70
4
71
3
72
14
73
10
40
0
40
0
40
0
40
0
40
0.281038222380498
40
0.281038222380498
40
0.564557857067141
40
0.564557857067141
40
0.820700196130196
40
0.820700196130196
40
1
40
1
40
1
40
1
41
1
10
11.4078822958328
20
-0.793917371911249
30
0
41
1
10
11.3813006245731
20
-0.766587630930047
30
0
41
1
10
11.349043969095
20
-0.743134475464075
30
0
41
1
10
11.277235194489
20
-0.70892513957304
30
0
41
1
10
11.2364720760798
20
-0.697815240955151
30
0
41
1
10
11.1571729147492
20
-0.692151314425786
30
0
41
1
10
11.1175924873016
20
-0.696088274356924
30
0
41
1
10
11.0539176730121
20
-0.714384565354351
30
0
41
1
10
11.0281706327858
20
-0.725396701536596
30
0
41
1
10
11.0044231104048
20
-0.73931894166023
30
0
0
SPLINE
5
DA
100
AcDbEntity
8
1
62
256
6
ByLayer
370
18
48
1
60
0
100
AcDbSpline
70
4
71
3
72
16
73
12
40
0
40
0
40
0
40
0
40
0.0645965064171465
40
0.0645965064171465
40
0.282747320500321
40
0.282747320500321
40
0.503851581407241
40
0.503851581407241
40
0.739476498257866
40
0.739476498257866
40
1
40
1
40
1
40
1
41
1
10
11.0044231104048
20
-4.13568105833977
30
0
41
1
10
11.013014252084
20
-4.14071770744678
30
0
41
1
10
11.0218448367852
20
-4.14537061464469
30
0
41
1
10
11.0610594082809
20
-4.16381831327183
30
0
41
1
10
11.0937837130779
20
-4.17343690823566
30
0
41
1
10
11.1593454694517
20
-4.18245955
30
0
41
1
10
11.1930080641066
20
-4.1818653386228
30
0
41
1
10
11.2588630387573
20
-4.17103188575985
30
0
41
1
10
11.2916435993958
20
-4.16006237928639
30
0
41
1
10
11.3537963059871
20
-4.12838505353068
30
0
41
1
10
11.3832521428563
20
-4.10640593054779
30
0
41
1
10
11.4078822958328
20
-4.08108262808878
30
0
0
SPLINE
5
DB
100
AcDbEntity
8
1
62
256
6
ByLayer
370
18
48
1
60
0
100
AcDbSpline
70
4
71
3
72
18
73
14
40
0
40
0
40
0
40
0
40
0.213081262000622
40
0.213081262000622
40
0.387160943926351
40
0.387160943926351
40
0.562948999942015
40
0.562948999942015
40
0.715638435810392
40
0.715638435810392
40
0.919170953808161
40
0.919170953808161
40
1
40
1
40
1
40
1
41
1
10
13.1474510335849
20
-1.10934766202144
30
0
41
1
10
13.1253499966636
20
-1.19189739660249
30
0
41
1
10
13.1155116663085
20
-1.28070368281226
30
0
41
1
10
13.125005262533
20
-1.4444408353003
30
0
41
1
10
13.1396283941553
20
-1.52076928250051
30
0
41
1
10
13.190791443592
20
-1.66796999080836
30
0
41
1
10
13.2285222509958
20
-1.74088857501079
30
0
41
1
10
13.314774512508
20
-1.86093127580509
30
0
41
1
10
13.3621656692504
20
-1.91167693660867
30
0
41
1
10
13.4803089305089
20
-2.01129079099724
30
0
41
1
10
13.5554527440065
20
-2.05587522828733
30
0
41
1
10
13.6631437334956
20
-2.09998071617818
30
0
41
1
10
13.6945032391402
20
-2.11064015636086
30
0
41
1
10
13.7260954401443
20
-2.11933803045318
30
0
0
SPLINE
5
DC
100
AcDbEntity
8
1
62
256
6
ByLayer
370
18
48
1
60
0
100
AcDbSpline
70
4
71
3
72
18
73
14
40
0
40
0
40
0
40
0
40
0.213081026856097
40
0.213081026856097
40
0.387160750704736
40
0.387160750704736
40
0.562948851464623
40
0.562948851464623
40
0.715638295683681
40
0.715638295683681
40
0.919170771668905
40
0.919170771668905
40
1
40
1
40
1
40
1
41
1
10
10.2739045598557
20
-2.11933803045315
30
0
41
1
10
10.3562959735258
20
-2.09665426295314
30
0
41
1
10
10.4378828610424
20
-2.06022748697345
30
0
41
1
10
10.5743337817464
20
-1.96922694409625
30
0
41
1
10
10.6327849506205
20
-1.91800848326642
30
0
41
1
10
10.7338958570924
20
-1.79942391211392
30
0
41
1
10
10.7777186157693
20
-1.72999551030071
30
0
41
1
10
10.8376543890653
20
-1.59487551359348
30
0
41
1
10
10.8574632867377
20
-1.52832739263963
30
0
41
1
10
10.8836465356628
20
-1.37602773607884
30
0
41
1
10
10.8841042679143
20
-1.28865409633204
30
0
41
1
10
10.8676879551153
20
-1.17344488314825
30
0
41
1
10
10.8610234078263
20
-1.14100060625688
30
0
41
1
10
10.8525489664151
20
-1.10934766202144
30
0
0
SPLINE
5
DD
100
AcDbEntity
8
1
62
256
6
ByLayer
370
18
48
1
60
0
100
AcDbSpline
70
4
71
3
72
14
73
10
40
0
40
0
40
0
40
0
40
0.285014780844609
40
0.285014780844609
40
0.572350605982616
40
0.572350605982616
40
0.832166772861831
40
0.832166772861831
40
1
40
1
40
1
40
1
41
1
10
10.8525489664151
20
-3.76565233797859
30
0
41
1
10
10.8427455383358
20
-3.80226918943279
30
0
41
1
10
10.839100800866
20
-3.84177139209442
30
0
41
1
10
10.8463060087591
20
-3.92055123875113
30
0
41
1
10
10.8574570886555
20
-3.96104024825857
30
0
41
1
10
10.8927012508891
20
-4.031774641525
30
0
41
1
10
10.9160474129793
20
-4.06366793530441
30
0
41
1
10
10.9622449161042
20
-4.10754143751319
30
0
41
1
10
10.9826741516866
20
-4.12293049763465
30
0
41
1
10
11.0044231104048
20
-4.13568105833977
30
0
0
SPLINE
5
DE
100
AcDbEntity
8
1
62
256
6
ByLayer
370
18
48
1
60
0
100
AcDbSpline
70
4
71
3
72
14
73
10
40
0
40
0
40
0
40
0
40
0.285013984727041
40
0.285013984727041
40
0.572349910643066
40
0.572349910643066
40
0.832166158509295
40
0.832166158509295
40
1
40
1
40
1
40
1
41
1
10
13.7260954401443
20
-2.75566196954685
30
0
41
1
10
13.7626420033309
20
-2.74560007468037
30
0
41
1
10
13.798562913688
20
-2.72876597586867
30
0
41
1
10
13.8628804284091
20
-2.68270710212499
30
0
41
1
10
13.892169726513
20
-2.65260985396915
30
0
41
1
10
13.9353659032993
20
-2.58643131773158
30
0
41
1
10
13.9510721564613
20
-2.55016094593429
30
0
41
1
10
13.9655563481768
20
-2.48811810151747
30
0
41
1
10
13.9685
20
-2.46271108166582
30
0
41
1
10
13.9685
20
-2.4375
30
0
0
SPLINE
5
DF
100
AcDbEntity
8
1
62
256
6
ByLayer
370
18
48
1
60
0
100
AcDbSpline
70
4
71
3
72
16
73
12
40
0
40
0
40
0
40
0
40
0.0645965064171475
40
0.0645965064171475
40
0.282747320500322
40
0.282747320500322
40
0.503851581407242
40
0.503851581407242
40
0.739476498257865
40
0.739476498257865
40
1
40
1
40
1
40
1
41
1
10
12.9955768895952
20
-0.73931894166023
30
0
41
1
10
12.986985747916
20
-0.734282292553218
30
0
41
1
10
12.9781551632148
20
-0.72962938535531
30
0
41
1
10
12.9389405917191
20
-0.711181686728168
30
0
41
1
10
12.9062162869221
20
-0.70156309176437
30
0
41
1
10
12.8406545305483
20
-0.692540449999996
30
0
41
1
10
12.8069919358934
20
-0.693134661377201
30
0
41
1
10
12.7411369612427
20
-0.703968114240183
30
0
41
1
10
12.7083564006042
20
-0.714937620713641
30
0
41
1
10
12.6462036940129
20
-0.746614946469322
30
0
41
1
10
12.6167478571437
20
-0.768594069452206
30
0
41
1
10
12.5921177041672
20
-0.793917371911249
30
0
0
SPLINE
5
E0
100
AcDbEntity
8
1
62
256
6
ByLayer
370
18
48
1
60
0
100
AcDbSpline
70
4
71
3
72
16
73
12
40
0
40
0
40
0
40
0
40
0.0660777514109103
40
0.0660777514109103
40
0.289232858199908
40
0.289232858199908
40
0.515409129607318
40
0.515409129607318
40
0.756439127791384
40
0.756439127791384
40
1
40
1
40
1
40
1
41
1
10
10.0315
20
-2.4375
30
0
41
1
10
10.0315
20
-2.44745860674414
30
0
41
1
10
10.0319521370927
20
-2.45742969629174
30
0
41
1
10
10.035870606949
20
-2.50058915149882
30
0
41
1
10
10.0441232851387
20
-2.5336843324549
30
0
41
1
10
10.0694977332366
20
-2.594806256499
30
0
41
1
10
10.0870353182329
20
-2.62354571425425
30
0
41
1
10
10.1296874761397
20
-2.67487829858391
30
0
41
1
10
10.1557295062842
20
-2.69760950260437
30
0
41
1
10
10.2118903369799
20
-2.7335425393677
30
0
41
1
10
10.242638287392
20
-2.74705382916466
30
0
41
1
10
10.2739045598556
20
-2.75566196954685
30
0
0
SPLINE
5
E1
100
AcDbEntity
8
1
62
256
6
ByLayer
370
18
48
1
60
0
100
AcDbSpline
70
4
71
3
72
10
73
6
40
0
40
0
40
0
40
0
40
0.479736826302604
40
0.479736826302604
40
1
40
1
40
1
40
1
41
1
10
11.8472587066235
20
-3.84523793629984
30
0
41
1
10
11.7634717620859
20
-3.86100344076866
30
0
41
1
10
11.6831344436618
20
-3.88995021912078
30
0
41
1
10
11.5347803935531
20
-3.96887369451744
30
0
41
1
10
11.4658766441957
20
-4.02145618460264
30
0
41
1
10
11.4078822958328
20
-4.08108262808878
30
0
0
SPLINE
5
E2
100
AcDbEntity
8
1
62
256
6
ByLayer
370
18
48
1
60
0
100
AcDbSpline
70
4
71
3
72
14
73
10
40
0
40
0
40
0
40
0
40
0.281038222380471
40
0.281038222380471
40
0.564557857067124
40
0.564557857067124
40
0.820700196130189
40
0.820700196130189
40
1
40
1
40
1
40
1
41
1
10
12.5921177041672
20
-4.08108262808878
30
0
41
1
10
12.6186993754269
20
-4.10841236906998
30
0
41
1
10
12.650956030905
20
-4.13186552453595
30
0
41
1
10
12.722764805511
20
-4.16607486042696
30
0
41
1
10
12.7635279239202
20
-4.17718475904488
30
0
41
1
10
12.8428270852508
20
-4.18284868557421
30
0
41
1
10
12.8824075126984
20
-4.17891172564308
30
0
41
1
10
12.9460823269879
20
-4.16061543464568
30
0
41
1
10
12.9718293672142
20
-4.1496032984634
30
0
41
1
10
12.9955768895952
20
-4.1356810583398
30
0
0
SPLINE
5
E3
100
AcDbEntity
8
1
62
256
6
ByLayer
370
18
48
1
60
0
100
AcDbSpline
70
4
71
3
72
14
73
10
40
0
40
0
40
0
40
0
40
0.28501478084462
40
0.28501478084462
40
0.57235060598262
40
0.57235060598262
40
0.832166772861835
40
0.832166772861835
40
1
40
1
40
1
40
1
41
1
10
13.1474510335849
20
-1.10934766202144
30
0
41
1
10
13.1572544616642
20
-1.07273081056724
30
0
41
1
10
13.160899199134
20
-1.03322860790561
30
0
41
1
10
13.1536939912409
20
-0.954448761248869
30
0
41
1
10
13.1425429113445
20
-0.913959751741459
30
0
41
1
10
13.1072987491109
20
-0.843225358475024
30
0
41
1
10
13.0839525870207
20
-0.81133206469562
30
0
41
1
10
13.0377550838958
20
-0.767458562486837
30
0
41
1
10
13.0173258483134
20
-0.752069502365373
30
0
41
1
10
12.9955768895952
20
-0.73931894166023
30
0
0
SPLINE
5
E4
100
AcDbEntity
8
1
62
256
6
ByLayer
370
18
48
1
60
0
100
AcDbSpline
70
4
71
3
72
10
73
6
40
0
40
0
40
0
40
0
40
0.541781546917752
40
0.541781546917752
40
1
40
1
40
1
40
1
41
1
10
12.5921177041672
20
-4.08108262808878
30
0
41
1
10
12.5317893524551
20
-4.0190564969999
30
0
41
1
10
12.4595938121995
20
-3.96461767768477
30
0
41
1
10
12.3098326867734
20
-3.88742229524124
30
0
41
1
10
12.2328667479517
20
-3.8603144881319
30
0
41
1
10
12.1527412933765
20
-3.84523793629984
30
0
0
SPLINE
5
E5
100
AcDbEntity
8
1
62
256
6
ByLayer
370
18
48
1
60
0
100
AcDbSpline
70
4
71
3
72
14
73
10
40
0
40
0
40
0
40
0
40
0.285013984727041
40
0.285013984727041
40
0.572349910643067
40
0.572349910643067
40
0.832166158509295
40
0.832166158509295
40
1
40
1
40
1
40
1
41
1
10
10.2739045598557
20
-2.11933803045318
30
0
41
1
10
10.2373579966691
20
-2.12939992531963
30
0
41
1
10
10.201437086312
20
-2.14623402413136
30
0
41
1
10
10.1371195715909
20
-2.19229289787501
30
0
41
1
10
10.107830273487
20
-2.22239014603085
30
0
41
1
10
10.0646340967007
20
-2.28856868226845
30
0
41
1
10
10.0489278435387
20
-2.32483905406571
30
0
41
1
10
10.0344436518232
20
-2.38688189848256
30
0
41
1
10
10.0315
20
-2.41228891833421
30
0
41
1
10
10.0315
20
-2.4375
30
0
0
SPLINE
5
E6
100
AcDbEntity
8
1
62
256
6
ByLayer
370
18
48
1
60
0
100
AcDbSpline
70
4
71
3
72
18
73
14
40
0
40
0
40
0
40
0
40
0.213081026856098
40
0.213081026856098
40
0.387160750704744
40
0.387160750704744
40
0.562948851464633
40
0.562948851464633
40
0.715638295683691
40
0.715638295683691
40
0.919170771668915
40
0.919170771668915
40
1
40
1
40
1
40
1
41
1
10
13.7260954401443
20
-2.75566196954685
30
0
41
1
10
13.6437040264742
20
-2.77834573704686
30
0
41
1
10
13.5621171389576
20
-2.81477251302655
30
0
41
1
10
13.4256662182536
20
-2.90577305590378
30
0
41
1
10
13.3672150493795
20
-2.95699151673361
30
0
41
1
10
13.2661041429076
20
-3.0755760878861
30
0
41
1
10
13.2222813842307
20
-3.14500448969932
30
0
41
1
10
13.1623456109347
20
-3.28012448640655
30
0
41
1
10
13.1425367132623
20
-3.3466726073604
30
0
41
1
10
13.1163534643372
20
-3.49897226392116
30
0
41
1
10
13.1158957320857
20
-3.58634590366799
30
0
41
1
10
13.1323120448847
20
-3.70155511685178
30
0
41
1
10
13.1389765921737
20
-3.73399939374315
30
0
41
1
10
13.1474510335849
20
-3.76565233797859
30
0
0
SPLINE
5
E7
100
AcDbEntity
8
1
62
256
6
ByLayer
370
18
48
1
60
0
100
AcDbSpline
70
4
71
3
72
10
73
6
40
0
40
0
40
0
40
0
40
0.541781546918572
40
0.541781546918572
40
1
40
1
40
1
40
1
41
1
10
11.4078822958328
20
-0.793917371911249
30
0
41
1
10
11.4682106475449
20
-0.855943503000134
30
0
41
1
10
11.5404061878005
20
-0.910382322315229
30
0
41
1
10
11.6901673132266
20
-0.987577704758763
30
0
41
1
10
11.7671332520483
20
-1.01468551186812
30
0
41
1
10
11.8472587066235
20
-1.02976206370019
30
0
0
SPLINE
5
E8
100
AcDbEntity
8
1
62
256
6
ByLayer
370
18
48
1
60
0
100
AcDbSpline
70
4
71
3
72
18
73
14
40
0
40
0
40
0
40
0
40
0.213081262000624
40
0.213081262000624
40
0.38716094392635
40
0.38716094392635
40
0.562948999942014
40
0.562948999942014
40
0.715638435810392
40
0.715638435810392
40
0.919170953808153
40
0.919170953808153
40
1
40
1
40
1
40
1
41
1
10
10.8525489664151
20
-3.76565233797859
30
0
41
1
10
10.8746500033364
20
-3.68310260339754
30
0
41
1
10
10.8844883336915
20
-3.59429631718777
30
0
41
1
10
10.874994737467
20
-3.43055916469973
30
0
41
1
10
10.8603716058447
20
-3.35423071749952
30
0
41
1
10
10.809208556408
20
-3.20703000919167
30
0
41
1
10
10.7714777490042
20
-3.13411142498921
30
0
41
1
10
10.685225487492
20
-3.01406872419494
30
0
41
1
10
10.6378343307496
20
-2.96332306339136
30
0
41
1
10
10.5196910694911
20
-2.86370920900279
30
0
41
1
10
10.4445472559936
20
-2.81912477171269
30
0
41
1
10
10.3368562665044
20
-2.77501928382182
30
0
41
1
10
10.3054967608598
20
-2.76435984363917
30
0
41
1
10
10.2739045598557
20
-2.75566196954685
30
0
0
SPLINE
5
E9
100
AcDbEntity
8
1
62
256
6
ByLayer
370
18
48
1
60
0
100
AcDbSpline
70
4
71
3
72
16
73
12
40
0
40
0
40
0
40
0
40
0.0517235387679664
40
0.0517235387679664
40
0.275098677522139
40
0.275098677522139
40
0.500660612380107
40
0.500660612380107
40
0.740399911602703
40
0.740399911602703
40
1
40
1
40
1
40
1
41
1
10
12.9955768895952
20
-4.1356810583398
30
0
41
1
10
13.0023126525051
20
-4.13173214496919
30
0
41
1
10
13.0089132100843
20
-4.12754068468797
30
0
41
1
10
13.0429215049886
20
-4.10421229858346
30
0
41
1
10
13.067814066225
20
-4.08077794144165
30
0
41
1
10
13.1087337148404
20
-4.02869709081804
30
0
41
1
10
13.1252135093438
20
-3.99935510970403
30
0
41
1
10
13.1490799914639
20
-3.9371442273376
30
0
41
1
10
13.1561625753256
20
-3.90340385102974
30
0
41
1
10
13.1602113511053
20
-3.83468720761846
30
0
41
1
10
13.1563795299009
20
-3.79900122580307
30
0
41
1
10
13.1474510335849
20
-3.76565233797859
30
0
0
SPLINE
5
EA
100
AcDbEntity
8
1
62
256
6
ByLayer
370
18
48
1
60
0
100
AcDbSpline
70
4
71
3
72
16
73
12
40
0
40
0
40
0
40
0
40
0.0660777514109104
40
0.0660777514109104
40
0.289232858199909
40
0.289232858199909
40
0.51540912960732
40
0.51540912960732
40
0.756439127791386
40
0.756439127791386
40
1
40
1
40
1
40
1
41
1
10
13.9685
20
-2.4375
30
0
41
1
10
13.9685
20
-2.42754139325589
30
0
41
1
10
13.9680478629073
20
-2.41757030370829
30
0
41
1
10
13.964129393051
20
-2.37441084850119
30
0
41
1
10
13.9558767148613
20
-2.34131566754513
30
0
41
1
10
13.9305022667634
20
-2.28019374350103
30
0
41
1
10
13.9129646817671
20
-2.25145428574575
30
0
41
1
10
13.8703125238603
20
-2.20012170141612
30
0
41
1
10
13.8442704937158
20
-2.17739049739563
30
0
41
1
10
13.7881096630201
20
-2.1414574606323
30
0
41
1
10
13.757361712608
20
-2.12794617083534
30
0
41
1
10
13.7260954401444
20
-2.11933803045318
30
0
0
SPLINE
5
EB
100
AcDbEntity
8
1
62
256
6
ByLayer
370
18
48
1
60
0
100
AcDbSpline
70
4
71
3
72
10
73
6
40
0
40
0
40
0
40
0
40
0.479736826236745
40
0.479736826236745
40
1
40
1
40
1
40
1
41
1
10
12.1527412933765
20
-1.02976206370019
30
0
41
1
10
12.2365282379028
20
-1.0139965592335
30
0
41
1
10
12.3168655563164
20
-0.985049780887181
30
0
41
1
10
12.4652196064295
20
-0.906126305495803
30
0
41
1
10
12.534123355797
20
-0.853543815404834
30
0
41
1
10
12.5921177041672
20
-0.793917371911249
30
0
0
SPLINE
5
EC
100
AcDbEntity
8
1
62
256
6
ByLayer
370
18
48
1
60
0
100
AcDbSpline
70
4
71
3
72
16
73
12
40
0
40
0
40
0
40
0
40
0.0517235387679661
40
0.0517235387679661
40
0.275098677522143
40
0.275098677522143
40
0.50066061238011
40
0.50066061238011
40
0.740399911602709
40
0.740399911602709
40
1
40
1
40
1
40
1
41
1
10
11.0044231104048
20
-0.73931894166023
30
0
41
1
10
10.9976873474949
20
-0.743267855030808
30
0
41
1
10
10.9910867899157
20
-0.747459315312028
30
0
41
1
10
10.9570784950114
20
-0.770787701416538
30
0
41
1
10
10.932185933775
20
-0.794222058558347
30
0
41
1
10
10.8912662851596
20
-0.846302909181986
30
0
41
1
10
10.8747864906562
20
-0.875644890295973
30
0
41
1
10
10.8509200085361
20
-0.937855772662402
30
0
41
1
10
10.8438374246744
20
-0.971596148970264
30
0
41
1
10
10.8397886488947
20
-1.04031279238154
30
0
41
1
10
10.8436204700991
20
-1.07599877419696
30
0
41
1
10
10.8525489664151
20
-1.10934766202144
30
0
0
LINE
5
73
100
AcDbEntity
8
80
62
256
6
ByLayer
370
18
48
1
60
0
100
AcDbLine
10
0
20
0
30
0
11
-5
21
0
31
0
39
0
210
0
220
0
230
1
0
LINE
5
74
100
AcDbEntity
8
81
62
256
6
ByLayer
370
18
48
1
60
0
100
AcDbLine
10
35.5
20
-10.4375
30
0
11
40.5
21
-10.4375
31
0
39
0
210
0
220
0
230
1
0
LINE
5
75
100
AcDbEntity
8
1
62
256
6
ByLayer
370
18
48
1
60
0
100
AcDbLine
10
17.207223
20
-7.6495
30
0
11
17.883617
21
-7.6495
31
0
39
0
210
0
220
0
230
1
0
LINE
5
77
100
AcDbEntity
8
1
62
256
6
ByLayer
370
18
48
1
60
0
100
AcDbLine
10
17.008533
20
6.598906
30
0
11
17.008533
21
-7.0875
31
0
39
0
210
0
220
0
230
1
0
LINE
5
78
100
AcDbEntity
8
1
62
256
6
ByLayer
370
18
48
1
60
0
100
AcDbLine
10
17
20
-7.0875
30
0
11
17.008533
21
-7.0875
31
0
39
0
210
0
220
0
230
1
0
LINE
5
79
100
AcDbEntity
8
1
62
256
6
ByLayer
370
18
48
1
60
0
100
AcDbLine
10
17.11051
20
-7.6495
30
0
11
17.207223
21
-7.6495
31
0
39
0
210
0
220
0
230
1
0
LINE
5
7A
100
AcDbEntity
8
1
62
256
6
ByLayer
370
18
48
1
60
0
100
AcDbLine
10
18.711616
20
-10.1875
30
0
11
28.755042
21
-10.1875
31
0
39
0
210
0
220
0
230
1
0
LINE
5
7B
100
AcDbEntity
8
1
62
256
6
ByLayer
370
18
48
1
60
0
100
AcDbLine
10
0.5
20
10.064682
30
0
11
0
21
10.0625
31
0
39
0
210
0
220
0
230
1
0
LINE
5
7C
100
AcDbEntity
8
1
62
256
6
ByLayer
370
18
48
1
60
0
100
AcDbLine
10
18.711616
20
-8.6875
30
0
11
18.6
21
-8.6875
31
0
39
0
210
0
220
0
230
1
0
LINE
5
7D
100
AcDbEntity
8
1
62
256
6
ByLayer
370
18
48
1
60
0
100
AcDbLine
10
29.05687
20
-3.811524
30
0
11
29.05687
21
-7.0875
31
0
39
0
210
0
220
0
230
1
0
LINE
5
7E
100
AcDbEntity
8
1
62
256
6
ByLayer
370
18
48
1
60
0
100
AcDbLine
10
0.5
20
-10.1875
30
0
11
0.375
21
-10.1875
31
0
39
0
210
0
220
0
230
1
0
LINE
5
7F
100
AcDbEntity
8
1
62
256
6
ByLayer
370
18
48
1
60
0
100
AcDbLine
10
17
20
6.606279
30
0
11
17.008533
21
6.598906
31
0
39
0
210
0
220
0
230
1
0
LINE
5
80
100
AcDbEntity
8
1
62
256
6
ByLayer
370
18
48
1
60
0
100
AcDbLine
10
0.5
20
-10.1875
30
0
11
0.5
21
10.064682
31
0
39
0
210
0
220
0
230
1
0
LINE
5
81
100
AcDbEntity
8
1
62
256
6
ByLayer
370
18
48
1
60
0
100
AcDbLine
10
17.104762
20
-7.0875
30
0
11
29.05687
21
-7.0875
31
0
39
0
210
0
220
0
230
1
0
LINE
5
82
100
AcDbEntity
8
1
62
256
6
ByLayer
370
18
48
1
60
0
100
AcDbLine
10
18.711616
20
-8.6875
30
0
11
18.711616
21
-10.1875
31
0
39
0
210
0
220
0
230
1
0
LINE
5
83
100
AcDbEntity
8
1
62
256
6
ByLayer
370
18
48
1
60
0
100
AcDbLine
10
0.5
20
10.064682
30
0
11
2.650292
21
10.099698
31
0
39
0
210
0
220
0
230
1
0
LINE
5
84
100
AcDbEntity
8
1
62
256
6
ByLayer
370
18
48
1
60
0
100
AcDbLine
10
18.711616
20
-8.6875
30
0
11
28.755042
21
-8.6875
31
0
39
0
210
0
220
0
230
1
0
LINE
5
85
100
AcDbEntity
8
1
62
256
6
ByLayer
370
18
48
1
60
0
100
AcDbLine
10
18.711616
20
-10.1875
30
0
11
2.650292
21
-10.1875
31
0
39
0
210
0
220
0
230
1
0
LINE
5
86
100
AcDbEntity
8
1
62
256
6
ByLayer
370
18
48
1
60
0
100
AcDbLine
10
12.95695
20
10.099698
30
0
11
17
21
6.606279
31
0
39
0
210
0
220
0
230
1
0
LINE
5
87
100
AcDbEntity
8
1
62
256
6
ByLayer
370
18
48
1
60
0
100
AcDbLine
10
17.104762
20
-7.0875
30
0
11
17.104762
21
6.515758
31
0
39
0
210
0
220
0
230
1
0
LINE
5
88
100
AcDbEntity
8
1
62
256
6
ByLayer
370
18
48
1
60
0
100
AcDbLine
10
17.104762
20
6.515758
30
0
11
29.05687
21
-3.811524
31
0
39
0
210
0
220
0
230
1
0
LINE
5
89
100
AcDbEntity
8
1
62
256
6
ByLayer
370
18
48
1
60
0
100
AcDbLine
10
2.650292
20
10.099698
30
0
11
12.95695
21
10.099698
31
0
39
0
210
0
220
0
230
1
0
LINE
5
8A
100
AcDbEntity
8
1
62
256
6
ByLayer
370
18
48
1
60
0
100
AcDbLine
10
0.5
20
-10.1875
30
0
11
2.650292
21
-10.1875
31
0
39
0
210
0
220
0
230
1
0
LINE
5
8B
100
AcDbEntity
8
1
62
256
6
ByLayer
370
18
48
1
60
0
100
AcDbLine
10
0.375
20
-10.1875
30
0
11
0
21
-9.8125
31
0
39
0
210
0
220
0
230
1
0
LINE
5
8C
100
AcDbEntity
8
1
62
256
6
ByLayer
370
18
48
1
60
0
100
AcDbLine
10
17.101949
20
-7.6495
30
0
11
17.110523
21
-7.6495
31
0
39
0
210
0
220
0
230
1
0
LINE
5
8D
100
AcDbEntity
8
1
62
256
6
ByLayer
370
18
48
1
60
0
100
AcDbLine
10
0
20
-9.8125
30
0
11
0
21
10.0625
31
0
39
0
210
0
220
0
230
1
0
LINE
5
8E
100
AcDbEntity
8
1
62
256
6
ByLayer
370
18
48
1
60
0
100
AcDbLine
10
17.008471
20
6.598959
30
0
11
17.104762
21
6.515758
31
0
39
0
210
0
220
0
230
1
0
LINE
5
8F
100
AcDbEntity
8
1
62
256
6
ByLayer
370
18
48
1
60
0
100
AcDbLine
10
2.650292
20
-10.1875
30
0
11
2.650292
21
10.099698
31
0
39
0
210
0
220
0
230
1
0
LINE
5
90
100
AcDbEntity
8
1
62
256
6
ByLayer
370
18
48
1
60
0
100
AcDbLine
10
17
20
-7.0875
30
0
11
17
21
6.606279
31
0
39
0
210
0
220
0
230
1
0
LINE
5
91
100
AcDbEntity
8
1
62
256
6
ByLayer
370
18
48
1
60
0
100
AcDbLine
10
29.801935
20
-9.26649
30
0
11
29.654842
21
-8.862354
31
0
39
0
210
0
220
0
230
1
0
LINE
5
92
100
AcDbEntity
8
1
62
256
6
ByLayer
370
18
48
1
60
0
100
AcDbLine
10
32.285862
20
-10.2375
30
0
11
30.7
21
-10.2375
31
0
39
0
210
0
220
0
230
1
0
LINE
5
93
100
AcDbEntity
8
1
62
256
6
ByLayer
370
18
48
1
60
0
100
AcDbLine
10
29.654842
20
-10.012646
30
0
11
28.82673
21
-10.012646
31
0
39
0
210
0
220
0
230
1
0
LINE
5
94
100
AcDbEntity
8
1
62
256
6
ByLayer
370
18
48
1
60
0
100
AcDbLine
10
21.354204
20
-10.2375
30
0
11
29.645796
21
-10.2375
31
0
39
0
210
0
220
0
230
1
0
LINE
5
95
100
AcDbEntity
8
1
62
256
6
ByLayer
370
18
48
1
60
0
100
AcDbLine
10
29.654842
20
-8.862354
30
0
11
28.82673
21
-8.862354
31
0
39
0
210
0
220
0
230
1
0
LINE
5
96
100
AcDbEntity
8
1
62
256
6
ByLayer
370
18
48
1
60
0
100
AcDbLine
10
30.7
20
-10.2375
30
0
11
30.7
21
-8.6375
31
0
39
0
210
0
220
0
230
1
0
LINE
5
97
100
AcDbEntity
8
1
62
256
6
ByLayer
370
18
48
1
60
0
100
AcDbLine
10
18.714138
20
-8.6375
30
0
11
20.3
21
-8.6375
31
0
39
0
210
0
220
0
230
1
0
LINE
5
98
100
AcDbEntity
8
1
62
256
6
ByLayer
370
18
48
1
60
0
100
AcDbLine
10
15.5
20
-10.1875
30
0
11
15.5
21
-10.2375
31
0
39
0
210
0
220
0
230
1
0
LINE
5
99
100
AcDbEntity
8
1
62
256
6
ByLayer
370
18
48
1
60
0
100
AcDbLine
10
29.645796
20
-10.063949
30
0
11
28.805754
21
-10.063949
31
0
39
0
210
0
220
0
230
1
0
LINE
5
9A
100
AcDbEntity
8
1
62
256
6
ByLayer
370
18
48
1
60
0
100
AcDbLine
10
21.354204
20
-8.6375
30
0
11
29.645796
21
-8.6375
31
0
39
0
210
0
220
0
230
1
0
LINE
5
9B
100
AcDbEntity
8
1
62
256
6
ByLayer
370
18
48
1
60
0
100
AcDbLine
10
29.645796
20
-8.811051
30
0
11
29.645796
21
-8.6375
31
0
39
0
210
0
220
0
230
1
0
LINE
5
9C
100
AcDbEntity
8
1
62
256
6
ByLayer
370
18
48
1
60
0
100
AcDbLine
10
21.354204
20
-8.6375
30
0
11
20.3
21
-8.6375
31
0
39
0
210
0
220
0
230
1
0
LINE
5
9D
100
AcDbEntity
8
1
62
256
6
ByLayer
370
18
48
1
60
0
100
AcDbLine
10
29.645796
20
-8.6375
30
0
11
30.7
21
-8.6375
31
0
39
0
210
0
220
0
230
1
0
LINE
5
9E
100
AcDbEntity
8
1
62
256
6
ByLayer
370
18
48
1
60
0
100
AcDbLine
10
18.714138
20
-8.6375
30
0
11
18.5
21
-8.55956
31
0
39
0
210
0
220
0
230
1
0
LINE
5
9F
100
AcDbEntity
8
1
62
256
6
ByLayer
370
18
48
1
60
0
100
AcDbLine
10
29.801935
20
-9.26649
30
0
11
28.958218
21
-9.26649
31
0
39
0
210
0
220
0
230
1
0
LINE
5
A0
100
AcDbEntity
8
1
62
256
6
ByLayer
370
18
48
1
60
0
100
AcDbLine
10
29.645796
20
-8.811051
30
0
11
28.805754
21
-8.811051
31
0
39
0
210
0
220
0
230
1
0
LINE
5
A1
100
AcDbEntity
8
1
62
256
6
ByLayer
370
18
48
1
60
0
100
AcDbLine
10
32.5
20
-10.31544
30
0
11
35.291276
21
-10.43731
31
0
39
0
210
0
220
0
230
1
0
LINE
5
A2
100
AcDbEntity
8
1
62
256
6
ByLayer
370
18
48
1
60
0
100
AcDbLine
10
18.5
20
-10.31544
30
0
11
15.708724
21
-10.43731
31
0
39
0
210
0
220
0
230
1
0
LINE
5
A3
100
AcDbEntity
8
1
62
256
6
ByLayer
370
18
48
1
60
0
100
AcDbLine
10
18.5
20
-8.55956
30
0
11
17.916318
21
-8.534076
31
0
39
0
210
0
220
0
230
1
0
LINE
5
A4
100
AcDbEntity
8
1
62
256
6
ByLayer
370
18
48
1
60
0
100
AcDbLine
10
29.645796
20
-10.2375
30
0
11
30.7
21
-10.2375
31
0
39
0
210
0
220
0
230
1
0
LINE
5
A5
100
AcDbEntity
8
1
62
256
6
ByLayer
370
18
48
1
60
0
100
AcDbLine
10
21.354204
20
-8.687502
30
0
11
21.354204
21
-8.6375
31
0
39
0
210
0
220
0
230
1
0
LINE
5
A6
100
AcDbEntity
8
1
62
256
6
ByLayer
370
18
48
1
60
0
100
AcDbLine
10
20.3
20
-10.2375
30
0
11
20.3
21
-10.1875
31
0
39
0
210
0
220
0
230
1
0
LINE
5
A7
100
AcDbEntity
8
1
62
256
6
ByLayer
370
18
48
1
60
0
100
AcDbLine
10
20.3
20
-8.6875
30
0
11
20.3
21
-8.6375
31
0
39
0
210
0
220
0
230
1
0
LINE
5
A8
100
AcDbEntity
8
1
62
256
6
ByLayer
370
18
48
1
60
0
100
AcDbLine
10
21.354204
20
-10.187498
30
0
11
21.354204
21
-10.2375
31
0
39
0
210
0
220
0
230
1
0
LINE
5
A9
100
AcDbEntity
8
1
62
256
6
ByLayer
370
18
48
1
60
0
100
AcDbLine
10
18.714138
20
-10.2375
30
0
11
20.3
21
-10.2375
31
0
39
0
210
0
220
0
230
1
0
LINE
5
AA
100
AcDbEntity
8
1
62
256
6
ByLayer
370
18
48
1
60
0
100
AcDbLine
10
32.285862
20
-8.6375
30
0
11
30.7
21
-8.6375
31
0
39
0
210
0
220
0
230
1
0
LINE
5
AB
100
AcDbEntity
8
1
62
256
6
ByLayer
370
18
48
1
60
0
100
AcDbLine
10
32.285862
20
-10.2375
30
0
11
32.5
21
-10.31544
31
0
39
0
210
0
220
0
230
1
0
LINE
5
AC
100
AcDbEntity
8
1
62
256
6
ByLayer
370
18
48
1
60
0
100
AcDbLine
10
18.714138
20
-10.2375
30
0
11
18.5
21
-10.31544
31
0
39
0
210
0
220
0
230
1
0
LINE
5
AD
100
AcDbEntity
8
1
62
256
6
ByLayer
370
18
48
1
60
0
100
AcDbLine
10
21.354204
20
-10.2375
30
0
11
20.3
21
-10.2375
31
0
39
0
210
0
220
0
230
1
0
LINE
5
AE
100
AcDbEntity
8
1
62
256
6
ByLayer
370
18
48
1
60
0
100
AcDbLine
10
35.5
20
-8.6375
30
0
11
35.5
21
-10.2375
31
0
39
0
210
0
220
0
230
1
0
LINE
5
AF
100
AcDbEntity
8
1
62
256
6
ByLayer
370
18
48
1
60
0
100
AcDbLine
10
29.801935
20
-9.60851
30
0
11
29.654842
21
-10.012646
31
0
39
0
210
0
220
0
230
1
0
LINE
5
B0
100
AcDbEntity
8
1
62
256
6
ByLayer
370
18
48
1
60
0
100
AcDbLine
10
29.801935
20
-9.60851
30
0
11
28.963999
21
-9.60851
31
0
39
0
210
0
220
0
230
1
0
LINE
5
B1
100
AcDbEntity
8
1
62
256
6
ByLayer
370
18
48
1
60
0
100
AcDbLine
10
32.285862
20
-8.6375
30
0
11
32.5
21
-8.55956
31
0
39
0
210
0
220
0
230
1
0
LINE
5
B2
100
AcDbEntity
8
1
62
256
6
ByLayer
370
18
48
1
60
0
100
AcDbLine
10
29.645796
20
-10.063949
30
0
11
29.645796
21
-10.2375
31
0
39
0
210
0
220
0
230
1
0
LINE
5
B3
100
AcDbEntity
8
1
62
256
6
ByLayer
370
18
48
1
60
0
100
AcDbLine
10
32.5
20
-8.55956
30
0
11
35.291276
21
-8.43769
31
0
39
0
210
0
220
0
230
1
0
LINE
5
B4
100
AcDbEntity
8
SK1
62
256
6
ByLayer
370
18
48
1
60
0
100
AcDbLine
10
-90.85
20
10.0625
30
0
11
0
21
10.0625
31
0
39
0
210
0
220
0
230
1
0
LINE
5
B6
100
AcDbEntity
8
SK1
62
256
6
ByLayer
370
18
48
1
60
0
100
AcDbLine
10
0
20
-9.8125
30
0
11
0
21
10.0625
31
0
39
0
210
0
220
0
230
1
0
LINE
5
B7
100
AcDbEntity
8
SK1
62
256
6
ByLayer
370
18
48
1
60
0
100
AcDbLine
10
-90.85
20
-9.8125
30
0
11
-90.85
21
10.0625
31
0
39
0
210
0
220
0
230
1
0
LINE
5
B8
100
AcDbEntity
8
SK1
62
256
6
ByLayer
370
18
48
1
60
0
100
AcDbLine
10
0
20
-9.8125
30
0
11
-90.85
21
-9.8125
31
0
39
0
210
0
220
0
230
1
0
MTEXT
5
ED
100
AcDbEntity
8
SK6
62
256
6
ByLayer
370
18
48
1
60
0
100
AcDbMText
10
-56.799987
20
-21.293901
30
0
210
0
220
0
230
1
1
\W0.7377;LF123E17-2020D
40
3.5
41
0
44
1.084337
50
0
71
7
72
5
7
iso_b_vert
0
DIMENSION
5
FE
100
AcDbEntity
8
2
62
256
6
ByLayer
370
13
48
1
60
0
100
AcDbDimension
2
DimnDraft3D1
10
49.75
20
-8.4375
30
0
11
49.75
21
-3.9375
31
0
70
32
71
5
72
1
41
1
210
0
220
0
230
1
3
Standard
100
AcDbAlignedDimension
13
37
23
-10.4375
33
0
14
37
24
-8.4375
34
0
50
90
100
AcDbRotatedDimension
1001
ACAD
1000
DSTYLE
1002
{
1070
    74
1070
     0
1070
   279
1070
     0
1070
   172
1070
     1
1070
   173
1070
     1
1070
   340
1005
EE
1070
   271
1070
     3
1070
   272
1070
     3
1070
    77
1070
     1
1070
    73
1070
     0
1070
   171
1070
     4
1070
   274
1070
     4
1070
   177
1070
     2
1070
   176
1070
     2
1070
   178
1070
     7
1070
    78
1070
     8
1070
    41
1041
3.0
1070
   147
1041
2.25
1070
    42
1041
1.5
1070
    44
1041
3.0
1070
   140
1041
4.5
1070
   343
1005
FF
1070
   344
1005
FF
1002
}
0
DIMENSION
5
113
100
AcDbEntity
8
2
62
256
6
ByLayer
370
13
48
1
60
0
100
AcDbDimension
2
DimnDraft3D2
10
59.75
20
9.9375
30
0
11
59.75
21
-5.531579
31
0
70
32
71
5
72
1
41
1
210
0
220
0
230
1
3
Standard
100
AcDbAlignedDimension
13
37
23
-10.4375
33
0
14
1.5
24
9.9375
34
0
50
90
100
AcDbRotatedDimension
1001
ACAD
1000
DSTYLE
1002
{
1070
    74
1070
     0
1070
   279
1070
     0
1070
   172
1070
     1
1070
   173
1070
     1
1070
   340
1005
EE
1070
   271
1070
     3
1070
   272
1070
     3
1070
    77
1070
     1
1070
    73
1070
     0
1070
   171
1070
     4
1070
   274
1070
     4
1070
   177
1070
     2
1070
   176
1070
     2
1070
   178
1070
     7
1070
    78
1070
     8
1070
    41
1041
3.0
1070
   147
1041
2.25
1070
    42
1041
1.5
1070
    44
1041
3.0
1070
   140
1041
4.5
1070
   343
1005
FF
1070
   344
1005
FF
1002
}
0
DIMENSION
5
122
100
AcDbEntity
8
SK2
62
256
6
ByLayer
370
13
48
1
60
0
100
AcDbDimension
2
DimnDraft3D3
10
-100.6
20
-9.9375
30
0
11
-100.6
21
-2.688158
31
0
70
32
71
5
72
1
41
1
210
0
220
0
230
1
3
Standard
100
AcDbAlignedDimension
13
-92.35
23
9.9375
33
0
14
-92.35
24
-9.9375
34
0
50
90
100
AcDbRotatedDimension
1001
ACAD
1000
DSTYLE
1002
{
1070
    74
1070
     0
1070
   279
1070
     0
1070
   172
1070
     1
1070
   173
1070
     1
1070
   340
1005
EE
1070
   271
1070
     3
1070
   272
1070
     3
1070
    77
1070
     1
1070
    73
1070
     0
1070
   171
1070
     4
1070
   274
1070
     4
1070
   177
1070
     2
1070
   176
1070
     2
1070
   178
1070
     7
1070
    78
1070
     8
1070
    41
1041
3.0
1070
   147
1041
2.25
1070
    42
1041
1.5
1070
    44
1041
3.0
1070
   140
1041
4.5
1070
   343
1005
FF
1070
   344
1005
FF
1002
}
0
DIMENSION
5
130
100
AcDbEntity
8
2
62
256
6
ByLayer
370
13
48
1
60
0
100
AcDbDimension
2
DimnDraft3D4
10
18.5
20
-24.1875
30
0
11
24.874342
21
-24.1875
31
0
70
32
71
5
72
1
41
1
210
0
220
0
230
1
3
Standard
100
AcDbAlignedDimension
13
35.5
23
-10.9375
33
0
14
18.5
24
-9.0625
34
0
50
0
100
AcDbRotatedDimension
1001
ACAD
1000
DSTYLE
1002
{
1070
   279
1070
     0
1070
   172
1070
     1
1070
   173
1070
     1
1070
   340
1005
EE
1070
   271
1070
     3
1070
   272
1070
     3
1070
    77
1070
     1
1070
    73
1070
     0
1070
   171
1070
     4
1070
   274
1070
     4
1070
   177
1070
     2
1070
   176
1070
     2
1070
   178
1070
     7
1070
    78
1070
     8
1070
    41
1041
3.0
1070
   147
1041
2.25
1070
    42
1041
1.5
1070
    44
1041
3.0
1070
   140
1041
4.5
1070
   343
1005
FF
1070
   344
1005
FF
1002
}
0
DIMENSION
5
13E
100
AcDbEntity
8
2
62
256
6
ByLayer
370
13
48
1
60
0
100
AcDbDimension
2
DimnDraft3D5
10
0
20
20.3125
30
0
11
12.468421
21
20.3125
31
0
70
32
71
5
72
1
41
1
210
0
220
0
230
1
3
Standard
100
AcDbAlignedDimension
13
35.5
23
-6.9375
33
0
14
0
24
11.4375
34
0
50
0
100
AcDbRotatedDimension
1001
ACAD
1000
DSTYLE
1002
{
1070
   279
1070
     0
1070
   172
1070
     1
1070
   173
1070
     1
1070
   340
1005
EE
1070
   271
1070
     3
1070
   272
1070
     3
1070
    77
1070
     1
1070
    73
1070
     0
1070
   171
1070
     4
1070
   274
1070
     4
1070
   177
1070
     2
1070
   176
1070
     2
1070
   178
1070
     7
1070
    78
1070
     8
1070
    41
1041
3.0
1070
   147
1041
2.25
1070
    42
1041
1.5
1070
    44
1041
3.0
1070
   140
1041
4.5
1070
   343
1005
FF
1070
   344
1005
FF
1002
}
0
DIMENSION
5
14C
100
AcDbEntity
8
SK2
62
256
6
ByLayer
370
13
48
1
60
0
100
AcDbDimension
2
DimnDraft3D6
10
-90.85
20
30.3125
30
0
11
-31.482237
21
30.3125
31
0
70
32
71
5
72
1
41
1
210
0
220
0
230
1
3
Standard
100
AcDbAlignedDimension
13
35.5
23
-6.9375
33
0
14
-90.85
24
11.4375
34
0
50
0
100
AcDbRotatedDimension
1001
ACAD
1000
DSTYLE
1002
{
1070
   279
1070
     0
1070
   172
1070
     1
1070
   173
1070
     1
1070
   340
1005
EE
1070
   271
1070
     3
1070
   272
1070
     3
1070
    77
1070
     1
1070
    73
1070
     0
1070
   171
1070
     4
1070
   274
1070
     4
1070
   177
1070
     2
1070
   176
1070
     2
1070
   178
1070
     7
1070
    78
1070
     8
1070
    41
1041
3.0
1070
   147
1041
2.25
1070
    42
1041
1.5
1070
    44
1041
3.0
1070
   140
1041
4.5
1070
   343
1005
FF
1070
   344
1005
FF
1002
}
0
ENDSEC
0
SECTION
2
OBJECTS
0
DICTIONARY
5
1b6
330
0
100
AcDbDictionary
280
0
281
1
3
ACAD_GROUP
350
1b7
3
ACAD_MLINESTYLE
350
1b8
0
DICTIONARY
5
1b7
330
0
100
AcDbDictionary
280
0
281
1
0
DICTIONARY
5
1b8
330
0
100
AcDbDictionary
280
0
281
1
3
Standard
350
18
0
MLINESTYLE
5
18
330
1b8
100
AcDbMlineStyle
2
Standard
70
0
3

62
256
51
90
52
90
71
2
49
-0.5
62
256
6
ByLayer
49
0.5
62
256
6
ByLayer
0
RASTERVARIABLES
5
1a5
330

100
AcDbRasterVariables
90
0
70
1
71
1
72
1
0
ENDSEC
0
EOF
