0
SECTION
2
HEADER
9
$ACADVER
1
AC1015
9
$DWGCODEPAGE
3
ANSI_1252
9
$HANDSEED
5
1ac
9
$ANGBASE
50
0
9
$ANGDIR
70
0
9
$ATTMODE
70
1
9
$AUNITS
70
0
9
$AUPREC
70
0
9
$CECOLOR
62
256
9
$CELTSCALE
40
1
9
$CELTYPE
6
ByLayer
9
$CELWEIGHT
370
18
9
$CLAYER
8
0
9
$CMLJUST
70
0
9
$CMLSCALE
40
1
9
$CMLSTYLE
2
Standard
9
$DIMSTYLE
2
Standard
9
$TEXTSIZE
40
0.2
9
$TEXTSTYLE
7
Standard
9
$LUNITS
70
2
9
$LUPREC
70
4
9
$EXTNAMES
290
1
9
$INSUNITS
70
4
9
$LTSCALE
40
1
9
$LWDISPLAY
290
1
9
$PDMODE
70
0
9
$PDSIZE
40
0
9
$PLINEGEN
70
0
0
ENDSEC
0
SECTION
2
CLASSES
0
CLASS
1
RASTERVARIABLES
2
AcDbRasterVariables
3
ISM
90
0
280
0
281
0
0
ENDSEC
0
SECTION
2
TABLES
0
TABLE
2
VPORT
5
1a2
100
AcDbSymbolTable
0
VPORT
5
1
100
AcDbSymbolTableRecord
100
AcDbViewportTableRecord
2
*Active
70
0
10
0
20
0
11
1
21
1
12
-1
22
1
13
0
23
0
14
0.5
24
0.5
15
10
25
10
16
0
26
0
36
1
17
0
27
0
37
0
0
ENDTAB
0
TABLE
2
LTYPE
5
1a3
100
AcDbSymbolTable
0
LTYPE
5
14
100
AcDbSymbolTableRecord
100
AcDbLinetypeTableRecord
70
0
2
ByBlock
3

72
65
73
0
40
0
0
LTYPE
5
15
100
AcDbSymbolTableRecord
100
AcDbLinetypeTableRecord
70
0
2
ByLayer
3

72
65
73
0
40
0
0
LTYPE
5
16
100
AcDbSymbolTableRecord
100
AcDbLinetypeTableRecord
70
0
2
CONTINUOUS
3
Solid line
72
65
73
0
40
0
0
LTYPE
5
6A
100
AcDbSymbolTableRecord
100
AcDbLinetypeTableRecord
70
0
2
CENTER
3
____ _ ____ _ ____ _ ____
72
65
73
4
40
47.5
49
22
74
0
49
-8.5
74
0
49
8.5
74
0
49
-8.5
74
0
0
LTYPE
5
6B
100
AcDbSymbolTableRecord
100
AcDbLinetypeTableRecord
70
0
2
DASHED
3
__ __ __ __ __ __ __ __ __
72
65
73
2
40
25.72
49
12.86
74
0
49
-12.86
74
0
0
ENDTAB
0
TABLE
2
LAYER
5
1a4
100
AcDbSymbolTable
0
LAYER
5
10
100
AcDbSymbolTableRecord
100
AcDbLayerTableRecord
2
0
70
0
62
7
6
CONTINUOUS
290
1
370
-3
390
0
0
LAYER
5
6D
100
AcDbSymbolTableRecord
100
AcDbLayerTableRecord
2
2
70
0
62
7
6
CONTINUOUS
290
1
370
-3
390
0
0
LAYER
5
6F
100
AcDbSymbolTableRecord
100
AcDbLayerTableRecord
2
80
70
0
62
-6
6
CONTINUOUS
290
1
370
-3
390
0
0
LAYER
5
72
100
AcDbSymbolTableRecord
100
AcDbLayerTableRecord
2
81
70
0
62
-3
6
CONTINUOUS
290
1
370
-3
390
0
0
LAYER
5
76
100
AcDbSymbolTableRecord
100
AcDbLayerTableRecord
2
1
70
0
62
4
6
CONTINUOUS
290
1
370
-3
390
0
0
LAYER
5
18f
100
AcDbSymbolTableRecord
100
AcDbLayerTableRecord
2
SK1
70
0
62
4
6
CONTINUOUS
290
1
370
-3
390
0
0
LAYER
5
190
100
AcDbSymbolTableRecord
100
AcDbLayerTableRecord
2
SK6
70
0
62
5
6
CONTINUOUS
290
1
370
-3
390
0
0
LAYER
5
191
100
AcDbSymbolTableRecord
100
AcDbLayerTableRecord
2
SK2
70
0
62
7
6
CONTINUOUS
290
1
370
-3
390
0
0
ENDTAB
0
TABLE
2
STYLE
5
1a5
100
AcDbSymbolTable
0
STYLE
5
11
100
AcDbSymbolTableRecord
100
AcDbTextStyleTableRecord
2
Standard
3
txt
70
0
71
0
40
0
41
1
42
0
50
0
0
STYLE
5
D7
100
AcDbSymbolTableRecord
100
AcDbTextStyleTableRecord
2
iso_b_vert
3
simplex.shx
70
0
71
0
40
0
41
1
42
0
50
0
0
STYLE
5
D8
100
AcDbSymbolTableRecord
100
AcDbTextStyleTableRecord
2
DWGDirectTextStyle
3
simplex
70
0
71
0
40
0
41
1
42
0
50
0
0
ENDTAB
0
TABLE
2
DIMSTYLE
5
1a6
100
AcDbSymbolTable
100
AcDbDimStyleTable
0
DIMSTYLE
105
27
100
AcDbSymbolTableRecord
100
AcDbDimStyleTableRecord
2
Standard
70
0
3
<>
41
0.18
42
0.0625
44
0.18
140
0.18
147
0.09
73
0
74
0
77
1
271
2
275
0
278
52
280
0
340
11
0
ENDTAB
0
TABLE
2
VIEW
5
1a7
100
AcDbSymbolTable
0
ENDTAB
0
TABLE
2
UCS
5
1a8
100
AcDbSymbolTable
0
ENDTAB
0
TABLE
2
APPID
5
1a9
100
AcDbSymbolTable
0
APPID
5
12
100
AcDbSymbolTableRecord
100
AcDbRegAppTableRecord
2
ACAD
70
0
0
ENDTAB
0
TABLE
2
BLOCK_RECORD
5
1aa
100
AcDbSymbolTable
0
BLOCK_RECORD
5
1F
100
AcDbSymbolTableRecord
100
AcDbBlockTableRecord
2
*Model_Space
340
0
70
0
0
BLOCK_RECORD
5
1B
100
AcDbSymbolTableRecord
100
AcDbBlockTableRecord
2
*Paper_Space
340
0
70
0
0
BLOCK_RECORD
5
23
100
AcDbSymbolTableRecord
100
AcDbBlockTableRecord
2
*Paper_Space0
340
0
70
0
0
BLOCK_RECORD
5
DA
100
AcDbSymbolTableRecord
100
AcDbBlockTableRecord
2
DimnDraft3D1
340
0
70
0
0
BLOCK_RECORD
5
E8
100
AcDbSymbolTableRecord
100
AcDbBlockTableRecord
2
_CLOSED
340
0
70
0
0
BLOCK_RECORD
5
EF
100
AcDbSymbolTableRecord
100
AcDbBlockTableRecord
2
DimnDraft3D2
340
0
70
0
0
BLOCK_RECORD
5
FD
100
AcDbSymbolTableRecord
100
AcDbBlockTableRecord
2
DimnDraft3D3
340
0
70
0
0
BLOCK_RECORD
5
10C
100
AcDbSymbolTableRecord
100
AcDbBlockTableRecord
2
DimnDraft3D4
340
0
70
0
0
BLOCK_RECORD
5
11A
100
AcDbSymbolTableRecord
100
AcDbBlockTableRecord
2
DimnDraft3D5
340
0
70
0
0
BLOCK_RECORD
5
128
100
AcDbSymbolTableRecord
100
AcDbBlockTableRecord
2
DimnDraft3D6
340
0
70
0
0
ENDTAB
0
ENDSEC
0
SECTION
2
BLOCKS
0
BLOCK
5
20
100
AcDbEntity
8
0
100
AcDbBlockBegin
2
*Model_Space
70
0
10
0
20
0
30
0
3
*Model_Space
0
ENDBLK
5
21
100
AcDbEntity
8
0
100
AcDbBlockEnd
0
BLOCK
5
1C
100
AcDbEntity
8
0
100
AcDbBlockBegin
2
*Paper_Space
70
0
10
0
20
0
30
0
3
*Paper_Space
0
ENDBLK
5
1D
100
AcDbEntity
8
0
100
AcDbBlockEnd
0
BLOCK
5
24
100
AcDbEntity
8
0
100
AcDbBlockBegin
2
*Paper_Space0
70
0
10
0
20
0
30
0
3
*Paper_Space0
0
ENDBLK
5
25
100
AcDbEntity
8
0
100
AcDbBlockEnd
0
BLOCK
5
E5
100
AcDbEntity
8
0
100
AcDbBlockBegin
2
DimnDraft3D1
70
0
10
0
20
0
30
0
3
DimnDraft3D1
0
MTEXT
5
DB
100
AcDbEntity
8
2
62
256
6
ByLayer
370
18
48
1
60
0
100
AcDbMText
10
43.625
20
0.6875
30
0
210
0
220
0
230
1
1
\W0.5404;2
40
4.5
41
0
44
1.084337
50
90
71
7
72
5
7
iso_b_vert
0
LINE
5
DC
100
AcDbEntity
8
2
62
256
6
ByLayer
370
13
48
1
60
0
100
AcDbLine
10
32
20
-6.9375
30
0
11
47.75
21
-6.9375
31
0
39
0
210
0
220
0
230
1
0
LINE
5
DD
100
AcDbEntity
8
2
62
256
6
ByLayer
370
13
48
1
60
0
100
AcDbLine
10
32
20
-4.9375
30
0
11
47.75
21
-4.9375
31
0
39
0
210
0
220
0
230
1
0
LINE
5
DE
100
AcDbEntity
8
2
62
256
6
ByLayer
370
13
48
1
60
0
100
AcDbLine
10
44.75
20
1.575658
30
0
11
44.75
21
-18.1875
31
0
39
0
210
0
220
0
230
1
0
LINE
5
DF
100
AcDbEntity
8
2
62
256
6
ByLayer
370
13
48
1
60
0
100
AcDbLine
10
44.75
20
-6.9375
30
0
11
45.144957
21
-9.937499
31
0
39
0
210
0
220
0
230
1
0
LINE
5
E0
100
AcDbEntity
8
2
62
256
6
ByLayer
370
13
48
1
60
0
100
AcDbLine
10
44.75
20
-6.9375
30
0
11
44.355043
21
-9.937501
31
0
39
0
210
0
220
0
230
1
0
LINE
5
E1
100
AcDbEntity
8
2
62
256
6
ByLayer
370
13
48
1
60
0
100
AcDbLine
10
45.144957
20
-9.937499
30
0
11
44.355043
21
-9.937501
31
0
39
0
210
0
220
0
230
1
0
LINE
5
E2
100
AcDbEntity
8
2
62
256
6
ByLayer
370
13
48
1
60
0
100
AcDbLine
10
44.75
20
-4.9375
30
0
11
44.355043
21
-1.937501
31
0
39
0
210
0
220
0
230
1
0
LINE
5
E3
100
AcDbEntity
8
2
62
256
6
ByLayer
370
13
48
1
60
0
100
AcDbLine
10
44.75
20
-4.9375
30
0
11
45.144957
21
-1.937499
31
0
39
0
210
0
220
0
230
1
0
LINE
5
E4
100
AcDbEntity
8
2
62
256
6
ByLayer
370
13
48
1
60
0
100
AcDbLine
10
44.355043
20
-1.937501
30
0
11
45.144957
21
-1.937499
31
0
39
0
210
0
220
0
230
1
0
ENDBLK
5
E6
100
AcDbEntity
8
0
100
AcDbBlockEnd
0
BLOCK
5
E9
100
AcDbEntity
8
0
100
AcDbBlockBegin
2
_CLOSED
70
0
10
0
20
0
30
0
3
_CLOSED
0
LINE
5
EB
100
AcDbEntity
8
0
62
256
6
ByLayer
370
-2
48
1
60
0
100
AcDbLine
10
-1
20
0.166667
30
0
11
0
21
0
31
0
39
0
210
0
220
0
230
1
0
LINE
5
EC
100
AcDbEntity
8
0
62
256
6
ByLayer
370
-2
48
1
60
0
100
AcDbLine
10
0
20
0
30
0
11
-1
21
-0.166667
31
0
39
0
210
0
220
0
230
1
0
LINE
5
ED
100
AcDbEntity
8
0
62
256
6
ByLayer
370
-2
48
1
60
0
100
AcDbLine
10
-1
20
0.166667
30
0
11
-1
21
-0.166667
31
0
39
0
210
0
220
0
230
1
0
LINE
5
EE
100
AcDbEntity
8
0
62
256
6
ByLayer
370
-2
48
1
60
0
100
AcDbLine
10
0
20
0
30
0
11
-1
21
0
31
0
39
0
210
0
220
0
230
1
0
ENDBLK
5
EA
100
AcDbEntity
8
0
100
AcDbBlockEnd
0
BLOCK
5
FA
100
AcDbEntity
8
0
100
AcDbBlockBegin
2
DimnDraft3D2
70
0
10
0
20
0
30
0
3
DimnDraft3D2
0
MTEXT
5
F0
100
AcDbEntity
8
2
62
256
6
ByLayer
370
18
48
1
60
0
100
AcDbMText
10
53.625
20
-1.500658
30
0
210
0
220
0
230
1
1
\W0.5321;13
40
4.5
41
0
44
1.084337
50
90
71
7
72
5
7
iso_b_vert
0
LINE
5
F1
100
AcDbEntity
8
2
62
256
6
ByLayer
370
13
48
1
60
0
100
AcDbLine
10
32
20
-6.9375
30
0
11
57.75
21
-6.9375
31
0
39
0
210
0
220
0
230
1
0
LINE
5
F2
100
AcDbEntity
8
2
62
256
6
ByLayer
370
13
48
1
60
0
100
AcDbLine
10
1.5
20
5.9375
30
0
11
57.75
21
5.9375
31
0
39
0
210
0
220
0
230
1
0
LINE
5
F3
100
AcDbEntity
8
2
62
256
6
ByLayer
370
13
48
1
60
0
100
AcDbLine
10
54.75
20
-18.1875
30
0
11
54.75
21
17.1875
31
0
39
0
210
0
220
0
230
1
0
LINE
5
F4
100
AcDbEntity
8
2
62
256
6
ByLayer
370
13
48
1
60
0
100
AcDbLine
10
54.75
20
-6.9375
30
0
11
55.144957
21
-9.937499
31
0
39
0
210
0
220
0
230
1
0
LINE
5
F5
100
AcDbEntity
8
2
62
256
6
ByLayer
370
13
48
1
60
0
100
AcDbLine
10
54.75
20
-6.9375
30
0
11
54.355043
21
-9.937501
31
0
39
0
210
0
220
0
230
1
0
LINE
5
F6
100
AcDbEntity
8
2
62
256
6
ByLayer
370
13
48
1
60
0
100
AcDbLine
10
55.144957
20
-9.937499
30
0
11
54.355043
21
-9.937501
31
0
39
0
210
0
220
0
230
1
0
LINE
5
F7
100
AcDbEntity
8
2
62
256
6
ByLayer
370
13
48
1
60
0
100
AcDbLine
10
54.75
20
5.9375
30
0
11
54.355043
21
8.937499
31
0
39
0
210
0
220
0
230
1
0
LINE
5
F8
100
AcDbEntity
8
2
62
256
6
ByLayer
370
13
48
1
60
0
100
AcDbLine
10
54.75
20
5.9375
30
0
11
55.144957
21
8.937501
31
0
39
0
210
0
220
0
230
1
0
LINE
5
F9
100
AcDbEntity
8
2
62
256
6
ByLayer
370
13
48
1
60
0
100
AcDbLine
10
54.355043
20
8.937499
30
0
11
55.144957
21
8.937501
31
0
39
0
210
0
220
0
230
1
0
ENDBLK
5
FB
100
AcDbEntity
8
0
100
AcDbBlockEnd
0
BLOCK
5
109
100
AcDbEntity
8
0
100
AcDbBlockBegin
2
DimnDraft3D3
70
0
10
0
20
0
30
0
3
DimnDraft3D3
0
MTEXT
5
FE
100
AcDbEntity
8
SK2
62
256
6
ByLayer
370
18
48
1
60
0
100
AcDbMText
10
-106.725
20
-1.000658
30
0
210
0
220
0
230
1
1
\W0.5321;12
40
4.5
41
0
44
1.084337
50
90
71
7
72
5
7
iso_b_vert
0
LINE
5
100
100
AcDbEntity
8
SK2
62
256
6
ByLayer
370
13
48
1
60
0
100
AcDbLine
10
-97.35
20
5.9375
30
0
11
-108.6
21
5.9375
31
0
39
0
210
0
220
0
230
1
0
LINE
5
101
100
AcDbEntity
8
SK2
62
256
6
ByLayer
370
13
48
1
60
0
100
AcDbLine
10
-97.35
20
-5.9375
30
0
11
-108.6
21
-5.9375
31
0
39
0
210
0
220
0
230
1
0
LINE
5
102
100
AcDbEntity
8
SK2
62
256
6
ByLayer
370
13
48
1
60
0
100
AcDbLine
10
-105.6
20
17.1875
30
0
11
-105.6
21
-17.1875
31
0
39
0
210
0
220
0
230
1
0
LINE
5
103
100
AcDbEntity
8
SK2
62
256
6
ByLayer
370
13
48
1
60
0
100
AcDbLine
10
-105.6
20
5.9375
30
0
11
-105.994957
21
8.937499
31
0
39
0
210
0
220
0
230
1
0
LINE
5
104
100
AcDbEntity
8
SK2
62
256
6
ByLayer
370
13
48
1
60
0
100
AcDbLine
10
-105.6
20
5.9375
30
0
11
-105.205043
21
8.937501
31
0
39
0
210
0
220
0
230
1
0
LINE
5
105
100
AcDbEntity
8
SK2
62
256
6
ByLayer
370
13
48
1
60
0
100
AcDbLine
10
-105.994957
20
8.937499
30
0
11
-105.205043
21
8.937501
31
0
39
0
210
0
220
0
230
1
0
LINE
5
106
100
AcDbEntity
8
SK2
62
256
6
ByLayer
370
13
48
1
60
0
100
AcDbLine
10
-105.6
20
-5.9375
30
0
11
-105.205043
21
-8.937499
31
0
39
0
210
0
220
0
230
1
0
LINE
5
107
100
AcDbEntity
8
SK2
62
256
6
ByLayer
370
13
48
1
60
0
100
AcDbLine
10
-105.6
20
-5.9375
30
0
11
-105.994957
21
-8.937501
31
0
39
0
210
0
220
0
230
1
0
LINE
5
108
100
AcDbEntity
8
SK2
62
256
6
ByLayer
370
13
48
1
60
0
100
AcDbLine
10
-105.205043
20
-8.937499
30
0
11
-105.994957
21
-8.937501
31
0
39
0
210
0
220
0
230
1
0
ENDBLK
5
10A
100
AcDbEntity
8
0
100
AcDbBlockEnd
0
BLOCK
5
117
100
AcDbEntity
8
0
100
AcDbBlockBegin
2
DimnDraft3D4
70
0
10
0
20
0
30
0
3
DimnDraft3D4
0
MTEXT
5
10D
100
AcDbEntity
8
2
62
256
6
ByLayer
370
18
48
1
60
0
100
AcDbMText
10
23.499342
20
-19.0625
30
0
210
0
220
0
230
1
1
\W0.5321;12
40
4.5
41
0
44
1.084337
50
0
71
7
72
5
7
iso_b_vert
0
LINE
5
10E
100
AcDbEntity
8
2
62
256
6
ByLayer
370
13
48
1
60
0
100
AcDbLine
10
30.5
20
-7.4375
30
0
11
30.5
21
-23.1875
31
0
39
0
210
0
220
0
230
1
0
LINE
5
10F
100
AcDbEntity
8
2
62
256
6
ByLayer
370
13
48
1
60
0
100
AcDbLine
10
18.5
20
-5.5625
30
0
11
18.5
21
-23.1875
31
0
39
0
210
0
220
0
230
1
0
LINE
5
110
100
AcDbEntity
8
2
62
256
6
ByLayer
370
13
48
1
60
0
100
AcDbLine
10
41.75
20
-20.1875
30
0
11
7.25
21
-20.1875
31
0
39
0
210
0
220
0
230
1
0
LINE
5
111
100
AcDbEntity
8
2
62
256
6
ByLayer
370
13
48
1
60
0
100
AcDbLine
10
30.5
20
-20.1875
30
0
11
33.499999
21
-19.792543
31
0
39
0
210
0
220
0
230
1
0
LINE
5
112
100
AcDbEntity
8
2
62
256
6
ByLayer
370
13
48
1
60
0
100
AcDbLine
10
30.5
20
-20.1875
30
0
11
33.500001
21
-20.582457
31
0
39
0
210
0
220
0
230
1
0
LINE
5
113
100
AcDbEntity
8
2
62
256
6
ByLayer
370
13
48
1
60
0
100
AcDbLine
10
33.499999
20
-19.792543
30
0
11
33.500001
21
-20.582457
31
0
39
0
210
0
220
0
230
1
0
LINE
5
114
100
AcDbEntity
8
2
62
256
6
ByLayer
370
13
48
1
60
0
100
AcDbLine
10
18.5
20
-20.1875
30
0
11
15.500001
21
-20.582457
31
0
39
0
210
0
220
0
230
1
0
LINE
5
115
100
AcDbEntity
8
2
62
256
6
ByLayer
370
13
48
1
60
0
100
AcDbLine
10
18.5
20
-20.1875
30
0
11
15.499999
21
-19.792543
31
0
39
0
210
0
220
0
230
1
0
LINE
5
116
100
AcDbEntity
8
2
62
256
6
ByLayer
370
13
48
1
60
0
100
AcDbLine
10
15.500001
20
-20.582457
30
0
11
15.499999
21
-19.792543
31
0
39
0
210
0
220
0
230
1
0
ENDBLK
5
118
100
AcDbEntity
8
0
100
AcDbBlockEnd
0
BLOCK
5
125
100
AcDbEntity
8
0
100
AcDbBlockBegin
2
DimnDraft3D5
70
0
10
0
20
0
30
0
3
DimnDraft3D5
0
MTEXT
5
11B
100
AcDbEntity
8
2
62
256
6
ByLayer
370
18
48
1
60
0
100
AcDbMText
10
11.093421
20
17.9375
30
0
210
0
220
0
230
1
1
\W0.7346;30.5
40
4.5
41
0
44
1.084337
50
0
71
7
72
5
7
iso_b_vert
0
LINE
5
11C
100
AcDbEntity
8
2
62
256
6
ByLayer
370
13
48
1
60
0
100
AcDbLine
10
30.5
20
-3.4375
30
0
11
30.5
21
19.8125
31
0
39
0
210
0
220
0
230
1
0
LINE
5
11D
100
AcDbEntity
8
2
62
256
6
ByLayer
370
13
48
1
60
0
100
AcDbLine
10
0
20
7.4375
30
0
11
0
21
19.8125
31
0
39
0
210
0
220
0
230
1
0
LINE
5
11E
100
AcDbEntity
8
2
62
256
6
ByLayer
370
13
48
1
60
0
100
AcDbLine
10
30.5
20
16.8125
30
0
11
0
21
16.8125
31
0
39
0
210
0
220
0
230
1
0
LINE
5
11F
100
AcDbEntity
8
2
62
256
6
ByLayer
370
13
48
1
60
0
100
AcDbLine
10
30.5
20
16.8125
30
0
11
27.500001
21
16.417543
31
0
39
0
210
0
220
0
230
1
0
LINE
5
120
100
AcDbEntity
8
2
62
256
6
ByLayer
370
13
48
1
60
0
100
AcDbLine
10
30.5
20
16.8125
30
0
11
27.499999
21
17.207457
31
0
39
0
210
0
220
0
230
1
0
LINE
5
121
100
AcDbEntity
8
2
62
256
6
ByLayer
370
13
48
1
60
0
100
AcDbLine
10
27.500001
20
16.417543
30
0
11
27.499999
21
17.207457
31
0
39
0
210
0
220
0
230
1
0
LINE
5
122
100
AcDbEntity
8
2
62
256
6
ByLayer
370
13
48
1
60
0
100
AcDbLine
10
0
20
16.8125
30
0
11
2.999999
21
17.207457
31
0
39
0
210
0
220
0
230
1
0
LINE
5
123
100
AcDbEntity
8
2
62
256
6
ByLayer
370
13
48
1
60
0
100
AcDbLine
10
0
20
16.8125
30
0
11
3.000001
21
16.417543
31
0
39
0
210
0
220
0
230
1
0
LINE
5
124
100
AcDbEntity
8
2
62
256
6
ByLayer
370
13
48
1
60
0
100
AcDbLine
10
2.999999
20
17.207457
30
0
11
3.000001
21
16.417543
31
0
39
0
210
0
220
0
230
1
0
ENDBLK
5
126
100
AcDbEntity
8
0
100
AcDbBlockEnd
0
BLOCK
5
133
100
AcDbEntity
8
0
100
AcDbBlockBegin
2
DimnDraft3D6
70
0
10
0
20
0
30
0
3
DimnDraft3D6
0
MTEXT
5
129
100
AcDbEntity
8
SK2
62
256
6
ByLayer
370
18
48
1
60
0
100
AcDbMText
10
-35.357237
20
27.9375
30
0
210
0
220
0
230
1
1
\W0.6217;125
40
4.5
41
0
44
1.084337
50
0
71
7
72
5
7
iso_b_vert
0
LINE
5
12A
100
AcDbEntity
8
SK2
62
256
6
ByLayer
370
13
48
1
60
0
100
AcDbLine
10
30.5
20
-3.4375
30
0
11
30.5
21
29.8125
31
0
39
0
210
0
220
0
230
1
0
LINE
5
12B
100
AcDbEntity
8
SK2
62
256
6
ByLayer
370
13
48
1
60
0
100
AcDbLine
10
-95.85
20
7.4375
30
0
11
-95.85
21
29.8125
31
0
39
0
210
0
220
0
230
1
0
LINE
5
12C
100
AcDbEntity
8
SK2
62
256
6
ByLayer
370
13
48
1
60
0
100
AcDbLine
10
30.5
20
26.8125
30
0
11
-95.85
21
26.8125
31
0
39
0
210
0
220
0
230
1
0
LINE
5
12D
100
AcDbEntity
8
SK2
62
256
6
ByLayer
370
13
48
1
60
0
100
AcDbLine
10
30.5
20
26.8125
30
0
11
27.500001
21
26.417543
31
0
39
0
210
0
220
0
230
1
0
LINE
5
12E
100
AcDbEntity
8
SK2
62
256
6
ByLayer
370
13
48
1
60
0
100
AcDbLine
10
30.5
20
26.8125
30
0
11
27.499999
21
27.207457
31
0
39
0
210
0
220
0
230
1
0
LINE
5
12F
100
AcDbEntity
8
SK2
62
256
6
ByLayer
370
13
48
1
60
0
100
AcDbLine
10
27.500001
20
26.417543
30
0
11
27.499999
21
27.207457
31
0
39
0
210
0
220
0
230
1
0
LINE
5
130
100
AcDbEntity
8
SK2
62
256
6
ByLayer
370
13
48
1
60
0
100
AcDbLine
10
-95.85
20
26.8125
30
0
11
-92.850001
21
27.207457
31
0
39
0
210
0
220
0
230
1
0
LINE
5
131
100
AcDbEntity
8
SK2
62
256
6
ByLayer
370
13
48
1
60
0
100
AcDbLine
10
-95.85
20
26.8125
30
0
11
-92.849999
21
26.417543
31
0
39
0
210
0
220
0
230
1
0
LINE
5
132
100
AcDbEntity
8
SK2
62
256
6
ByLayer
370
13
48
1
60
0
100
AcDbLine
10
-92.850001
20
27.207457
30
0
11
-92.849999
21
26.417543
31
0
39
0
210
0
220
0
230
1
0
ENDBLK
5
134
100
AcDbEntity
8
0
100
AcDbBlockEnd
0
ENDSEC
0
SECTION
2
ENTITIES
0
ARC
5
A8
100
AcDbEntity
8
1
62
256
6
ByLayer
370
18
48
1
60
0
100
AcDbCircle
39
0
10
18.6
20
-3.5875
30
0
40
1.59999999999931
210
0
220
0
230
1
100
AcDbArc
50
180
51
270
0
ARC
5
A9
100
AcDbEntity
8
1
62
256
6
ByLayer
370
18
48
1
60
0
100
AcDbCircle
39
0
10
24.795796
20
-6.563949
30
0
40
0.149999997103369
210
0
220
0
230
1
100
AcDbArc
50
160
51
180
0
ARC
5
AA
100
AcDbEntity
8
1
62
256
6
ByLayer
370
18
48
1
60
0
100
AcDbCircle
39
0
10
24.332089
20
-5.9375
30
0
40
0.500000000020801
210
0
220
0
230
1
100
AcDbArc
50
340
51
20
0
ARC
5
AB
100
AcDbEntity
8
1
62
256
6
ByLayer
370
18
48
1
60
0
100
AcDbCircle
39
0
10
24.795796
20
-5.311051
30
0
40
0.149999997103369
210
0
220
0
230
1
100
AcDbArc
50
180
51
200
0
ARC
5
AC
100
AcDbEntity
8
1
62
256
6
ByLayer
370
18
48
1
60
0
100
AcDbCircle
39
0
10
30.3
20
-5.1375
30
0
40
0.2
210
0
220
0
230
1
100
AcDbArc
50
360
51
92.5
0
ARC
5
AD
100
AcDbEntity
8
1
62
256
6
ByLayer
370
18
48
1
60
0
100
AcDbCircle
39
0
10
-30.3
20
-6.7375
30
0
40
0.2
210
0
220
0
230
-1
100
AcDbArc
50
180
51
272.5
0
ARC
5
AE
100
AcDbEntity
8
1
62
256
6
ByLayer
370
18
48
1
60
0
100
AcDbCircle
39
0
10
10.7
20
-6.7375
30
0
40
0.2
210
0
220
0
230
1
100
AcDbArc
50
180
51
272.5
0
ARC
5
AF
100
AcDbEntity
8
1
62
256
6
ByLayer
370
18
48
1
60
0
100
AcDbCircle
39
0
10
12
20
0.5625
30
0
40
1.416
210
0
220
0
230
1
100
AcDbArc
50
96.192438
51
150.190711
0
ARC
5
B0
100
AcDbEntity
8
1
62
256
6
ByLayer
370
18
48
1
60
0
100
AcDbCircle
39
0
10
12
20
0.5625
30
0
40
1.416
210
0
220
0
230
1
100
AcDbArc
50
263.807562
51
276.192438
0
ARC
5
B1
100
AcDbEntity
8
1
62
256
6
ByLayer
370
18
48
1
60
0
100
AcDbCircle
39
0
10
12
20
0.5625
30
0
40
1.9685
210
0
220
0
230
1
100
AcDbArc
50
120.381422
51
180
0
ARC
5
B2
100
AcDbEntity
8
1
62
256
6
ByLayer
370
18
48
1
60
0
100
AcDbCircle
39
0
10
12
20
0.5625
30
0
40
1.416
210
0
220
0
230
1
100
AcDbArc
50
29.809289
51
83.807562
0
ARC
5
B3
100
AcDbEntity
8
1
62
256
6
ByLayer
370
18
48
1
60
0
100
AcDbCircle
39
0
10
12
20
0.5625
30
0
40
1.416
210
0
220
0
230
1
100
AcDbArc
50
330.190711
51
29.809289
0
ARC
5
B4
100
AcDbEntity
8
1
62
256
6
ByLayer
370
18
48
1
60
0
100
AcDbCircle
39
0
10
12
20
0.5625
30
0
40
1.9685
210
0
220
0
230
1
100
AcDbArc
50
239.618578
51
300.381422
0
ARC
5
B5
100
AcDbEntity
8
1
62
256
6
ByLayer
370
18
48
1
60
0
100
AcDbCircle
39
0
10
12
20
0.5625
30
0
40
1.9685
210
0
220
0
230
1
100
AcDbArc
50
180
51
239.618578
0
ARC
5
B6
100
AcDbEntity
8
1
62
256
6
ByLayer
370
18
48
1
60
0
100
AcDbCircle
39
0
10
12
20
0.5625
30
0
40
1.416
210
0
220
0
230
1
100
AcDbArc
50
83.807562
51
96.192438
0
ARC
5
B7
100
AcDbEntity
8
1
62
256
6
ByLayer
370
18
48
1
60
0
100
AcDbCircle
39
0
10
12
20
0.5625
30
0
40
1.416
210
0
220
0
230
1
100
AcDbArc
50
276.192438
51
330.190711
0
ARC
5
B8
100
AcDbEntity
8
1
62
256
6
ByLayer
370
18
48
1
60
0
100
AcDbCircle
39
0
10
12
20
0.5625
30
0
40
1.9685
210
0
220
0
230
1
100
AcDbArc
50
59.618578
51
120.381422
0
ARC
5
B9
100
AcDbEntity
8
1
62
256
6
ByLayer
370
18
48
1
60
0
100
AcDbCircle
39
0
10
12
20
0.5625
30
0
40
1.9685
210
0
220
0
230
1
100
AcDbArc
50
360
51
59.618578
0
ARC
5
BA
100
AcDbEntity
8
1
62
256
6
ByLayer
370
18
48
1
60
0
100
AcDbCircle
39
0
10
12
20
0.5625
30
0
40
1.416
210
0
220
0
230
1
100
AcDbArc
50
209.809289
51
263.807562
0
ARC
5
BB
100
AcDbEntity
8
1
62
256
6
ByLayer
370
18
48
1
60
0
100
AcDbCircle
39
0
10
12
20
0.5625
30
0
40
1.416
210
0
220
0
230
1
100
AcDbArc
50
150.190711
51
209.809289
0
ARC
5
BC
100
AcDbEntity
8
1
62
256
6
ByLayer
370
18
48
1
60
0
100
AcDbCircle
39
0
10
12
20
0.5625
30
0
40
1.9685
210
0
220
0
230
1
100
AcDbArc
50
300.381422
51
360
0
CIRCLE
5
A7
100
AcDbEntity
8
1
62
256
6
ByLayer
370
18
48
1
60
0
100
AcDbCircle
10
12
20
0.5625
30
0
40
4
39
0
210
0
220
0
230
1
0
CIRCLE
5
BD
100
AcDbEntity
8
1
62
256
6
ByLayer
370
18
48
1
60
0
100
AcDbCircle
10
-12
20
0.5625
30
0
40
3.5
39
0
210
0
220
0
230
-1
0
CIRCLE
5
BE
100
AcDbEntity
8
1
62
256
6
ByLayer
370
18
48
1
60
0
100
AcDbCircle
10
-12
20
0.5625
30
0
40
3
39
0
210
0
220
0
230
-1
0
POINT
5
6C
100
AcDbEntity
8
2
62
256
6
ByLayer
370
18
48
1
60
0
100
AcDbPoint
10
30.5
20
6.0625
30
0
39
0
210
0
220
0
230
1
50
360
0
POINT
5
6E
100
AcDbEntity
8
80
62
256
6
ByLayer
370
18
48
1
60
0
100
AcDbPoint
10
0
20
0
30
0
39
0
210
0
220
0
230
1
50
360
0
POINT
5
70
100
AcDbEntity
8
2
62
256
6
ByLayer
370
18
48
1
60
0
100
AcDbPoint
10
30.5
20
7.0625
30
0
39
0
210
0
220
0
230
1
50
360
0
POINT
5
71
100
AcDbEntity
8
81
62
256
6
ByLayer
370
18
48
1
60
0
100
AcDbPoint
10
30.5
20
-6.9375
30
0
39
0
210
0
220
0
230
1
50
360
0
SPLINE
5
BF
100
AcDbEntity
8
1
62
256
6
ByLayer
370
18
48
1
60
0
100
AcDbSpline
70
4
71
3
72
12
73
8
40
0
40
0
40
0
40
0
40
0.367292260733844
40
0.367292260733844
40
0.73492230395799
40
0.73492230395799
40
1
40
1
40
1
40
1
41
1
10
23.906851383867
20
-5.5571435644334
30
0
41
1
10
23.9417035961607
20
-5.64312174588983
30
0
41
1
10
23.9649302976673
20
-5.73760421876702
30
0
41
1
10
23.9841590431068
20
-5.92810593788261
30
0
41
1
10
23.9804000460794
20
-6.02674862201991
30
0
41
1
10
23.9513806104925
20
-6.18863656782449
30
0
41
1
10
23.9321762389184
20
-6.25538163585756
30
0
41
1
10
23.906851383872
20
-6.31785643556879
30
0
0
SPLINE
5
C0
100
AcDbEntity
8
1
62
256
6
ByLayer
370
18
48
1
60
0
100
AcDbSpline
70
4
71
3
72
8
73
4
40
0
40
0
40
0
40
0
40
1
40
1
40
1
40
1
41
1
10
23.755042424375
20
-5.18750000000003
30
0
41
1
10
23.8062919217128
20
-5.31031565271806
30
0
41
1
10
23.8567751647697
20
-5.43360873066385
30
0
41
1
10
23.906851383867
20
-5.55714356443337
30
0
0
SPLINE
5
C1
100
AcDbEntity
8
1
62
256
6
ByLayer
370
18
48
1
60
0
100
AcDbSpline
70
4
71
3
72
8
73
4
40
0
40
0
40
0
40
0
40
1
40
1
40
1
40
1
41
1
10
23.906851383867
20
-6.31785643556668
30
0
41
1
10
23.8567751647697
20
-6.44139126933621
30
0
41
1
10
23.8062919217128
20
-6.56468434728203
30
0
41
1
10
23.755042424375
20
-6.68750000000006
30
0
0
SPLINE
5
C2
100
AcDbEntity
8
1
62
256
6
ByLayer
370
18
48
1
60
0
100
AcDbSpline
70
4
71
3
72
14
73
10
40
0
40
0
40
0
40
0
40
0.281038222380406
40
0.281038222380406
40
0.564557857067056
40
0.564557857067056
40
0.820700196130078
40
0.820700196130078
40
1
40
1
40
1
40
1
41
1
10
11.4078822958329
20
2.20608262808875
30
0
41
1
10
11.3813006245732
20
2.23341236906995
30
0
41
1
10
11.349043969095
20
2.2568655245359
30
0
41
1
10
11.277235194489
20
2.29107486042693
30
0
41
1
10
11.2364720760798
20
2.30218475904485
30
0
41
1
10
11.1571729147492
20
2.30784868557421
30
0
41
1
10
11.1175924873016
20
2.30391172564308
30
0
41
1
10
11.0539176730122
20
2.28561543464565
30
0
41
1
10
11.0281706327858
20
2.2746032984634
30
0
41
1
10
11.0044231104048
20
2.26068105833977
30
0
0
SPLINE
5
C3
100
AcDbEntity
8
1
62
256
6
ByLayer
370
18
48
1
60
0
100
AcDbSpline
70
4
71
3
72
16
73
12
40
0
40
0
40
0
40
0
40
0.0645965064171437
40
0.0645965064171437
40
0.282747320500309
40
0.282747320500309
40
0.503851581407219
40
0.503851581407219
40
0.739476498257834
40
0.739476498257834
40
1
40
1
40
1
40
1
41
1
10
11.0044231104048
20
-1.13568105833977
30
0
41
1
10
11.013014252084
20
-1.14071770744678
30
0
41
1
10
11.0218448367852
20
-1.14537061464472
30
0
41
1
10
11.0610594082809
20
-1.16381831327183
30
0
41
1
10
11.0937837130779
20
-1.17343690823566
30
0
41
1
10
11.1593454694517
20
-1.18245955
30
0
41
1
10
11.1930080641066
20
-1.1818653386228
30
0
41
1
10
11.2588630387573
20
-1.17103188575984
30
0
41
1
10
11.2916435993958
20
-1.16006237928639
30
0
41
1
10
11.3537963059871
20
-1.12838505353068
30
0
41
1
10
11.3832521428563
20
-1.10640593054779
30
0
41
1
10
11.4078822958328
20
-1.08108262808878
30
0
0
SPLINE
5
C4
100
AcDbEntity
8
1
62
256
6
ByLayer
370
18
48
1
60
0
100
AcDbSpline
70
4
71
3
72
18
73
14
40
0
40
0
40
0
40
0
40
0.213081262000622
40
0.213081262000622
40
0.387160943926345
40
0.387160943926345
40
0.562948999942008
40
0.562948999942008
40
0.715638435810372
40
0.715638435810372
40
0.919170953808126
40
0.919170953808126
40
1
40
1
40
1
40
1
41
1
10
13.1474510335849
20
1.89065233797856
30
0
41
1
10
13.1253499966636
20
1.80810260339751
30
0
41
1
10
13.1155116663086
20
1.71929631718774
30
0
41
1
10
13.125005262533
20
1.5555591646997
30
0
41
1
10
13.1396283941554
20
1.47923071749949
30
0
41
1
10
13.1907914435921
20
1.33203000919164
30
0
41
1
10
13.2285222509958
20
1.25911142498921
30
0
41
1
10
13.3147745125081
20
1.13906872419491
30
0
41
1
10
13.3621656692504
20
1.08832306339133
30
0
41
1
10
13.480308930509
20
0.988709209002792
30
0
41
1
10
13.5554527440065
20
0.944124771712694
30
0
41
1
10
13.6631437334956
20
0.90001928382182
30
0
41
1
10
13.6945032391402
20
0.889359843639141
30
0
41
1
10
13.7260954401444
20
0.880661969546821
30
0
0
SPLINE
5
C5
100
AcDbEntity
8
1
62
256
6
ByLayer
370
18
48
1
60
0
100
AcDbSpline
70
4
71
3
72
18
73
14
40
0
40
0
40
0
40
0
40
0.213081026856098
40
0.213081026856098
40
0.387160750704744
40
0.387160750704744
40
0.562948851464631
40
0.562948851464631
40
0.715638295683688
40
0.715638295683688
40
0.91917077166891
40
0.91917077166891
40
1
40
1
40
1
40
1
41
1
10
10.2739045598557
20
0.880661969546821
30
0
41
1
10
10.3562959735259
20
0.903345737046863
30
0
41
1
10
10.4378828610424
20
0.939772513026526
30
0
41
1
10
10.5743337817465
20
1.03077305590375
30
0
41
1
10
10.6327849506205
20
1.08199151673358
30
0
41
1
10
10.7338958570924
20
1.20057608788608
30
0
41
1
10
10.7777186157693
20
1.27000448969929
30
0
41
1
10
10.8376543890653
20
1.40512448640652
30
0
41
1
10
10.8574632867377
20
1.47167260736037
30
0
41
1
10
10.8836465356628
20
1.62397226392116
30
0
41
1
10
10.8841042679144
20
1.71134590366796
30
0
41
1
10
10.8676879551153
20
1.82655511685175
30
0
41
1
10
10.8610234078263
20
1.85899939374312
30
0
41
1
10
10.8525489664152
20
1.89065233797856
30
0
0
SPLINE
5
C6
100
AcDbEntity
8
1
62
256
6
ByLayer
370
18
48
1
60
0
100
AcDbSpline
70
4
71
3
72
14
73
10
40
0
40
0
40
0
40
0
40
0.285014780844618
40
0.285014780844618
40
0.572350605982621
40
0.572350605982621
40
0.832166772861833
40
0.832166772861833
40
1
40
1
40
1
40
1
41
1
10
10.8525489664152
20
-0.765652337978594
30
0
41
1
10
10.8427455383358
20
-0.802269189432792
30
0
41
1
10
10.839100800866
20
-0.841771392094415
30
0
41
1
10
10.8463060087591
20
-0.920551238751159
30
0
41
1
10
10.8574570886555
20
-0.96104024825857
30
0
41
1
10
10.8927012508891
20
-1.031774641525
30
0
41
1
10
10.9160474129793
20
-1.06366793530441
30
0
41
1
10
10.9622449161042
20
-1.10754143751319
30
0
41
1
10
10.9826741516866
20
-1.12293049763466
30
0
41
1
10
11.0044231104048
20
-1.13568105833977
30
0
0
SPLINE
5
C7
100
AcDbEntity
8
1
62
256
6
ByLayer
370
18
48
1
60
0
100
AcDbSpline
70
4
71
3
72
14
73
10
40
0
40
0
40
0
40
0
40
0.28501398472704
40
0.28501398472704
40
0.572349910643066
40
0.572349910643066
40
0.832166158509297
40
0.832166158509297
40
1
40
1
40
1
40
1
41
1
10
13.7260954401444
20
0.24433803045315
30
0
41
1
10
13.7626420033309
20
0.254399925319632
30
0
41
1
10
13.798562913688
20
0.271234024131331
30
0
41
1
10
13.8628804284091
20
0.317292897874978
30
0
41
1
10
13.892169726513
20
0.347390146030847
30
0
41
1
10
13.9353659032994
20
0.413568682268419
30
0
41
1
10
13.9510721564614
20
0.449839054065706
30
0
41
1
10
13.9655563481768
20
0.511881898482528
30
0
41
1
10
13.9685
20
0.537288918334184
30
0
41
1
10
13.9685
20
0.5625
30
0
0
SPLINE
5
C8
100
AcDbEntity
8
1
62
256
6
ByLayer
370
18
48
1
60
0
100
AcDbSpline
70
4
71
3
72
16
73
12
40
0
40
0
40
0
40
0
40
0.0645965064171448
40
0.0645965064171448
40
0.28274732050031
40
0.28274732050031
40
0.503851581407188
40
0.503851581407188
40
0.739476498257835
40
0.739476498257835
40
1
40
1
40
1
40
1
41
1
10
12.9955768895952
20
2.26068105833974
30
0
41
1
10
12.986985747916
20
2.26571770744675
30
0
41
1
10
12.9781551632148
20
2.27037061464469
30
0
41
1
10
12.9389405917191
20
2.2888183132718
30
0
41
1
10
12.9062162869221
20
2.29843690823563
30
0
41
1
10
12.8406545305483
20
2.30745954999998
30
0
41
1
10
12.8069919358934
20
2.30686533862277
30
0
41
1
10
12.7411369612427
20
2.29603188575982
30
0
41
1
10
12.7083564006043
20
2.28506237928636
30
0
41
1
10
12.6462036940129
20
2.25338505353065
30
0
41
1
10
12.6167478571437
20
2.23140593054779
30
0
41
1
10
12.5921177041672
20
2.20608262808875
30
0
0
SPLINE
5
C9
100
AcDbEntity
8
1
62
256
6
ByLayer
370
18
48
1
60
0
100
AcDbSpline
70
4
71
3
72
16
73
12
40
0
40
0
40
0
40
0
40
0.0660777514109193
40
0.0660777514109193
40
0.289232858199903
40
0.289232858199903
40
0.515409129607303
40
0.515409129607303
40
0.756439127791387
40
0.756439127791387
40
1
40
1
40
1
40
1
41
1
10
10.0315
20
0.5625
30
0
41
1
10
10.0315
20
0.552541393255865
30
0
41
1
10
10.0319521370927
20
0.54257030370826
30
0
41
1
10
10.035870606949
20
0.499410848501185
30
0
41
1
10
10.0441232851388
20
0.466315667545104
30
0
41
1
10
10.0694977332366
20
0.405193743501002
30
0
41
1
10
10.0870353182329
20
0.376454285745751
30
0
41
1
10
10.1296874761397
20
0.325121701416094
30
0
41
1
10
10.1557295062842
20
0.302390497395635
30
0
41
1
10
10.2118903369799
20
0.266457460632267
30
0
41
1
10
10.242638287392
20
0.252946170835315
30
0
41
1
10
10.2739045598557
20
0.24433803045315
30
0
0
SPLINE
5
CA
100
AcDbEntity
8
1
62
256
6
ByLayer
370
18
48
1
60
0
100
AcDbSpline
70
4
71
3
72
10
73
6
40
0
40
0
40
0
40
0
40
0.479736826302613
40
0.479736826302613
40
1
40
1
40
1
40
1
41
1
10
11.8472587066236
20
-0.845237936299839
30
0
41
1
10
11.7634717620859
20
-0.861003440768656
30
0
41
1
10
11.6831344436619
20
-0.889950219120777
30
0
41
1
10
11.5347803935531
20
-0.968873694517441
30
0
41
1
10
11.4658766441957
20
-1.02145618460264
30
0
41
1
10
11.4078822958329
20
-1.08108262808878
30
0
0
SPLINE
5
CB
100
AcDbEntity
8
1
62
256
6
ByLayer
370
18
48
1
60
0
100
AcDbSpline
70
4
71
3
72
14
73
10
40
0
40
0
40
0
40
0
40
0.281038222380408
40
0.281038222380408
40
0.564557857067058
40
0.564557857067058
40
0.820700196130078
40
0.820700196130078
40
1
40
1
40
1
40
1
41
1
10
12.5921177041672
20
-1.08108262808878
30
0
41
1
10
12.6186993754269
20
-1.10841236906998
30
0
41
1
10
12.650956030905
20
-1.13186552453593
30
0
41
1
10
12.722764805511
20
-1.16607486042696
30
0
41
1
10
12.7635279239202
20
-1.17718475904488
30
0
41
1
10
12.8428270852508
20
-1.18284868557424
30
0
41
1
10
12.8824075126984
20
-1.1789117256431
30
0
41
1
10
12.9460823269879
20
-1.16061543464568
30
0
41
1
10
12.9718293672142
20
-1.14960329846343
30
0
41
1
10
12.9955768895952
20
-1.1356810583398
30
0
0
SPLINE
5
CC
100
AcDbEntity
8
1
62
256
6
ByLayer
370
18
48
1
60
0
100
AcDbSpline
70
4
71
3
72
14
73
10
40
0
40
0
40
0
40
0
40
0.285014780844609
40
0.285014780844609
40
0.572350605982611
40
0.572350605982611
40
0.832166772861831
40
0.832166772861831
40
1
40
1
40
1
40
1
41
1
10
13.1474510335849
20
1.89065233797856
30
0
41
1
10
13.1572544616642
20
1.92726918943276
30
0
41
1
10
13.1608991991341
20
1.96677139209439
30
0
41
1
10
13.153693991241
20
2.0455512387511
30
0
41
1
10
13.1425429113445
20
2.08604024825854
30
0
41
1
10
13.1072987491109
20
2.15677464152498
30
0
41
1
10
13.0839525870208
20
2.18866793530438
30
0
41
1
10
13.0377550838958
20
2.23254143751316
30
0
41
1
10
13.0173258483135
20
2.24793049763463
30
0
41
1
10
12.9955768895952
20
2.26068105833974
30
0
0
SPLINE
5
CD
100
AcDbEntity
8
1
62
256
6
ByLayer
370
18
48
1
60
0
100
AcDbSpline
70
4
71
3
72
10
73
6
40
0
40
0
40
0
40
0
40
0.541781546917738
40
0.541781546917738
40
1
40
1
40
1
40
1
41
1
10
12.5921177041672
20
-1.08108262808878
30
0
41
1
10
12.5317893524551
20
-1.01905649699989
30
0
41
1
10
12.4595938121995
20
-0.964617677684771
30
0
41
1
10
12.3098326867735
20
-0.887422295241237
30
0
41
1
10
12.2328667479517
20
-0.860314488131905
30
0
41
1
10
12.1527412933765
20
-0.845237936299839
30
0
0
SPLINE
5
CE
100
AcDbEntity
8
1
62
256
6
ByLayer
370
18
48
1
60
0
100
AcDbSpline
70
4
71
3
72
14
73
10
40
0
40
0
40
0
40
0
40
0.285013984727066
40
0.285013984727066
40
0.572349910643094
40
0.572349910643094
40
0.832166158509313
40
0.832166158509313
40
1
40
1
40
1
40
1
41
1
10
10.2739045598557
20
0.880661969546821
30
0
41
1
10
10.2373579966691
20
0.87060007468034
30
0
41
1
10
10.201437086312
20
0.85376597586864
30
0
41
1
10
10.1371195715909
20
0.807707102124994
30
0
41
1
10
10.1078302734871
20
0.777609853969125
30
0
41
1
10
10.0646340967007
20
0.711431317731552
30
0
41
1
10
10.0489278435387
20
0.675160945934266
30
0
41
1
10
10.0344436518232
20
0.613118101517443
30
0
41
1
10
10.0315
20
0.587711081665788
30
0
41
1
10
10.0315
20
0.5625
30
0
0
SPLINE
5
CF
100
AcDbEntity
8
1
62
256
6
ByLayer
370
18
48
1
60
0
100
AcDbSpline
70
4
71
3
72
18
73
14
40
0
40
0
40
0
40
0
40
0.213081026856106
40
0.213081026856106
40
0.38716075070475
40
0.38716075070475
40
0.562948851464636
40
0.562948851464636
40
0.715638295683691
40
0.715638295683691
40
0.919170771668912
40
0.919170771668912
40
1
40
1
40
1
40
1
41
1
10
13.7260954401444
20
0.24433803045315
30
0
41
1
10
13.6437040264742
20
0.221654262953138
30
0
41
1
10
13.5621171389576
20
0.185227486973446
30
0
41
1
10
13.4256662182536
20
0.0942269440962207
30
0
41
1
10
13.3672150493795
20
0.0430084832663908
30
0
41
1
10
13.2661041429076
20
-0.0755760878861054
30
0
41
1
10
13.2222813842307
20
-0.145004489699318
30
0
41
1
10
13.1623456109347
20
-0.280124486406578
30
0
41
1
10
13.1425367132623
20
-0.346672607360404
30
0
41
1
10
13.1163534643372
20
-0.498972263921189
30
0
41
1
10
13.1158957320857
20
-0.58634590366799
30
0
41
1
10
13.1323120448847
20
-0.701555116851779
30
0
41
1
10
13.1389765921737
20
-0.733999393743147
30
0
41
1
10
13.1474510335849
20
-0.765652337978594
30
0
0
SPLINE
5
D0
100
AcDbEntity
8
1
62
256
6
ByLayer
370
18
48
1
60
0
100
AcDbSpline
70
4
71
3
72
10
73
6
40
0
40
0
40
0
40
0
40
0.541781546918577
40
0.541781546918577
40
1
40
1
40
1
40
1
41
1
10
11.4078822958329
20
2.20608262808875
30
0
41
1
10
11.4682106475449
20
2.14405649699987
30
0
41
1
10
11.5404061878006
20
2.08961767768474
30
0
41
1
10
11.6901673132266
20
2.01242229524121
30
0
41
1
10
11.7671332520483
20
1.98531448813188
30
0
41
1
10
11.8472587066236
20
1.97023793629981
30
0
0
SPLINE
5
D1
100
AcDbEntity
8
1
62
256
6
ByLayer
370
18
48
1
60
0
100
AcDbSpline
70
4
71
3
72
18
73
14
40
0
40
0
40
0
40
0
40
0.213081262000626
40
0.213081262000626
40
0.387160943926354
40
0.387160943926354
40
0.562948999942016
40
0.562948999942016
40
0.715638435810393
40
0.715638435810393
40
0.919170953808152
40
0.919170953808152
40
1
40
1
40
1
40
1
41
1
10
10.8525489664152
20
-0.765652337978594
30
0
41
1
10
10.8746500033365
20
-0.683102603397543
30
0
41
1
10
10.8844883336915
20
-0.594296317187769
30
0
41
1
10
10.874994737467
20
-0.43055916469973
30
0
41
1
10
10.8603716058447
20
-0.354230717499519
30
0
41
1
10
10.809208556408
20
-0.207030009191669
30
0
41
1
10
10.7714777490042
20
-0.134111424989243
30
0
41
1
10
10.685225487492
20
-0.0140687241949422
30
0
41
1
10
10.6378343307496
20
0.036676936608643
30
0
41
1
10
10.5196910694911
20
0.136290790997208
30
0
41
1
10
10.4445472559936
20
0.180875228287306
30
0
41
1
10
10.3368562665044
20
0.22498071617818
30
0
41
1
10
10.3054967608598
20
0.23564015636083
30
0
41
1
10
10.2739045598557
20
0.24433803045315
30
0
0
SPLINE
5
D2
100
AcDbEntity
8
1
62
256
6
ByLayer
370
18
48
1
60
0
100
AcDbSpline
70
4
71
3
72
16
73
12
40
0
40
0
40
0
40
0
40
0.0517235387678674
40
0.0517235387678674
40
0.275098677522024
40
0.275098677522024
40
0.500660612380065
40
0.500660612380065
40
0.740399911602612
40
0.740399911602612
40
1
40
1
40
1
40
1
41
1
10
12.9955768895952
20
-1.1356810583398
30
0
41
1
10
13.0023126525051
20
-1.13173214496922
30
0
41
1
10
13.0089132100844
20
-1.127540684688
30
0
41
1
10
13.0429215049886
20
-1.10421229858349
30
0
41
1
10
13.067814066225
20
-1.08077794144168
30
0
41
1
10
13.1087337148404
20
-1.02869709081807
30
0
41
1
10
13.1252135093438
20
-0.999355109704055
30
0
41
1
10
13.1490799914639
20
-0.937144227337626
30
0
41
1
10
13.1561625753256
20
-0.903403851029765
30
0
41
1
10
13.1602113511054
20
-0.834687207618487
30
0
41
1
10
13.1563795299009
20
-0.799001225803067
30
0
41
1
10
13.1474510335849
20
-0.765652337978594
30
0
0
SPLINE
5
D3
100
AcDbEntity
8
1
62
256
6
ByLayer
370
18
48
1
60
0
100
AcDbSpline
70
4
71
3
72
16
73
12
40
0
40
0
40
0
40
0
40
0.066077751410912
40
0.066077751410912
40
0.289232858199908
40
0.289232858199908
40
0.515409129607319
40
0.515409129607319
40
0.756439127791378
40
0.756439127791378
40
1
40
1
40
1
40
1
41
1
10
13.9685
20
0.5625
30
0
41
1
10
13.9685
20
0.572458606744107
30
0
41
1
10
13.9680478629074
20
0.582429696291712
30
0
41
1
10
13.964129393051
20
0.625589151498787
30
0
41
1
10
13.9558767148613
20
0.658684332454868
30
0
41
1
10
13.9305022667635
20
0.71980625649897
30
0
41
1
10
13.9129646817672
20
0.74854571425422
30
0
41
1
10
13.8703125238603
20
0.799878298583877
30
0
41
1
10
13.8442704937159
20
0.822609502604337
30
0
41
1
10
13.7881096630202
20
0.858542539367704
30
0
41
1
10
13.757361712608
20
0.872053829164656
30
0
41
1
10
13.7260954401444
20
0.880661969546821
30
0
0
SPLINE
5
D4
100
AcDbEntity
8
1
62
256
6
ByLayer
370
18
48
1
60
0
100
AcDbSpline
70
4
71
3
72
10
73
6
40
0
40
0
40
0
40
0
40
0.479736826236773
40
0.479736826236773
40
1
40
1
40
1
40
1
41
1
10
12.1527412933765
20
1.97023793629981
30
0
41
1
10
12.2365282379028
20
1.9860034407665
30
0
41
1
10
12.3168655563164
20
2.01495021911282
30
0
41
1
10
12.4652196064295
20
2.0938736945042
30
0
41
1
10
12.5341233557971
20
2.14645618459517
30
0
41
1
10
12.5921177041672
20
2.20608262808875
30
0
0
SPLINE
5
D5
100
AcDbEntity
8
1
62
256
6
ByLayer
370
18
48
1
60
0
100
AcDbSpline
70
4
71
3
72
16
73
12
40
0
40
0
40
0
40
0
40
0.0517235387678665
40
0.0517235387678665
40
0.275098677522024
40
0.275098677522024
40
0.500660612380066
40
0.500660612380066
40
0.740399911602614
40
0.740399911602614
40
1
40
1
40
1
40
1
41
1
10
11.0044231104048
20
2.26068105833977
30
0
41
1
10
10.9976873474949
20
2.25673214496919
30
0
41
1
10
10.9910867899157
20
2.25254068468797
30
0
41
1
10
10.9570784950114
20
2.22921229858349
30
0
41
1
10
10.932185933775
20
2.20577794144168
30
0
41
1
10
10.8912662851597
20
2.15369709081804
30
0
41
1
10
10.8747864906562
20
2.12435510970403
30
0
41
1
10
10.8509200085361
20
2.0621442273376
30
0
41
1
10
10.8438374246744
20
2.02840385102974
30
0
41
1
10
10.8397886488947
20
1.95968720761846
30
0
41
1
10
10.8436204700992
20
1.92400122580304
30
0
41
1
10
10.8525489664152
20
1.89065233797856
30
0
0
LINE
5
73
100
AcDbEntity
8
80
62
256
6
ByLayer
370
18
48
1
60
0
100
AcDbLine
10
0
20
0
30
0
11
-5
21
0
31
0
39
0
210
0
220
0
230
1
0
LINE
5
74
100
AcDbEntity
8
81
62
256
6
ByLayer
370
18
48
1
60
0
100
AcDbLine
10
30.5
20
-6.9375
30
0
11
35.5
21
-6.9375
31
0
39
0
210
0
220
0
230
1
0
LINE
5
75
100
AcDbEntity
8
1
62
256
6
ByLayer
370
18
48
1
60
0
100
AcDbLine
10
0.5
20
-6.3125
30
0
11
0
21
-5.8125
31
0
39
0
210
0
220
0
230
1
0
LINE
5
77
100
AcDbEntity
8
1
62
256
6
ByLayer
370
18
48
1
60
0
100
AcDbLine
10
0.5
20
6.064682
30
0
11
2.382343
21
6.095334
31
0
39
0
210
0
220
0
230
1
0
LINE
5
78
100
AcDbEntity
8
1
62
256
6
ByLayer
370
18
48
1
60
0
100
AcDbLine
10
2.382343
20
-6.6875
30
0
11
2.382343
21
6.095334
31
0
39
0
210
0
220
0
230
1
0
LINE
5
79
100
AcDbEntity
8
1
62
256
6
ByLayer
370
18
48
1
60
0
100
AcDbLine
10
15.139764
20
-6.6875
30
0
11
23.755042
21
-6.6875
31
0
39
0
210
0
220
0
230
1
0
LINE
5
7A
100
AcDbEntity
8
1
62
256
6
ByLayer
370
18
48
1
60
0
100
AcDbLine
10
0.600481
20
-6.6875
30
0
11
0.5
21
-6.3125
31
0
39
0
210
0
220
0
230
1
0
LINE
5
7B
100
AcDbEntity
8
1
62
256
6
ByLayer
370
18
48
1
60
0
100
AcDbLine
10
2.382343
20
6.095334
30
0
11
17
21
6.095334
31
0
39
0
210
0
220
0
230
1
0
LINE
5
7C
100
AcDbEntity
8
1
62
256
6
ByLayer
370
18
48
1
60
0
100
AcDbLine
10
15.139764
20
-6.6875
30
0
11
2.382343
21
-6.6875
31
0
39
0
210
0
220
0
230
1
0
LINE
5
7D
100
AcDbEntity
8
1
62
256
6
ByLayer
370
18
48
1
60
0
100
AcDbLine
10
0
20
-5.8125
30
0
11
0
21
6.0625
31
0
39
0
210
0
220
0
230
1
0
LINE
5
7E
100
AcDbEntity
8
1
62
256
6
ByLayer
370
18
48
1
60
0
100
AcDbLine
10
0.5
20
6.064682
30
0
11
0
21
6.0625
31
0
39
0
210
0
220
0
230
1
0
LINE
5
7F
100
AcDbEntity
8
1
62
256
6
ByLayer
370
18
48
1
60
0
100
AcDbLine
10
18.6
20
-5.1875
30
0
11
23.755042
21
-5.1875
31
0
39
0
210
0
220
0
230
1
0
LINE
5
80
100
AcDbEntity
8
1
62
256
6
ByLayer
370
18
48
1
60
0
100
AcDbLine
10
17
20
-3.5875
30
0
11
15.139764
21
-3.5875
31
0
39
0
210
0
220
0
230
1
0
LINE
5
81
100
AcDbEntity
8
1
62
256
6
ByLayer
370
18
48
1
60
0
100
AcDbLine
10
0.5
20
-6.3125
30
0
11
0.5
21
6.064682
31
0
39
0
210
0
220
0
230
1
0
LINE
5
82
100
AcDbEntity
8
1
62
256
6
ByLayer
370
18
48
1
60
0
100
AcDbLine
10
0.600481
20
-6.6875
30
0
11
2.382343
21
-6.6875
31
0
39
0
210
0
220
0
230
1
0
LINE
5
83
100
AcDbEntity
8
1
62
256
6
ByLayer
370
18
48
1
60
0
100
AcDbLine
10
15.139764
20
-3.5875
30
0
11
15.139764
21
-6.6875
31
0
39
0
210
0
220
0
230
1
0
LINE
5
84
100
AcDbEntity
8
1
62
256
6
ByLayer
370
18
48
1
60
0
100
AcDbLine
10
17
20
-3.5875
30
0
11
17
21
6.095334
31
0
39
0
210
0
220
0
230
1
0
LINE
5
85
100
AcDbEntity
8
1
62
256
6
ByLayer
370
18
48
1
60
0
100
AcDbLine
10
24.645796
20
-6.7375
30
0
11
25.7
21
-6.7375
31
0
39
0
210
0
220
0
230
1
0
LINE
5
86
100
AcDbEntity
8
1
62
256
6
ByLayer
370
18
48
1
60
0
100
AcDbLine
10
18.203229
20
-5.1375
30
0
11
24.645796
21
-5.1375
31
0
39
0
210
0
220
0
230
1
0
LINE
5
87
100
AcDbEntity
8
1
62
256
6
ByLayer
370
18
48
1
60
0
100
AcDbLine
10
24.801935
20
-5.76649
30
0
11
23.958218
21
-5.76649
31
0
39
0
210
0
220
0
230
1
0
LINE
5
88
100
AcDbEntity
8
1
62
256
6
ByLayer
370
18
48
1
60
0
100
AcDbLine
10
24.654842
20
-5.362354
30
0
11
23.82673
21
-5.362354
31
0
39
0
210
0
220
0
230
1
0
LINE
5
89
100
AcDbEntity
8
1
62
256
6
ByLayer
370
18
48
1
60
0
100
AcDbLine
10
30.5
20
-5.1375
30
0
11
30.5
21
-6.7375
31
0
39
0
210
0
220
0
230
1
0
LINE
5
8A
100
AcDbEntity
8
1
62
256
6
ByLayer
370
18
48
1
60
0
100
AcDbLine
10
24.645796
20
-6.563949
30
0
11
23.805754
21
-6.563949
31
0
39
0
210
0
220
0
230
1
0
LINE
5
8B
100
AcDbEntity
8
1
62
256
6
ByLayer
370
18
48
1
60
0
100
AcDbLine
10
27.5
20
-5.05956
30
0
11
30.291276
21
-4.93769
31
0
39
0
210
0
220
0
230
1
0
LINE
5
8C
100
AcDbEntity
8
1
62
256
6
ByLayer
370
18
48
1
60
0
100
AcDbLine
10
15.3
20
-6.7375
30
0
11
15.3
21
-6.6875
31
0
39
0
210
0
220
0
230
1
0
LINE
5
8D
100
AcDbEntity
8
1
62
256
6
ByLayer
370
18
48
1
60
0
100
AcDbLine
10
16.354204
20
-6.7375
30
0
11
15.3
21
-6.7375
31
0
39
0
210
0
220
0
230
1
0
LINE
5
8E
100
AcDbEntity
8
1
62
256
6
ByLayer
370
18
48
1
60
0
100
AcDbLine
10
27.5
20
-6.81544
30
0
11
30.291276
21
-6.93731
31
0
39
0
210
0
220
0
230
1
0
LINE
5
8F
100
AcDbEntity
8
1
62
256
6
ByLayer
370
18
48
1
60
0
100
AcDbLine
10
16.354204
20
-6.687498
30
0
11
16.354204
21
-6.7375
31
0
39
0
210
0
220
0
230
1
0
LINE
5
90
100
AcDbEntity
8
1
62
256
6
ByLayer
370
18
48
1
60
0
100
AcDbLine
10
27.285862
20
-5.1375
30
0
11
27.5
21
-5.05956
31
0
39
0
210
0
220
0
230
1
0
LINE
5
91
100
AcDbEntity
8
1
62
256
6
ByLayer
370
18
48
1
60
0
100
AcDbLine
10
10.5
20
-6.6875
30
0
11
10.5
21
-6.7375
31
0
39
0
210
0
220
0
230
1
0
LINE
5
92
100
AcDbEntity
8
1
62
256
6
ByLayer
370
18
48
1
60
0
100
AcDbLine
10
13.714138
20
-6.7375
30
0
11
13.5
21
-6.81544
31
0
39
0
210
0
220
0
230
1
0
LINE
5
93
100
AcDbEntity
8
1
62
256
6
ByLayer
370
18
48
1
60
0
100
AcDbLine
10
24.801935
20
-6.10851
30
0
11
24.654842
21
-6.512646
31
0
39
0
210
0
220
0
230
1
0
LINE
5
94
100
AcDbEntity
8
1
62
256
6
ByLayer
370
18
48
1
60
0
100
AcDbLine
10
27.285862
20
-5.1375
30
0
11
25.7
21
-5.1375
31
0
39
0
210
0
220
0
230
1
0
LINE
5
95
100
AcDbEntity
8
1
62
256
6
ByLayer
370
18
48
1
60
0
100
AcDbLine
10
24.654842
20
-6.512646
30
0
11
23.82673
21
-6.512646
31
0
39
0
210
0
220
0
230
1
0
LINE
5
96
100
AcDbEntity
8
1
62
256
6
ByLayer
370
18
48
1
60
0
100
AcDbLine
10
25.7
20
-6.7375
30
0
11
25.7
21
-5.1375
31
0
39
0
210
0
220
0
230
1
0
LINE
5
97
100
AcDbEntity
8
1
62
256
6
ByLayer
370
18
48
1
60
0
100
AcDbLine
10
13.714138
20
-6.7375
30
0
11
15.3
21
-6.7375
31
0
39
0
210
0
220
0
230
1
0
LINE
5
98
100
AcDbEntity
8
1
62
256
6
ByLayer
370
18
48
1
60
0
100
AcDbLine
10
24.801935
20
-6.10851
30
0
11
23.963999
21
-6.10851
31
0
39
0
210
0
220
0
230
1
0
LINE
5
99
100
AcDbEntity
8
1
62
256
6
ByLayer
370
18
48
1
60
0
100
AcDbLine
10
24.645796
20
-5.1375
30
0
11
25.7
21
-5.1375
31
0
39
0
210
0
220
0
230
1
0
LINE
5
9A
100
AcDbEntity
8
1
62
256
6
ByLayer
370
18
48
1
60
0
100
AcDbLine
10
16.354204
20
-6.7375
30
0
11
24.645796
21
-6.7375
31
0
39
0
210
0
220
0
230
1
0
LINE
5
9B
100
AcDbEntity
8
1
62
256
6
ByLayer
370
18
48
1
60
0
100
AcDbLine
10
27.285862
20
-6.7375
30
0
11
25.7
21
-6.7375
31
0
39
0
210
0
220
0
230
1
0
LINE
5
9C
100
AcDbEntity
8
1
62
256
6
ByLayer
370
18
48
1
60
0
100
AcDbLine
10
13.5
20
-6.81544
30
0
11
10.708724
21
-6.93731
31
0
39
0
210
0
220
0
230
1
0
LINE
5
9D
100
AcDbEntity
8
1
62
256
6
ByLayer
370
18
48
1
60
0
100
AcDbLine
10
24.801935
20
-5.76649
30
0
11
24.654842
21
-5.362354
31
0
39
0
210
0
220
0
230
1
0
LINE
5
9E
100
AcDbEntity
8
1
62
256
6
ByLayer
370
18
48
1
60
0
100
AcDbLine
10
24.645796
20
-5.311051
30
0
11
24.645796
21
-5.1375
31
0
39
0
210
0
220
0
230
1
0
LINE
5
9F
100
AcDbEntity
8
1
62
256
6
ByLayer
370
18
48
1
60
0
100
AcDbLine
10
24.645796
20
-5.311051
30
0
11
23.805754
21
-5.311051
31
0
39
0
210
0
220
0
230
1
0
LINE
5
A0
100
AcDbEntity
8
1
62
256
6
ByLayer
370
18
48
1
60
0
100
AcDbLine
10
27.285862
20
-6.7375
30
0
11
27.5
21
-6.81544
31
0
39
0
210
0
220
0
230
1
0
LINE
5
A1
100
AcDbEntity
8
1
62
256
6
ByLayer
370
18
48
1
60
0
100
AcDbLine
10
24.645796
20
-6.563949
30
0
11
24.645796
21
-6.7375
31
0
39
0
210
0
220
0
230
1
0
LINE
5
A2
100
AcDbEntity
8
SK1
62
256
6
ByLayer
370
18
48
1
60
0
100
AcDbLine
10
-95.85
20
-5.8125
30
0
11
-95.85
21
6.0625
31
0
39
0
210
0
220
0
230
1
0
LINE
5
A4
100
AcDbEntity
8
SK1
62
256
6
ByLayer
370
18
48
1
60
0
100
AcDbLine
10
0
20
-5.8125
30
0
11
-95.85
21
-5.8125
31
0
39
0
210
0
220
0
230
1
0
LINE
5
A5
100
AcDbEntity
8
SK1
62
256
6
ByLayer
370
18
48
1
60
0
100
AcDbLine
10
-95.85
20
6.0625
30
0
11
0
21
6.0625
31
0
39
0
210
0
220
0
230
1
0
LINE
5
A6
100
AcDbEntity
8
SK1
62
256
6
ByLayer
370
18
48
1
60
0
100
AcDbLine
10
0
20
-5.8125
30
0
11
0
21
6.0625
31
0
39
0
210
0
220
0
230
1
0
MTEXT
5
D6
100
AcDbEntity
8
SK6
62
256
6
ByLayer
370
18
48
1
60
0
100
AcDbMText
10
-61.799987
20
-17.796083
30
0
210
0
220
0
230
1
1
\W0.6999;LF123E12-1212B
40
3.5
41
0
44
1.084337
50
0
71
7
72
5
7
iso_b_vert
0
DIMENSION
5
E7
100
AcDbEntity
8
2
62
256
6
ByLayer
370
13
48
1
60
0
100
AcDbDimension
2
DimnDraft3D1
10
44.75
20
-4.9375
30
0
11
44.75
21
-0.4375
31
0
70
32
71
5
72
1
41
1
210
0
220
0
230
1
3
Standard
100
AcDbAlignedDimension
13
32
23
-6.9375
33
0
14
32
24
-4.9375
34
0
50
90
100
AcDbRotatedDimension
1001
ACAD
1000
DSTYLE
1002
{
1070
    74
1070
     0
1070
   279
1070
     0
1070
   172
1070
     1
1070
   173
1070
     1
1070
   340
1005
D7
1070
   271
1070
     3
1070
   272
1070
     3
1070
    77
1070
     1
1070
    73
1070
     0
1070
   171
1070
     4
1070
   274
1070
     4
1070
   177
1070
     2
1070
   176
1070
     2
1070
   178
1070
     7
1070
    78
1070
     8
1070
    41
1041
3.0
1070
   147
1041
2.25
1070
    42
1041
1.5
1070
    44
1041
3.0
1070
   140
1041
4.5
1070
   343
1005
E8
1070
   344
1005
E8
1002
}
0
DIMENSION
5
FC
100
AcDbEntity
8
2
62
256
6
ByLayer
370
13
48
1
60
0
100
AcDbDimension
2
DimnDraft3D2
10
54.75
20
5.9375
30
0
11
54.75
21
-2.625658
31
0
70
32
71
5
72
1
41
1
210
0
220
0
230
1
3
Standard
100
AcDbAlignedDimension
13
32
23
-6.9375
33
0
14
1.5
24
5.9375
34
0
50
90
100
AcDbRotatedDimension
1001
ACAD
1000
DSTYLE
1002
{
1070
    74
1070
     0
1070
   279
1070
     0
1070
   172
1070
     1
1070
   173
1070
     1
1070
   340
1005
D7
1070
   271
1070
     3
1070
   272
1070
     3
1070
    77
1070
     1
1070
    73
1070
     0
1070
   171
1070
     4
1070
   274
1070
     4
1070
   177
1070
     2
1070
   176
1070
     2
1070
   178
1070
     7
1070
    78
1070
     8
1070
    41
1041
3.0
1070
   147
1041
2.25
1070
    42
1041
1.5
1070
    44
1041
3.0
1070
   140
1041
4.5
1070
   343
1005
E8
1070
   344
1005
E8
1002
}
0
DIMENSION
5
10B
100
AcDbEntity
8
SK2
62
256
6
ByLayer
370
13
48
1
60
0
100
AcDbDimension
2
DimnDraft3D3
10
-105.6
20
-5.9375
30
0
11
-105.6
21
-2.125658
31
0
70
32
71
5
72
1
41
1
210
0
220
0
230
1
3
Standard
100
AcDbAlignedDimension
13
-97.35
23
5.9375
33
0
14
-97.35
24
-5.9375
34
0
50
90
100
AcDbRotatedDimension
1001
ACAD
1000
DSTYLE
1002
{
1070
    74
1070
     0
1070
   279
1070
     0
1070
   172
1070
     1
1070
   173
1070
     1
1070
   340
1005
D7
1070
   271
1070
     3
1070
   272
1070
     3
1070
    77
1070
     1
1070
    73
1070
     0
1070
   171
1070
     4
1070
   274
1070
     4
1070
   177
1070
     2
1070
   176
1070
     2
1070
   178
1070
     7
1070
    78
1070
     8
1070
    41
1041
3.0
1070
   147
1041
2.25
1070
    42
1041
1.5
1070
    44
1041
3.0
1070
   140
1041
4.5
1070
   343
1005
E8
1070
   344
1005
E8
1002
}
0
DIMENSION
5
119
100
AcDbEntity
8
2
62
256
6
ByLayer
370
13
48
1
60
0
100
AcDbDimension
2
DimnDraft3D4
10
18.5
20
-20.1875
30
0
11
22.374342
21
-20.1875
31
0
70
32
71
5
72
1
41
1
210
0
220
0
230
1
3
Standard
100
AcDbAlignedDimension
13
30.5
23
-7.4375
33
0
14
18.5
24
-5.5625
34
0
50
0
100
AcDbRotatedDimension
1001
ACAD
1000
DSTYLE
1002
{
1070
   279
1070
     0
1070
   172
1070
     1
1070
   173
1070
     1
1070
   340
1005
D7
1070
   271
1070
     3
1070
   272
1070
     3
1070
    77
1070
     1
1070
    73
1070
     0
1070
   171
1070
     4
1070
   274
1070
     4
1070
   177
1070
     2
1070
   176
1070
     2
1070
   178
1070
     7
1070
    78
1070
     8
1070
    41
1041
3.0
1070
   147
1041
2.25
1070
    42
1041
1.5
1070
    44
1041
3.0
1070
   140
1041
4.5
1070
   343
1005
E8
1070
   344
1005
E8
1002
}
0
DIMENSION
5
127
100
AcDbEntity
8
2
62
256
6
ByLayer
370
13
48
1
60
0
100
AcDbDimension
2
DimnDraft3D5
10
0
20
16.8125
30
0
11
9.968421
21
16.8125
31
0
70
32
71
5
72
1
41
1
210
0
220
0
230
1
3
Standard
100
AcDbAlignedDimension
13
30.5
23
-3.4375
33
0
14
0
24
7.4375
34
0
50
0
100
AcDbRotatedDimension
1001
ACAD
1000
DSTYLE
1002
{
1070
   279
1070
     0
1070
   172
1070
     1
1070
   173
1070
     1
1070
   340
1005
D7
1070
   271
1070
     3
1070
   272
1070
     3
1070
    77
1070
     1
1070
    73
1070
     0
1070
   171
1070
     4
1070
   274
1070
     4
1070
   177
1070
     2
1070
   176
1070
     2
1070
   178
1070
     7
1070
    78
1070
     8
1070
    41
1041
3.0
1070
   147
1041
2.25
1070
    42
1041
1.5
1070
    44
1041
3.0
1070
   140
1041
4.5
1070
   343
1005
E8
1070
   344
1005
E8
1002
}
0
DIMENSION
5
135
100
AcDbEntity
8
SK2
62
256
6
ByLayer
370
13
48
1
60
0
100
AcDbDimension
2
DimnDraft3D6
10
-95.85
20
26.8125
30
0
11
-36.482237
21
26.8125
31
0
70
32
71
5
72
1
41
1
210
0
220
0
230
1
3
Standard
100
AcDbAlignedDimension
13
30.5
23
-3.4375
33
0
14
-95.85
24
7.4375
34
0
50
0
100
AcDbRotatedDimension
1001
ACAD
1000
DSTYLE
1002
{
1070
   279
1070
     0
1070
   172
1070
     1
1070
   173
1070
     1
1070
   340
1005
D7
1070
   271
1070
     3
1070
   272
1070
     3
1070
    77
1070
     1
1070
    73
1070
     0
1070
   171
1070
     4
1070
   274
1070
     4
1070
   177
1070
     2
1070
   176
1070
     2
1070
   178
1070
     7
1070
    78
1070
     8
1070
    41
1041
3.0
1070
   147
1041
2.25
1070
    42
1041
1.5
1070
    44
1041
3.0
1070
   140
1041
4.5
1070
   343
1005
E8
1070
   344
1005
E8
1002
}
0
ENDSEC
0
SECTION
2
OBJECTS
0
DICTIONARY
5
19f
330
0
100
AcDbDictionary
280
0
281
1
3
ACAD_GROUP
350
1a0
3
ACAD_MLINESTYLE
350
1a1
0
DICTIONARY
5
1a0
330
0
100
AcDbDictionary
280
0
281
1
0
DICTIONARY
5
1a1
330
0
100
AcDbDictionary
280
0
281
1
3
Standard
350
18
0
MLINESTYLE
5
18
330
1a1
100
AcDbMlineStyle
2
Standard
70
0
3

62
256
51
90
52
90
71
2
49
-0.5
62
256
6
ByLayer
49
0.5
62
256
6
ByLayer
0
RASTERVARIABLES
5
18e
330

100
AcDbRasterVariables
90
0
70
1
71
1
72
1
0
ENDSEC
0
EOF
