0
SECTION
2
HEADER
9
$ACADVER
1
AC1015
9
$DWGCODEPAGE
3
ANSI_1252
9
$HANDSEED
5
1eb
9
$ANGBASE
50
0
9
$ANGDIR
70
0
9
$ATTMODE
70
1
9
$AUNITS
70
0
9
$AUPREC
70
0
9
$CECOLOR
62
256
9
$CELTSCALE
40
1
9
$CELTYPE
6
ByLayer
9
$CELWEIGHT
370
18
9
$CLAYER
8
0
9
$CMLJUST
70
0
9
$CMLSCALE
40
1
9
$CMLSTYLE
2
Standard
9
$DIMSTYLE
2
Standard
9
$TEXTSIZE
40
0.2
9
$TEXTSTYLE
7
Standard
9
$LUNITS
70
2
9
$LUPREC
70
4
9
$EXTNAMES
290
1
9
$INSUNITS
70
4
9
$LTSCALE
40
1
9
$LWDISPLAY
290
1
9
$PDMODE
70
0
9
$PDSIZE
40
0
9
$PLINEGEN
70
0
0
ENDSEC
0
SECTION
2
CLASSES
0
CLASS
1
RASTERVARIABLES
2
AcDbRasterVariables
3
ISM
90
0
280
0
281
0
0
ENDSEC
0
SECTION
2
TABLES
0
TABLE
2
VPORT
5
1e1
100
AcDbSymbolTable
0
VPORT
5
1
100
AcDbSymbolTableRecord
100
AcDbViewportTableRecord
2
*Active
70
0
10
0
20
0
11
1
21
1
12
-1
22
1
13
0
23
0
14
0.5
24
0.5
15
10
25
10
16
0
26
0
36
1
17
0
27
0
37
0
0
ENDTAB
0
TABLE
2
LTYPE
5
1e2
100
AcDbSymbolTable
0
LTYPE
5
14
100
AcDbSymbolTableRecord
100
AcDbLinetypeTableRecord
70
0
2
ByBlock
3

72
65
73
0
40
0
0
LTYPE
5
15
100
AcDbSymbolTableRecord
100
AcDbLinetypeTableRecord
70
0
2
ByLayer
3

72
65
73
0
40
0
0
LTYPE
5
16
100
AcDbSymbolTableRecord
100
AcDbLinetypeTableRecord
70
0
2
CONTINUOUS
3
Solid line
72
65
73
0
40
0
0
LTYPE
5
6A
100
AcDbSymbolTableRecord
100
AcDbLinetypeTableRecord
70
0
2
CENTER
3
____ _ ____ _ ____ _ ____
72
65
73
4
40
47.5
49
22
74
0
49
-8.5
74
0
49
8.5
74
0
49
-8.5
74
0
0
LTYPE
5
6B
100
AcDbSymbolTableRecord
100
AcDbLinetypeTableRecord
70
0
2
DASHED
3
__ __ __ __ __ __ __ __ __
72
65
73
2
40
25.72
49
12.86
74
0
49
-12.86
74
0
0
ENDTAB
0
TABLE
2
LAYER
5
1e3
100
AcDbSymbolTable
0
LAYER
5
10
100
AcDbSymbolTableRecord
100
AcDbLayerTableRecord
2
0
70
0
62
7
6
CONTINUOUS
290
1
370
-3
390
0
0
LAYER
5
6D
100
AcDbSymbolTableRecord
100
AcDbLayerTableRecord
2
81
70
0
62
-3
6
CONTINUOUS
290
1
370
-3
390
0
0
LAYER
5
6F
100
AcDbSymbolTableRecord
100
AcDbLayerTableRecord
2
80
70
0
62
-6
6
CONTINUOUS
290
1
370
-3
390
0
0
LAYER
5
71
100
AcDbSymbolTableRecord
100
AcDbLayerTableRecord
2
2
70
0
62
7
6
CONTINUOUS
290
1
370
-3
390
0
0
LAYER
5
73
100
AcDbSymbolTableRecord
100
AcDbLayerTableRecord
2
4
70
0
62
-2
6
CENTER
290
1
370
-3
390
0
0
LAYER
5
75
100
AcDbSymbolTableRecord
100
AcDbLayerTableRecord
2
1
70
0
62
4
6
CONTINUOUS
290
1
370
-3
390
0
0
LAYER
5
1ce
100
AcDbSymbolTableRecord
100
AcDbLayerTableRecord
2
SK1
70
0
62
4
6
CONTINUOUS
290
1
370
-3
390
0
0
LAYER
5
1cf
100
AcDbSymbolTableRecord
100
AcDbLayerTableRecord
2
SK6
70
0
62
5
6
CONTINUOUS
290
1
370
-3
390
0
0
LAYER
5
1d0
100
AcDbSymbolTableRecord
100
AcDbLayerTableRecord
2
SK2
70
0
62
7
6
CONTINUOUS
290
1
370
-3
390
0
0
ENDTAB
0
TABLE
2
STYLE
5
1e4
100
AcDbSymbolTable
0
STYLE
5
11
100
AcDbSymbolTableRecord
100
AcDbTextStyleTableRecord
2
Standard
3
txt
70
0
71
0
40
0
41
1
42
0
50
0
0
STYLE
5
116
100
AcDbSymbolTableRecord
100
AcDbTextStyleTableRecord
2
iso_b_vert
3
simplex.shx
70
0
71
0
40
0
41
1
42
0
50
0
0
STYLE
5
117
100
AcDbSymbolTableRecord
100
AcDbTextStyleTableRecord
2
DWGDirectTextStyle
3
simplex
70
0
71
0
40
0
41
1
42
0
50
0
0
ENDTAB
0
TABLE
2
DIMSTYLE
5
1e5
100
AcDbSymbolTable
100
AcDbDimStyleTable
0
DIMSTYLE
105
27
100
AcDbSymbolTableRecord
100
AcDbDimStyleTableRecord
2
Standard
70
0
3
<>
41
0.18
42
0.0625
44
0.18
140
0.18
147
0.09
73
0
74
0
77
1
271
2
275
0
278
52
280
0
340
11
0
ENDTAB
0
TABLE
2
VIEW
5
1e6
100
AcDbSymbolTable
0
ENDTAB
0
TABLE
2
UCS
5
1e7
100
AcDbSymbolTable
0
ENDTAB
0
TABLE
2
APPID
5
1e8
100
AcDbSymbolTable
0
APPID
5
12
100
AcDbSymbolTableRecord
100
AcDbRegAppTableRecord
2
ACAD
70
0
0
ENDTAB
0
TABLE
2
BLOCK_RECORD
5
1e9
100
AcDbSymbolTable
0
BLOCK_RECORD
5
1F
100
AcDbSymbolTableRecord
100
AcDbBlockTableRecord
2
*Model_Space
340
0
70
0
0
BLOCK_RECORD
5
1B
100
AcDbSymbolTableRecord
100
AcDbBlockTableRecord
2
*Paper_Space
340
0
70
0
0
BLOCK_RECORD
5
23
100
AcDbSymbolTableRecord
100
AcDbBlockTableRecord
2
*Paper_Space0
340
0
70
0
0
BLOCK_RECORD
5
119
100
AcDbSymbolTableRecord
100
AcDbBlockTableRecord
2
DimnDraft3D1
340
0
70
0
0
BLOCK_RECORD
5
128
100
AcDbSymbolTableRecord
100
AcDbBlockTableRecord
2
_CLOSED
340
0
70
0
0
BLOCK_RECORD
5
12F
100
AcDbSymbolTableRecord
100
AcDbBlockTableRecord
2
DimnDraft3D2
340
0
70
0
0
BLOCK_RECORD
5
13D
100
AcDbSymbolTableRecord
100
AcDbBlockTableRecord
2
DimnDraft3D3
340
0
70
0
0
BLOCK_RECORD
5
14B
100
AcDbSymbolTableRecord
100
AcDbBlockTableRecord
2
DimnDraft3D4
340
0
70
0
0
BLOCK_RECORD
5
159
100
AcDbSymbolTableRecord
100
AcDbBlockTableRecord
2
DimnDraft3D5
340
0
70
0
0
BLOCK_RECORD
5
167
100
AcDbSymbolTableRecord
100
AcDbBlockTableRecord
2
DimnDraft3D6
340
0
70
0
0
ENDTAB
0
ENDSEC
0
SECTION
2
BLOCKS
0
BLOCK
5
20
100
AcDbEntity
8
0
100
AcDbBlockBegin
2
*Model_Space
70
0
10
0
20
0
30
0
3
*Model_Space
0
ENDBLK
5
21
100
AcDbEntity
8
0
100
AcDbBlockEnd
0
BLOCK
5
1C
100
AcDbEntity
8
0
100
AcDbBlockBegin
2
*Paper_Space
70
0
10
0
20
0
30
0
3
*Paper_Space
0
ENDBLK
5
1D
100
AcDbEntity
8
0
100
AcDbBlockEnd
0
BLOCK
5
24
100
AcDbEntity
8
0
100
AcDbBlockBegin
2
*Paper_Space0
70
0
10
0
20
0
30
0
3
*Paper_Space0
0
ENDBLK
5
25
100
AcDbEntity
8
0
100
AcDbBlockEnd
0
BLOCK
5
125
100
AcDbEntity
8
0
100
AcDbBlockBegin
2
DimnDraft3D1
70
0
10
0
20
0
30
0
3
DimnDraft3D1
0
MTEXT
5
11A
100
AcDbEntity
8
SK2
62
256
6
ByLayer
370
18
48
1
60
0
100
AcDbMText
10
-113.275
20
-3.494079
30
0
210
0
220
0
230
1
1
\W0.6563;16.0
40
4.5
41
0
44
1.084337
50
90
71
7
72
5
7
iso_b_vert
0
LINE
5
11C
100
AcDbEntity
8
SK2
62
256
6
ByLayer
370
13
48
1
60
0
100
AcDbLine
10
-103.9
20
8.1
30
0
11
-115.15
21
8.1
31
0
39
0
210
0
220
0
230
1
0
LINE
5
11D
100
AcDbEntity
8
SK2
62
256
6
ByLayer
370
13
48
1
60
0
100
AcDbLine
10
-103.9
20
-7.9
30
0
11
-115.15
21
-7.9
31
0
39
0
210
0
220
0
230
1
0
LINE
5
11E
100
AcDbEntity
8
SK2
62
256
6
ByLayer
370
13
48
1
60
0
100
AcDbLine
10
-112.15
20
19.35
30
0
11
-112.15
21
-19.15
31
0
39
0
210
0
220
0
230
1
0
LINE
5
11F
100
AcDbEntity
8
SK2
62
256
6
ByLayer
370
13
48
1
60
0
100
AcDbLine
10
-112.15
20
8.1
30
0
11
-112.544957
21
11.099999
31
0
39
0
210
0
220
0
230
1
0
LINE
5
120
100
AcDbEntity
8
SK2
62
256
6
ByLayer
370
13
48
1
60
0
100
AcDbLine
10
-112.15
20
8.1
30
0
11
-111.755043
21
11.100001
31
0
39
0
210
0
220
0
230
1
0
LINE
5
121
100
AcDbEntity
8
SK2
62
256
6
ByLayer
370
13
48
1
60
0
100
AcDbLine
10
-112.544957
20
11.099999
30
0
11
-111.755043
21
11.100001
31
0
39
0
210
0
220
0
230
1
0
LINE
5
122
100
AcDbEntity
8
SK2
62
256
6
ByLayer
370
13
48
1
60
0
100
AcDbLine
10
-112.15
20
-7.9
30
0
11
-111.755043
21
-10.899999
31
0
39
0
210
0
220
0
230
1
0
LINE
5
123
100
AcDbEntity
8
SK2
62
256
6
ByLayer
370
13
48
1
60
0
100
AcDbLine
10
-112.15
20
-7.9
30
0
11
-112.544957
21
-10.900001
31
0
39
0
210
0
220
0
230
1
0
LINE
5
124
100
AcDbEntity
8
SK2
62
256
6
ByLayer
370
13
48
1
60
0
100
AcDbLine
10
-111.755043
20
-10.899999
30
0
11
-112.544957
21
-10.900001
31
0
39
0
210
0
220
0
230
1
0
ENDBLK
5
126
100
AcDbEntity
8
0
100
AcDbBlockEnd
0
BLOCK
5
129
100
AcDbEntity
8
0
100
AcDbBlockBegin
2
_CLOSED
70
0
10
0
20
0
30
0
3
_CLOSED
0
LINE
5
12B
100
AcDbEntity
8
0
62
256
6
ByLayer
370
-2
48
1
60
0
100
AcDbLine
10
-1
20
0.166667
30
0
11
0
21
0
31
0
39
0
210
0
220
0
230
1
0
LINE
5
12C
100
AcDbEntity
8
0
62
256
6
ByLayer
370
-2
48
1
60
0
100
AcDbLine
10
0
20
0
30
0
11
-1
21
-0.166667
31
0
39
0
210
0
220
0
230
1
0
LINE
5
12D
100
AcDbEntity
8
0
62
256
6
ByLayer
370
-2
48
1
60
0
100
AcDbLine
10
-1
20
0.166667
30
0
11
-1
21
-0.166667
31
0
39
0
210
0
220
0
230
1
0
LINE
5
12E
100
AcDbEntity
8
0
62
256
6
ByLayer
370
-2
48
1
60
0
100
AcDbLine
10
0
20
0
30
0
11
-1
21
0
31
0
39
0
210
0
220
0
230
1
0
ENDBLK
5
12A
100
AcDbEntity
8
0
100
AcDbBlockEnd
0
BLOCK
5
13A
100
AcDbEntity
8
0
100
AcDbBlockBegin
2
DimnDraft3D2
70
0
10
0
20
0
30
0
3
DimnDraft3D2
0
MTEXT
5
130
100
AcDbEntity
8
2
62
256
6
ByLayer
370
18
48
1
60
0
100
AcDbMText
10
35.725
20
-24.475
30
0
210
0
220
0
230
1
1
\W0.7121;2.0
40
4.5
41
0
44
1.084337
50
90
71
7
72
5
7
iso_b_vert
0
LINE
5
131
100
AcDbEntity
8
2
62
256
6
ByLayer
370
13
48
1
60
0
100
AcDbLine
10
24.1
20
-7.9
30
0
11
39.85
21
-7.9
31
0
39
0
210
0
220
0
230
1
0
LINE
5
132
100
AcDbEntity
8
2
62
256
6
ByLayer
370
13
48
1
60
0
100
AcDbLine
10
24.1
20
-5.9
30
0
11
39.85
21
-5.9
31
0
39
0
210
0
220
0
230
1
0
LINE
5
133
100
AcDbEntity
8
2
62
256
6
ByLayer
370
13
48
1
60
0
100
AcDbLine
10
36.85
20
5.35
30
0
11
36.85
21
-25.6
31
0
39
0
210
0
220
0
230
1
0
LINE
5
134
100
AcDbEntity
8
2
62
256
6
ByLayer
370
13
48
1
60
0
100
AcDbLine
10
36.85
20
-7.9
30
0
11
37.244957
21
-10.899999
31
0
39
0
210
0
220
0
230
1
0
LINE
5
135
100
AcDbEntity
8
2
62
256
6
ByLayer
370
13
48
1
60
0
100
AcDbLine
10
36.85
20
-7.9
30
0
11
36.455043
21
-10.900001
31
0
39
0
210
0
220
0
230
1
0
LINE
5
136
100
AcDbEntity
8
2
62
256
6
ByLayer
370
13
48
1
60
0
100
AcDbLine
10
37.244957
20
-10.899999
30
0
11
36.455043
21
-10.900001
31
0
39
0
210
0
220
0
230
1
0
LINE
5
137
100
AcDbEntity
8
2
62
256
6
ByLayer
370
13
48
1
60
0
100
AcDbLine
10
36.85
20
-5.9
30
0
11
36.455043
21
-2.900001
31
0
39
0
210
0
220
0
230
1
0
LINE
5
138
100
AcDbEntity
8
2
62
256
6
ByLayer
370
13
48
1
60
0
100
AcDbLine
10
36.85
20
-5.9
30
0
11
37.244957
21
-2.899999
31
0
39
0
210
0
220
0
230
1
0
LINE
5
139
100
AcDbEntity
8
2
62
256
6
ByLayer
370
13
48
1
60
0
100
AcDbLine
10
36.455043
20
-2.900001
30
0
11
37.244957
21
-2.899999
31
0
39
0
210
0
220
0
230
1
0
ENDBLK
5
13B
100
AcDbEntity
8
0
100
AcDbBlockEnd
0
BLOCK
5
148
100
AcDbEntity
8
0
100
AcDbBlockBegin
2
DimnDraft3D3
70
0
10
0
20
0
30
0
3
DimnDraft3D3
0
MTEXT
5
13E
100
AcDbEntity
8
2
62
256
6
ByLayer
370
18
48
1
60
0
100
AcDbMText
10
45.725
20
0.1
30
0
210
0
220
0
230
1
1
\W0.6563;16.0
40
4.5
41
0
44
1.084337
50
90
71
8
72
5
7
iso_b_vert
0
LINE
5
13F
100
AcDbEntity
8
2
62
256
6
ByLayer
370
13
48
1
60
0
100
AcDbLine
10
24.1
20
-7.9
30
0
11
49.85
21
-7.9
31
0
39
0
210
0
220
0
230
1
0
LINE
5
140
100
AcDbEntity
8
2
62
256
6
ByLayer
370
13
48
1
60
0
100
AcDbLine
10
1.5
20
8.1
30
0
11
49.85
21
8.1
31
0
39
0
210
0
220
0
230
1
0
LINE
5
141
100
AcDbEntity
8
2
62
256
6
ByLayer
370
13
48
1
60
0
100
AcDbLine
10
46.85
20
-19.15
30
0
11
46.85
21
19.35
31
0
39
0
210
0
220
0
230
1
0
LINE
5
142
100
AcDbEntity
8
2
62
256
6
ByLayer
370
13
48
1
60
0
100
AcDbLine
10
46.85
20
-7.9
30
0
11
47.244957
21
-10.899999
31
0
39
0
210
0
220
0
230
1
0
LINE
5
143
100
AcDbEntity
8
2
62
256
6
ByLayer
370
13
48
1
60
0
100
AcDbLine
10
46.85
20
-7.9
30
0
11
46.455043
21
-10.900001
31
0
39
0
210
0
220
0
230
1
0
LINE
5
144
100
AcDbEntity
8
2
62
256
6
ByLayer
370
13
48
1
60
0
100
AcDbLine
10
47.244957
20
-10.899999
30
0
11
46.455043
21
-10.900001
31
0
39
0
210
0
220
0
230
1
0
LINE
5
145
100
AcDbEntity
8
2
62
256
6
ByLayer
370
13
48
1
60
0
100
AcDbLine
10
46.85
20
8.1
30
0
11
46.455043
21
11.099999
31
0
39
0
210
0
220
0
230
1
0
LINE
5
146
100
AcDbEntity
8
2
62
256
6
ByLayer
370
13
48
1
60
0
100
AcDbLine
10
46.85
20
8.1
30
0
11
47.244957
21
11.100001
31
0
39
0
210
0
220
0
230
1
0
LINE
5
147
100
AcDbEntity
8
2
62
256
6
ByLayer
370
13
48
1
60
0
100
AcDbLine
10
46.455043
20
11.099999
30
0
11
47.244957
21
11.100001
31
0
39
0
210
0
220
0
230
1
0
ENDBLK
5
149
100
AcDbEntity
8
0
100
AcDbBlockEnd
0
BLOCK
5
156
100
AcDbEntity
8
0
100
AcDbBlockBegin
2
DimnDraft3D4
70
0
10
0
20
0
30
0
3
DimnDraft3D4
0
MTEXT
5
14C
100
AcDbEntity
8
SK2
62
256
6
ByLayer
370
18
48
1
60
0
100
AcDbMText
10
-45.175658
20
-31.025
30
0
210
0
220
0
230
1
1
\W0.6864;125.0
40
4.5
41
0
44
1.084337
50
0
71
7
72
5
7
iso_b_vert
0
LINE
5
14D
100
AcDbEntity
8
SK2
62
256
6
ByLayer
370
13
48
1
60
0
100
AcDbLine
10
-102.4
20
-9.4
30
0
11
-102.4
21
-35.15
31
0
39
0
210
0
220
0
230
1
0
LINE
5
14E
100
AcDbEntity
8
SK2
62
256
6
ByLayer
370
13
48
1
60
0
100
AcDbLine
10
22.6
20
-9.4
30
0
11
22.6
21
-35.15
31
0
39
0
210
0
220
0
230
1
0
LINE
5
14F
100
AcDbEntity
8
SK2
62
256
6
ByLayer
370
13
48
1
60
0
100
AcDbLine
10
-102.4
20
-32.15
30
0
11
22.6
21
-32.15
31
0
39
0
210
0
220
0
230
1
0
LINE
5
150
100
AcDbEntity
8
SK2
62
256
6
ByLayer
370
13
48
1
60
0
100
AcDbLine
10
-102.4
20
-32.15
30
0
11
-99.400001
21
-31.755043
31
0
39
0
210
0
220
0
230
1
0
LINE
5
151
100
AcDbEntity
8
SK2
62
256
6
ByLayer
370
13
48
1
60
0
100
AcDbLine
10
-102.4
20
-32.15
30
0
11
-99.399999
21
-32.544957
31
0
39
0
210
0
220
0
230
1
0
LINE
5
152
100
AcDbEntity
8
SK2
62
256
6
ByLayer
370
13
48
1
60
0
100
AcDbLine
10
-99.400001
20
-31.755043
30
0
11
-99.399999
21
-32.544957
31
0
39
0
210
0
220
0
230
1
0
LINE
5
153
100
AcDbEntity
8
SK2
62
256
6
ByLayer
370
13
48
1
60
0
100
AcDbLine
10
22.6
20
-32.15
30
0
11
19.600001
21
-32.544957
31
0
39
0
210
0
220
0
230
1
0
LINE
5
154
100
AcDbEntity
8
SK2
62
256
6
ByLayer
370
13
48
1
60
0
100
AcDbLine
10
22.6
20
-32.15
30
0
11
19.599999
21
-31.755043
31
0
39
0
210
0
220
0
230
1
0
LINE
5
155
100
AcDbEntity
8
SK2
62
256
6
ByLayer
370
13
48
1
60
0
100
AcDbLine
10
19.600001
20
-32.544957
30
0
11
19.599999
21
-31.755043
31
0
39
0
210
0
220
0
230
1
0
ENDBLK
5
157
100
AcDbEntity
8
0
100
AcDbBlockEnd
0
BLOCK
5
164
100
AcDbEntity
8
0
100
AcDbBlockBegin
2
DimnDraft3D5
70
0
10
0
20
0
30
0
3
DimnDraft3D5
0
MTEXT
5
15A
100
AcDbEntity
8
2
62
256
6
ByLayer
370
18
48
1
60
0
100
AcDbMText
10
7.143421
20
-21.025
30
0
210
0
220
0
230
1
1
\W0.7346;22.6
40
4.5
41
0
44
1.084337
50
0
71
7
72
5
7
iso_b_vert
0
LINE
5
15B
100
AcDbEntity
8
2
62
256
6
ByLayer
370
13
48
1
60
0
100
AcDbLine
10
22.6
20
-9.4
30
0
11
22.6
21
-25.15
31
0
39
0
210
0
220
0
230
1
0
LINE
5
15C
100
AcDbEntity
8
2
62
256
6
ByLayer
370
13
48
1
60
0
100
AcDbLine
10
0
20
-9.4
30
0
11
0
21
-25.15
31
0
39
0
210
0
220
0
230
1
0
LINE
5
15D
100
AcDbEntity
8
2
62
256
6
ByLayer
370
13
48
1
60
0
100
AcDbLine
10
22.6
20
-22.15
30
0
11
0
21
-22.15
31
0
39
0
210
0
220
0
230
1
0
LINE
5
15E
100
AcDbEntity
8
2
62
256
6
ByLayer
370
13
48
1
60
0
100
AcDbLine
10
22.6
20
-22.15
30
0
11
19.600001
21
-22.544957
31
0
39
0
210
0
220
0
230
1
0
LINE
5
15F
100
AcDbEntity
8
2
62
256
6
ByLayer
370
13
48
1
60
0
100
AcDbLine
10
22.6
20
-22.15
30
0
11
19.599999
21
-21.755043
31
0
39
0
210
0
220
0
230
1
0
LINE
5
160
100
AcDbEntity
8
2
62
256
6
ByLayer
370
13
48
1
60
0
100
AcDbLine
10
19.600001
20
-22.544957
30
0
11
19.599999
21
-21.755043
31
0
39
0
210
0
220
0
230
1
0
LINE
5
161
100
AcDbEntity
8
2
62
256
6
ByLayer
370
13
48
1
60
0
100
AcDbLine
10
0
20
-22.15
30
0
11
2.999999
21
-21.755043
31
0
39
0
210
0
220
0
230
1
0
LINE
5
162
100
AcDbEntity
8
2
62
256
6
ByLayer
370
13
48
1
60
0
100
AcDbLine
10
0
20
-22.15
30
0
11
3.000001
21
-22.544957
31
0
39
0
210
0
220
0
230
1
0
LINE
5
163
100
AcDbEntity
8
2
62
256
6
ByLayer
370
13
48
1
60
0
100
AcDbLine
10
2.999999
20
-21.755043
30
0
11
3.000001
21
-22.544957
31
0
39
0
210
0
220
0
230
1
0
ENDBLK
5
165
100
AcDbEntity
8
0
100
AcDbBlockEnd
0
BLOCK
5
172
100
AcDbEntity
8
0
100
AcDbBlockBegin
2
DimnDraft3D6
70
0
10
0
20
0
30
0
3
DimnDraft3D6
0
MTEXT
5
168
100
AcDbEntity
8
2
62
256
6
ByLayer
370
18
48
1
60
0
100
AcDbMText
10
37.256579
20
18.975
30
0
210
0
220
0
230
1
1
\W0.5779;11.0
40
4.5
41
0
44
1.084337
50
0
71
8
72
5
7
iso_b_vert
0
LINE
5
169
100
AcDbEntity
8
2
62
256
6
ByLayer
370
13
48
1
60
0
100
AcDbLine
10
22.6
20
-4.4
30
0
11
22.6
21
20.85
31
0
39
0
210
0
220
0
230
1
0
LINE
5
16A
100
AcDbEntity
8
2
62
256
6
ByLayer
370
13
48
1
60
0
100
AcDbLine
10
11.6
20
9.6
30
0
11
11.6
21
20.85
31
0
39
0
210
0
220
0
230
1
0
LINE
5
16B
100
AcDbEntity
8
2
62
256
6
ByLayer
370
13
48
1
60
0
100
AcDbLine
10
11.6
20
17.85
30
0
11
41.413158
21
17.85
31
0
39
0
210
0
220
0
230
1
0
LINE
5
16C
100
AcDbEntity
8
2
62
256
6
ByLayer
370
13
48
1
60
0
100
AcDbLine
10
22.6
20
17.85
30
0
11
19.600001
21
17.455043
31
0
39
0
210
0
220
0
230
1
0
LINE
5
16D
100
AcDbEntity
8
2
62
256
6
ByLayer
370
13
48
1
60
0
100
AcDbLine
10
22.6
20
17.85
30
0
11
19.599999
21
18.244957
31
0
39
0
210
0
220
0
230
1
0
LINE
5
16E
100
AcDbEntity
8
2
62
256
6
ByLayer
370
13
48
1
60
0
100
AcDbLine
10
19.600001
20
17.455043
30
0
11
19.599999
21
18.244957
31
0
39
0
210
0
220
0
230
1
0
LINE
5
16F
100
AcDbEntity
8
2
62
256
6
ByLayer
370
13
48
1
60
0
100
AcDbLine
10
11.6
20
17.85
30
0
11
14.599999
21
18.244957
31
0
39
0
210
0
220
0
230
1
0
LINE
5
170
100
AcDbEntity
8
2
62
256
6
ByLayer
370
13
48
1
60
0
100
AcDbLine
10
11.6
20
17.85
30
0
11
14.600001
21
17.455043
31
0
39
0
210
0
220
0
230
1
0
LINE
5
171
100
AcDbEntity
8
2
62
256
6
ByLayer
370
13
48
1
60
0
100
AcDbLine
10
14.599999
20
18.244957
30
0
11
14.600001
21
17.455043
31
0
39
0
210
0
220
0
230
1
0
ENDBLK
5
173
100
AcDbEntity
8
0
100
AcDbBlockEnd
0
ENDSEC
0
SECTION
2
ENTITIES
0
ELLIPSE
5
CB
100
AcDbEntity
8
1
62
256
6
ByLayer
370
18
48
1
60
0
100
AcDbEllipse
10
8.059843
20
0.7
30
0
11
-3.4031852585558E-15
21
-3.175
31
0
210
0
220
0
230
1
40
0.927184
41
0.0108499403372893
42
1.05886091958698
0
ELLIPSE
5
CC
100
AcDbEntity
8
1
62
256
6
ByLayer
370
18
48
1
60
0
100
AcDbEllipse
10
8.123562
20
0.7
30
0
11
-3.4031852585558E-15
21
-3.175
31
0
210
0
220
0
230
1
40
0.927184
41
-0.577210434412221
42
1.00997071848982
0
ELLIPSE
5
CD
100
AcDbEntity
8
1
62
256
6
ByLayer
370
18
48
1
60
0
100
AcDbEllipse
10
9.364186
20
0.7
30
0
11
4.19437608314677
21
0
31
0
210
0
220
0
230
1
40
0.901606
41
2.47677347073796
42
3.06786004015761
0
ELLIPSE
5
CE
100
AcDbEntity
8
1
62
256
6
ByLayer
370
18
48
1
60
0
100
AcDbEllipse
10
9.364186
20
0.7
30
0
11
4.19437608314677
21
0
31
0
210
0
220
0
230
1
40
0.901606
41
-3.06786004015761
42
-2.47677347073797
0
ELLIPSE
5
CF
100
AcDbEntity
8
1
62
256
6
ByLayer
370
18
48
1
60
0
100
AcDbEllipse
10
8.385786
20
0.7
30
0
11
3.42434780800133
21
0
31
0
210
0
220
0
230
1
40
0.927184
41
2.14800676120712
42
2.31622622467297
0
ELLIPSE
5
D0
100
AcDbEntity
8
1
62
256
6
ByLayer
370
18
48
1
60
0
100
AcDbEllipse
10
10.283473
20
0.700004
30
0
11
-4.20082253188877E-07
21
3.17499520759345
31
0
210
0
220
0
230
1
40
0.123837
41
-1.05886149211315
42
-1.00997123252326
0
ELLIPSE
5
D1
100
AcDbEntity
8
1
62
256
6
ByLayer
370
18
48
1
60
0
100
AcDbEllipse
10
11.388657
20
-5.7
30
0
11
9.3716267385292E-16
21
0.799999999999914
31
0
210
0
220
0
230
1
40
0.965288
41
1.5707963267949
42
3.14159265358979
0
ELLIPSE
5
D2
100
AcDbEntity
8
1
62
256
6
ByLayer
370
18
48
1
60
0
100
AcDbEllipse
10
10.283473
20
0.699996
30
0
11
-4.23061755257503E-07
21
-3.17499517361234
31
0
210
0
220
0
230
1
40
0.123837
41
1.00997123617559
42
1.05886149618002
0
ELLIPSE
5
D3
100
AcDbEntity
8
1
62
256
6
ByLayer
370
18
48
1
60
0
100
AcDbEllipse
10
8.652733
20
-5.7
30
0
11
2.13557373004321
21
0
31
0
210
0
220
0
230
1
40
0.374607
41
3.14159265358979
42
-1.57079632679491
0
ELLIPSE
5
D4
100
AcDbEntity
8
1
62
256
6
ByLayer
370
18
48
1
60
0
100
AcDbEllipse
10
8.385786
20
0.7
30
0
11
3.42434780800133
21
0
31
0
210
0
220
0
230
1
40
0.927184
41
-2.31622622467297
42
-2.14800676120712
0
ELLIPSE
5
D5
100
AcDbEntity
8
1
62
256
6
ByLayer
370
18
48
1
60
0
100
AcDbEllipse
10
8.059843
20
0.7
30
0
11
-3.4031852585558E-15
21
-3.175
31
0
210
0
220
0
230
1
40
0.927184
41
2.08273173400281
42
3.1307427132525
0
ELLIPSE
5
D6
100
AcDbEntity
8
1
62
256
6
ByLayer
370
18
48
1
60
0
100
AcDbEllipse
10
8.123562
20
0.7
30
0
11
-3.4031852585558E-15
21
-3.175
31
0
210
0
220
0
230
1
40
0.927184
41
2.13162193509997
42
-2.56438221917757
0
ELLIPSE
5
D7
100
AcDbEntity
8
1
62
256
6
ByLayer
370
18
48
1
60
0
100
AcDbEllipse
10
11.528144
20
-5.7
30
0
11
-0.566886212732675
21
0.577894872638445
31
0
210
0
220
0
230
1
40
0.975869
41
0.807221472709082
42
2.37801779950312
0
ELLIPSE
5
D8
100
AcDbEntity
8
1
62
256
6
ByLayer
370
18
48
1
60
0
100
AcDbEllipse
10
22.400274
20
-6.35
30
0
11
-2.14373874554696E-16
21
-0.2
31
0
210
0
220
0
230
1
40
0.99863
41
1.5707963267949
42
-3.0979594223051
0
ELLIPSE
5
D9
100
AcDbEntity
8
1
62
256
6
ByLayer
370
18
48
1
60
0
100
AcDbEllipse
10
16.368951
20
-7.15
30
0
11
-0.525482745492065
21
1.23115703707242E-15
31
0
210
0
220
0
230
1
40
0.951506
41
2.79252680319307
42
-2.79252680319306
0
ELLIPSE
5
DA
100
AcDbEntity
8
1
62
256
6
ByLayer
370
18
48
1
60
0
100
AcDbEllipse
10
22.400274
20
-7.95
30
0
11
2.34290668463255E-16
21
0.2
31
0
210
0
220
0
230
1
40
0.99863
41
3.0979594223051
42
-1.5707963267949
0
ELLIPSE
5
DB
100
AcDbEntity
8
1
62
256
6
ByLayer
370
18
48
1
60
0
100
AcDbEllipse
10
16.856291
20
-7.776449
30
0
11
-0.157644820497082
21
-2.53875510741147E-10
31
0
210
0
220
0
230
1
40
0.951506
41
-0.3490658554575
42
1.7626138459386E-09
0
ELLIPSE
5
DC
100
AcDbEntity
8
1
62
256
6
ByLayer
370
18
48
1
60
0
100
AcDbEllipse
10
2.827135
20
-7.95
30
0
11
-2.14373874554696E-16
21
-0.2
31
0
210
0
220
0
230
1
40
0.99863
41
-1.31811043292327
42
0.0436332312846977
0
ELLIPSE
5
DD
100
AcDbEntity
8
1
62
256
6
ByLayer
370
18
48
1
60
0
100
AcDbEllipse
10
16.856291
20
-6.523551
30
0
11
-0.157644820497191
21
2.53692617497357E-10
31
0
210
0
220
0
230
1
40
0.951506
41
0
42
0.349065855456267
0
ELLIPSE
5
DE
100
AcDbEntity
8
1
62
256
6
ByLayer
370
18
48
1
60
0
100
AcDbEllipse
10
22.599592
20
-16.249482
30
0
11
-0.788514081652324
21
-25.3019387712927
31
0
210
0
220
0
230
1
40
0.465309
41
-1.99670067217897
42
-1.98632829217107
0
ELLIPSE
5
DF
100
AcDbEntity
8
1
62
256
6
ByLayer
370
18
48
1
60
0
100
AcDbEllipse
10
7.950739
20
0.7
30
0
11
3.51436002694883E-15
21
3
31
0
210
0
220
0
230
1
40
0.927184
41
0
42
-3.1415924756172
0
ELLIPSE
5
E0
100
AcDbEntity
8
1
62
256
6
ByLayer
370
18
48
1
60
0
100
AcDbEllipse
10
8.100582
20
0.7
30
0
11
3.51436002694883E-15
21
3
31
0
210
0
220
0
230
1
40
0.927184
41
0
42
-2.86964854178686
0
ELLIPSE
5
E1
100
AcDbEntity
8
1
62
256
6
ByLayer
370
18
48
1
60
0
100
AcDbEllipse
10
8.175503
20
0.7
30
0
11
3.28006935848557E-15
21
2.8
31
0
210
0
220
0
230
1
40
0.927184
41
0
42
6.28318530717959
0
ELLIPSE
5
E2
100
AcDbEntity
8
1
62
256
6
ByLayer
370
18
48
1
60
0
100
AcDbEllipse
10
7.351368
20
-1.18456
30
0
11
8.03616992828965E-16
21
0.686
31
0
210
0
220
0
230
1
40
0.927184
41
0.121614041216867
42
0.183295313254357
0
ELLIPSE
5
E3
100
AcDbEntity
8
1
62
256
6
ByLayer
370
18
48
1
60
0
100
AcDbEllipse
10
7.996311
20
-0.497076
30
0
11
3.42064375956352E-16
21
0.292
31
0
210
0
220
0
230
1
40
0.927184
41
-1.69684708887387
42
-1.30900918493172
0
ELLIPSE
5
E4
100
AcDbEntity
8
1
62
256
6
ByLayer
370
18
48
1
60
0
100
AcDbEllipse
10
8.872202
20
-0.243962
30
0
11
8.03616992828965E-16
21
0.686
31
0
210
0
220
0
230
1
40
0.927184
41
0.264602181416455
42
1.04859282503726
0
ELLIPSE
5
E5
100
AcDbEntity
8
1
62
256
6
ByLayer
370
18
48
1
60
0
100
AcDbEllipse
10
8.872202
20
-0.243962
30
0
11
8.03616992828965E-16
21
0.686
31
0
210
0
220
0
230
1
40
0.927184
41
1.04859282503726
42
1.83258346865807
0
ELLIPSE
5
E6
100
AcDbEntity
8
1
62
256
6
ByLayer
370
18
48
1
60
0
100
AcDbEllipse
10
8.635054
20
0.7
30
0
11
3.42064375956352E-16
21
0.292
31
0
210
0
220
0
230
1
40
0.927184
41
-2.87699047217327
42
-0.264602181416521
0
ELLIPSE
5
E7
100
AcDbEntity
8
1
62
256
6
ByLayer
370
18
48
1
60
0
100
AcDbEllipse
10
8.872202
20
1.643962
30
0
11
8.03616992828965E-16
21
0.686
31
0
210
0
220
0
230
1
40
0.927184
41
1.30900918493172
42
2.09299982855253
0
ELLIPSE
5
E8
100
AcDbEntity
8
1
62
256
6
ByLayer
370
18
48
1
60
0
100
AcDbEllipse
10
8.872202
20
1.643962
30
0
11
8.03616992828965E-16
21
0.686
31
0
210
0
220
0
230
1
40
0.927184
41
2.09299982855253
42
2.87699047217334
0
ELLIPSE
5
E9
100
AcDbEntity
8
1
62
256
6
ByLayer
370
18
48
1
60
0
100
AcDbEllipse
10
8.073852
20
0.7
30
0
11
-1.29321039825121E-15
21
-1.2065
31
0
210
0
220
0
230
1
40
0.927184
41
3.0725600201779
42
-3.07256002017788
0
ELLIPSE
5
EA
100
AcDbEntity
8
1
62
256
6
ByLayer
370
18
48
1
60
0
100
AcDbEllipse
10
8.073852
20
0.7
30
0
11
-1.29321039825121E-15
21
-1.2065
31
0
210
0
220
0
230
1
40
0.927184
41
-0.0690326334119086
42
0.0690326334118952
0
ELLIPSE
5
EB
100
AcDbEntity
8
1
62
256
6
ByLayer
370
18
48
1
60
0
100
AcDbEllipse
10
8.175503
20
0.7
30
0
11
-1.79698900345474E-15
21
-1.6765
31
0
210
0
220
0
230
1
40
0.927184
41
-1.5707963267949
42
-0.526389323279638
0
ELLIPSE
5
EC
100
AcDbEntity
8
1
62
256
6
ByLayer
370
18
48
1
60
0
100
AcDbEllipse
10
7.089144
20
0.7
30
0
11
-1.29321039825121E-15
21
-1.2065
31
0
210
0
220
0
230
1
40
0.927184
41
0.130867049978243
42
3.01013690553591
0
ELLIPSE
5
ED
100
AcDbEntity
8
1
62
256
6
ByLayer
370
18
48
1
60
0
100
AcDbEllipse
10
7.351368
20
0.7
30
0
11
-1.29321039825121E-15
21
-1.2065
31
0
210
0
220
0
230
1
40
0.927184
41
2.09299982855253
42
3.07256002017788
0
ELLIPSE
5
EE
100
AcDbEntity
8
1
62
256
6
ByLayer
370
18
48
1
60
0
100
AcDbEllipse
10
7.351368
20
0.7
30
0
11
-1.29321039825121E-15
21
-1.2065
31
0
210
0
220
0
230
1
40
0.927184
41
1.04859282503726
42
2.09299982855253
0
ELLIPSE
5
EF
100
AcDbEntity
8
1
62
256
6
ByLayer
370
18
48
1
60
0
100
AcDbEllipse
10
7.351368
20
0.7
30
0
11
-1.29321039825121E-15
21
-1.2065
31
0
210
0
220
0
230
1
40
0.927184
41
0.0690326334119091
42
1.04859282503726
0
ELLIPSE
5
F0
100
AcDbEntity
8
1
62
256
6
ByLayer
370
18
48
1
60
0
100
AcDbEllipse
10
7.351368
20
0.7
30
0
11
-1.29321039825121E-15
21
-1.2065
31
0
210
0
220
0
230
1
40
0.927184
41
-0.105567191452851
42
-0.0690326334119086
0
ELLIPSE
5
F1
100
AcDbEntity
8
1
62
256
6
ByLayer
370
18
48
1
60
0
100
AcDbEllipse
10
7.996311
20
1.897076
30
0
11
3.42064375956352E-16
21
0.292
31
0
210
0
220
0
230
1
40
0.927184
41
-1.83258346865807
42
-1.44700144809285
0
ELLIPSE
5
F2
100
AcDbEntity
8
1
62
256
6
ByLayer
370
18
48
1
60
0
100
AcDbEllipse
10
7.351368
20
2.58456
30
0
11
8.03616992828965E-16
21
0.686
31
0
210
0
220
0
230
1
40
0.927184
41
2.95960504560925
42
3.01997861237293
0
ELLIPSE
5
F3
100
AcDbEntity
8
1
62
256
6
ByLayer
370
18
48
1
60
0
100
AcDbEllipse
10
7.351368
20
0.7
30
0
11
-1.29321039825121E-15
21
-1.2065
31
0
210
0
220
0
230
1
40
0.927184
41
-3.07256002017788
42
-3.03767866489159
0
ELLIPSE
5
F4
100
AcDbEntity
8
1
62
256
6
ByLayer
370
18
48
1
60
0
100
AcDbEllipse
10
8.175503
20
0.7
30
0
11
1.96394152839324E-15
21
1.6765
31
0
210
0
220
0
230
1
40
0.927184
41
-2.61520333031017
42
-1.5707963267949
0
ELLIPSE
5
F5
100
AcDbEntity
8
1
62
256
6
ByLayer
370
18
48
1
60
0
100
AcDbEllipse
10
8.175503
20
0.7
30
0
11
1.96394152839324E-15
21
1.6765
31
0
210
0
220
0
230
1
40
0.927184
41
-1.5707963267949
42
-0.526389323279624
0
ELLIPSE
5
F6
100
AcDbEntity
8
1
62
256
6
ByLayer
370
18
48
1
60
0
100
AcDbEllipse
10
8.175503
20
0.7
30
0
11
1.96394152839324E-15
21
1.6765
31
0
210
0
220
0
230
1
40
0.927184
41
-0.526389323279624
42
0.526389323279638
0
ELLIPSE
5
F7
100
AcDbEntity
8
1
62
256
6
ByLayer
370
18
48
1
60
0
100
AcDbEllipse
10
8.175503
20
0.7
30
0
11
1.96394152839324E-15
21
1.6765
31
0
210
0
220
0
230
1
40
0.927184
41
0.526389323279637
42
1.5707963267949
0
ELLIPSE
5
F8
100
AcDbEntity
8
1
62
256
6
ByLayer
370
18
48
1
60
0
100
AcDbEllipse
10
8.175503
20
0.7
30
0
11
1.96394152839324E-15
21
1.6765
31
0
210
0
220
0
230
1
40
0.927184
41
2.61520333031016
42
-2.61520333031017
0
POINT
5
6C
100
AcDbEntity
8
81
62
256
6
ByLayer
370
18
48
1
60
0
100
AcDbPoint
10
22.6
20
-8.1
30
0
39
0
210
0
220
0
230
1
50
360
0
POINT
5
6E
100
AcDbEntity
8
80
62
256
6
ByLayer
370
18
48
1
60
0
100
AcDbPoint
10
0
20
0
30
0
39
0
210
0
220
0
230
1
50
360
0
POINT
5
70
100
AcDbEntity
8
2
62
256
6
ByLayer
370
18
48
1
60
0
100
AcDbPoint
10
22.6
20
7.25
30
0
39
0
210
0
220
0
230
1
50
360
0
POINT
5
72
100
AcDbEntity
8
4
62
256
6
ByLayer
370
13
48
1
60
0
100
AcDbPoint
10
5.999783
20
-0.7
30
0
39
0
210
0
220
0
230
1
50
360
0
SPLINE
5
F9
100
AcDbEntity
8
1
62
256
6
ByLayer
370
18
48
1
60
0
100
AcDbSpline
70
4
71
3
72
42
73
38
40
0
40
0
40
0
40
0
40
0.0263842575238275
40
0.0548934865632459
40
0.0834155623349626
40
0.111952675612013
40
0.140506238061035
40
0.169076904918842
40
0.197664651266896
40
0.226268884767059
40
0.25488857644273
40
0.283522392647008
40
0.31216881483565
40
0.34082623811388
40
0.369493043855798
40
0.398167645388189
40
0.426848508504304
40
0.455534150411332
40
0.484223121777386
40
0.512913686977098
40
0.54160417233048
40
0.570293012293337
40
0.598978532605437
40
0.627658933834368
40
0.656332293191394
40
0.684996589754665
40
0.713649757281416
40
0.742289766827377
40
0.770914738346644
40
0.799523076346612
40
0.828113619862277
40
0.856685792203649
40
0.885239732158183
40
0.913776386763274
40
0.942297547382424
40
0.970805816044141
40
1
40
1
40
1
40
1
41
1
10
8.85534101370249
20
-2.18796003262122
30
0
41
1
10
8.92366282482448
20
-2.16775499785623
30
0
41
1
10
9.06375100519364
20
-2.11996385855153
30
0
41
1
10
9.27062598192941
20
-2.02845134229412
30
0
41
1
10
9.47486920411126
20
-1.91662362930131
30
0
41
1
10
9.66991083513068
20
-1.78713371607142
30
0
41
1
10
9.85443413620874
20
-1.64094945885705
30
0
41
1
10
10.0272026017933
20
-1.47901235146764
30
0
41
1
10
10.1870517596663
20
-1.3024083173068
30
0
41
1
10
10.3329023689277
20
-1.11231390353274
30
0
41
1
10
10.4637673177144
20
-0.910001330339924
30
0
41
1
10
10.5787593800545
20
-0.696826502103221
30
0
41
1
10
10.677097707003
20
-0.474220526997641
30
0
41
1
10
10.7581134941864
20
-0.243679461656541
30
0
41
1
10
10.8212546532954
20
-0.0067539246424531
30
0
41
1
10
10.8660895394462
20
0.234961659294896
30
0
41
1
10
10.8923097665112
20
0.479839955213663
30
0
41
1
10
10.8997321690995
20
0.726231691495173
30
0
41
1
10
10.8883000060989
20
0.972475813912212
30
0
41
1
10
10.8580836946439
20
1.21691074175362
30
0
41
1
10
10.8092806412056
20
1.45788589891296
30
0
41
1
10
10.742213938661
20
1.69377343586103
30
0
41
1
10
10.657330479876
20
1.92297874717349
30
0
41
1
10
10.5551986122326
20
2.14395073877003
30
0
41
1
10
10.4365049386713
20
2.35519256023974
30
0
41
1
10
10.3020502627407
20
2.55527222206291
30
0
41
1
10
10.1527446047779
20
2.7428330176046
30
0
41
1
10
9.98960120559269
20
2.91660363138496
30
0
41
1
10
9.81372951020012
20
3.07540776804976
30
0
41
1
10
9.62632696341174
20
3.21817311227517
30
0
41
1
10
9.42867027125021
20
3.34393935244108
30
0
41
1
10
9.22210403183169
20
3.45186520393949
30
0
41
1
10
9.00803526739725
20
3.54123365774476
30
0
41
1
10
8.7879031299077
20
3.6114575410268
30
0
41
1
10
8.56323971808524
20
3.66207718741626
30
0
41
1
10
8.33353830731591
20
3.69303056052678
30
0
41
1
10
8.17905910283679
20
3.6999870751479
30
0
41
1
10
8.1005815437434
20
3.69999999999965
30
0
0
SPLINE
5
FA
100
AcDbEntity
8
1
62
256
6
ByLayer
370
18
48
1
60
0
100
AcDbSpline
70
4
71
3
72
8
73
4
40
0
40
0
40
0
40
0
40
1
40
1
40
1
40
1
41
1
10
15.9498799513891
20
-7.63035643556643
30
0
41
1
10
15.8980372653282
20
-7.75389126933595
30
0
41
1
10
15.8457731973072
20
-7.87718434728177
30
0
41
1
10
15.7927158449521
20
-7.9999999999998
30
0
0
SPLINE
5
FB
100
AcDbEntity
8
1
62
256
6
ByLayer
370
18
48
1
60
0
100
AcDbSpline
70
4
71
3
72
12
73
8
40
0
40
0
40
0
40
0
40
0.367292260733839
40
0.367292260733839
40
0.734922303957985
40
0.734922303957985
40
1
40
1
40
1
40
1
41
1
10
15.9498799513891
20
-6.86964356443315
30
0
41
1
10
15.985961595192
20
-6.95562174588957
30
0
41
1
10
16.0100076317367
20
-7.05010421876679
30
0
41
1
10
16.0299146820519
20
-7.24060593788238
30
0
41
1
10
16.0260230842774
20
-7.33924862201965
30
0
41
1
10
15.99597997168
20
-7.50113656782423
30
0
41
1
10
15.976098155032
20
-7.5678816358573
30
0
41
1
10
15.9498799513942
20
-7.63035643556853
30
0
0
SPLINE
5
FC
100
AcDbEntity
8
1
62
256
6
ByLayer
370
18
48
1
60
0
100
AcDbSpline
70
4
71
3
72
8
73
4
40
0
40
0
40
0
40
0
40
1
40
1
40
1
40
1
41
1
10
10.6262493913617
20
2.25532279591351
30
0
41
1
10
10.6289236806379
20
2.16230893836061
30
0
41
1
10
10.6314092425523
20
2.06710242279541
30
0
41
1
10
10.6336784079335
20
1.97010387057156
30
0
0
SPLINE
5
FD
100
AcDbEntity
8
1
62
256
6
ByLayer
370
18
48
1
60
0
100
AcDbSpline
70
4
71
3
72
8
73
4
40
0
40
0
40
0
40
0
40
1
40
1
40
1
40
1
41
1
10
10.6337804704338
20
-0.565321931057639
30
0
41
1
10
10.6314810505768
20
-0.664191102254989
30
0
41
1
10
10.6289603594615
20
-0.761033220395461
30
0
41
1
10
10.6262493913617
20
-0.855322795914816
30
0
0
SPLINE
5
FE
100
AcDbEntity
8
1
62
256
6
ByLayer
370
18
48
1
60
0
100
AcDbSpline
70
4
71
3
72
8
73
4
40
0
40
0
40
0
40
0
40
1
40
1
40
1
40
1
41
1
10
15.7927158449528
20
-6.50000000000148
30
0
41
1
10
15.8457731973077
20
-6.62281565271894
30
0
41
1
10
15.8980372653284
20
-6.74610873066419
30
0
41
1
10
15.9498799513891
20
-6.86964356443315
30
0
0
SPLINE
5
FF
100
AcDbEntity
8
1
62
256
6
ByLayer
370
18
48
1
60
0
100
AcDbSpline
70
4
71
3
72
16
73
12
40
0
40
0
40
0
40
0
40
0.0303601224976667
40
0.0303601224976667
40
0.324507790341896
40
0.324507790341896
40
0.608541233132068
40
0.608541233132068
40
0.91311961838661
40
0.91311961838661
40
1
40
1
40
1
40
1
41
1
10
12.362024278339
20
-6.35156820316124
30
0
41
1
10
12.356007850021
20
-6.34695952949096
30
0
41
1
10
12.3500945042919
20
-6.34225479670536
30
0
41
1
10
12.2878579630735
20
-6.29079786418299
30
0
41
1
10
12.2401576479396
20
-6.23402171495252
30
0
41
1
10
12.1711326704765
20
-6.11263924615889
30
0
41
1
10
12.1480153593038
20
-6.04690365645635
30
0
41
1
10
12.1235881196886
20
-5.90865749931166
30
0
41
1
10
12.123563680999
20
-5.83436215144127
30
0
41
1
10
12.1376239073949
20
-5.74129566626772
30
0
41
1
10
12.141669900297
20
-5.72056464574774
30
0
41
1
10
12.1465641280598
20
-5.70000000000147
30
0
0
SPLINE
5
100
100
AcDbEntity
8
1
62
256
6
ByLayer
370
18
48
1
60
0
100
AcDbSpline
70
4
71
3
72
12
73
8
40
0
40
0
40
0
40
0
40
0.0323755484303661
40
0.0323755484303661
40
0.559911354933004
40
0.559911354933004
40
1
40
1
40
1
40
1
41
1
10
22.294001348713
20
-6.15575151730195
30
0
41
1
10
22.2899876658859
20
-6.1512361241214
30
0
41
1
10
22.2859569666995
20
-6.14670158753677
30
0
41
1
10
22.2158680072266
20
-6.06785150812971
30
0
41
1
10
22.1445135266374
20
-5.98757771746691
30
0
41
1
10
22.0119449509302
20
-5.83843806979627
30
0
41
1
10
21.9501177302501
20
-5.76888244653122
30
0
41
1
10
21.8888888888905
20
-5.70000000000164
30
0
0
SPLINE
5
101
100
AcDbEntity
8
1
62
256
6
ByLayer
370
18
48
1
60
0
100
AcDbSpline
70
4
71
3
72
12
73
8
40
0
40
0
40
0
40
0
40
0.495785575728939
40
0.495785575728939
40
0.900238279923936
40
0.900238279923936
40
1
40
1
40
1
40
1
41
1
10
7.68165710202987
20
-0.702336787650438
30
0
41
1
10
7.71421807449738
20
-0.651608012956984
30
0
41
1
10
7.75652477541934
20
-0.607123351453453
30
0
41
1
10
7.85028738532992
20
-0.545160731175486
30
0
41
1
10
7.89981637672625
20
-0.523663650635712
30
0
41
1
10
7.96827575553439
20
-0.508162025965277
30
0
41
1
10
7.98233602202342
20
-0.505606579893993
30
0
41
1
10
7.99668977973079
20
-0.503626350896297
30
0
0
SPLINE
5
102
100
AcDbEntity
8
1
62
256
6
ByLayer
370
18
48
1
60
0
100
AcDbSpline
70
4
71
3
72
14
73
10
40
0
40
0
40
0
40
0
40
0.282169922576114
40
0.282169922576114
40
0.566902245317978
40
0.566902245317978
40
0.824523972080256
40
0.824523972080256
40
1
40
1
40
1
40
1
41
1
10
7.68165710202987
20
-0.702336787650438
30
0
41
1
10
7.66632167801649
20
-0.726228803479501
30
0
41
1
10
7.64607914429456
20
-0.746690953985279
30
0
41
1
10
7.59820094687657
20
-0.776427599521583
30
0
41
1
10
7.56972889440559
20
-0.786003160073136
30
0
41
1
10
7.51205476870109
20
-0.79063981766069
30
0
41
1
10
7.48229847947701
20
-0.787004868173852
30
0
41
1
10
7.43338165054945
20
-0.770838343629237
30
0
41
1
10
7.41345776887255
20
-0.761404333551155
30
0
41
1
10
7.39453747454371
20
-0.749546762837269
30
0
0
SPLINE
5
103
100
AcDbEntity
8
1
62
256
6
ByLayer
370
18
48
1
60
0
100
AcDbSpline
70
4
71
3
72
16
73
12
40
0
40
0
40
0
40
0
40
0.0569446172825067
40
0.0569446172825067
40
0.279906644834078
40
0.279906644834078
40
0.505321967306683
40
0.505321967306683
40
0.74491504712881
40
0.74491504712881
40
1
40
1
40
1
40
1
41
1
10
7.39453747454371
20
-0.749546762837269
30
0
41
1
10
7.38842616670058
20
-0.745716734422047
30
0
41
1
10
7.38239508018214
20
-0.741624426221478
30
0
41
1
10
7.35347774299015
20
-0.720458650749464
30
0
41
1
10
7.33186855372333
20
-0.699631063761927
30
0
41
1
10
7.29446677501943
20
-0.65336102380391
30
0
41
1
10
7.27824961269067
20
-0.627295361715937
30
0
41
1
10
7.25197173462101
20
-0.572061963343145
30
0
41
1
10
7.24200829581568
20
-0.542121704693528
30
0
41
1
10
7.22928775341882
20
-0.48170391695416
30
0
41
1
10
7.22685886858557
20
-0.450600734855044
30
0
41
1
10
7.22823562078759
20
-0.421504041776245
30
0
0
SPLINE
5
104
100
AcDbEntity
8
1
62
256
6
ByLayer
370
18
48
1
60
0
100
AcDbSpline
70
4
71
3
72
18
73
14
40
0
40
0
40
0
40
0
40
0.212491592102411
40
0.212491592102411
40
0.386618191488474
40
0.386618191488474
40
0.562426295050812
40
0.562426295050812
40
0.715388354469453
40
0.715388354469453
40
0.918249128147157
40
0.918249128147157
40
1
40
1
40
1
40
1
41
1
10
6.78020098142409
20
0.418162587869205
30
0
41
1
10
6.82992888021056
20
0.399601293062716
30
0
41
1
10
6.87985488400784
20
0.369618191089018
30
0
41
1
10
6.96633769484427
20
0.294403476347981
30
0
41
1
10
7.00464851856827
20
0.25191935658151
30
0
41
1
10
7.07494451377016
20
0.153454055587133
30
0
41
1
10
7.10788783980223
20
0.095763713106237
30
0
41
1
10
7.15870327135372
20
-0.0167039107129483
30
0
41
1
10
7.17859901944092
20
-0.0721907140378164
30
0
41
1
10
7.21319089874629
20
-0.198862337759266
30
0
41
1
10
7.22477193241684
20
-0.271419161560743
30
0
41
1
10
7.22946564659648
20
-0.367506572744901
30
0
41
1
10
7.22949705821293
20
-0.394844445699818
30
0
41
1
10
7.22823562078759
20
-0.421504041776217
30
0
0
SPLINE
5
105
100
AcDbEntity
8
1
62
256
6
ByLayer
370
18
48
1
60
0
100
AcDbSpline
70
4
71
3
72
14
73
10
40
0
40
0
40
0
40
0
40
0.283961457856585
40
0.283961457856585
40
0.570284934646621
40
0.570284934646621
40
0.829450869060461
40
0.829450869060461
40
1
40
1
40
1
40
1
41
1
10
6.78020098142409
20
0.418162587869205
30
0
41
1
10
6.7567105293719
20
0.42693056754095
30
0
41
1
10
6.73339756249612
20
0.441688691790489
30
0
41
1
10
6.69136606156712
20
0.482184456045985
30
0
41
1
10
6.67206647072567
20
0.508690506689845
30
0
41
1
10
6.64343590915047
20
0.567066773783523
30
0
41
1
10
6.63294203538061
20
0.599104397389254
30
0
41
1
10
6.6231054648151
20
0.654357989121308
30
0
41
1
10
6.62107913024533
20
0.677270339204057
30
0
41
1
10
6.62107913024533
20
0.699999999999648
30
0
0
SPLINE
5
106
100
AcDbEntity
8
1
62
256
6
ByLayer
370
18
48
1
60
0
100
AcDbSpline
70
4
71
3
72
16
73
12
40
0
40
0
40
0
40
0
40
0.0630415689509331
40
0.0630415689509331
40
0.285914332024977
40
0.285914332024977
40
0.511588305408897
40
0.511588305408897
40
0.751723061839377
40
0.751723061839377
40
1
40
1
40
1
40
1
41
1
10
6.62107913024533
20
0.699999999999648
30
0
41
1
10
6.62107913024533
20
0.708433653832543
30
0
41
1
10
6.62135340394366
20
0.716876968350078
30
0
41
1
10
6.62381625991742
20
0.75475379243116
30
0
41
1
10
6.62921355126801
20
0.784121608770164
30
0
41
1
10
6.64587031020068
20
0.838367789842948
30
0
41
1
10
6.65739661844609
20
0.863884549643444
30
0
41
1
10
6.68534039593266
20
0.909452916501436
30
0
41
1
10
6.7023536505755
20
0.929640568252808
30
0
41
1
10
6.73926691630604
20
0.961951448647284
30
0
41
1
10
6.75964772682079
20
0.974165762467919
30
0
41
1
10
6.78020098142406
20
0.981837412130062
30
0
0
SPLINE
5
107
100
AcDbEntity
8
1
62
256
6
ByLayer
370
18
48
1
60
0
100
AcDbSpline
70
4
71
3
72
18
73
14
40
0
40
0
40
0
40
0
40
0.212491695755299
40
0.212491695755299
40
0.386618276853802
40
0.386618276853802
40
0.562426360907929
40
0.562426360907929
40
0.715388416645932
40
0.715388416645932
40
0.918249208689865
40
0.918249208689865
40
1
40
1
40
1
40
1
41
1
10
7.22823562078759
20
1.82150404177548
30
0
41
1
10
7.23147940604639
20
1.75294891329847
30
0
41
1
10
7.22604744775691
20
1.6791850255112
30
0
41
1
10
7.19974206246064
20
1.54302215337245
30
0
41
1
10
7.18146203809653
20
1.47944876008071
30
0
41
1
10
7.13383089135996
20
1.3569055395308
30
0
41
1
10
7.1036171085243
20
1.29623246432169
30
0
41
1
10
7.04109647661738
20
1.19629574640334
30
0
41
1
10
7.00883374448136
20
1.15403177774485
30
0
41
1
10
6.93174242098132
20
1.07139670569123
30
0
41
1
10
6.8849301962822
20
1.03451809805821
30
0
41
1
10
6.8188411046396
20
0.99795067080052
30
0
41
1
10
6.79953906833015
20
0.989055491735598
30
0
41
1
10
6.78020098142409
20
0.981837412130062
30
0
0
SPLINE
5
108
100
AcDbEntity
8
1
62
256
6
ByLayer
370
18
48
1
60
0
100
AcDbSpline
70
4
71
3
72
14
73
10
40
0
40
0
40
0
40
0
40
0.28396174903671
40
0.28396174903671
40
0.570285189259024
40
0.570285189259024
40
0.829451094335675
40
0.829451094335675
40
1
40
1
40
1
40
1
41
1
10
7.22823562078759
20
1.82150404177548
30
0
41
1
10
7.22670332152296
20
1.85388811302818
30
0
41
1
10
7.22990721025505
20
1.88882554195854
30
0
41
1
10
7.24666329515577
20
1.95850421461364
30
0
41
1
10
7.26061503418643
20
1.99431482284157
30
0
41
1
10
7.29653238698299
20
2.05690846986994
30
0
41
1
10
7.31819931186297
20
2.0851437335329
30
0
41
1
10
7.35872581961914
20
2.12427613243139
30
0
41
1
10
7.37631585744958
20
2.13812706135306
30
0
41
1
10
7.39453747454371
20
2.14954676283654
30
0
0
SPLINE
5
109
100
AcDbEntity
8
1
62
256
6
ByLayer
370
18
48
1
60
0
100
AcDbSpline
70
4
71
3
72
16
73
12
40
0
40
0
40
0
40
0
40
0.0624450082613897
40
0.0624450082613897
40
0.28320799598576
40
0.28320799598576
40
0.506745688833528
40
0.506745688833528
40
0.74460728473699
40
0.74460728473699
40
1
40
1
40
1
40
1
41
1
10
7.39453747454371
20
2.14954676283654
30
0
41
1
10
7.401298487014
20
2.15378396877375
30
0
41
1
10
7.40817249213225
20
2.15770925194528
30
0
41
1
10
7.43948193420232
20
2.1738940865356
30
0
41
1
10
7.46509645255171
20
2.18241558862826
30
0
41
1
10
7.51494794169054
20
2.19038000158108
30
0
41
1
10
7.53979741261739
20
2.18983232117876
30
0
41
1
10
7.58690626744604
20
2.18018142671775
30
0
41
1
10
7.60949505149688
20
2.17044293260344
30
0
41
1
10
7.6499150168728
20
2.14276136963409
30
0
41
1
10
7.66777631063619
20
2.12396254037805
30
0
41
1
10
7.68165710202985
20
2.10233678764973
30
0
0
SPLINE
5
10A
100
AcDbEntity
8
1
62
256
6
ByLayer
370
18
48
1
60
0
100
AcDbSpline
70
4
71
3
72
12
73
8
40
0
40
0
40
0
40
0
40
0.422118641229884
40
0.422118641229884
40
0.843213633747399
40
0.843213633747399
40
1
40
1
40
1
40
1
41
1
10
7.99668977973076
20
1.90362635089556
30
0
41
1
10
7.93693838667778
20
1.91186958890955
30
0
41
1
10
7.88200929564618
20
1.93046260794094
30
0
41
1
10
7.78854132989568
20
1.98256908028085
30
0
41
1
10
7.74851749042702
20
2.01660935904235
30
0
41
1
10
7.70342936596464
20
2.07058295421354
30
0
41
1
10
7.69206711347397
20
2.08611837999527
30
0
41
1
10
7.68165710202987
20
2.10233678764971
30
0
0
SPLINE
5
10B
100
AcDbEntity
8
1
62
256
6
ByLayer
370
18
48
1
60
0
100
AcDbSpline
70
4
71
3
72
12
73
8
40
0
40
0
40
0
40
0
40
0.422118641229811
40
0.422118641229811
40
0.843213633747324
40
0.843213633747324
40
1
40
1
40
1
40
1
41
1
10
8.15101348062643
20
-0.503626350896297
30
0
41
1
10
8.21633448879527
20
-0.511869588910287
30
0
41
1
10
8.28377356075617
20
-0.530462607941672
30
0
41
1
10
8.41026035039005
20
-0.582569080281559
30
0
41
1
10
8.47105779602873
20
-0.616609359043053
30
0
41
1
10
8.54703130374179
20
-0.67058295421424
30
0
41
1
10
8.5671092001671
20
-0.686118379996003
30
0
41
1
10
8.58642346338542
20
-0.702336787650438
30
0
0
SPLINE
5
10C
100
AcDbEntity
8
1
62
256
6
ByLayer
370
18
48
1
60
0
100
AcDbSpline
70
4
71
3
72
16
73
12
40
0
40
0
40
0
40
0
40
0.0624450082614037
40
0.0624450082614037
40
0.28320799598574
40
0.28320799598574
40
0.506745688833505
40
0.506745688833505
40
0.744607284736921
40
0.744607284736921
40
1
40
1
40
1
40
1
41
1
10
8.9564682503094
20
-0.749546762837269
30
0
41
1
10
8.94970723783911
20
-0.753783968774485
30
0
41
1
10
8.94270239223394
20
-0.757709251946011
30
0
41
1
10
8.91021688764658
20
-0.77389408653633
30
0
41
1
10
8.88202834310195
20
-0.782415588628993
30
0
41
1
10
8.82411979046478
20
-0.790380001581809
30
0
41
1
10
8.79365325364051
20
-0.789832321179489
30
0
41
1
10
8.73263237750291
20
-0.780181426718485
30
0
41
1
10
8.70143113036909
20
-0.770442932604169
30
0
41
1
10
8.64139973561561
20
-0.74276136963482
30
0
41
1
10
8.61217725434858
20
-0.723962540378778
30
0
41
1
10
8.58642346338542
20
-0.702336787650438
30
0
0
SPLINE
5
10D
100
AcDbEntity
8
1
62
256
6
ByLayer
370
18
48
1
60
0
100
AcDbSpline
70
4
71
3
72
14
73
10
40
0
40
0
40
0
40
0
40
0.283961749036715
40
0.283961749036715
40
0.570285189259027
40
0.570285189259027
40
0.829451094335669
40
0.829451094335669
40
1
40
1
40
1
40
1
41
1
10
9.04114795271983
20
-0.421504041776217
30
0
41
1
10
9.05570574374514
20
-0.45388811302891
30
0
41
1
10
9.06490393432338
20
-0.488825541959301
30
0
41
1
10
9.06988943072417
20
-0.558504214614374
30
0
41
1
10
9.06558056610885
20
-0.594314822842307
30
0
41
1
10
9.04374470029347
20
-0.656908469870672
30
0
41
1
10
9.02712478664654
20
-0.685143733533636
30
0
41
1
10
8.99131515494454
20
-0.724276132432124
30
0
41
1
10
8.97468986740353
20
-0.738127061353765
30
0
41
1
10
8.9564682503094
20
-0.749546762837269
30
0
0
SPLINE
5
10E
100
AcDbEntity
8
1
62
256
6
ByLayer
370
18
48
1
60
0
100
AcDbSpline
70
4
71
3
72
18
73
14
40
0
40
0
40
0
40
0
40
0.212491695754831
40
0.212491695754831
40
0.38661827685295
40
0.38661827685295
40
0.562426360906686
40
0.562426360906686
40
0.715388416644357
40
0.715388416644357
40
0.918249208687837
40
0.918249208687837
40
1
40
1
40
1
40
1
41
1
10
9.04114795271983
20
-0.421504041776217
30
0
41
1
10
9.0103299858776
20
-0.352948913299201
30
0
41
1
10
8.98972008901455
20
-0.279185025511936
30
0
41
1
10
8.97800837676255
20
-0.143022153373181
30
0
41
1
10
8.98234191894801
20
-0.0794487600814477
30
0
41
1
10
9.01384556590997
20
0.0430944604684669
30
0
41
1
10
9.04198335112525
20
0.103767535677577
30
0
41
1
10
9.11298751939498
20
0.20370425359593
30
0
41
1
10
9.15418679266844
20
0.245968222254419
30
0
41
1
10
9.25972669965881
20
0.328603294308039
30
0
41
1
10
9.32878950907019
20
0.365481901941053
30
0
41
1
10
9.42937681797878
20
0.402049329199031
30
0
41
1
10
9.4591215172365
20
0.410944508264151
30
0
41
1
10
9.48918259208577
20
0.418162587869773
30
0
0
SPLINE
5
10F
100
AcDbEntity
8
1
62
256
6
ByLayer
370
18
48
1
60
0
100
AcDbSpline
70
4
71
3
72
16
73
12
40
0
40
0
40
0
40
0
40
0.06304156895093
40
0.06304156895093
40
0.285914332024956
40
0.285914332024956
40
0.511588305408891
40
0.511588305408891
40
0.751723061839335
40
0.751723061839335
40
1
40
1
40
1
40
1
41
1
10
9.72992659460778
20
0.699999999999619
30
0
41
1
10
9.72992659460778
20
0.691566346166724
30
0
41
1
10
9.72952148128803
20
0.683123031649188
30
0
41
1
10
9.72588256751203
20
0.645246207568107
30
0
41
1
10
9.71791125288468
20
0.615878391229103
30
0
41
1
10
9.69319743591427
20
0.561632210156318
30
0
41
1
10
9.6760540645264
20
0.536115450355794
30
0
41
1
10
9.6341982711495
20
0.49054708349783
30
0
41
1
10
9.6085725562167
20
0.470359431746459
30
0
41
1
10
9.55241619777883
20
0.438048551351983
30
0
41
1
10
9.52113264629551
20
0.425834237531348
30
0
41
1
10
9.48918259208332
20
0.418162587869205
30
0
0
SPLINE
5
110
100
AcDbEntity
8
1
62
256
6
ByLayer
370
18
48
1
60
0
100
AcDbSpline
70
4
71
3
72
14
73
10
40
0
40
0
40
0
40
0
40
0.283961457856606
40
0.283961457856606
40
0.570284934646639
40
0.570284934646639
40
0.829450869060464
40
0.829450869060464
40
1
40
1
40
1
40
1
41
1
10
9.4891825920833
20
0.981837412130062
30
0
41
1
10
9.52569852257813
20
0.973069432458317
30
0
41
1
10
9.56141355654046
20
0.958311308208778
30
0
41
1
10
9.62518663492378
20
0.917815543953282
30
0
41
1
10
9.65412910492461
20
0.891309493309421
30
0
41
1
10
9.69684116234458
20
0.832933226215744
30
0
41
1
10
9.71238205167271
20
0.800895602610012
30
0
41
1
10
9.7269355071661
20
0.74564201087793
30
0
41
1
10
9.72992659460778
20
0.72272966079521
30
0
41
1
10
9.72992659460778
20
0.699999999999619
30
0
0
SPLINE
5
111
100
AcDbEntity
8
1
62
256
6
ByLayer
370
18
48
1
60
0
100
AcDbSpline
70
4
71
3
72
18
73
14
40
0
40
0
40
0
40
0
40
0.212491592101867
40
0.212491592101867
40
0.386618191487473
40
0.386618191487473
40
0.562426295049364
40
0.562426295049364
40
0.715388354467612
40
0.715388354467612
40
0.918249128144789
40
0.918249128144789
40
1
40
1
40
1
40
1
41
1
10
9.4891825920833
20
0.981837412130062
30
0
41
1
10
9.41188052519647
20
1.00039870693655
30
0
41
1
10
9.33591267855101
20
1.03038180891025
30
0
41
1
10
9.21141276957195
20
1.10559652365129
30
0
41
1
10
9.15915545700275
20
1.14808064341776
30
0
41
1
10
9.07273194896268
20
1.24654594441213
30
0
41
1
10
9.03771261892553
20
1.30423628689303
30
0
41
1
10
8.99538071532152
20
1.41670391071222
30
0
41
1
10
8.98442150492679
20
1.47219071403708
30
0
41
1
10
8.97827820148635
20
1.59886233775853
30
0
41
1
10
8.98894774758196
20
1.67141916156001
30
0
41
1
10
9.01875225534027
20
1.76750657274505
30
0
41
1
10
9.02916351674665
20
1.79484444570079
30
0
41
1
10
9.04114795272096
20
1.82150404177801
30
0
0
SPLINE
5
112
100
AcDbEntity
8
1
62
256
6
ByLayer
370
18
48
1
60
0
100
AcDbSpline
70
4
71
3
72
12
73
8
40
0
40
0
40
0
40
0
40
0.495785575728962
40
0.495785575728962
40
0.900238279923935
40
0.900238279923935
40
1
40
1
40
1
40
1
41
1
10
8.58642346338542
20
2.10233678764973
30
0
41
1
10
8.52601131146227
20
2.05160801295625
30
0
41
1
10
8.45734413111219
20
2.00712335145272
30
0
41
1
10
8.32503572421427
20
1.94516073117475
30
0
41
1
10
8.26131837841513
20
1.92366365063498
30
0
41
1
10
8.18248722605898
20
1.90816202596454
30
0
41
1
10
8.16670519719654
20
1.90560657989326
30
0
41
1
10
8.15101348062643
20
1.90362635089556
30
0
0
SPLINE
5
113
100
AcDbEntity
8
1
62
256
6
ByLayer
370
18
48
1
60
0
100
AcDbSpline
70
4
71
3
72
14
73
10
40
0
40
0
40
0
40
0
40
0.282169922576096
40
0.282169922576096
40
0.566902245317969
40
0.566902245317969
40
0.824523972080255
40
0.824523972080255
40
1
40
1
40
1
40
1
41
1
10
8.58642346338542
20
2.10233678764973
30
0
41
1
10
8.61487611375466
20
2.1262288034788
30
0
41
1
10
8.64762801802283
20
2.14669095398455
30
0
41
1
10
8.71749097771752
20
2.17642759952085
30
0
41
1
10
8.75574394145343
20
2.1860031600724
30
0
41
1
10
8.82775789745148
20
2.19063981765996
30
0
41
1
10
8.86268740043093
20
2.18700486817312
30
0
41
1
10
8.91658253504738
20
2.1708383436285
30
0
41
1
10
8.93754795598059
20
2.16140433355042
30
0
41
1
10
8.9564682503094
20
2.14954676283654
30
0
0
SPLINE
5
114
100
AcDbEntity
8
1
62
256
6
ByLayer
370
18
48
1
60
0
100
AcDbSpline
70
4
71
3
72
16
73
12
40
0
40
0
40
0
40
0
40
0.0569446172824963
40
0.0569446172824963
40
0.279906644834064
40
0.279906644834064
40
0.505321967306648
40
0.505321967306648
40
0.744915047128762
40
0.744915047128762
40
1
40
1
40
1
40
1
41
1
10
8.9564682503094
20
2.14954676283654
30
0
41
1
10
8.96257955815253
20
2.14571673442128
30
0
41
1
10
8.96850379021822
20
2.14162442622074
30
0
41
1
10
8.99638006552368
20
2.12045865074873
30
0
41
1
10
9.01550030164847
20
2.09963106376119
30
0
41
1
10
9.0450040531228
20
2.05336102380318
30
0
41
1
10
9.05568434178176
20
2.0272953617152
30
0
41
1
10
9.06820786214649
20
1.97206196334241
30
0
41
1
10
9.06964010290898
20
1.94212170469279
30
0
41
1
10
9.06298464209669
20
1.8817039169534
30
0
41
1
10
9.05422795041574
20
1.85060073485428
30
0
41
1
10
9.04114795271983
20
1.82150404177548
30
0
0
LINE
5
74
100
AcDbEntity
8
1
62
256
6
ByLayer
370
18
48
1
60
0
100
AcDbLine
10
7.950739
20
-2.3
30
0
11
8.100582
21
-2.3
31
0
39
0
210
0
220
0
230
1
0
LINE
5
76
100
AcDbEntity
8
1
62
256
6
ByLayer
370
18
48
1
60
0
100
AcDbLine
10
8.100582
20
3.7
30
0
11
7.950739
21
3.7
31
0
39
0
210
0
220
0
230
1
0
LINE
5
77
100
AcDbEntity
8
80
62
256
6
ByLayer
370
18
48
1
60
0
100
AcDbLine
10
0
20
0
30
0
11
-5
21
0
31
0
39
0
210
0
220
0
230
1
0
LINE
5
78
100
AcDbEntity
8
81
62
256
6
ByLayer
370
18
48
1
60
0
100
AcDbLine
10
22.6
20
-8.1
30
0
11
27.6
21
-8.1
31
0
39
0
210
0
220
0
230
1
0
LINE
5
79
100
AcDbEntity
8
1
62
256
6
ByLayer
370
18
48
1
60
0
100
AcDbLine
10
0
20
-8
30
0
11
0
21
7.900397
31
0
39
0
210
0
220
0
230
1
0
LINE
5
7A
100
AcDbEntity
8
SK1
62
256
6
ByLayer
370
18
48
1
60
0
100
AcDbLine
10
-0.25
20
7.9
30
0
11
-0.25
21
-8
31
0
39
0
210
0
220
0
230
1
0
LINE
5
7C
100
AcDbEntity
8
SK1
62
256
6
ByLayer
370
18
48
1
60
0
100
AcDbLine
10
0
20
-8
30
0
11
0
21
7.900397
31
0
39
0
210
0
220
0
230
1
0
LINE
5
7D
100
AcDbEntity
8
SK1
62
256
6
ByLayer
370
18
48
1
60
0
100
AcDbLine
10
-0.25
20
-8
30
0
11
-102.4
21
-8
31
0
39
0
210
0
220
0
230
1
0
LINE
5
7E
100
AcDbEntity
8
SK1
62
256
6
ByLayer
370
18
48
1
60
0
100
AcDbLine
10
-0.25
20
-8
30
0
11
0
21
-8
31
0
39
0
210
0
220
0
230
1
0
LINE
5
7F
100
AcDbEntity
8
SK1
62
256
6
ByLayer
370
18
48
1
60
0
100
AcDbLine
10
-102.4
20
7.9
30
0
11
-0.25
21
7.9
31
0
39
0
210
0
220
0
230
1
0
LINE
5
80
100
AcDbEntity
8
SK1
62
256
6
ByLayer
370
18
48
1
60
0
100
AcDbLine
10
-102.4
20
-8
30
0
11
-102.4
21
7.9
31
0
39
0
210
0
220
0
230
1
0
LINE
5
81
100
AcDbEntity
8
SK1
62
256
6
ByLayer
370
18
48
1
60
0
100
AcDbLine
10
0
20
7.900397
30
0
11
-0.25
21
7.9
31
0
39
0
210
0
220
0
230
1
0
LINE
5
82
100
AcDbEntity
8
1
62
256
6
ByLayer
370
18
48
1
60
0
100
AcDbLine
10
5
20
-8
30
0
11
0.143063
21
-8
31
0
39
0
210
0
220
0
230
1
0
LINE
5
83
100
AcDbEntity
8
1
62
256
6
ByLayer
370
18
48
1
60
0
100
AcDbLine
10
0
20
-8
30
0
11
0.143063
21
-8
31
0
39
0
210
0
220
0
230
1
0
LINE
5
84
100
AcDbEntity
8
1
62
256
6
ByLayer
370
18
48
1
60
0
100
AcDbLine
10
10.816171
20
6.756807
30
0
11
10.816171
21
1.407833
31
0
39
0
210
0
220
0
230
1
0
LINE
5
85
100
AcDbEntity
8
1
62
256
6
ByLayer
370
18
48
1
60
0
100
AcDbLine
10
10.816171
20
-0.013558
30
0
11
10.816171
21
-5.462
31
0
39
0
210
0
220
0
230
1
0
LINE
5
86
100
AcDbEntity
8
1
62
256
6
ByLayer
370
18
48
1
60
0
100
AcDbLine
10
5
20
-8
30
0
11
5
21
7.921817
31
0
39
0
210
0
220
0
230
1
0
LINE
5
87
100
AcDbEntity
8
1
62
256
6
ByLayer
370
18
48
1
60
0
100
AcDbLine
10
5
20
7.921817
30
0
11
6.517159
21
7.921817
31
0
39
0
210
0
220
0
230
1
0
LINE
5
88
100
AcDbEntity
8
1
62
256
6
ByLayer
370
18
48
1
60
0
100
AcDbLine
10
10.816171
20
-5.462
30
0
11
10.940066
21
-5.462
31
0
39
0
210
0
220
0
230
1
0
LINE
5
89
100
AcDbEntity
8
1
62
256
6
ByLayer
370
18
48
1
60
0
100
AcDbLine
10
9.651655
20
-6.5
30
0
11
9.651655
21
-8
31
0
39
0
210
0
220
0
230
1
0
LINE
5
8A
100
AcDbEntity
8
1
62
256
6
ByLayer
370
18
48
1
60
0
100
AcDbLine
10
9.785729
20
7.916055
30
0
11
6.517159
21
7.921817
31
0
39
0
210
0
220
0
230
1
0
LINE
5
8B
100
AcDbEntity
8
1
62
256
6
ByLayer
370
18
48
1
60
0
100
AcDbLine
10
6.517159
20
-5.7
30
0
11
6.517159
21
-1.960612
31
0
39
0
210
0
220
0
230
1
0
LINE
5
8C
100
AcDbEntity
8
1
62
256
6
ByLayer
370
18
48
1
60
0
100
AcDbLine
10
0.143063
20
-8
30
0
11
0.143063
21
7.900624
31
0
39
0
210
0
220
0
230
1
0
LINE
5
8D
100
AcDbEntity
8
1
62
256
6
ByLayer
370
18
48
1
60
0
100
AcDbLine
10
9.785729
20
7.916055
30
0
11
10.616427
21
6.98152
31
0
39
0
210
0
220
0
230
1
0
LINE
5
8E
100
AcDbEntity
8
1
62
256
6
ByLayer
370
18
48
1
60
0
100
AcDbLine
10
10.816171
20
6.756807
30
0
11
10.616427
21
6.98152
31
0
39
0
210
0
220
0
230
1
0
LINE
5
8F
100
AcDbEntity
8
1
62
256
6
ByLayer
370
18
48
1
60
0
100
AcDbLine
10
10.940066
20
6.617425
30
0
11
10.816171
21
6.756807
31
0
39
0
210
0
220
0
230
1
0
LINE
5
90
100
AcDbEntity
8
1
62
256
6
ByLayer
370
18
48
1
60
0
100
AcDbLine
10
9.651655
20
-8
30
0
11
15.792716
21
-8
31
0
39
0
210
0
220
0
230
1
0
LINE
5
91
100
AcDbEntity
8
1
62
256
6
ByLayer
370
18
48
1
60
0
100
AcDbLine
10
9.651655
20
-6.5
30
0
11
15.792716
21
-6.5
31
0
39
0
210
0
220
0
230
1
0
LINE
5
92
100
AcDbEntity
8
1
62
256
6
ByLayer
370
18
48
1
60
0
100
AcDbLine
10
10.616427
20
-5.7
30
0
11
10.616427
21
-0.988737
31
0
39
0
210
0
220
0
230
1
0
LINE
5
93
100
AcDbEntity
8
1
62
256
6
ByLayer
370
18
48
1
60
0
100
AcDbLine
10
10.616427
20
-5.7
30
0
11
10.728758
21
-5.7
31
0
39
0
210
0
220
0
230
1
0
LINE
5
94
100
AcDbEntity
8
1
62
256
6
ByLayer
370
18
48
1
60
0
100
AcDbLine
10
10.722949
20
-5.462
30
0
11
10.816171
21
-5.462
31
0
39
0
210
0
220
0
230
1
0
LINE
5
95
100
AcDbEntity
8
1
62
256
6
ByLayer
370
18
48
1
60
0
100
AcDbLine
10
0.143063
20
7.900624
30
0
11
0
21
7.900397
31
0
39
0
210
0
220
0
230
1
0
LINE
5
96
100
AcDbEntity
8
1
62
256
6
ByLayer
370
18
48
1
60
0
100
AcDbLine
10
9.651655
20
-6.5
30
0
11
8.652733
21
-6.5
31
0
39
0
210
0
220
0
230
1
0
LINE
5
97
100
AcDbEntity
8
1
62
256
6
ByLayer
370
18
48
1
60
0
100
AcDbLine
10
6.517159
20
-5.7
30
0
11
10.616427
21
-5.7
31
0
39
0
210
0
220
0
230
1
0
LINE
5
98
100
AcDbEntity
8
1
62
256
6
ByLayer
370
18
48
1
60
0
100
AcDbLine
10
10.722949
20
-5.462
30
0
11
10.728758
21
-5.7
31
0
39
0
210
0
220
0
230
1
0
LINE
5
99
100
AcDbEntity
8
1
62
256
6
ByLayer
370
18
48
1
60
0
100
AcDbLine
10
10.616427
20
2.388737
30
0
11
10.616427
21
6.98152
31
0
39
0
210
0
220
0
230
1
0
LINE
5
9A
100
AcDbEntity
8
1
62
256
6
ByLayer
370
18
48
1
60
0
100
AcDbLine
10
9.651655
20
-8
30
0
11
5
21
-8
31
0
39
0
210
0
220
0
230
1
0
LINE
5
9B
100
AcDbEntity
8
1
62
256
6
ByLayer
370
18
48
1
60
0
100
AcDbLine
10
10.940066
20
6.617425
30
0
11
10.940066
21
-5.462
31
0
39
0
210
0
220
0
230
1
0
LINE
5
9C
100
AcDbEntity
8
1
62
256
6
ByLayer
370
18
48
1
60
0
100
AcDbLine
10
0.143063
20
7.900624
30
0
11
5
21
7.921817
31
0
39
0
210
0
220
0
230
1
0
LINE
5
9D
100
AcDbEntity
8
1
62
256
6
ByLayer
370
18
48
1
60
0
100
AcDbLine
10
6.517159
20
3.360612
30
0
11
6.517159
21
7.921817
31
0
39
0
210
0
220
0
230
1
0
LINE
5
9E
100
AcDbEntity
8
1
62
256
6
ByLayer
370
18
48
1
60
0
100
AcDbLine
10
12.146564
20
-5.7
30
0
11
21.888889
21
-5.7
31
0
39
0
210
0
220
0
230
1
0
LINE
5
9F
100
AcDbEntity
8
1
62
256
6
ByLayer
370
18
48
1
60
0
100
AcDbLine
10
19.604111
20
-6.27206
30
0
11
22.391562
21
-6.15019
31
0
39
0
210
0
220
0
230
1
0
LINE
5
A0
100
AcDbEntity
8
1
62
256
6
ByLayer
370
18
48
1
60
0
100
AcDbLine
10
19.604111
20
-8.02794
30
0
11
22.391562
21
-8.14981
31
0
39
0
210
0
220
0
230
1
0
LINE
5
A1
100
AcDbEntity
8
1
62
256
6
ByLayer
370
18
48
1
60
0
100
AcDbLine
10
15.813955
20
-7.95
30
0
11
16.698646
21
-7.95
31
0
39
0
210
0
220
0
230
1
0
LINE
5
A2
100
AcDbEntity
8
1
62
256
6
ByLayer
370
18
48
1
60
0
100
AcDbLine
10
22.6
20
-6.35
30
0
11
22.6
21
-7.95
31
0
39
0
210
0
220
0
230
1
0
LINE
5
A3
100
AcDbEntity
8
1
62
256
6
ByLayer
370
18
48
1
60
0
100
AcDbLine
10
16.862743
20
-6.97899
30
0
11
16.708153
21
-6.574854
31
0
39
0
210
0
220
0
230
1
0
LINE
5
A4
100
AcDbEntity
8
1
62
256
6
ByLayer
370
18
48
1
60
0
100
AcDbLine
10
19.390267
20
-6.35
30
0
11
17.806578
21
-6.35
31
0
39
0
210
0
220
0
230
1
0
LINE
5
A5
100
AcDbEntity
8
1
62
256
6
ByLayer
370
18
48
1
60
0
100
AcDbLine
10
16.862743
20
-7.32101
30
0
11
16.708153
21
-7.725146
31
0
39
0
210
0
220
0
230
1
0
LINE
5
A6
100
AcDbEntity
8
1
62
256
6
ByLayer
370
18
48
1
60
0
100
AcDbLine
10
16.698646
20
-7.776449
30
0
11
15.887701
21
-7.776449
31
0
39
0
210
0
220
0
230
1
0
LINE
5
A7
100
AcDbEntity
8
1
62
256
6
ByLayer
370
18
48
1
60
0
100
AcDbLine
10
16.698646
20
-7.95
30
0
11
17.806578
21
-7.95
31
0
39
0
210
0
220
0
230
1
0
LINE
5
A8
100
AcDbEntity
8
1
62
256
6
ByLayer
370
18
48
1
60
0
100
AcDbLine
10
16.698646
20
-6.523551
30
0
11
16.698646
21
-6.35
31
0
39
0
210
0
220
0
230
1
0
LINE
5
A9
100
AcDbEntity
8
1
62
256
6
ByLayer
370
18
48
1
60
0
100
AcDbLine
10
17.806578
20
-7.95
30
0
11
17.806578
21
-6.35
31
0
39
0
210
0
220
0
230
1
0
LINE
5
AA
100
AcDbEntity
8
1
62
256
6
ByLayer
370
18
48
1
60
0
100
AcDbLine
10
5.699958
20
-8
30
0
11
5.623298
21
-8.02794
31
0
39
0
210
0
220
0
230
1
0
LINE
5
AB
100
AcDbEntity
8
1
62
256
6
ByLayer
370
18
48
1
60
0
100
AcDbLine
10
16.862743
20
-7.32101
30
0
11
16.020988
21
-7.32101
31
0
39
0
210
0
220
0
230
1
0
LINE
5
AC
100
AcDbEntity
8
1
62
256
6
ByLayer
370
18
48
1
60
0
100
AcDbLine
10
16.862743
20
-6.97899
30
0
11
15.986485
21
-6.97899
31
0
39
0
210
0
220
0
230
1
0
LINE
5
AD
100
AcDbEntity
8
1
62
256
6
ByLayer
370
18
48
1
60
0
100
AcDbLine
10
16.698646
20
-6.35
30
0
11
17.806578
21
-6.35
31
0
39
0
210
0
220
0
230
1
0
LINE
5
AE
100
AcDbEntity
8
1
62
256
6
ByLayer
370
18
48
1
60
0
100
AcDbLine
10
19.390267
20
-6.35
30
0
11
19.604111
21
-6.27206
31
0
39
0
210
0
220
0
230
1
0
LINE
5
AF
100
AcDbEntity
8
1
62
256
6
ByLayer
370
18
48
1
60
0
100
AcDbLine
10
5.623298
20
-8.02794
30
0
11
2.835847
21
-8.14981
31
0
39
0
210
0
220
0
230
1
0
LINE
5
B0
100
AcDbEntity
8
1
62
256
6
ByLayer
370
18
48
1
60
0
100
AcDbLine
10
16.708153
20
-7.725146
30
0
11
15.909572
21
-7.725146
31
0
39
0
210
0
220
0
230
1
0
LINE
5
B1
100
AcDbEntity
8
1
62
256
6
ByLayer
370
18
48
1
60
0
100
AcDbLine
10
19.390267
20
-7.95
30
0
11
19.604111
21
-8.02794
31
0
39
0
210
0
220
0
230
1
0
LINE
5
B2
100
AcDbEntity
8
1
62
256
6
ByLayer
370
18
48
1
60
0
100
AcDbLine
10
16.708153
20
-6.574854
30
0
11
15.824514
21
-6.574854
31
0
39
0
210
0
220
0
230
1
0
LINE
5
B3
100
AcDbEntity
8
1
62
256
6
ByLayer
370
18
48
1
60
0
100
AcDbLine
10
11.078053
20
-6.35
30
0
11
16.698646
21
-6.35
31
0
39
0
210
0
220
0
230
1
0
LINE
5
B4
100
AcDbEntity
8
1
62
256
6
ByLayer
370
18
48
1
60
0
100
AcDbLine
10
19.390267
20
-7.95
30
0
11
17.806578
21
-7.95
31
0
39
0
210
0
220
0
230
1
0
LINE
5
B5
100
AcDbEntity
8
1
62
256
6
ByLayer
370
18
48
1
60
0
100
AcDbLine
10
16.698646
20
-6.523551
30
0
11
15.802699
21
-6.523551
31
0
39
0
210
0
220
0
230
1
0
LINE
5
B6
100
AcDbEntity
8
1
62
256
6
ByLayer
370
18
48
1
60
0
100
AcDbLine
10
16.698646
20
-7.776449
30
0
11
16.698646
21
-7.95
31
0
39
0
210
0
220
0
230
1
0
LINE
5
B7
100
AcDbEntity
8
1
62
256
6
ByLayer
370
18
48
1
60
0
100
AcDbLine
10
11.2701
20
-5.462
30
0
11
12.203904
21
-5.462
31
0
39
0
210
0
220
0
230
1
0
LINE
5
B8
100
AcDbEntity
8
1
62
256
6
ByLayer
370
18
48
1
60
0
100
AcDbLine
10
11.250173
20
-6.349981
30
0
11
11.271823
21
-5.462
31
0
39
0
210
0
220
0
230
1
0
LINE
5
B9
100
AcDbEntity
8
1
62
256
6
ByLayer
370
18
48
1
60
0
100
AcDbLine
10
11.250311
20
-6.349981
30
0
11
11.271982
21
-5.462
31
0
39
0
210
0
220
0
230
1
0
LINE
5
BA
100
AcDbEntity
8
1
62
256
6
ByLayer
370
18
48
1
60
0
100
AcDbLine
10
10.940031
20
-5.462
30
0
11
11.2701
21
-5.462
31
0
39
0
210
0
220
0
230
1
0
LINE
5
BB
100
AcDbEntity
8
1
62
256
6
ByLayer
370
18
48
1
60
0
100
AcDbLine
10
15.792709
20
-8
30
0
11
16.746306
21
-8
31
0
39
0
210
0
220
0
230
1
0
LINE
5
BC
100
AcDbEntity
8
1
62
256
6
ByLayer
370
18
48
1
60
0
100
AcDbLine
10
16.746306
20
-8
30
0
11
19.527387
21
-8
31
0
39
0
210
0
220
0
230
1
0
LINE
5
BD
100
AcDbEntity
8
1
62
256
6
ByLayer
370
18
48
1
60
0
100
AcDbLine
10
11.2701
20
-5.462
30
0
11
11.2701
21
6.246137
31
0
39
0
210
0
220
0
230
1
0
LINE
5
BE
100
AcDbEntity
8
1
62
256
6
ByLayer
370
18
48
1
60
0
100
AcDbLine
10
11.2701
20
6.246137
30
0
11
10.940046
21
6.617448
31
0
39
0
210
0
220
0
230
1
0
LINE
5
BF
100
AcDbEntity
8
1
62
256
6
ByLayer
370
18
48
1
60
0
100
AcDbLine
10
16.746306
20
-8
30
0
11
16.745085
21
-7.95
31
0
39
0
210
0
220
0
230
1
0
LINE
5
C0
100
AcDbEntity
8
1
62
256
6
ByLayer
370
18
48
1
60
0
100
AcDbLine
10
21.888889
20
-5.7
30
0
11
11.2701
21
6.246137
31
0
39
0
210
0
220
0
230
1
0
LINE
5
C1
100
AcDbEntity
8
1
62
256
6
ByLayer
370
18
48
1
60
0
100
AcDbLine
10
8.705859
20
0.981837
30
0
11
9.489183
21
0.981837
31
0
39
0
210
0
220
0
230
1
0
LINE
5
C2
100
AcDbEntity
8
1
62
256
6
ByLayer
370
18
48
1
60
0
100
AcDbLine
10
8.705859
20
0.418163
30
0
11
9.489183
21
0.418163
31
0
39
0
210
0
220
0
230
1
0
LINE
5
C3
100
AcDbEntity
8
1
62
256
6
ByLayer
370
18
48
1
60
0
100
AcDbLine
10
8.257825
20
-0.421504
30
0
11
9.041148
21
-0.421504
31
0
39
0
210
0
220
0
230
1
0
LINE
5
C4
100
AcDbEntity
8
1
62
256
6
ByLayer
370
18
48
1
60
0
100
AcDbLine
10
7.996684
20
-0.503626
30
0
11
8.151013
21
-0.503626
31
0
39
0
210
0
220
0
230
1
0
LINE
5
C5
100
AcDbEntity
8
1
62
256
6
ByLayer
370
18
48
1
60
0
100
AcDbLine
10
8.151013
20
1.903626
30
0
11
7.996684
21
1.903626
31
0
39
0
210
0
220
0
230
1
0
LINE
5
C6
100
AcDbEntity
8
1
62
256
6
ByLayer
370
18
48
1
60
0
100
AcDbLine
10
7.99669
20
-0.503626
30
0
11
7.274207
21
-0.503626
31
0
39
0
210
0
220
0
230
1
0
LINE
5
C7
100
AcDbEntity
8
1
62
256
6
ByLayer
370
18
48
1
60
0
100
AcDbLine
10
7.274207
20
1.903626
30
0
11
7.99669
21
1.903626
31
0
39
0
210
0
220
0
230
1
0
LINE
5
C8
100
AcDbEntity
8
1
62
256
6
ByLayer
370
18
48
1
60
0
100
AcDbLine
10
7.340057
20
-0.702337
30
0
11
7.681657
21
-0.702337
31
0
39
0
210
0
220
0
230
1
0
LINE
5
C9
100
AcDbEntity
8
1
62
256
6
ByLayer
370
18
48
1
60
0
100
AcDbLine
10
8.257825
20
1.821504
30
0
11
9.041148
21
1.821504
31
0
39
0
210
0
220
0
230
1
0
LINE
5
CA
100
AcDbEntity
8
1
62
256
6
ByLayer
370
18
48
1
60
0
100
AcDbLine
10
7.337661
20
2.102337
30
0
11
7.681657
21
2.102337
31
0
39
0
210
0
220
0
230
1
0
MTEXT
5
115
100
AcDbEntity
8
SK6
62
256
6
ByLayer
370
18
48
1
60
0
100
AcDbMText
10
-66.525
20
17.010908
30
0
210
0
220
0
230
1
1
\W0.6876;LF123E11-1616B-S
40
3.5
41
0
44
1.084337
50
0
71
7
72
5
7
iso_b_vert
0
DIMENSION
5
127
100
AcDbEntity
8
SK2
62
256
6
ByLayer
370
13
48
1
60
0
100
AcDbDimension
2
DimnDraft3D1
10
-112.15
20
-7.9
30
0
11
-112.15
21
-4.619079
31
0
70
32
71
5
72
1
41
1
210
0
220
0
230
1
3
Standard
100
AcDbAlignedDimension
13
-103.9
23
8.1
33
0
14
-103.9
24
-7.9
34
0
50
90
100
AcDbRotatedDimension
1001
ACAD
1000
DSTYLE
1002
{
1070
    74
1070
     0
1070
   279
1070
     0
1070
   172
1070
     1
1070
   173
1070
     1
1070
   340
1005
116
1070
   271
1070
     3
1070
   272
1070
     3
1070
    77
1070
     1
1070
    73
1070
     0
1070
   171
1070
     4
1070
   274
1070
     4
1070
   177
1070
     2
1070
   176
1070
     2
1070
   178
1070
     7
1070
    78
1070
     8
1070
    41
1041
3.0
1070
   147
1041
2.25
1070
    42
1041
1.5
1070
    44
1041
3.0
1070
   140
1041
4.5
1070
   343
1005
128
1070
   344
1005
128
1002
}
0
DIMENSION
5
13C
100
AcDbEntity
8
2
62
256
6
ByLayer
370
13
48
1
60
0
100
AcDbDimension
2
DimnDraft3D2
10
36.85
20
-5.9
30
0
11
36.85
21
-25.6
31
0
70
32
71
5
72
1
41
1
210
0
220
0
230
1
3
Standard
100
AcDbAlignedDimension
13
24.1
23
-7.9
33
0
14
24.1
24
-5.9
34
0
50
90
100
AcDbRotatedDimension
1001
ACAD
1000
DSTYLE
1002
{
1070
    74
1070
     0
1070
   279
1070
     0
1070
   172
1070
     1
1070
   173
1070
     1
1070
   340
1005
116
1070
   271
1070
     3
1070
   272
1070
     3
1070
    77
1070
     1
1070
    73
1070
     0
1070
   171
1070
     4
1070
   274
1070
     4
1070
   177
1070
     2
1070
   176
1070
     2
1070
   178
1070
     7
1070
    78
1070
     8
1070
    41
1041
3.0
1070
   147
1041
2.25
1070
    42
1041
1.5
1070
    44
1041
3.0
1070
   140
1041
4.5
1070
   343
1005
128
1070
   344
1005
128
1002
}
0
DIMENSION
5
14A
100
AcDbEntity
8
2
62
256
6
ByLayer
370
13
48
1
60
0
100
AcDbDimension
2
DimnDraft3D3
10
46.85
20
8.1
30
0
11
46.85
21
0.1
31
0
70
32
71
5
72
1
41
1
210
0
220
0
230
1
3
Standard
100
AcDbAlignedDimension
13
24.1
23
-7.9
33
0
14
1.5
24
8.1
34
0
50
90
100
AcDbRotatedDimension
1001
ACAD
1000
DSTYLE
1002
{
1070
    74
1070
     0
1070
   279
1070
     0
1070
   172
1070
     1
1070
   173
1070
     1
1070
   340
1005
116
1070
   271
1070
     3
1070
   272
1070
     3
1070
    77
1070
     1
1070
    73
1070
     0
1070
   171
1070
     4
1070
   274
1070
     4
1070
   177
1070
     2
1070
   176
1070
     2
1070
   178
1070
     7
1070
    78
1070
     8
1070
    41
1041
3.0
1070
   147
1041
2.25
1070
    42
1041
1.5
1070
    44
1041
3.0
1070
   140
1041
4.5
1070
   343
1005
128
1070
   344
1005
128
1002
}
0
DIMENSION
5
158
100
AcDbEntity
8
SK2
62
256
6
ByLayer
370
13
48
1
60
0
100
AcDbDimension
2
DimnDraft3D4
10
22.6
20
-32.15
30
0
11
-46.300658
21
-32.15
31
0
70
32
71
5
72
1
41
1
210
0
220
0
230
1
3
Standard
100
AcDbAlignedDimension
13
-102.4
23
-9.4
33
0
14
22.6
24
-9.4
34
0
50
0
100
AcDbRotatedDimension
1001
ACAD
1000
DSTYLE
1002
{
1070
   279
1070
     0
1070
   172
1070
     1
1070
   173
1070
     1
1070
   340
1005
116
1070
   271
1070
     3
1070
   272
1070
     3
1070
    77
1070
     1
1070
    73
1070
     0
1070
   171
1070
     4
1070
   274
1070
     4
1070
   177
1070
     2
1070
   176
1070
     2
1070
   178
1070
     7
1070
    78
1070
     8
1070
    41
1041
3.0
1070
   147
1041
2.25
1070
    42
1041
1.5
1070
    44
1041
3.0
1070
   140
1041
4.5
1070
   343
1005
128
1070
   344
1005
128
1002
}
0
DIMENSION
5
166
100
AcDbEntity
8
2
62
256
6
ByLayer
370
13
48
1
60
0
100
AcDbDimension
2
DimnDraft3D5
10
0
20
-22.15
30
0
11
6.018421
21
-22.15
31
0
70
32
71
5
72
1
41
1
210
0
220
0
230
1
3
Standard
100
AcDbAlignedDimension
13
22.6
23
-9.4
33
0
14
0
24
-9.4
34
0
50
0
100
AcDbRotatedDimension
1001
ACAD
1000
DSTYLE
1002
{
1070
   279
1070
     0
1070
   172
1070
     1
1070
   173
1070
     1
1070
   340
1005
116
1070
   271
1070
     3
1070
   272
1070
     3
1070
    77
1070
     1
1070
    73
1070
     0
1070
   171
1070
     4
1070
   274
1070
     4
1070
   177
1070
     2
1070
   176
1070
     2
1070
   178
1070
     7
1070
    78
1070
     8
1070
    41
1041
3.0
1070
   147
1041
2.25
1070
    42
1041
1.5
1070
    44
1041
3.0
1070
   140
1041
4.5
1070
   343
1005
128
1070
   344
1005
128
1002
}
0
DIMENSION
5
174
100
AcDbEntity
8
2
62
256
6
ByLayer
370
13
48
1
60
0
100
AcDbDimension
2
DimnDraft3D6
10
11.6
20
17.85
30
0
11
37.256579
21
17.85
31
0
70
32
71
5
72
1
41
1
210
0
220
0
230
1
3
Standard
100
AcDbAlignedDimension
13
22.6
23
-4.4
33
0
14
11.6
24
9.6
34
0
50
0
100
AcDbRotatedDimension
1001
ACAD
1000
DSTYLE
1002
{
1070
   279
1070
     0
1070
   172
1070
     1
1070
   173
1070
     1
1070
   340
1005
116
1070
   271
1070
     3
1070
   272
1070
     3
1070
    77
1070
     1
1070
    73
1070
     0
1070
   171
1070
     4
1070
   274
1070
     4
1070
   177
1070
     2
1070
   176
1070
     2
1070
   178
1070
     7
1070
    78
1070
     8
1070
    41
1041
3.0
1070
   147
1041
2.25
1070
    42
1041
1.5
1070
    44
1041
3.0
1070
   140
1041
4.5
1070
   343
1005
128
1070
   344
1005
128
1002
}
0
ENDSEC
0
SECTION
2
OBJECTS
0
DICTIONARY
5
1de
330
0
100
AcDbDictionary
280
0
281
1
3
ACAD_GROUP
350
1df
3
ACAD_MLINESTYLE
350
1e0
0
DICTIONARY
5
1df
330
0
100
AcDbDictionary
280
0
281
1
0
DICTIONARY
5
1e0
330
0
100
AcDbDictionary
280
0
281
1
3
Standard
350
18
0
MLINESTYLE
5
18
330
1e0
100
AcDbMlineStyle
2
Standard
70
0
3

62
256
51
90
52
90
71
2
49
-0.5
62
256
6
ByLayer
49
0.5
62
256
6
ByLayer
0
RASTERVARIABLES
5
1cd
330

100
AcDbRasterVariables
90
0
70
1
71
1
72
1
0
ENDSEC
0
EOF
