0
SECTION
2
HEADER
9
$ACADVER
1
AC1015
9
$DWGCODEPAGE
3
ANSI_1252
9
$HANDSEED
5
1eb
9
$ANGBASE
50
0
9
$ANGDIR
70
0
9
$ATTMODE
70
1
9
$AUNITS
70
0
9
$AUPREC
70
0
9
$CECOLOR
62
256
9
$CELTSCALE
40
1
9
$CELTYPE
6
ByLayer
9
$CELWEIGHT
370
18
9
$CLAYER
8
0
9
$CMLJUST
70
0
9
$CMLSCALE
40
1
9
$CMLSTYLE
2
Standard
9
$DIMSTYLE
2
Standard
9
$TEXTSIZE
40
0.2
9
$TEXTSTYLE
7
Standard
9
$LUNITS
70
2
9
$LUPREC
70
4
9
$EXTNAMES
290
1
9
$INSUNITS
70
4
9
$LTSCALE
40
1
9
$LWDISPLAY
290
1
9
$PDMODE
70
0
9
$PDSIZE
40
0
9
$PLINEGEN
70
0
0
ENDSEC
0
SECTION
2
CLASSES
0
CLASS
1
RASTERVARIABLES
2
AcDbRasterVariables
3
ISM
90
0
280
0
281
0
0
ENDSEC
0
SECTION
2
TABLES
0
TABLE
2
VPORT
5
1e1
100
AcDbSymbolTable
0
VPORT
5
1
100
AcDbSymbolTableRecord
100
AcDbViewportTableRecord
2
*Active
70
0
10
0
20
0
11
1
21
1
12
-1
22
1
13
0
23
0
14
0.5
24
0.5
15
10
25
10
16
0
26
0
36
1
17
0
27
0
37
0
0
ENDTAB
0
TABLE
2
LTYPE
5
1e2
100
AcDbSymbolTable
0
LTYPE
5
14
100
AcDbSymbolTableRecord
100
AcDbLinetypeTableRecord
70
0
2
ByBlock
3

72
65
73
0
40
0
0
LTYPE
5
15
100
AcDbSymbolTableRecord
100
AcDbLinetypeTableRecord
70
0
2
ByLayer
3

72
65
73
0
40
0
0
LTYPE
5
16
100
AcDbSymbolTableRecord
100
AcDbLinetypeTableRecord
70
0
2
CONTINUOUS
3
Solid line
72
65
73
0
40
0
0
LTYPE
5
6A
100
AcDbSymbolTableRecord
100
AcDbLinetypeTableRecord
70
0
2
CENTER
3
____ _ ____ _ ____ _ ____
72
65
73
4
40
47.5
49
22
74
0
49
-8.5
74
0
49
8.5
74
0
49
-8.5
74
0
0
LTYPE
5
6B
100
AcDbSymbolTableRecord
100
AcDbLinetypeTableRecord
70
0
2
DASHED
3
__ __ __ __ __ __ __ __ __
72
65
73
2
40
25.72
49
12.86
74
0
49
-12.86
74
0
0
ENDTAB
0
TABLE
2
LAYER
5
1e3
100
AcDbSymbolTable
0
LAYER
5
10
100
AcDbSymbolTableRecord
100
AcDbLayerTableRecord
2
0
70
0
62
7
6
CONTINUOUS
290
1
370
-3
390
0
0
LAYER
5
6D
100
AcDbSymbolTableRecord
100
AcDbLayerTableRecord
2
81
70
0
62
-3
6
CONTINUOUS
290
1
370
-3
390
0
0
LAYER
5
6F
100
AcDbSymbolTableRecord
100
AcDbLayerTableRecord
2
80
70
0
62
-6
6
CONTINUOUS
290
1
370
-3
390
0
0
LAYER
5
71
100
AcDbSymbolTableRecord
100
AcDbLayerTableRecord
2
2
70
0
62
7
6
CONTINUOUS
290
1
370
-3
390
0
0
LAYER
5
73
100
AcDbSymbolTableRecord
100
AcDbLayerTableRecord
2
4
70
0
62
-2
6
CENTER
290
1
370
-3
390
0
0
LAYER
5
75
100
AcDbSymbolTableRecord
100
AcDbLayerTableRecord
2
1
70
0
62
4
6
CONTINUOUS
290
1
370
-3
390
0
0
LAYER
5
1ce
100
AcDbSymbolTableRecord
100
AcDbLayerTableRecord
2
SK1
70
0
62
4
6
CONTINUOUS
290
1
370
-3
390
0
0
LAYER
5
1cf
100
AcDbSymbolTableRecord
100
AcDbLayerTableRecord
2
SK6
70
0
62
5
6
CONTINUOUS
290
1
370
-3
390
0
0
LAYER
5
1d0
100
AcDbSymbolTableRecord
100
AcDbLayerTableRecord
2
SK2
70
0
62
7
6
CONTINUOUS
290
1
370
-3
390
0
0
ENDTAB
0
TABLE
2
STYLE
5
1e4
100
AcDbSymbolTable
0
STYLE
5
11
100
AcDbSymbolTableRecord
100
AcDbTextStyleTableRecord
2
Standard
3
txt
70
0
71
0
40
0
41
1
42
0
50
0
0
STYLE
5
116
100
AcDbSymbolTableRecord
100
AcDbTextStyleTableRecord
2
iso_b_vert
3
simplex.shx
70
0
71
0
40
0
41
1
42
0
50
0
0
STYLE
5
117
100
AcDbSymbolTableRecord
100
AcDbTextStyleTableRecord
2
DWGDirectTextStyle
3
simplex
70
0
71
0
40
0
41
1
42
0
50
0
0
ENDTAB
0
TABLE
2
DIMSTYLE
5
1e5
100
AcDbSymbolTable
100
AcDbDimStyleTable
0
DIMSTYLE
105
27
100
AcDbSymbolTableRecord
100
AcDbDimStyleTableRecord
2
Standard
70
0
3
<>
41
0.18
42
0.0625
44
0.18
140
0.18
147
0.09
73
0
74
0
77
1
271
2
275
0
278
52
280
0
340
11
0
ENDTAB
0
TABLE
2
VIEW
5
1e6
100
AcDbSymbolTable
0
ENDTAB
0
TABLE
2
UCS
5
1e7
100
AcDbSymbolTable
0
ENDTAB
0
TABLE
2
APPID
5
1e8
100
AcDbSymbolTable
0
APPID
5
12
100
AcDbSymbolTableRecord
100
AcDbRegAppTableRecord
2
ACAD
70
0
0
ENDTAB
0
TABLE
2
BLOCK_RECORD
5
1e9
100
AcDbSymbolTable
0
BLOCK_RECORD
5
1F
100
AcDbSymbolTableRecord
100
AcDbBlockTableRecord
2
*Model_Space
340
0
70
0
0
BLOCK_RECORD
5
1B
100
AcDbSymbolTableRecord
100
AcDbBlockTableRecord
2
*Paper_Space
340
0
70
0
0
BLOCK_RECORD
5
23
100
AcDbSymbolTableRecord
100
AcDbBlockTableRecord
2
*Paper_Space0
340
0
70
0
0
BLOCK_RECORD
5
119
100
AcDbSymbolTableRecord
100
AcDbBlockTableRecord
2
DimnDraft3D1
340
0
70
0
0
BLOCK_RECORD
5
128
100
AcDbSymbolTableRecord
100
AcDbBlockTableRecord
2
_CLOSED
340
0
70
0
0
BLOCK_RECORD
5
12F
100
AcDbSymbolTableRecord
100
AcDbBlockTableRecord
2
DimnDraft3D2
340
0
70
0
0
BLOCK_RECORD
5
13D
100
AcDbSymbolTableRecord
100
AcDbBlockTableRecord
2
DimnDraft3D3
340
0
70
0
0
BLOCK_RECORD
5
14B
100
AcDbSymbolTableRecord
100
AcDbBlockTableRecord
2
DimnDraft3D4
340
0
70
0
0
BLOCK_RECORD
5
159
100
AcDbSymbolTableRecord
100
AcDbBlockTableRecord
2
DimnDraft3D5
340
0
70
0
0
BLOCK_RECORD
5
167
100
AcDbSymbolTableRecord
100
AcDbBlockTableRecord
2
DimnDraft3D6
340
0
70
0
0
ENDTAB
0
ENDSEC
0
SECTION
2
BLOCKS
0
BLOCK
5
20
100
AcDbEntity
8
0
100
AcDbBlockBegin
2
*Model_Space
70
0
10
0
20
0
30
0
3
*Model_Space
0
ENDBLK
5
21
100
AcDbEntity
8
0
100
AcDbBlockEnd
0
BLOCK
5
1C
100
AcDbEntity
8
0
100
AcDbBlockBegin
2
*Paper_Space
70
0
10
0
20
0
30
0
3
*Paper_Space
0
ENDBLK
5
1D
100
AcDbEntity
8
0
100
AcDbBlockEnd
0
BLOCK
5
24
100
AcDbEntity
8
0
100
AcDbBlockBegin
2
*Paper_Space0
70
0
10
0
20
0
30
0
3
*Paper_Space0
0
ENDBLK
5
25
100
AcDbEntity
8
0
100
AcDbBlockEnd
0
BLOCK
5
125
100
AcDbEntity
8
0
100
AcDbBlockBegin
2
DimnDraft3D1
70
0
10
0
20
0
30
0
3
DimnDraft3D1
0
MTEXT
5
11A
100
AcDbEntity
8
SK2
62
256
6
ByLayer
370
18
48
1
60
0
100
AcDbMText
10
-113.275
20
17.725
30
0
210
0
220
0
230
1
1
\W0.6563;12.0
40
4.5
41
0
44
1.084337
50
90
71
7
72
5
7
iso_b_vert
0
LINE
5
11C
100
AcDbEntity
8
SK2
62
256
6
ByLayer
370
13
48
1
60
0
100
AcDbLine
10
-103.9
20
6.1
30
0
11
-115.15
21
6.1
31
0
39
0
210
0
220
0
230
1
0
LINE
5
11D
100
AcDbEntity
8
SK2
62
256
6
ByLayer
370
13
48
1
60
0
100
AcDbLine
10
-103.9
20
-5.9
30
0
11
-115.15
21
-5.9
31
0
39
0
210
0
220
0
230
1
0
LINE
5
11E
100
AcDbEntity
8
SK2
62
256
6
ByLayer
370
13
48
1
60
0
100
AcDbLine
10
-112.15
20
-5.9
30
0
11
-112.15
21
26.038158
31
0
39
0
210
0
220
0
230
1
0
LINE
5
11F
100
AcDbEntity
8
SK2
62
256
6
ByLayer
370
13
48
1
60
0
100
AcDbLine
10
-112.15
20
6.1
30
0
11
-111.755043
21
3.100001
31
0
39
0
210
0
220
0
230
1
0
LINE
5
120
100
AcDbEntity
8
SK2
62
256
6
ByLayer
370
13
48
1
60
0
100
AcDbLine
10
-112.15
20
6.1
30
0
11
-112.544957
21
3.099999
31
0
39
0
210
0
220
0
230
1
0
LINE
5
121
100
AcDbEntity
8
SK2
62
256
6
ByLayer
370
13
48
1
60
0
100
AcDbLine
10
-111.755043
20
3.100001
30
0
11
-112.544957
21
3.099999
31
0
39
0
210
0
220
0
230
1
0
LINE
5
122
100
AcDbEntity
8
SK2
62
256
6
ByLayer
370
13
48
1
60
0
100
AcDbLine
10
-112.15
20
-5.9
30
0
11
-112.544957
21
-2.900001
31
0
39
0
210
0
220
0
230
1
0
LINE
5
123
100
AcDbEntity
8
SK2
62
256
6
ByLayer
370
13
48
1
60
0
100
AcDbLine
10
-112.15
20
-5.9
30
0
11
-111.755043
21
-2.899999
31
0
39
0
210
0
220
0
230
1
0
LINE
5
124
100
AcDbEntity
8
SK2
62
256
6
ByLayer
370
13
48
1
60
0
100
AcDbLine
10
-112.544957
20
-2.900001
30
0
11
-111.755043
21
-2.899999
31
0
39
0
210
0
220
0
230
1
0
ENDBLK
5
126
100
AcDbEntity
8
0
100
AcDbBlockEnd
0
BLOCK
5
129
100
AcDbEntity
8
0
100
AcDbBlockBegin
2
_CLOSED
70
0
10
0
20
0
30
0
3
_CLOSED
0
LINE
5
12B
100
AcDbEntity
8
0
62
256
6
ByLayer
370
-2
48
1
60
0
100
AcDbLine
10
-1
20
0.166667
30
0
11
0
21
0
31
0
39
0
210
0
220
0
230
1
0
LINE
5
12C
100
AcDbEntity
8
0
62
256
6
ByLayer
370
-2
48
1
60
0
100
AcDbLine
10
0
20
0
30
0
11
-1
21
-0.166667
31
0
39
0
210
0
220
0
230
1
0
LINE
5
12D
100
AcDbEntity
8
0
62
256
6
ByLayer
370
-2
48
1
60
0
100
AcDbLine
10
-1
20
0.166667
30
0
11
-1
21
-0.166667
31
0
39
0
210
0
220
0
230
1
0
LINE
5
12E
100
AcDbEntity
8
0
62
256
6
ByLayer
370
-2
48
1
60
0
100
AcDbLine
10
0
20
0
30
0
11
-1
21
0
31
0
39
0
210
0
220
0
230
1
0
ENDBLK
5
12A
100
AcDbEntity
8
0
100
AcDbBlockEnd
0
BLOCK
5
13A
100
AcDbEntity
8
0
100
AcDbBlockBegin
2
DimnDraft3D2
70
0
10
0
20
0
30
0
3
DimnDraft3D2
0
MTEXT
5
130
100
AcDbEntity
8
2
62
256
6
ByLayer
370
18
48
1
60
0
100
AcDbMText
10
35.725
20
-22.475
30
0
210
0
220
0
230
1
1
\W0.7121;2.0
40
4.5
41
0
44
1.084337
50
90
71
7
72
5
7
iso_b_vert
0
LINE
5
131
100
AcDbEntity
8
2
62
256
6
ByLayer
370
13
48
1
60
0
100
AcDbLine
10
24.1
20
-5.9
30
0
11
39.85
21
-5.9
31
0
39
0
210
0
220
0
230
1
0
LINE
5
132
100
AcDbEntity
8
2
62
256
6
ByLayer
370
13
48
1
60
0
100
AcDbLine
10
24.1
20
-3.9
30
0
11
39.85
21
-3.9
31
0
39
0
210
0
220
0
230
1
0
LINE
5
133
100
AcDbEntity
8
2
62
256
6
ByLayer
370
13
48
1
60
0
100
AcDbLine
10
36.85
20
7.35
30
0
11
36.85
21
-23.6
31
0
39
0
210
0
220
0
230
1
0
LINE
5
134
100
AcDbEntity
8
2
62
256
6
ByLayer
370
13
48
1
60
0
100
AcDbLine
10
36.85
20
-5.9
30
0
11
37.244957
21
-8.899999
31
0
39
0
210
0
220
0
230
1
0
LINE
5
135
100
AcDbEntity
8
2
62
256
6
ByLayer
370
13
48
1
60
0
100
AcDbLine
10
36.85
20
-5.9
30
0
11
36.455043
21
-8.900001
31
0
39
0
210
0
220
0
230
1
0
LINE
5
136
100
AcDbEntity
8
2
62
256
6
ByLayer
370
13
48
1
60
0
100
AcDbLine
10
37.244957
20
-8.899999
30
0
11
36.455043
21
-8.900001
31
0
39
0
210
0
220
0
230
1
0
LINE
5
137
100
AcDbEntity
8
2
62
256
6
ByLayer
370
13
48
1
60
0
100
AcDbLine
10
36.85
20
-3.9
30
0
11
36.455043
21
-0.900001
31
0
39
0
210
0
220
0
230
1
0
LINE
5
138
100
AcDbEntity
8
2
62
256
6
ByLayer
370
13
48
1
60
0
100
AcDbLine
10
36.85
20
-3.9
30
0
11
37.244957
21
-0.899999
31
0
39
0
210
0
220
0
230
1
0
LINE
5
139
100
AcDbEntity
8
2
62
256
6
ByLayer
370
13
48
1
60
0
100
AcDbLine
10
36.455043
20
-0.900001
30
0
11
37.244957
21
-0.899999
31
0
39
0
210
0
220
0
230
1
0
ENDBLK
5
13B
100
AcDbEntity
8
0
100
AcDbBlockEnd
0
BLOCK
5
148
100
AcDbEntity
8
0
100
AcDbBlockBegin
2
DimnDraft3D3
70
0
10
0
20
0
30
0
3
DimnDraft3D3
0
MTEXT
5
13E
100
AcDbEntity
8
2
62
256
6
ByLayer
370
18
48
1
60
0
100
AcDbMText
10
45.725
20
-21.119079
30
0
210
0
220
0
230
1
1
\W0.6563;12.0
40
4.5
41
0
44
1.084337
50
90
71
8
72
5
7
iso_b_vert
0
LINE
5
13F
100
AcDbEntity
8
2
62
256
6
ByLayer
370
13
48
1
60
0
100
AcDbLine
10
24.1
20
-5.9
30
0
11
49.85
21
-5.9
31
0
39
0
210
0
220
0
230
1
0
LINE
5
140
100
AcDbEntity
8
2
62
256
6
ByLayer
370
13
48
1
60
0
100
AcDbLine
10
1.5
20
6.1
30
0
11
49.85
21
6.1
31
0
39
0
210
0
220
0
230
1
0
LINE
5
141
100
AcDbEntity
8
2
62
256
6
ByLayer
370
13
48
1
60
0
100
AcDbLine
10
46.85
20
6.1
30
0
11
46.85
21
-25.838158
31
0
39
0
210
0
220
0
230
1
0
LINE
5
142
100
AcDbEntity
8
2
62
256
6
ByLayer
370
13
48
1
60
0
100
AcDbLine
10
46.85
20
-5.9
30
0
11
46.455043
21
-2.900001
31
0
39
0
210
0
220
0
230
1
0
LINE
5
143
100
AcDbEntity
8
2
62
256
6
ByLayer
370
13
48
1
60
0
100
AcDbLine
10
46.85
20
-5.9
30
0
11
47.244957
21
-2.899999
31
0
39
0
210
0
220
0
230
1
0
LINE
5
144
100
AcDbEntity
8
2
62
256
6
ByLayer
370
13
48
1
60
0
100
AcDbLine
10
46.455043
20
-2.900001
30
0
11
47.244957
21
-2.899999
31
0
39
0
210
0
220
0
230
1
0
LINE
5
145
100
AcDbEntity
8
2
62
256
6
ByLayer
370
13
48
1
60
0
100
AcDbLine
10
46.85
20
6.1
30
0
11
47.244957
21
3.100001
31
0
39
0
210
0
220
0
230
1
0
LINE
5
146
100
AcDbEntity
8
2
62
256
6
ByLayer
370
13
48
1
60
0
100
AcDbLine
10
46.85
20
6.1
30
0
11
46.455043
21
3.099999
31
0
39
0
210
0
220
0
230
1
0
LINE
5
147
100
AcDbEntity
8
2
62
256
6
ByLayer
370
13
48
1
60
0
100
AcDbLine
10
47.244957
20
3.100001
30
0
11
46.455043
21
3.099999
31
0
39
0
210
0
220
0
230
1
0
ENDBLK
5
149
100
AcDbEntity
8
0
100
AcDbBlockEnd
0
BLOCK
5
156
100
AcDbEntity
8
0
100
AcDbBlockBegin
2
DimnDraft3D4
70
0
10
0
20
0
30
0
3
DimnDraft3D4
0
MTEXT
5
14C
100
AcDbEntity
8
SK2
62
256
6
ByLayer
370
18
48
1
60
0
100
AcDbMText
10
-45.175658
20
-29.025
30
0
210
0
220
0
230
1
1
\W0.6864;125.0
40
4.5
41
0
44
1.084337
50
0
71
7
72
5
7
iso_b_vert
0
LINE
5
14D
100
AcDbEntity
8
SK2
62
256
6
ByLayer
370
13
48
1
60
0
100
AcDbLine
10
-102.4
20
-7.4
30
0
11
-102.4
21
-33.15
31
0
39
0
210
0
220
0
230
1
0
LINE
5
14E
100
AcDbEntity
8
SK2
62
256
6
ByLayer
370
13
48
1
60
0
100
AcDbLine
10
22.6
20
-7.4
30
0
11
22.6
21
-33.15
31
0
39
0
210
0
220
0
230
1
0
LINE
5
14F
100
AcDbEntity
8
SK2
62
256
6
ByLayer
370
13
48
1
60
0
100
AcDbLine
10
-102.4
20
-30.15
30
0
11
22.6
21
-30.15
31
0
39
0
210
0
220
0
230
1
0
LINE
5
150
100
AcDbEntity
8
SK2
62
256
6
ByLayer
370
13
48
1
60
0
100
AcDbLine
10
-102.4
20
-30.15
30
0
11
-99.400001
21
-29.755043
31
0
39
0
210
0
220
0
230
1
0
LINE
5
151
100
AcDbEntity
8
SK2
62
256
6
ByLayer
370
13
48
1
60
0
100
AcDbLine
10
-102.4
20
-30.15
30
0
11
-99.399999
21
-30.544957
31
0
39
0
210
0
220
0
230
1
0
LINE
5
152
100
AcDbEntity
8
SK2
62
256
6
ByLayer
370
13
48
1
60
0
100
AcDbLine
10
-99.400001
20
-29.755043
30
0
11
-99.399999
21
-30.544957
31
0
39
0
210
0
220
0
230
1
0
LINE
5
153
100
AcDbEntity
8
SK2
62
256
6
ByLayer
370
13
48
1
60
0
100
AcDbLine
10
22.6
20
-30.15
30
0
11
19.600001
21
-30.544957
31
0
39
0
210
0
220
0
230
1
0
LINE
5
154
100
AcDbEntity
8
SK2
62
256
6
ByLayer
370
13
48
1
60
0
100
AcDbLine
10
22.6
20
-30.15
30
0
11
19.599999
21
-29.755043
31
0
39
0
210
0
220
0
230
1
0
LINE
5
155
100
AcDbEntity
8
SK2
62
256
6
ByLayer
370
13
48
1
60
0
100
AcDbLine
10
19.600001
20
-30.544957
30
0
11
19.599999
21
-29.755043
31
0
39
0
210
0
220
0
230
1
0
ENDBLK
5
157
100
AcDbEntity
8
0
100
AcDbBlockEnd
0
BLOCK
5
164
100
AcDbEntity
8
0
100
AcDbBlockBegin
2
DimnDraft3D5
70
0
10
0
20
0
30
0
3
DimnDraft3D5
0
MTEXT
5
15A
100
AcDbEntity
8
2
62
256
6
ByLayer
370
18
48
1
60
0
100
AcDbMText
10
7.143421
20
-19.025
30
0
210
0
220
0
230
1
1
\W0.7346;22.6
40
4.5
41
0
44
1.084337
50
0
71
7
72
5
7
iso_b_vert
0
LINE
5
15B
100
AcDbEntity
8
2
62
256
6
ByLayer
370
13
48
1
60
0
100
AcDbLine
10
22.6
20
-7.4
30
0
11
22.6
21
-23.15
31
0
39
0
210
0
220
0
230
1
0
LINE
5
15C
100
AcDbEntity
8
2
62
256
6
ByLayer
370
13
48
1
60
0
100
AcDbLine
10
0
20
-7.4
30
0
11
0
21
-23.15
31
0
39
0
210
0
220
0
230
1
0
LINE
5
15D
100
AcDbEntity
8
2
62
256
6
ByLayer
370
13
48
1
60
0
100
AcDbLine
10
22.6
20
-20.15
30
0
11
0
21
-20.15
31
0
39
0
210
0
220
0
230
1
0
LINE
5
15E
100
AcDbEntity
8
2
62
256
6
ByLayer
370
13
48
1
60
0
100
AcDbLine
10
22.6
20
-20.15
30
0
11
19.600001
21
-20.544957
31
0
39
0
210
0
220
0
230
1
0
LINE
5
15F
100
AcDbEntity
8
2
62
256
6
ByLayer
370
13
48
1
60
0
100
AcDbLine
10
22.6
20
-20.15
30
0
11
19.599999
21
-19.755043
31
0
39
0
210
0
220
0
230
1
0
LINE
5
160
100
AcDbEntity
8
2
62
256
6
ByLayer
370
13
48
1
60
0
100
AcDbLine
10
19.600001
20
-20.544957
30
0
11
19.599999
21
-19.755043
31
0
39
0
210
0
220
0
230
1
0
LINE
5
161
100
AcDbEntity
8
2
62
256
6
ByLayer
370
13
48
1
60
0
100
AcDbLine
10
0
20
-20.15
30
0
11
2.999999
21
-19.755043
31
0
39
0
210
0
220
0
230
1
0
LINE
5
162
100
AcDbEntity
8
2
62
256
6
ByLayer
370
13
48
1
60
0
100
AcDbLine
10
0
20
-20.15
30
0
11
3.000001
21
-20.544957
31
0
39
0
210
0
220
0
230
1
0
LINE
5
163
100
AcDbEntity
8
2
62
256
6
ByLayer
370
13
48
1
60
0
100
AcDbLine
10
2.999999
20
-19.755043
30
0
11
3.000001
21
-20.544957
31
0
39
0
210
0
220
0
230
1
0
ENDBLK
5
165
100
AcDbEntity
8
0
100
AcDbBlockEnd
0
BLOCK
5
172
100
AcDbEntity
8
0
100
AcDbBlockBegin
2
DimnDraft3D6
70
0
10
0
20
0
30
0
3
DimnDraft3D6
0
MTEXT
5
168
100
AcDbEntity
8
2
62
256
6
ByLayer
370
18
48
1
60
0
100
AcDbMText
10
37.256579
20
16.975
30
0
210
0
220
0
230
1
1
\W0.5779;11.0
40
4.5
41
0
44
1.084337
50
0
71
8
72
5
7
iso_b_vert
0
LINE
5
169
100
AcDbEntity
8
2
62
256
6
ByLayer
370
13
48
1
60
0
100
AcDbLine
10
22.6
20
-2.4
30
0
11
22.6
21
18.85
31
0
39
0
210
0
220
0
230
1
0
LINE
5
16A
100
AcDbEntity
8
2
62
256
6
ByLayer
370
13
48
1
60
0
100
AcDbLine
10
11.6
20
7.6
30
0
11
11.6
21
18.85
31
0
39
0
210
0
220
0
230
1
0
LINE
5
16B
100
AcDbEntity
8
2
62
256
6
ByLayer
370
13
48
1
60
0
100
AcDbLine
10
11.6
20
15.85
30
0
11
41.413158
21
15.85
31
0
39
0
210
0
220
0
230
1
0
LINE
5
16C
100
AcDbEntity
8
2
62
256
6
ByLayer
370
13
48
1
60
0
100
AcDbLine
10
22.6
20
15.85
30
0
11
19.600001
21
15.455043
31
0
39
0
210
0
220
0
230
1
0
LINE
5
16D
100
AcDbEntity
8
2
62
256
6
ByLayer
370
13
48
1
60
0
100
AcDbLine
10
22.6
20
15.85
30
0
11
19.599999
21
16.244957
31
0
39
0
210
0
220
0
230
1
0
LINE
5
16E
100
AcDbEntity
8
2
62
256
6
ByLayer
370
13
48
1
60
0
100
AcDbLine
10
19.600001
20
15.455043
30
0
11
19.599999
21
16.244957
31
0
39
0
210
0
220
0
230
1
0
LINE
5
16F
100
AcDbEntity
8
2
62
256
6
ByLayer
370
13
48
1
60
0
100
AcDbLine
10
11.6
20
15.85
30
0
11
14.599999
21
16.244957
31
0
39
0
210
0
220
0
230
1
0
LINE
5
170
100
AcDbEntity
8
2
62
256
6
ByLayer
370
13
48
1
60
0
100
AcDbLine
10
11.6
20
15.85
30
0
11
14.600001
21
15.455043
31
0
39
0
210
0
220
0
230
1
0
LINE
5
171
100
AcDbEntity
8
2
62
256
6
ByLayer
370
13
48
1
60
0
100
AcDbLine
10
14.599999
20
16.244957
30
0
11
14.600001
21
15.455043
31
0
39
0
210
0
220
0
230
1
0
ENDBLK
5
173
100
AcDbEntity
8
0
100
AcDbBlockEnd
0
ENDSEC
0
SECTION
2
ENTITIES
0
ELLIPSE
5
CB
100
AcDbEntity
8
1
62
256
6
ByLayer
370
18
48
1
60
0
100
AcDbEllipse
10
22.599858
20
-14.249754
30
0
11
-0.788383042513821
21
-25.3023195863502
31
0
210
0
220
0
230
1
40
0.465313
41
-1.99670797656819
42
-1.98633572882699
0
ELLIPSE
5
CC
100
AcDbEntity
8
1
62
256
6
ByLayer
370
18
48
1
60
0
100
AcDbEllipse
10
16.856291
20
-4.523551
30
0
11
-0.157644820260162
21
7.06107875661674E-10
31
0
210
0
220
0
230
1
40
0.951506
41
9.6499998105245E-10
42
0.349065858452319
0
ELLIPSE
5
CD
100
AcDbEntity
8
1
62
256
6
ByLayer
370
18
48
1
60
0
100
AcDbEllipse
10
2.827135
20
-5.95
30
0
11
-2.14373874554696E-16
21
-0.2
31
0
210
0
220
0
230
1
40
0.99863
41
-1.31811043292327
42
0.0436332312846977
0
ELLIPSE
5
CE
100
AcDbEntity
8
1
62
256
6
ByLayer
370
18
48
1
60
0
100
AcDbEllipse
10
16.368951
20
-5.15
30
0
11
-0.525482745531668
21
1.23115703716521E-15
31
0
210
0
220
0
230
1
40
0.951506
41
2.79252680320635
42
-2.79252680320635
0
ELLIPSE
5
CF
100
AcDbEntity
8
1
62
256
6
ByLayer
370
18
48
1
60
0
100
AcDbEllipse
10
22.400274
20
-5.95
30
0
11
2.34290668463255E-16
21
0.2
31
0
210
0
220
0
230
1
40
0.99863
41
3.0979594223051
42
-1.5707963267949
0
ELLIPSE
5
D0
100
AcDbEntity
8
1
62
256
6
ByLayer
370
18
48
1
60
0
100
AcDbEllipse
10
16.856291
20
-5.776449
30
0
11
-0.157644820258958
21
-7.08078012415993E-10
31
0
210
0
220
0
230
1
40
0.951506
41
-0.349065858465556
42
-9.76889730111623E-10
0
ELLIPSE
5
D1
100
AcDbEntity
8
1
62
256
6
ByLayer
370
18
48
1
60
0
100
AcDbEllipse
10
22.400274
20
-4.35
30
0
11
-2.14373874554696E-16
21
-0.2
31
0
210
0
220
0
230
1
40
0.99863
41
1.5707963267949
42
-3.0979594223051
0
ELLIPSE
5
D2
100
AcDbEntity
8
1
62
256
6
ByLayer
370
18
48
1
60
0
100
AcDbEllipse
10
10.329687
20
0.7
30
0
11
-1.10927357646675E-08
21
-3.17499983029032
31
0
210
0
220
0
230
1
40
0.104672
41
1.13351186382898
42
1.21347106076262
0
ELLIPSE
5
D3
100
AcDbEntity
8
1
62
256
6
ByLayer
370
18
48
1
60
0
100
AcDbEllipse
10
7.990771
20
0.7
30
0
11
-3.4031852585558E-15
21
-3.175
31
0
210
0
220
0
230
1
40
0.891007
41
1.92812161137986
42
3.12791685448399
0
ELLIPSE
5
D4
100
AcDbEntity
8
1
62
256
6
ByLayer
370
18
48
1
60
0
100
AcDbEllipse
10
8.067993
20
0.7
30
0
11
-3.4031852585558E-15
21
-3.175
31
0
210
0
220
0
230
1
40
0.891007
41
-0.447487209961234
42
1.13351184900457
0
ELLIPSE
5
D5
100
AcDbEntity
8
1
62
256
6
ByLayer
370
18
48
1
60
0
100
AcDbEllipse
10
11.528144
20
-3.7
30
0
11
-0.566886212732439
21
0.5778948726382
31
0
210
0
220
0
230
1
40
0.975869
41
0.80722147270867
42
2.37801779950353
0
ELLIPSE
5
D6
100
AcDbEntity
8
1
62
256
6
ByLayer
370
18
48
1
60
0
100
AcDbEllipse
10
8.385786
20
0.7
30
0
11
3.56338580448909
21
0
31
0
210
0
220
0
230
1
40
0.891007
41
2.01828353675613
42
2.13867589673189
0
ELLIPSE
5
D7
100
AcDbEntity
8
1
62
256
6
ByLayer
370
18
48
1
60
0
100
AcDbEllipse
10
8.385786
20
0.7
30
0
11
3.56338580448909
21
0
31
0
210
0
220
0
230
1
40
0.891007
41
-2.13867589673189
42
-2.01828353675613
0
ELLIPSE
5
D8
100
AcDbEntity
8
1
62
256
6
ByLayer
370
18
48
1
60
0
100
AcDbEllipse
10
7.990771
20
0.7
30
0
11
-3.4031852585558E-15
21
-3.175
31
0
210
0
220
0
230
1
40
0.891007
41
0.0136757991057959
42
1.21347104220993
0
ELLIPSE
5
D9
100
AcDbEntity
8
1
62
256
6
ByLayer
370
18
48
1
60
0
100
AcDbEllipse
10
9.714922
20
0.7
30
0
11
4.51818464352503
21
0
31
0
210
0
220
0
230
1
40
0.851581
41
2.37223954998915
42
2.64560026814813
0
ELLIPSE
5
DA
100
AcDbEntity
8
1
62
256
6
ByLayer
370
18
48
1
60
0
100
AcDbEllipse
10
9.714922
20
0.7
30
0
11
4.51818464352503
21
0
31
0
210
0
220
0
230
1
40
0.851581
41
-2.64560026814813
42
-2.37223954998915
0
ELLIPSE
5
DB
100
AcDbEntity
8
1
62
256
6
ByLayer
370
18
48
1
60
0
100
AcDbEllipse
10
10.329687
20
0.7
30
0
11
-1.10042000338059E-08
21
3.17499983165375
31
0
210
0
220
0
230
1
40
0.104672
41
-1.21347106061634
42
-1.13351186371275
0
ELLIPSE
5
DC
100
AcDbEntity
8
1
62
256
6
ByLayer
370
18
48
1
60
0
100
AcDbEllipse
10
11.40548
20
-3.7
30
0
11
9.37162673852887E-16
21
0.799999999999886
31
0
210
0
220
0
230
1
40
0.968413
41
1.5707963267949
42
3.14159265358979
0
ELLIPSE
5
DD
100
AcDbEntity
8
1
62
256
6
ByLayer
370
18
48
1
60
0
100
AcDbEllipse
10
8.067993
20
0.7
30
0
11
-3.4031852585558E-15
21
-3.175
31
0
210
0
220
0
230
1
40
0.891007
41
2.00808080458522
42
-2.69410544362856
0
ELLIPSE
5
DE
100
AcDbEntity
8
1
62
256
6
ByLayer
370
18
48
1
60
0
100
AcDbEllipse
10
8.606055
20
-3.7
30
0
11
1.76215141166821
21
0
31
0
210
0
220
0
230
1
40
0.45399
41
-3.14159265358979
42
-1.57079632679492
0
ELLIPSE
5
DF
100
AcDbEntity
8
1
62
256
6
ByLayer
370
18
48
1
60
0
100
AcDbEllipse
10
7.858547
20
0.7
30
0
11
3.51436002694883E-15
21
3
31
0
210
0
220
0
230
1
40
0.891007
41
0
42
-3.14159258717258
0
ELLIPSE
5
E0
100
AcDbEntity
8
1
62
256
6
ByLayer
370
18
48
1
60
0
100
AcDbEllipse
10
8.040143
20
0.7
30
0
11
3.51436002694883E-15
21
3
31
0
210
0
220
0
230
1
40
0.891007
41
0
42
-2.93149848048291
0
ELLIPSE
5
E1
100
AcDbEntity
8
1
62
256
6
ByLayer
370
18
48
1
60
0
100
AcDbEllipse
10
8.040143
20
0.7
30
0
11
3.51436002694883E-15
21
3
31
0
210
0
220
0
230
1
40
0.891007
41
-0.222071377729853
42
-2.90740745111097E-16
0
ELLIPSE
5
E2
100
AcDbEntity
8
1
62
256
6
ByLayer
370
18
48
1
60
0
100
AcDbEllipse
10
8.130941
20
0.7
30
0
11
3.28006935848557E-15
21
2.8
31
0
210
0
220
0
230
1
40
0.891007
41
0
42
6.28318530717959
0
ELLIPSE
5
E3
100
AcDbEntity
8
1
62
256
6
ByLayer
370
18
48
1
60
0
100
AcDbEllipse
10
7.359157
20
-1.18456
30
0
11
8.03616992828965E-16
21
0.686
31
0
210
0
220
0
230
1
40
0.891007
41
0.121614041217772
42
0.220982941272213
0
ELLIPSE
5
E4
100
AcDbEntity
8
1
62
256
6
ByLayer
370
18
48
1
60
0
100
AcDbEllipse
10
7.978935
20
-0.497076
30
0
11
3.42064375956352E-16
21
0.292
31
0
210
0
220
0
230
1
40
0.891007
41
-1.72160902068968
42
-1.30900918493175
0
ELLIPSE
5
E5
100
AcDbEntity
8
1
62
256
6
ByLayer
370
18
48
1
60
0
100
AcDbEllipse
10
8.82065
20
-0.243962
30
0
11
8.03616992828965E-16
21
0.686
31
0
210
0
220
0
230
1
40
0.891007
41
0.26460218141648
42
1.04859282503727
0
ELLIPSE
5
E6
100
AcDbEntity
8
1
62
256
6
ByLayer
370
18
48
1
60
0
100
AcDbEllipse
10
8.82065
20
-0.243962
30
0
11
8.03616992828965E-16
21
0.686
31
0
210
0
220
0
230
1
40
0.891007
41
1.04859282503727
42
1.83258346865807
0
ELLIPSE
5
E7
100
AcDbEntity
8
1
62
256
6
ByLayer
370
18
48
1
60
0
100
AcDbEllipse
10
8.592756
20
0.7
30
0
11
3.42064375956352E-16
21
0.292
31
0
210
0
220
0
230
1
40
0.891007
41
-2.8769904721734
42
-0.264602181416504
0
ELLIPSE
5
E8
100
AcDbEntity
8
1
62
256
6
ByLayer
370
18
48
1
60
0
100
AcDbEllipse
10
8.82065
20
1.643962
30
0
11
8.03616992828965E-16
21
0.686
31
0
210
0
220
0
230
1
40
0.891007
41
1.30900918493172
42
2.09299982855252
0
ELLIPSE
5
E9
100
AcDbEntity
8
1
62
256
6
ByLayer
370
18
48
1
60
0
100
AcDbEllipse
10
8.82065
20
1.643962
30
0
11
8.03616992828965E-16
21
0.686
31
0
210
0
220
0
230
1
40
0.891007
41
2.09299982855252
42
2.87699047217336
0
ELLIPSE
5
EA
100
AcDbEntity
8
1
62
256
6
ByLayer
370
18
48
1
60
0
100
AcDbEllipse
10
8.007749
20
0.7
30
0
11
-1.29321039825121E-15
21
-1.2065
31
0
210
0
220
0
230
1
40
0.891007
41
-0.0690326334119334
42
0.0690326334119324
0
ELLIPSE
5
EB
100
AcDbEntity
8
1
62
256
6
ByLayer
370
18
48
1
60
0
100
AcDbEllipse
10
8.007749
20
0.7
30
0
11
-1.29321039825121E-15
21
-1.2065
31
0
210
0
220
0
230
1
40
0.891007
41
3.07256002017786
42
-3.07256002017789
0
ELLIPSE
5
EC
100
AcDbEntity
8
1
62
256
6
ByLayer
370
18
48
1
60
0
100
AcDbEllipse
10
8.130941
20
0.7
30
0
11
-1.79698900345474E-15
21
-1.6765
31
0
210
0
220
0
230
1
40
0.891007
41
0.526389323279636
42
1.5707963267949
0
ELLIPSE
5
ED
100
AcDbEntity
8
1
62
256
6
ByLayer
370
18
48
1
60
0
100
AcDbEllipse
10
8.130941
20
0.7
30
0
11
-1.79698900345474E-15
21
-1.6765
31
0
210
0
220
0
230
1
40
0.891007
41
-0.526389323279613
42
0.526389323279636
0
ELLIPSE
5
EE
100
AcDbEntity
8
1
62
256
6
ByLayer
370
18
48
1
60
0
100
AcDbEllipse
10
8.130941
20
0.7
30
0
11
-1.79698900345474E-15
21
-1.6765
31
0
210
0
220
0
230
1
40
0.891007
41
-1.5707963267949
42
-0.526389323279613
0
ELLIPSE
5
EF
100
AcDbEntity
8
1
62
256
6
ByLayer
370
18
48
1
60
0
100
AcDbEllipse
10
8.130941
20
0.7
30
0
11
-1.79698900345474E-15
21
-1.6765
31
0
210
0
220
0
230
1
40
0.891007
41
-2.61520333031019
42
-1.5707963267949
0
ELLIPSE
5
F0
100
AcDbEntity
8
1
62
256
6
ByLayer
370
18
48
1
60
0
100
AcDbEllipse
10
8.130941
20
0.7
30
0
11
-1.79698900345474E-15
21
-1.6765
31
0
210
0
220
0
230
1
40
0.891007
41
2.61520333031016
42
-2.61520333031019
0
ELLIPSE
5
F1
100
AcDbEntity
8
1
62
256
6
ByLayer
370
18
48
1
60
0
100
AcDbEllipse
10
8.130941
20
0.7
30
0
11
-1.79698900345474E-15
21
-1.6765
31
0
210
0
220
0
230
1
40
0.891007
41
1.5707963267949
42
2.61520333031016
0
ELLIPSE
5
F2
100
AcDbEntity
8
1
62
256
6
ByLayer
370
18
48
1
60
0
100
AcDbEllipse
10
7.359157
20
0.7
30
0
11
-1.29321039825121E-15
21
-1.2065
31
0
210
0
220
0
230
1
40
0.891007
41
0.0690326334123829
42
1.04859282503727
0
ELLIPSE
5
F3
100
AcDbEntity
8
1
62
256
6
ByLayer
370
18
48
1
60
0
100
AcDbEllipse
10
7.359157
20
0.7
30
0
11
-1.29321039825132E-15
21
-1.20650000000011
31
0
210
0
220
0
230
1
40
0.891007
41
2.09299982855253
42
3.07256002017742
0
ELLIPSE
5
F4
100
AcDbEntity
8
1
62
256
6
ByLayer
370
18
48
1
60
0
100
AcDbEllipse
10
7.359157
20
0.7
30
0
11
-1.29321039825132E-15
21
-1.20650000000011
31
0
210
0
220
0
230
1
40
0.891007
41
1.04859282503726
42
2.09299982855253
0
ELLIPSE
5
F5
100
AcDbEntity
8
1
62
256
6
ByLayer
370
18
48
1
60
0
100
AcDbEllipse
10
7.359157
20
0.7
30
0
11
-1.29321039825132E-15
21
-1.20650000000011
31
0
210
0
220
0
230
1
40
0.891007
41
-3.07256002017742
42
-3.01158279321945
0
ELLIPSE
5
F6
100
AcDbEntity
8
1
62
256
6
ByLayer
370
18
48
1
60
0
100
AcDbEllipse
10
7.359157
20
0.7
30
0
11
-1.29321039825132E-15
21
-1.20650000000011
31
0
210
0
220
0
230
1
40
0.891007
41
-0.133239857061448
42
-0.0690326334124014
0
ELLIPSE
5
F7
100
AcDbEntity
8
1
62
256
6
ByLayer
370
18
48
1
60
0
100
AcDbEllipse
10
7.978935
20
1.897076
30
0
11
3.42064375956352E-16
21
0.292
31
0
210
0
220
0
230
1
40
0.891007
41
-1.83258346865806
42
-1.39796909666808
0
ELLIPSE
5
F8
100
AcDbEntity
8
1
62
256
6
ByLayer
370
18
48
1
60
0
100
AcDbEllipse
10
7.359157
20
2.58456
30
0
11
8.03616992828965E-16
21
0.686
31
0
210
0
220
0
230
1
40
0.891007
41
2.91665424279292
42
3.01997861237209
0
POINT
5
6C
100
AcDbEntity
8
81
62
256
6
ByLayer
370
18
48
1
60
0
100
AcDbPoint
10
22.6
20
-6.1
30
0
39
0
210
0
220
0
230
1
50
360
0
POINT
5
6E
100
AcDbEntity
8
80
62
256
6
ByLayer
370
18
48
1
60
0
100
AcDbPoint
10
0
20
0
30
0
39
0
210
0
220
0
230
1
50
360
0
POINT
5
70
100
AcDbEntity
8
2
62
256
6
ByLayer
370
18
48
1
60
0
100
AcDbPoint
10
22.6
20
5.25
30
0
39
0
210
0
220
0
230
1
50
360
0
POINT
5
72
100
AcDbEntity
8
4
62
256
6
ByLayer
370
13
48
1
60
0
100
AcDbPoint
10
5.494159
20
-0.7
30
0
39
0
210
0
220
0
230
1
50
360
0
SPLINE
5
F9
100
AcDbEntity
8
1
62
256
6
ByLayer
370
18
48
1
60
0
100
AcDbSpline
70
4
71
3
72
41
73
37
40
0
40
0
40
0
40
0
40
0.0252968302735072
40
0.0554517927041353
40
0.0856271401883368
40
0.115827642266094
40
0.146056350499836
40
0.176314620326408
40
0.206602292733591
40
0.236917985161001
40
0.267259434846683
40
0.297623842797216
40
0.328008178922475
40
0.358409424157357
40
0.388824739773797
40
0.419251565206728
40
0.449687652772194
40
0.480131051011699
40
0.51058004904088
40
0.541033093360341
40
0.571488304784877
40
0.601943994327478
40
0.63239838529802
40
0.662849405038698
40
0.693294607199988
40
0.723731126308423
40
0.754155678224829
40
0.78456462092659
40
0.814954088552607
40
0.845320206587083
40
0.875659386467478
40
0.905968683797586
40
0.936246187345443
40
0.966491389617382
40
0.996705478966865
40
1
40
1
40
1
40
1
41
1
10
8.60687380663359
20
-2.23157865705701
30
0
41
1
10
8.66752885719416
20
-2.21772308043299
30
0
41
1
10
8.79901654990525
20
-2.18206755276748
30
0
41
1
10
8.99745305376319
20
-2.10795950368015
30
0
41
1
10
9.20073173780469
20
-2.01150156801592
30
0
41
1
10
9.39622599628933
20
-1.8966502330787
30
0
41
1
10
9.58264583691991
20
-1.76439147328472
30
0
41
1
10
9.75873731582848
20
-1.6155331761488
30
0
41
1
10
9.92331441518525
20
-1.45107676106414
30
0
41
1
10
10.0752627880667
20
-1.27211143352258
30
0
41
1
10
10.213550834821
20
-1.07983432273701
30
0
41
1
10
10.3372379791641
20
-0.875534834548233
30
0
41
1
10
10.4454824084854
20
-0.660586989785457
30
0
41
1
10
10.5375474192069
20
-0.436438475518827
30
0
41
1
10
10.6128065343532
20
-0.204599889615935
30
0
41
1
10
10.6707474252701
20
0.0333663793904009
30
0
41
1
10
10.7109747875406
20
0.275857217945259
30
0
41
1
10
10.7332123198117
20
0.521239745076684
30
0
41
1
10
10.7373039488329
20
0.767862094016124
30
0
41
1
10
10.7232144779199
20
1.01406298594836
30
0
41
1
10
10.6910299637524
20
1.25818286689017
30
0
41
1
10
10.6409573757172
20
1.49857455673427
30
0
41
1
10
10.573323378664
20
1.73361449281239
30
0
41
1
10
10.4885729844872
20
1.96171227627781
30
0
41
1
10
10.3872678143416
20
2.1813208121379
30
0
41
1
10
10.2700836976371
20
2.3909467439841
30
0
41
1
10
10.1378076289159
20
2.58916153855861
30
0
41
1
10
9.99133346411585
20
2.77461086102628
30
0
41
1
10
9.83165777628659
20
2.94603084810177
30
0
41
1
10
9.65986956897063
20
3.10223860971138
30
0
41
1
10
9.47715637896428
20
3.24221766888704
30
0
41
1
10
9.28474212303854
20
3.36484680278602
30
0
41
1
10
9.0840720713621
20
3.4699529720148
30
0
41
1
10
8.87607050785448
20
3.55442320036664
30
0
41
1
10
8.72680827737119
20
3.60527120787722
30
0
41
1
10
8.64645486076046
20
3.62252428308301
30
0
41
1
10
8.63854079374471
20
3.62416108014364
30
0
0
SPLINE
5
FA
100
AcDbEntity
8
1
62
256
6
ByLayer
370
18
48
1
60
0
100
AcDbSpline
70
4
71
3
72
16
73
12
40
0
40
0
40
0
40
0
40
0.0303601224975168
40
0.0303601224975168
40
0.324507790341789
40
0.324507790341789
40
0.608541233132009
40
0.608541233132009
40
0.913119618386591
40
0.913119618386591
40
1
40
1
40
1
40
1
41
1
10
12.3620242783389
20
-4.35156820316104
30
0
41
1
10
12.3560078500209
20
-4.34695952949076
30
0
41
1
10
12.3500945042919
20
-4.34225479670516
30
0
41
1
10
12.2878579630735
20
-4.29079786418279
30
0
41
1
10
12.2401576479396
20
-4.23402171495235
30
0
41
1
10
12.1711326704766
20
-4.11263924615869
30
0
41
1
10
12.1480153593038
20
-4.04690365645615
30
0
41
1
10
12.1235881196886
20
-3.90865749931146
30
0
41
1
10
12.1235636809991
20
-3.83436215144107
30
0
41
1
10
12.1376239073949
20
-3.74129566626752
30
0
41
1
10
12.141669900297
20
-3.72056464574754
30
0
41
1
10
12.1465641280598
20
-3.70000000000127
30
0
0
SPLINE
5
FB
100
AcDbEntity
8
1
62
256
6
ByLayer
370
18
48
1
60
0
100
AcDbSpline
70
4
71
3
72
14
73
10
40
0
40
0
40
0
40
0
40
0.327896750616612
40
0.327896750616612
40
0.630873364096903
40
0.630873364096903
40
0.885765080825223
40
0.885765080825223
40
1
40
1
40
1
40
1
41
1
10
18.9149625709524
20
-4.35338263343243
30
0
41
1
10
18.843091837768
20
-4.31146005571833
30
0
41
1
10
18.7750795624681
20
-4.25934525082246
30
0
41
1
10
18.6614798401366
20
-4.13975157490813
30
0
41
1
10
18.6134898832796
20
-4.07225449549515
30
0
41
1
10
18.5482734734366
20
-3.93543103598475
30
0
41
1
10
18.5268229504666
20
-3.86652215059851
30
0
41
1
10
18.5121820111321
20
-3.76455009372455
30
0
41
1
10
18.5098579815528
20
-3.73222392179176
30
0
41
1
10
18.5098579815528
20
-3.70000000000141
30
0
0
SPLINE
5
FC
100
AcDbEntity
8
1
62
256
6
ByLayer
370
18
48
1
60
0
100
AcDbSpline
70
4
71
3
72
12
73
8
40
0
40
0
40
0
40
0
40
0.367292260733833
40
0.367292260733833
40
0.734922303957979
40
0.734922303957979
40
1
40
1
40
1
40
1
41
1
10
15.9498799513891
20
-4.86964356443315
30
0
41
1
10
15.985961595192
20
-4.95562174588957
30
0
41
1
10
16.0100076317367
20
-5.05010421876679
30
0
41
1
10
16.0299146820519
20
-5.24060593788235
30
0
41
1
10
16.0260230842774
20
-5.33924862201965
30
0
41
1
10
15.99597997168
20
-5.50113656782423
30
0
41
1
10
15.976098155032
20
-5.5678816358573
30
0
41
1
10
15.9498799513942
20
-5.63035643556853
30
0
0
SPLINE
5
FD
100
AcDbEntity
8
1
62
256
6
ByLayer
370
18
48
1
60
0
100
AcDbSpline
70
4
71
3
72
8
73
4
40
0
40
0
40
0
40
0
40
1
40
1
40
1
40
1
41
1
10
15.7927158449527
20
-4.50000000000128
30
0
41
1
10
15.8457731973076
20
-4.6228156527188
30
0
41
1
10
15.8980372653284
20
-4.74610873066413
30
0
41
1
10
15.9498799513891
20
-4.86964356443315
30
0
0
SPLINE
5
FE
100
AcDbEntity
8
1
62
256
6
ByLayer
370
18
48
1
60
0
100
AcDbSpline
70
4
71
3
72
8
73
4
40
0
40
0
40
0
40
0
40
1
40
1
40
1
40
1
41
1
10
15.9498799513891
20
-5.63035643556643
30
0
41
1
10
15.8980372653282
20
-5.75389126933595
30
0
41
1
10
15.8457731973072
20
-5.87718434728177
30
0
41
1
10
15.7927158449521
20
-5.9999999999998
30
0
0
SPLINE
5
FF
100
AcDbEntity
8
1
62
256
6
ByLayer
370
18
48
1
60
0
100
AcDbSpline
70
4
71
3
72
8
73
4
40
0
40
0
40
0
40
0
40
1
40
1
40
1
40
1
41
1
10
10.641028395274
20
1.81051885622563
30
0
41
1
10
10.6432078779637
20
1.69521765270901
30
0
41
1
10
10.6450336579632
20
1.57745485096717
30
0
41
1
10
10.6465053210758
20
1.45802403705315
30
0
0
SPLINE
5
100
100
AcDbEntity
8
1
62
256
6
ByLayer
370
18
48
1
60
0
100
AcDbSpline
70
4
71
3
72
8
73
4
40
0
40
0
40
0
40
0
40
1
40
1
40
1
40
1
41
1
10
10.6465614102193
20
-0.0534823842029084
30
0
41
1
10
10.6450807163354
20
-0.174417085419748
30
0
41
1
10
10.6432365205749
20
-0.293702372241313
30
0
41
1
10
10.641028395274
20
-0.410518856226702
30
0
0
SPLINE
5
101
100
AcDbEntity
8
1
62
256
6
ByLayer
370
18
48
1
60
0
100
AcDbSpline
70
4
71
3
72
12
73
8
40
0
40
0
40
0
40
0
40
0.495447747571062
40
0.495447747571062
40
0.900382671304281
40
0.900382671304281
40
1
40
1
40
1
40
1
41
1
10
7.64596020340326
20
-0.702336787649671
30
0
41
1
10
7.673756329833
20
-0.651608012956217
30
0
41
1
10
7.71110495253871
20
-0.607123351452714
30
0
41
1
10
7.79644286138313
20
-0.545109901028667
30
0
41
1
10
7.84235901166875
20
-0.52358501525984
30
0
41
1
10
7.90687295131232
20
-0.508124204664824
30
0
41
1
10
7.92007255596718
20
-0.505591927722918
30
0
41
1
10
7.93359756299478
20
-0.50362635089553
30
0
0
SPLINE
5
102
100
AcDbEntity
8
1
62
256
6
ByLayer
370
18
48
1
60
0
100
AcDbSpline
70
4
71
3
72
16
73
12
40
0
40
0
40
0
40
0
40
0.0762647947695926
40
0.0762647947695926
40
0.388591267886613
40
0.388591267886613
40
0.66841062628304
40
0.66841062628304
40
0.914934097560631
40
0.914934097560631
40
1
40
1
40
1
40
1
41
1
10
7.64596020340511
20
-0.702336787650978
30
0
41
1
10
7.64239840718989
20
-0.708837173888696
30
0
41
1
10
7.63850088563953
20
-0.715070123853508
30
0
41
1
10
7.61718950442497
20
-0.744990746325556
30
0
41
1
10
7.59426221675028
20
-0.764261575041303
30
0
41
1
10
7.54346068563035
20
-0.786338848521439
30
0
41
1
10
7.51552217884728
20
-0.790918641503197
30
0
41
1
10
7.46088670922899
20
-0.786111693922066
30
0
41
1
10
7.43362989266285
20
-0.778202222166897
30
0
41
1
10
7.39835765210108
20
-0.760532348206908
30
0
41
1
10
7.38931422812357
20
-0.75532906697191
30
0
41
1
10
7.38044781181196
20
-0.749546762836502
30
0
0
SPLINE
5
103
100
AcDbEntity
8
1
62
256
6
ByLayer
370
18
48
1
60
0
100
AcDbSpline
70
4
71
3
72
16
73
12
40
0
40
0
40
0
40
0
40
0.142319077947403
40
0.142319077947403
40
0.364748229791862
40
0.364748229791862
40
0.594359598464851
40
0.594359598464851
40
0.841957615948613
40
0.841957615948613
40
1
40
1
40
1
40
1
41
1
10
7.38044781181196
20
-0.749546762836502
30
0
41
1
10
7.36586465955193
20
-0.740036243743276
30
0
41
1
10
7.3516310879827
20
-0.728858854999402
30
0
41
1
10
7.3172865389096
20
-0.696984072942541
30
0
41
1
10
7.29795163394203
20
-0.674004433061754
30
0
41
1
10
7.26459500920888
20
-0.62404956450618
30
0
41
1
10
7.25032626033254
20
-0.596352739546774
30
0
41
1
10
7.22762310254433
20
-0.538409376359141
30
0
41
1
10
7.21942297979231
20
-0.507416359620095
30
0
41
1
10
7.21195500260711
20
-0.45851105757481
30
0
41
1
10
7.21048465846167
20
-0.439649039244585
30
0
41
1
10
7.21039403444036
20
-0.421504041775478
30
0
0
SPLINE
5
104
100
AcDbEntity
8
1
62
256
6
ByLayer
370
18
48
1
60
0
100
AcDbSpline
70
4
71
3
72
18
73
14
40
0
40
0
40
0
40
0
40
0.212077939306972
40
0.212077939306972
40
0.386277180669145
40
0.386277180669145
40
0.562162788938249
40
0.562162788938249
40
0.715139313179791
40
0.715139313179791
40
0.917926548134303
40
0.917926548134303
40
1
40
1
40
1
40
1
41
1
10
6.77984103810729
20
0.418162587870029
30
0
41
1
10
6.82408260138516
20
0.399637478151817
30
0
41
1
10
6.86870379916701
20
0.369736662590867
30
0
41
1
10
6.94698165406137
20
0.294671682068412
30
0
41
1
10
6.98206776768137
20
0.252205108783556
30
0
41
1
10
7.04764155234528
20
0.153752959746185
30
0
41
1
10
7.07906453860829
20
0.0960562919434835
30
0
41
1
10
7.12899940886896
20
-0.0164240874443351
30
0
41
1
10
7.14925551711423
20
-0.0719139029176006
30
0
41
1
10
7.18609225991125
20
-0.198566399359322
30
0
41
1
10
7.20002983673311
20
-0.271103837731204
30
0
41
1
10
7.20890989020504
20
-0.367290879659976
30
0
41
1
10
7.21026036007464
20
-0.39473938278141
30
0
41
1
10
7.21039403444036
20
-0.421504041775449
30
0
0
SPLINE
5
105
100
AcDbEntity
8
1
62
256
6
ByLayer
370
18
48
1
60
0
100
AcDbSpline
70
4
71
3
72
14
73
10
40
0
40
0
40
0
40
0
40
0.282570466285493
40
0.282570466285493
40
0.569068632820076
40
0.569068632820076
40
0.828374842927874
40
0.828374842927874
40
1
40
1
40
1
40
1
41
1
10
6.77984103810729
20
0.418162587870029
30
0
41
1
10
6.75900367442878
20
0.426887741770202
30
0
41
1
10
6.73825944860275
20
0.441542342540345
30
0
41
1
10
6.70063982139175
20
0.481842143299133
30
0
41
1
10
6.68326674028427
20
0.508314853498547
30
0
41
1
10
6.65744726586027
20
0.56665288848518
30
0
41
1
10
6.64795850189722
20
0.598682456023255
30
0
41
1
10
6.63901836571588
20
0.654068886480133
30
0
41
1
10
6.63716865788427
20
0.677127473866619
30
0
41
1
10
6.63716865788427
20
0.700000000000387
30
0
0
SPLINE
5
106
100
AcDbEntity
8
1
62
256
6
ByLayer
370
18
48
1
60
0
100
AcDbSpline
70
4
71
3
72
16
73
12
40
0
40
0
40
0
40
0
40
0.0620393275786148
40
0.0620393275786148
40
0.284918893961832
40
0.284918893961832
40
0.51054261754728
40
0.51054261754728
40
0.750580338324038
40
0.750580338324038
40
1
40
1
40
1
40
1
41
1
10
6.63716865788427
20
0.700000000000387
30
0
41
1
10
6.63716865788427
20
0.708300761115567
30
0
41
1
10
6.63740806530632
20
0.716610734975518
30
0
41
1
10
6.63958494204905
20
0.754362833714424
30
0
41
1
10
6.64442265640645
20
0.783744980188914
30
0
41
1
10
6.65937153161172
20
0.838023485147971
30
0
41
1
10
6.66972049943922
20
0.863560064296962
30
0
41
1
10
6.69478615117774
20
0.909173473869032
30
0
41
1
10
6.71003473444887
20
0.929388829334101
30
0
41
1
10
6.74314000448393
20
0.961842178746707
30
0
41
1
10
6.76143870501662
20
0.974131869778347
30
0
41
1
10
6.77984103810743
20
0.98183741213083
30
0
0
SPLINE
5
107
100
AcDbEntity
8
1
62
256
6
ByLayer
370
18
48
1
60
0
100
AcDbSpline
70
4
71
3
72
18
73
14
40
0
40
0
40
0
40
0
40
0.212491310234948
40
0.212491310234948
40
0.386617575418316
40
0.386617575418316
40
0.562425340506593
40
0.562425340506593
40
0.715387118727927
40
0.715387118727927
40
0.918247542724689
40
0.918247542724689
40
1
40
1
40
1
40
1
41
1
10
7.21039403444036
20
1.82150404177625
30
0
41
1
10
7.21005164026616
20
1.75294891329924
30
0
41
1
10
7.20156427139503
20
1.67918502551197
30
0
41
1
10
7.17151544428464
20
1.54302215337321
30
0
41
1
10
7.15219887516662
20
1.47944876008148
30
0
41
1
10
7.10440277794703
20
1.35690553953157
30
0
41
1
10
7.07510742550249
20
1.29623246432246
30
0
41
1
10
7.01609064749849
20
1.1962957464041
30
0
41
1
10
6.98620798769454
20
1.15403177774562
30
0
41
1
10
6.91569397174464
20
1.071396705692
30
0
41
1
10
6.87349997358967
20
1.03451809805895
30
0
41
1
10
6.81431791987762
20
0.997950670801288
30
0
41
1
10
6.79707921539602
20
0.989055491736366
30
0
41
1
10
6.77984103810746
20
0.98183741213083
30
0
0
SPLINE
5
108
100
AcDbEntity
8
1
62
256
6
ByLayer
370
18
48
1
60
0
100
AcDbSpline
70
4
71
3
72
14
73
10
40
0
40
0
40
0
40
0
40
0.283961749036682
40
0.283961749036682
40
0.570285189258981
40
0.570285189258981
40
0.829451094335636
40
0.829451094335636
40
1
40
1
40
1
40
1
41
1
10
7.21039403444038
20
1.82150404177625
30
0
41
1
10
7.21055577459873
20
1.85388811302892
30
0
41
1
10
7.21519068693658
20
1.88882554195931
30
0
41
1
10
7.23402079537493
20
1.95850421461441
30
0
41
1
10
7.24863800758035
20
1.99431482284234
30
0
41
1
10
7.28492066135658
20
2.05690846987071
30
0
41
1
10
7.30637540155175
20
2.08514373353367
30
0
41
1
10
7.3459124312285
20
2.12427613243216
30
0
41
1
10
7.36293717502491
20
2.1381270613538
30
0
41
1
10
7.38044781181196
20
2.1495467628373
30
0
0
SPLINE
5
109
100
AcDbEntity
8
1
62
256
6
ByLayer
370
18
48
1
60
0
100
AcDbSpline
70
4
71
3
72
16
73
12
40
0
40
0
40
0
40
0
40
0.0624381308001991
40
0.0624381308001991
40
0.283176804509564
40
0.283176804509564
40
0.506689877746599
40
0.506689877746599
40
0.744525276457853
40
0.744525276457853
40
1
40
1
40
1
40
1
41
1
10
7.38044781181196
20
2.1495467628373
30
0
41
1
10
7.38694501966506
20
2.15378396877452
30
0
41
1
10
7.39353439537885
20
2.15770925194605
30
0
41
1
10
7.42347463432983
20
2.17389408653637
30
0
41
1
10
7.4477667606065
20
2.18241558862903
30
0
41
1
10
7.49466223456932
20
2.19038000158184
30
0
41
1
10
7.51783736757096
20
2.18983232117952
30
0
41
1
10
7.56136262481309
20
2.18018142671852
30
0
41
1
10
7.58198946020366
20
2.17044293260418
30
0
41
1
10
7.61837173871399
20
2.14276136963485
30
0
41
1
10
7.63411067302127
20
2.12396254037881
30
0
41
1
10
7.64596020340332
20
2.10233678765047
30
0
0
SPLINE
5
10A
100
AcDbEntity
8
1
62
256
6
ByLayer
370
18
48
1
60
0
100
AcDbSpline
70
4
71
3
72
12
73
8
40
0
40
0
40
0
40
0
40
0.322038032637029
40
0.322038032637029
40
0.791348107785118
40
0.791348107785118
40
1
40
1
40
1
40
1
41
1
10
7.93359756299481
20
1.9036263508963
30
0
41
1
10
7.8901355314116
20
1.90994264795819
30
0
41
1
10
7.84990538822913
20
1.92225949397607
30
0
41
1
10
7.7629981337306
20
1.96412133220843
30
0
41
1
10
7.72013828483063
20
1.99951701990608
30
0
41
1
10
7.67124937074931
20
2.06041895968519
30
0
41
1
10
7.65777193961469
20
2.08078001043114
30
0
41
1
10
7.64596020340332
20
2.10233678765047
30
0
0
SPLINE
5
10B
100
AcDbEntity
8
1
62
256
6
ByLayer
370
18
48
1
60
0
100
AcDbSpline
70
4
71
3
72
12
73
8
40
0
40
0
40
0
40
0
40
0.322038032642768
40
0.322038032642768
40
0.791348107792553
40
0.791348107792553
40
1
40
1
40
1
40
1
41
1
10
8.08189978337722
20
-0.50362635089553
30
0
41
1
10
8.13053384739572
20
-0.50994264795753
30
0
41
1
10
8.18080784822811
20
-0.522259493975724
30
0
41
1
10
8.30051082610453
20
-0.564121332208913
30
0
41
1
10
8.37014622140865
20
-0.599517019906955
30
0
41
1
10
8.46184302238646
20
-0.660418959685899
30
0
41
1
10
8.48926904992072
20
-0.680780010431135
30
0
41
1
10
8.51542393151209
20
-0.702336787649699
30
0
0
SPLINE
5
10C
100
AcDbEntity
8
1
62
256
6
ByLayer
370
18
48
1
60
0
100
AcDbSpline
70
4
71
3
72
16
73
12
40
0
40
0
40
0
40
0
40
0.062438130812446
40
0.062438130812446
40
0.283176804521523
40
0.283176804521523
40
0.506689877758997
40
0.506689877758997
40
0.744525276471274
40
0.744525276471274
40
1
40
1
40
1
40
1
41
1
10
8.88143437956018
20
-0.74954676283653
30
0
41
1
10
8.87493717170585
20
-0.753783968774542
30
0
41
1
10
8.86818922873883
20
-0.757709251946778
30
0
41
1
10
8.83682370464877
20
-0.773894086537211
30
0
41
1
10
8.80941208325558
20
-0.782415588629362
30
0
41
1
10
8.75275215146303
20
-0.790380001581241
30
0
41
1
10
8.72276962478838
20
-0.789832321178409
30
0
41
1
10
8.66238421180557
20
-0.780181426716439
30
0
41
1
10
8.63131982275803
20
-0.770442932601611
30
0
41
1
10
8.57117020331054
20
-0.742761369632092
30
0
41
1
10
8.54166250122825
20
-0.723962540376874
30
0
41
1
10
8.51542393151209
20
-0.702336787649699
30
0
0
SPLINE
5
10D
100
AcDbEntity
8
1
62
256
6
ByLayer
370
18
48
1
60
0
100
AcDbSpline
70
4
71
3
72
14
73
10
40
0
40
0
40
0
40
0
40
0.283961749053859
40
0.283961749053859
40
0.570285189274026
40
0.570285189274026
40
0.829451094348942
40
0.829451094348942
40
1
40
1
40
1
40
1
41
1
10
8.95256923257074
20
-0.421504041775449
30
0
41
1
10
8.96819325170785
20
-0.453888113030104
30
0
41
1
10
8.97858857717938
20
-0.488825541962768
30
0
41
1
10
8.98610736791463
20
-0.558504214619745
30
0
41
1
10
8.98317647797739
20
-0.594314822847281
30
0
41
1
10
8.96395935754612
20
-0.656908469874708
30
0
41
1
10
8.94862115451809
20
-0.685143733537132
30
0
41
1
10
8.91480056698299
20
-0.724276132433516
30
0
41
1
10
8.89894501634592
20
-0.738127061353907
30
0
41
1
10
8.88143437956018
20
-0.74954676283653
30
0
0
SPLINE
5
10E
100
AcDbEntity
8
1
62
256
6
ByLayer
370
18
48
1
60
0
100
AcDbSpline
70
4
71
3
72
18
73
14
40
0
40
0
40
0
40
0
40
0.212491310237583
40
0.212491310237583
40
0.386617575420429
40
0.386617575420429
40
0.562425340508148
40
0.562425340508148
40
0.715387118729339
40
0.715387118729339
40
0.918247542726526
40
0.918247542726526
40
1
40
1
40
1
40
1
41
1
10
8.95256923257074
20
-0.421504041775449
30
0
41
1
10
8.91949412503206
20
-0.352948913297581
30
0
41
1
10
8.89642103810047
20
-0.279185025509292
30
0
41
1
10
8.88039646069069
20
-0.143022153369657
30
0
41
1
10
8.88281111050173
20
-0.079448760078094
30
0
41
1
10
8.91106208542314
20
0.0430944604713943
30
0
41
1
10
8.93784150992184
20
0.103767535680191
30
0
41
1
10
9.00713959364953
20
0.203704253598147
30
0
41
1
10
9.04785256143066
20
0.245968222256494
30
0
41
1
10
9.15284377789646
20
0.328603294309886
30
0
41
1
10
9.2220035429404
20
0.365481901942786
30
0
41
1
10
9.32299442535833
20
0.402049329199997
30
0
41
1
10
9.35288872601254
20
0.410944508264663
30
0
41
1
10
9.38312222890394
20
0.418162587870029
30
0
0
SPLINE
5
10F
100
AcDbEntity
8
1
62
256
6
ByLayer
370
18
48
1
60
0
100
AcDbSpline
70
4
71
3
72
16
73
12
40
0
40
0
40
0
40
0
40
0.062039327624614
40
0.062039327624614
40
0.28491889400769
40
0.28491889400769
40
0.510542617595615
40
0.510542617595615
40
0.750580338376954
40
0.750580338376954
40
1
40
1
40
1
40
1
41
1
10
9.62471353348789
20
0.700000000000387
30
0
41
1
10
9.62471353348789
20
0.691699238879124
30
0
41
1
10
9.62432052942569
20
0.683389265013062
30
0
41
1
10
9.62074558916225
20
0.645637166268415
30
0
41
1
10
9.61280527803154
20
0.616255019794608
30
0
41
1
10
9.58812355837549
20
0.561976514837028
30
0
41
1
10
9.57098314477656
20
0.536439935688946
30
0
41
1
10
9.52908870250064
20
0.490826526118951
30
0
41
1
10
9.50341873256605
20
0.470611170655133
30
0
41
1
10
9.44696572833232
20
0.438157821249121
30
0
41
1
10
9.41539750843583
20
0.425868130220977
30
0
41
1
10
9.38312222890394
20
0.418162587870029
30
0
0
SPLINE
5
110
100
AcDbEntity
8
1
62
256
6
ByLayer
370
18
48
1
60
0
100
AcDbSpline
70
4
71
3
72
14
73
10
40
0
40
0
40
0
40
0
40
0.282570466349854
40
0.282570466349854
40
0.569068632876236
40
0.569068632876236
40
0.82837484297734
40
0.82837484297734
40
1
40
1
40
1
40
1
41
1
10
9.38312222890366
20
0.98183741213083
30
0
41
1
10
9.41966823284798
20
0.973112258228696
30
0
41
1
10
9.45537190623318
20
0.958457657453778
30
0
41
1
10
9.51931803978843
20
0.91815785668598
30
0
41
1
10
9.54840490382907
20
0.891685146485003
30
0
41
1
10
9.59134123267688
20
0.833347111496636
30
0
41
1
10
9.60697158168705
20
0.801317543958191
30
0
41
1
10
9.62167963043618
20
0.745931113507396
30
0
41
1
10
9.62471353348789
20
0.722872526127617
30
0
41
1
10
9.62471353348789
20
0.700000000000387
30
0
0
SPLINE
5
111
100
AcDbEntity
8
1
62
256
6
ByLayer
370
18
48
1
60
0
100
AcDbSpline
70
4
71
3
72
18
73
14
40
0
40
0
40
0
40
0
40
0.212077939306753
40
0.212077939306753
40
0.386277180668962
40
0.386277180668962
40
0.562162788938098
40
0.562162788938098
40
0.715139313179688
40
0.715139313179688
40
0.917926548134239
40
0.917926548134239
40
1
40
1
40
1
40
1
41
1
10
9.38312222890369
20
0.98183741213083
30
0
41
1
10
9.30552832736058
20
1.00036252184904
30
0
41
1
10
9.22940614102711
20
1.03026333740996
30
0
41
1
10
9.10505207765465
20
1.10532831793233
30
0
41
1
10
9.05303182872433
20
1.14779489121722
30
0
41
1
10
8.96784978509606
20
1.24624704025456
30
0
41
1
10
8.93388000818518
20
1.30394370805726
30
0
41
1
10
8.89418577281208
20
1.41642408744508
30
0
41
1
10
8.88474332847858
20
1.47191390291835
30
0
41
1
10
8.88234695550142
20
1.59856639936007
30
0
41
1
10
8.89535125307384
20
1.67110383773195
30
0
41
1
10
8.92830257210585
20
1.76729087966072
30
0
41
1
10
8.93965635509358
20
1.79473938278215
30
0
41
1
10
8.95256923257074
20
1.82150404177625
30
0
0
SPLINE
5
112
100
AcDbEntity
8
1
62
256
6
ByLayer
370
18
48
1
60
0
100
AcDbSpline
70
4
71
3
72
12
73
8
40
0
40
0
40
0
40
0
40
0.495447747561382
40
0.495447747561382
40
0.900382671296226
40
0.900382671296226
40
1
40
1
40
1
40
1
41
1
10
8.51542393151215
20
2.10233678765047
30
0
41
1
10
8.45387460612335
20
2.05160801295801
30
0
41
1
10
8.38457938280061
20
2.00712335145525
30
0
41
1
10
8.25248901057984
20
1.94510990103103
30
0
41
1
10
8.18935324710401
20
1.92358501526178
30
0
41
1
10
8.11230162245454
20
1.90812420466602
30
0
41
1
10
8.09703428201229
20
1.90559192772383
30
0
41
1
10
8.08189978337725
20
1.90362635089633
30
0
0
SPLINE
5
113
100
AcDbEntity
8
1
62
256
6
ByLayer
370
18
48
1
60
0
100
AcDbSpline
70
4
71
3
72
16
73
12
40
0
40
0
40
0
40
0
40
0.0762647947695721
40
0.0762647947695721
40
0.388591267886583
40
0.388591267886583
40
0.668410626282989
40
0.668410626282989
40
0.914934097560582
40
0.914934097560582
40
1
40
1
40
1
40
1
41
1
10
8.51542393151061
20
2.10233678765178
30
0
41
1
10
8.52331086333822
20
2.1088371738895
30
0
41
1
10
8.53146781024702
20
2.11507012385428
30
0
41
1
10
8.57385850784073
20
2.14499074632633
30
0
41
1
10
8.61259233512058
20
2.1642615750421
30
0
41
1
10
8.68828357077484
20
2.18633884852224
30
0
41
1
10
8.72621135890932
20
2.19091864150397
30
0
41
1
10
8.79421476391775
20
2.18611169392287
30
0
41
1
10
8.82567996186336
20
2.17820222216767
30
0
41
1
10
8.86322862269378
20
2.16053234820768
30
0
41
1
10
8.8725679632486
20
2.15532906697268
30
0
41
1
10
8.88143437956023
20
2.1495467628373
30
0
0
SPLINE
5
114
100
AcDbEntity
8
1
62
256
6
ByLayer
370
18
48
1
60
0
100
AcDbSpline
70
4
71
3
72
16
73
12
40
0
40
0
40
0
40
0
40
0.142319077947398
40
0.142319077947398
40
0.364748229791897
40
0.364748229791897
40
0.594359598464909
40
0.594359598464909
40
0.841957615948695
40
0.841957615948695
40
1
40
1
40
1
40
1
41
1
10
8.88143437956023
20
2.1495467628373
30
0
41
1
10
8.89601753182023
20
2.14003624374408
30
0
41
1
10
8.90944443225817
20
2.1288588550002
30
0
41
1
10
8.9397360305112
20
2.09698407294334
30
0
41
1
10
8.95462845515783
20
2.07400443306256
30
0
41
1
10
8.97571768881642
20
2.02404956450698
30
0
41
1
10
8.98190828940281
20
1.99635273954755
30
0
41
1
10
8.9852415567251
20
1.93840937635991
30
0
41
1
10
8.9817113559958
20
1.9074163596209
30
0
41
1
10
8.96843193146128
20
1.85851105757558
30
0
41
1
10
8.96132346811669
20
1.83964903924536
30
0
41
1
10
8.95256923257074
20
1.82150404177622
30
0
0
LINE
5
74
100
AcDbEntity
8
1
62
256
6
ByLayer
370
18
48
1
60
0
100
AcDbLine
10
7.858547
20
-2.3
30
0
11
8.040143
21
-2.3
31
0
39
0
210
0
220
0
230
1
0
LINE
5
76
100
AcDbEntity
8
1
62
256
6
ByLayer
370
18
48
1
60
0
100
AcDbLine
10
8.040143
20
3.7
30
0
11
7.858547
21
3.7
31
0
39
0
210
0
220
0
230
1
0
LINE
5
77
100
AcDbEntity
8
80
62
256
6
ByLayer
370
18
48
1
60
0
100
AcDbLine
10
0
20
0
30
0
11
-5
21
0
31
0
39
0
210
0
220
0
230
1
0
LINE
5
78
100
AcDbEntity
8
81
62
256
6
ByLayer
370
18
48
1
60
0
100
AcDbLine
10
22.6
20
-6.1
30
0
11
27.6
21
-6.1
31
0
39
0
210
0
220
0
230
1
0
LINE
5
79
100
AcDbEntity
8
1
62
256
6
ByLayer
370
18
48
1
60
0
100
AcDbLine
10
11.2701
20
-3.462
30
0
11
11.2701
21
4.705543
31
0
39
0
210
0
220
0
230
1
0
LINE
5
7A
100
AcDbEntity
8
1
62
256
6
ByLayer
370
18
48
1
60
0
100
AcDbLine
10
11.2701
20
4.705543
30
0
11
10.940045
21
4.973713
31
0
39
0
210
0
220
0
230
1
0
LINE
5
7B
100
AcDbEntity
8
1
62
256
6
ByLayer
370
18
48
1
60
0
100
AcDbLine
10
11.250311
20
-4.349981
30
0
11
11.271982
21
-3.462
31
0
39
0
210
0
220
0
230
1
0
LINE
5
7C
100
AcDbEntity
8
1
62
256
6
ByLayer
370
18
48
1
60
0
100
AcDbLine
10
11.2701
20
-3.462
30
0
11
12.203904
21
-3.462
31
0
39
0
210
0
220
0
230
1
0
LINE
5
7D
100
AcDbEntity
8
1
62
256
6
ByLayer
370
18
48
1
60
0
100
AcDbLine
10
16.746306
20
-6
30
0
11
16.745085
21
-5.95
31
0
39
0
210
0
220
0
230
1
0
LINE
5
7E
100
AcDbEntity
8
1
62
256
6
ByLayer
370
18
48
1
60
0
100
AcDbLine
10
15.792709
20
-6
30
0
11
16.746306
21
-6
31
0
39
0
210
0
220
0
230
1
0
LINE
5
7F
100
AcDbEntity
8
1
62
256
6
ByLayer
370
18
48
1
60
0
100
AcDbLine
10
10.940031
20
-3.462
30
0
11
11.2701
21
-3.462
31
0
39
0
210
0
220
0
230
1
0
LINE
5
80
100
AcDbEntity
8
1
62
256
6
ByLayer
370
18
48
1
60
0
100
AcDbLine
10
18.509858
20
-3.7
30
0
11
18.509858
21
-1.17676
31
0
39
0
210
0
220
0
230
1
0
LINE
5
81
100
AcDbEntity
8
1
62
256
6
ByLayer
370
18
48
1
60
0
100
AcDbLine
10
11.250173
20
-4.349981
30
0
11
11.271823
21
-3.462
31
0
39
0
210
0
220
0
230
1
0
LINE
5
82
100
AcDbEntity
8
1
62
256
6
ByLayer
370
18
48
1
60
0
100
AcDbLine
10
12.146564
20
-3.7
30
0
11
18.509858
21
-3.7
31
0
39
0
210
0
220
0
230
1
0
LINE
5
83
100
AcDbEntity
8
1
62
256
6
ByLayer
370
18
48
1
60
0
100
AcDbLine
10
16.746306
20
-6
30
0
11
19.527387
21
-6
31
0
39
0
210
0
220
0
230
1
0
LINE
5
84
100
AcDbEntity
8
1
62
256
6
ByLayer
370
18
48
1
60
0
100
AcDbLine
10
18.509858
20
-1.17676
30
0
11
11.2701
21
4.705543
31
0
39
0
210
0
220
0
230
1
0
LINE
5
85
100
AcDbEntity
8
SK1
62
256
6
ByLayer
370
18
48
1
60
0
100
AcDbLine
10
-102.4
20
-6
30
0
11
-102.4
21
5.9
31
0
39
0
210
0
220
0
230
1
0
LINE
5
87
100
AcDbEntity
8
SK1
62
256
6
ByLayer
370
18
48
1
60
0
100
AcDbLine
10
0
20
5.900397
30
0
11
-0.25
21
5.9
31
0
39
0
210
0
220
0
230
1
0
LINE
5
88
100
AcDbEntity
8
SK1
62
256
6
ByLayer
370
18
48
1
60
0
100
AcDbLine
10
-102.4
20
5.9
30
0
11
-0.25
21
5.9
31
0
39
0
210
0
220
0
230
1
0
LINE
5
89
100
AcDbEntity
8
SK1
62
256
6
ByLayer
370
18
48
1
60
0
100
AcDbLine
10
-0.25
20
-6
30
0
11
0
21
-6
31
0
39
0
210
0
220
0
230
1
0
LINE
5
8A
100
AcDbEntity
8
SK1
62
256
6
ByLayer
370
18
48
1
60
0
100
AcDbLine
10
-0.25
20
-6
30
0
11
-102.4
21
-6
31
0
39
0
210
0
220
0
230
1
0
LINE
5
8B
100
AcDbEntity
8
SK1
62
256
6
ByLayer
370
18
48
1
60
0
100
AcDbLine
10
-0.25
20
5.9
30
0
11
-0.25
21
-6
31
0
39
0
210
0
220
0
230
1
0
LINE
5
8C
100
AcDbEntity
8
SK1
62
256
6
ByLayer
370
18
48
1
60
0
100
AcDbLine
10
0
20
-6
30
0
11
0
21
5.900397
31
0
39
0
210
0
220
0
230
1
0
LINE
5
8D
100
AcDbEntity
8
1
62
256
6
ByLayer
370
18
48
1
60
0
100
AcDbLine
10
0.143063
20
-6
30
0
11
0.143063
21
5.900624
31
0
39
0
210
0
220
0
230
1
0
LINE
5
8E
100
AcDbEntity
8
1
62
256
6
ByLayer
370
18
48
1
60
0
100
AcDbLine
10
9.651655
20
-6
30
0
11
5
21
-6
31
0
39
0
210
0
220
0
230
1
0
LINE
5
8F
100
AcDbEntity
8
1
62
256
6
ByLayer
370
18
48
1
60
0
100
AcDbLine
10
0.143063
20
5.900624
30
0
11
0
21
5.900397
31
0
39
0
210
0
220
0
230
1
0
LINE
5
90
100
AcDbEntity
8
1
62
256
6
ByLayer
370
18
48
1
60
0
100
AcDbLine
10
5
20
-6
30
0
11
0.143063
21
-6
31
0
39
0
210
0
220
0
230
1
0
LINE
5
91
100
AcDbEntity
8
1
62
256
6
ByLayer
370
18
48
1
60
0
100
AcDbLine
10
22.6
20
-4.35
30
0
11
22.6
21
-5.95
31
0
39
0
210
0
220
0
230
1
0
LINE
5
92
100
AcDbEntity
8
1
62
256
6
ByLayer
370
18
48
1
60
0
100
AcDbLine
10
17.806578
20
-5.95
30
0
11
17.806578
21
-4.35
31
0
39
0
210
0
220
0
230
1
0
LINE
5
93
100
AcDbEntity
8
1
62
256
6
ByLayer
370
18
48
1
60
0
100
AcDbLine
10
16.708153
20
-5.725146
30
0
11
15.909572
21
-5.725146
31
0
39
0
210
0
220
0
230
1
0
LINE
5
94
100
AcDbEntity
8
1
62
256
6
ByLayer
370
18
48
1
60
0
100
AcDbLine
10
11.078053
20
-4.35
30
0
11
16.698646
21
-4.35
31
0
39
0
210
0
220
0
230
1
0
LINE
5
95
100
AcDbEntity
8
1
62
256
6
ByLayer
370
18
48
1
60
0
100
AcDbLine
10
15.813955
20
-5.95
30
0
11
16.698646
21
-5.95
31
0
39
0
210
0
220
0
230
1
0
LINE
5
96
100
AcDbEntity
8
1
62
256
6
ByLayer
370
18
48
1
60
0
100
AcDbLine
10
5.699958
20
-6
30
0
11
5.623298
21
-6.02794
31
0
39
0
210
0
220
0
230
1
0
LINE
5
97
100
AcDbEntity
8
1
62
256
6
ByLayer
370
18
48
1
60
0
100
AcDbLine
10
16.862743
20
-4.97899
30
0
11
15.986485
21
-4.97899
31
0
39
0
210
0
220
0
230
1
0
LINE
5
98
100
AcDbEntity
8
1
62
256
6
ByLayer
370
18
48
1
60
0
100
AcDbLine
10
16.862743
20
-5.32101
30
0
11
16.020988
21
-5.32101
31
0
39
0
210
0
220
0
230
1
0
LINE
5
99
100
AcDbEntity
8
1
62
256
6
ByLayer
370
18
48
1
60
0
100
AcDbLine
10
16.698646
20
-4.523551
30
0
11
16.698646
21
-4.35
31
0
39
0
210
0
220
0
230
1
0
LINE
5
9A
100
AcDbEntity
8
1
62
256
6
ByLayer
370
18
48
1
60
0
100
AcDbLine
10
16.698646
20
-4.35
30
0
11
17.806578
21
-4.35
31
0
39
0
210
0
220
0
230
1
0
LINE
5
9B
100
AcDbEntity
8
1
62
256
6
ByLayer
370
18
48
1
60
0
100
AcDbLine
10
5.623298
20
-6.02794
30
0
11
2.835847
21
-6.14981
31
0
39
0
210
0
220
0
230
1
0
LINE
5
9C
100
AcDbEntity
8
1
62
256
6
ByLayer
370
18
48
1
60
0
100
AcDbLine
10
16.698646
20
-5.776449
30
0
11
15.887701
21
-5.776449
31
0
39
0
210
0
220
0
230
1
0
LINE
5
9D
100
AcDbEntity
8
1
62
256
6
ByLayer
370
18
48
1
60
0
100
AcDbLine
10
19.604111
20
-4.27206
30
0
11
22.391562
21
-4.15019
31
0
39
0
210
0
220
0
230
1
0
LINE
5
9E
100
AcDbEntity
8
1
62
256
6
ByLayer
370
18
48
1
60
0
100
AcDbLine
10
19.390267
20
-4.35
30
0
11
17.806578
21
-4.35
31
0
39
0
210
0
220
0
230
1
0
LINE
5
9F
100
AcDbEntity
8
1
62
256
6
ByLayer
370
18
48
1
60
0
100
AcDbLine
10
16.862743
20
-5.32101
30
0
11
16.708153
21
-5.725146
31
0
39
0
210
0
220
0
230
1
0
LINE
5
A0
100
AcDbEntity
8
1
62
256
6
ByLayer
370
18
48
1
60
0
100
AcDbLine
10
16.862743
20
-4.97899
30
0
11
16.708153
21
-4.574854
31
0
39
0
210
0
220
0
230
1
0
LINE
5
A1
100
AcDbEntity
8
1
62
256
6
ByLayer
370
18
48
1
60
0
100
AcDbLine
10
19.604111
20
-6.02794
30
0
11
22.391562
21
-6.14981
31
0
39
0
210
0
220
0
230
1
0
LINE
5
A2
100
AcDbEntity
8
1
62
256
6
ByLayer
370
18
48
1
60
0
100
AcDbLine
10
16.698646
20
-5.776449
30
0
11
16.698646
21
-5.95
31
0
39
0
210
0
220
0
230
1
0
LINE
5
A3
100
AcDbEntity
8
1
62
256
6
ByLayer
370
18
48
1
60
0
100
AcDbLine
10
19.390267
20
-5.95
30
0
11
17.806578
21
-5.95
31
0
39
0
210
0
220
0
230
1
0
LINE
5
A4
100
AcDbEntity
8
1
62
256
6
ByLayer
370
18
48
1
60
0
100
AcDbLine
10
16.698646
20
-5.95
30
0
11
17.806578
21
-5.95
31
0
39
0
210
0
220
0
230
1
0
LINE
5
A5
100
AcDbEntity
8
1
62
256
6
ByLayer
370
18
48
1
60
0
100
AcDbLine
10
19.390267
20
-4.35
30
0
11
19.604111
21
-4.27206
31
0
39
0
210
0
220
0
230
1
0
LINE
5
A6
100
AcDbEntity
8
1
62
256
6
ByLayer
370
18
48
1
60
0
100
AcDbLine
10
16.708153
20
-4.574854
30
0
11
15.824514
21
-4.574854
31
0
39
0
210
0
220
0
230
1
0
LINE
5
A7
100
AcDbEntity
8
1
62
256
6
ByLayer
370
18
48
1
60
0
100
AcDbLine
10
16.698646
20
-4.523551
30
0
11
15.802699
21
-4.523551
31
0
39
0
210
0
220
0
230
1
0
LINE
5
A8
100
AcDbEntity
8
1
62
256
6
ByLayer
370
18
48
1
60
0
100
AcDbLine
10
19.390267
20
-5.95
30
0
11
19.604111
21
-6.02794
31
0
39
0
210
0
220
0
230
1
0
LINE
5
A9
100
AcDbEntity
8
1
62
256
6
ByLayer
370
18
48
1
60
0
100
AcDbLine
10
9.651655
20
-6
30
0
11
15.792716
21
-6
31
0
39
0
210
0
220
0
230
1
0
LINE
5
AA
100
AcDbEntity
8
1
62
256
6
ByLayer
370
18
48
1
60
0
100
AcDbLine
10
0
20
-6
30
0
11
0
21
5.900397
31
0
39
0
210
0
220
0
230
1
0
LINE
5
AB
100
AcDbEntity
8
1
62
256
6
ByLayer
370
18
48
1
60
0
100
AcDbLine
10
10.816171
20
5.074361
30
0
11
10.816171
21
-3.462
31
0
39
0
210
0
220
0
230
1
0
LINE
5
AC
100
AcDbEntity
8
1
62
256
6
ByLayer
370
18
48
1
60
0
100
AcDbLine
10
10.940066
20
4.973696
30
0
11
10.816171
21
5.074361
31
0
39
0
210
0
220
0
230
1
0
LINE
5
AD
100
AcDbEntity
8
1
62
256
6
ByLayer
370
18
48
1
60
0
100
AcDbLine
10
10.940066
20
4.973696
30
0
11
10.940066
21
-3.462
31
0
39
0
210
0
220
0
230
1
0
LINE
5
AE
100
AcDbEntity
8
1
62
256
6
ByLayer
370
18
48
1
60
0
100
AcDbLine
10
9.651655
20
-4.5
30
0
11
8.606055
21
-4.5
31
0
39
0
210
0
220
0
230
1
0
LINE
5
AF
100
AcDbEntity
8
1
62
256
6
ByLayer
370
18
48
1
60
0
100
AcDbLine
10
0
20
-6
30
0
11
0.143063
21
-6
31
0
39
0
210
0
220
0
230
1
0
LINE
5
B0
100
AcDbEntity
8
1
62
256
6
ByLayer
370
18
48
1
60
0
100
AcDbLine
10
6.843904
20
-3.7
30
0
11
10.630749
21
-3.7
31
0
39
0
210
0
220
0
230
1
0
LINE
5
B1
100
AcDbEntity
8
1
62
256
6
ByLayer
370
18
48
1
60
0
100
AcDbLine
10
10.630749
20
-3.7
30
0
11
10.728758
21
-3.7
31
0
39
0
210
0
220
0
230
1
0
LINE
5
B2
100
AcDbEntity
8
1
62
256
6
ByLayer
370
18
48
1
60
0
100
AcDbLine
10
6.843904
20
-3.7
30
0
11
6.843904
21
-2.162381
31
0
39
0
210
0
220
0
230
1
0
LINE
5
B3
100
AcDbEntity
8
1
62
256
6
ByLayer
370
18
48
1
60
0
100
AcDbLine
10
9.651655
20
-4.5
30
0
11
15.792716
21
-4.5
31
0
39
0
210
0
220
0
230
1
0
LINE
5
B4
100
AcDbEntity
8
1
62
256
6
ByLayer
370
18
48
1
60
0
100
AcDbLine
10
10.816171
20
5.074361
30
0
11
10.630749
21
5.225016
31
0
39
0
210
0
220
0
230
1
0
LINE
5
B5
100
AcDbEntity
8
1
62
256
6
ByLayer
370
18
48
1
60
0
100
AcDbLine
10
9.651655
20
-4.5
30
0
11
9.651655
21
-6
31
0
39
0
210
0
220
0
230
1
0
LINE
5
B6
100
AcDbEntity
8
1
62
256
6
ByLayer
370
18
48
1
60
0
100
AcDbLine
10
10.816171
20
-3.462
30
0
11
10.940066
21
-3.462
31
0
39
0
210
0
220
0
230
1
0
LINE
5
B7
100
AcDbEntity
8
1
62
256
6
ByLayer
370
18
48
1
60
0
100
AcDbLine
10
10.630749
20
-3.7
30
0
11
10.630749
21
-0.644552
31
0
39
0
210
0
220
0
230
1
0
LINE
5
B8
100
AcDbEntity
8
1
62
256
6
ByLayer
370
18
48
1
60
0
100
AcDbLine
10
6.843904
20
3.562381
30
0
11
6.843904
21
5.921817
31
0
39
0
210
0
220
0
230
1
0
LINE
5
B9
100
AcDbEntity
8
1
62
256
6
ByLayer
370
18
48
1
60
0
100
AcDbLine
10
9.781186
20
5.915286
30
0
11
6.843904
21
5.921817
31
0
39
0
210
0
220
0
230
1
0
LINE
5
BA
100
AcDbEntity
8
1
62
256
6
ByLayer
370
18
48
1
60
0
100
AcDbLine
10
0.143063
20
5.900624
30
0
11
5
21
5.921817
31
0
39
0
210
0
220
0
230
1
0
LINE
5
BB
100
AcDbEntity
8
1
62
256
6
ByLayer
370
18
48
1
60
0
100
AcDbLine
10
5
20
-6
30
0
11
5
21
5.921817
31
0
39
0
210
0
220
0
230
1
0
LINE
5
BC
100
AcDbEntity
8
1
62
256
6
ByLayer
370
18
48
1
60
0
100
AcDbLine
10
10.722949
20
-3.462
30
0
11
10.816171
21
-3.462
31
0
39
0
210
0
220
0
230
1
0
LINE
5
BD
100
AcDbEntity
8
1
62
256
6
ByLayer
370
18
48
1
60
0
100
AcDbLine
10
9.781186
20
5.915286
30
0
11
10.630749
21
5.225016
31
0
39
0
210
0
220
0
230
1
0
LINE
5
BE
100
AcDbEntity
8
1
62
256
6
ByLayer
370
18
48
1
60
0
100
AcDbLine
10
5
20
5.921817
30
0
11
6.843904
21
5.921817
31
0
39
0
210
0
220
0
230
1
0
LINE
5
BF
100
AcDbEntity
8
1
62
256
6
ByLayer
370
18
48
1
60
0
100
AcDbLine
10
10.630749
20
2.044552
30
0
11
10.630749
21
5.225016
31
0
39
0
210
0
220
0
230
1
0
LINE
5
C0
100
AcDbEntity
8
1
62
256
6
ByLayer
370
18
48
1
60
0
100
AcDbLine
10
10.722949
20
-3.462
30
0
11
10.728758
21
-3.7
31
0
39
0
210
0
220
0
230
1
0
LINE
5
C1
100
AcDbEntity
8
1
62
256
6
ByLayer
370
18
48
1
60
0
100
AcDbLine
10
8.660798
20
0.981837
30
0
11
9.383122
21
0.981837
31
0
39
0
210
0
220
0
230
1
0
LINE
5
C2
100
AcDbEntity
8
1
62
256
6
ByLayer
370
18
48
1
60
0
100
AcDbLine
10
8.660798
20
0.418163
30
0
11
9.383122
21
0.418163
31
0
39
0
210
0
220
0
230
1
0
LINE
5
C3
100
AcDbEntity
8
1
62
256
6
ByLayer
370
18
48
1
60
0
100
AcDbLine
10
8.230245
20
-0.421504
30
0
11
8.952569
21
-0.421504
31
0
39
0
210
0
220
0
230
1
0
LINE
5
C4
100
AcDbEntity
8
1
62
256
6
ByLayer
370
18
48
1
60
0
100
AcDbLine
10
7.933595
20
-0.503626
30
0
11
8.0819
21
-0.503626
31
0
39
0
210
0
220
0
230
1
0
LINE
5
C5
100
AcDbEntity
8
1
62
256
6
ByLayer
370
18
48
1
60
0
100
AcDbLine
10
7.933598
20
-0.503626
30
0
11
7.285006
21
-0.503626
31
0
39
0
210
0
220
0
230
1
0
LINE
5
C6
100
AcDbEntity
8
1
62
256
6
ByLayer
370
18
48
1
60
0
100
AcDbLine
10
7.285006
20
1.903626
30
0
11
7.933598
21
1.903626
31
0
39
0
210
0
220
0
230
1
0
LINE
5
C7
100
AcDbEntity
8
1
62
256
6
ByLayer
370
18
48
1
60
0
100
AcDbLine
10
8.0819
20
1.903626
30
0
11
7.933595
21
1.903626
31
0
39
0
210
0
220
0
230
1
0
LINE
5
C8
100
AcDbEntity
8
1
62
256
6
ByLayer
370
18
48
1
60
0
100
AcDbLine
10
7.326309
20
-0.702337
30
0
11
7.64596
21
-0.702337
31
0
39
0
210
0
220
0
230
1
0
LINE
5
C9
100
AcDbEntity
8
1
62
256
6
ByLayer
370
18
48
1
60
0
100
AcDbLine
10
8.230245
20
1.821504
30
0
11
8.952569
21
1.821504
31
0
39
0
210
0
220
0
230
1
0
LINE
5
CA
100
AcDbEntity
8
1
62
256
6
ByLayer
370
18
48
1
60
0
100
AcDbLine
10
7.325294
20
2.102337
30
0
11
7.64596
21
2.102337
31
0
39
0
210
0
220
0
230
1
0
MTEXT
5
115
100
AcDbEntity
8
SK6
62
256
6
ByLayer
370
18
48
1
60
0
100
AcDbMText
10
-66.525
20
15.010908
30
0
210
0
220
0
230
1
1
\W0.6876;LF123E11-1212B-S
40
3.5
41
0
44
1.084337
50
0
71
7
72
5
7
iso_b_vert
0
DIMENSION
5
127
100
AcDbEntity
8
SK2
62
256
6
ByLayer
370
13
48
1
60
0
100
AcDbDimension
2
DimnDraft3D1
10
-112.15
20
-5.9
30
0
11
-112.15
21
16.6
31
0
70
32
71
5
72
1
41
1
210
0
220
0
230
1
3
Standard
100
AcDbAlignedDimension
13
-103.9
23
6.1
33
0
14
-103.9
24
-5.9
34
0
50
90
100
AcDbRotatedDimension
1001
ACAD
1000
DSTYLE
1002
{
1070
    74
1070
     0
1070
   279
1070
     0
1070
   172
1070
     1
1070
   173
1070
     1
1070
   340
1005
116
1070
   271
1070
     3
1070
   272
1070
     3
1070
    77
1070
     1
1070
    73
1070
     0
1070
   171
1070
     4
1070
   274
1070
     4
1070
   177
1070
     2
1070
   176
1070
     2
1070
   178
1070
     7
1070
    78
1070
     8
1070
    41
1041
3.0
1070
   147
1041
2.25
1070
    42
1041
1.5
1070
    44
1041
3.0
1070
   140
1041
4.5
1070
   343
1005
128
1070
   344
1005
128
1002
}
0
DIMENSION
5
13C
100
AcDbEntity
8
2
62
256
6
ByLayer
370
13
48
1
60
0
100
AcDbDimension
2
DimnDraft3D2
10
36.85
20
-3.9
30
0
11
36.85
21
-23.6
31
0
70
32
71
5
72
1
41
1
210
0
220
0
230
1
3
Standard
100
AcDbAlignedDimension
13
24.1
23
-5.9
33
0
14
24.1
24
-3.9
34
0
50
90
100
AcDbRotatedDimension
1001
ACAD
1000
DSTYLE
1002
{
1070
    74
1070
     0
1070
   279
1070
     0
1070
   172
1070
     1
1070
   173
1070
     1
1070
   340
1005
116
1070
   271
1070
     3
1070
   272
1070
     3
1070
    77
1070
     1
1070
    73
1070
     0
1070
   171
1070
     4
1070
   274
1070
     4
1070
   177
1070
     2
1070
   176
1070
     2
1070
   178
1070
     7
1070
    78
1070
     8
1070
    41
1041
3.0
1070
   147
1041
2.25
1070
    42
1041
1.5
1070
    44
1041
3.0
1070
   140
1041
4.5
1070
   343
1005
128
1070
   344
1005
128
1002
}
0
DIMENSION
5
14A
100
AcDbEntity
8
2
62
256
6
ByLayer
370
13
48
1
60
0
100
AcDbDimension
2
DimnDraft3D3
10
46.85
20
6.1
30
0
11
46.85
21
-21.119079
31
0
70
32
71
5
72
1
41
1
210
0
220
0
230
1
3
Standard
100
AcDbAlignedDimension
13
24.1
23
-5.9
33
0
14
1.5
24
6.1
34
0
50
90
100
AcDbRotatedDimension
1001
ACAD
1000
DSTYLE
1002
{
1070
    74
1070
     0
1070
   279
1070
     0
1070
   172
1070
     1
1070
   173
1070
     1
1070
   340
1005
116
1070
   271
1070
     3
1070
   272
1070
     3
1070
    77
1070
     1
1070
    73
1070
     0
1070
   171
1070
     4
1070
   274
1070
     4
1070
   177
1070
     2
1070
   176
1070
     2
1070
   178
1070
     7
1070
    78
1070
     8
1070
    41
1041
3.0
1070
   147
1041
2.25
1070
    42
1041
1.5
1070
    44
1041
3.0
1070
   140
1041
4.5
1070
   343
1005
128
1070
   344
1005
128
1002
}
0
DIMENSION
5
158
100
AcDbEntity
8
SK2
62
256
6
ByLayer
370
13
48
1
60
0
100
AcDbDimension
2
DimnDraft3D4
10
22.6
20
-30.15
30
0
11
-46.300658
21
-30.15
31
0
70
32
71
5
72
1
41
1
210
0
220
0
230
1
3
Standard
100
AcDbAlignedDimension
13
-102.4
23
-7.4
33
0
14
22.6
24
-7.4
34
0
50
0
100
AcDbRotatedDimension
1001
ACAD
1000
DSTYLE
1002
{
1070
   279
1070
     0
1070
   172
1070
     1
1070
   173
1070
     1
1070
   340
1005
116
1070
   271
1070
     3
1070
   272
1070
     3
1070
    77
1070
     1
1070
    73
1070
     0
1070
   171
1070
     4
1070
   274
1070
     4
1070
   177
1070
     2
1070
   176
1070
     2
1070
   178
1070
     7
1070
    78
1070
     8
1070
    41
1041
3.0
1070
   147
1041
2.25
1070
    42
1041
1.5
1070
    44
1041
3.0
1070
   140
1041
4.5
1070
   343
1005
128
1070
   344
1005
128
1002
}
0
DIMENSION
5
166
100
AcDbEntity
8
2
62
256
6
ByLayer
370
13
48
1
60
0
100
AcDbDimension
2
DimnDraft3D5
10
0
20
-20.15
30
0
11
6.018421
21
-20.15
31
0
70
32
71
5
72
1
41
1
210
0
220
0
230
1
3
Standard
100
AcDbAlignedDimension
13
22.6
23
-7.4
33
0
14
0
24
-7.4
34
0
50
0
100
AcDbRotatedDimension
1001
ACAD
1000
DSTYLE
1002
{
1070
   279
1070
     0
1070
   172
1070
     1
1070
   173
1070
     1
1070
   340
1005
116
1070
   271
1070
     3
1070
   272
1070
     3
1070
    77
1070
     1
1070
    73
1070
     0
1070
   171
1070
     4
1070
   274
1070
     4
1070
   177
1070
     2
1070
   176
1070
     2
1070
   178
1070
     7
1070
    78
1070
     8
1070
    41
1041
3.0
1070
   147
1041
2.25
1070
    42
1041
1.5
1070
    44
1041
3.0
1070
   140
1041
4.5
1070
   343
1005
128
1070
   344
1005
128
1002
}
0
DIMENSION
5
174
100
AcDbEntity
8
2
62
256
6
ByLayer
370
13
48
1
60
0
100
AcDbDimension
2
DimnDraft3D6
10
11.6
20
15.85
30
0
11
37.256579
21
15.85
31
0
70
32
71
5
72
1
41
1
210
0
220
0
230
1
3
Standard
100
AcDbAlignedDimension
13
22.6
23
-2.4
33
0
14
11.6
24
7.6
34
0
50
0
100
AcDbRotatedDimension
1001
ACAD
1000
DSTYLE
1002
{
1070
   279
1070
     0
1070
   172
1070
     1
1070
   173
1070
     1
1070
   340
1005
116
1070
   271
1070
     3
1070
   272
1070
     3
1070
    77
1070
     1
1070
    73
1070
     0
1070
   171
1070
     4
1070
   274
1070
     4
1070
   177
1070
     2
1070
   176
1070
     2
1070
   178
1070
     7
1070
    78
1070
     8
1070
    41
1041
3.0
1070
   147
1041
2.25
1070
    42
1041
1.5
1070
    44
1041
3.0
1070
   140
1041
4.5
1070
   343
1005
128
1070
   344
1005
128
1002
}
0
ENDSEC
0
SECTION
2
OBJECTS
0
DICTIONARY
5
1de
330
0
100
AcDbDictionary
280
0
281
1
3
ACAD_GROUP
350
1df
3
ACAD_MLINESTYLE
350
1e0
0
DICTIONARY
5
1df
330
0
100
AcDbDictionary
280
0
281
1
0
DICTIONARY
5
1e0
330
0
100
AcDbDictionary
280
0
281
1
3
Standard
350
18
0
MLINESTYLE
5
18
330
1e0
100
AcDbMlineStyle
2
Standard
70
0
3

62
256
51
90
52
90
71
2
49
-0.5
62
256
6
ByLayer
49
0.5
62
256
6
ByLayer
0
RASTERVARIABLES
5
1cd
330

100
AcDbRasterVariables
90
0
70
1
71
1
72
1
0
ENDSEC
0
EOF
