0
SECTION
2
HEADER
9
$ACADVER
1
AC1015
9
$DWGCODEPAGE
3
ANSI_1252
9
$HANDSEED
5
1ad
9
$ANGBASE
50
0
9
$ANGDIR
70
0
9
$ATTMODE
70
1
9
$AUNITS
70
0
9
$AUPREC
70
0
9
$CECOLOR
62
256
9
$CELTSCALE
40
1
9
$CELTYPE
6
ByLayer
9
$CELWEIGHT
370
18
9
$CLAYER
8
0
9
$CMLJUST
70
0
9
$CMLSCALE
40
1
9
$CMLSTYLE
2
Standard
9
$DIMSTYLE
2
Standard
9
$TEXTSIZE
40
0.2
9
$TEXTSTYLE
7
Standard
9
$LUNITS
70
2
9
$LUPREC
70
4
9
$EXTNAMES
290
1
9
$INSUNITS
70
4
9
$LTSCALE
40
1
9
$LWDISPLAY
290
1
9
$PDMODE
70
0
9
$PDSIZE
40
0
9
$PLINEGEN
70
0
0
ENDSEC
0
SECTION
2
CLASSES
0
CLASS
1
RASTERVARIABLES
2
AcDbRasterVariables
3
ISM
90
0
280
0
281
0
0
ENDSEC
0
SECTION
2
TABLES
0
TABLE
2
VPORT
5
1a3
100
AcDbSymbolTable
0
VPORT
5
1
100
AcDbSymbolTableRecord
100
AcDbViewportTableRecord
2
*Active
70
0
10
0
20
0
11
1
21
1
12
-1
22
1
13
0
23
0
14
0.5
24
0.5
15
10
25
10
16
0
26
0
36
1
17
0
27
0
37
0
0
ENDTAB
0
TABLE
2
LTYPE
5
1a4
100
AcDbSymbolTable
0
LTYPE
5
14
100
AcDbSymbolTableRecord
100
AcDbLinetypeTableRecord
70
0
2
ByBlock
3

72
65
73
0
40
0
0
LTYPE
5
15
100
AcDbSymbolTableRecord
100
AcDbLinetypeTableRecord
70
0
2
ByLayer
3

72
65
73
0
40
0
0
LTYPE
5
16
100
AcDbSymbolTableRecord
100
AcDbLinetypeTableRecord
70
0
2
CONTINUOUS
3
Solid line
72
65
73
0
40
0
0
LTYPE
5
6A
100
AcDbSymbolTableRecord
100
AcDbLinetypeTableRecord
70
0
2
CENTER
3
____ _ ____ _ ____ _ ____
72
65
73
4
40
47.5
49
22
74
0
49
-8.5
74
0
49
8.5
74
0
49
-8.5
74
0
0
LTYPE
5
6B
100
AcDbSymbolTableRecord
100
AcDbLinetypeTableRecord
70
0
2
DASHED
3
__ __ __ __ __ __ __ __ __
72
65
73
2
40
25.72
49
12.86
74
0
49
-12.86
74
0
0
ENDTAB
0
TABLE
2
LAYER
5
1a5
100
AcDbSymbolTable
0
LAYER
5
10
100
AcDbSymbolTableRecord
100
AcDbLayerTableRecord
2
0
70
0
62
7
6
CONTINUOUS
290
1
370
-3
390
0
0
LAYER
5
6D
100
AcDbSymbolTableRecord
100
AcDbLayerTableRecord
2
2
70
0
62
7
6
CONTINUOUS
290
1
370
-3
390
0
0
LAYER
5
6F
100
AcDbSymbolTableRecord
100
AcDbLayerTableRecord
2
80
70
0
62
-6
6
CONTINUOUS
290
1
370
-3
390
0
0
LAYER
5
72
100
AcDbSymbolTableRecord
100
AcDbLayerTableRecord
2
81
70
0
62
-3
6
CONTINUOUS
290
1
370
-3
390
0
0
LAYER
5
76
100
AcDbSymbolTableRecord
100
AcDbLayerTableRecord
2
1
70
0
62
4
6
CONTINUOUS
290
1
370
-3
390
0
0
LAYER
5
190
100
AcDbSymbolTableRecord
100
AcDbLayerTableRecord
2
SK1
70
0
62
4
6
CONTINUOUS
290
1
370
-3
390
0
0
LAYER
5
191
100
AcDbSymbolTableRecord
100
AcDbLayerTableRecord
2
SK6
70
0
62
5
6
CONTINUOUS
290
1
370
-3
390
0
0
LAYER
5
192
100
AcDbSymbolTableRecord
100
AcDbLayerTableRecord
2
SK2
70
0
62
7
6
CONTINUOUS
290
1
370
-3
390
0
0
ENDTAB
0
TABLE
2
STYLE
5
1a6
100
AcDbSymbolTable
0
STYLE
5
11
100
AcDbSymbolTableRecord
100
AcDbTextStyleTableRecord
2
Standard
3
txt
70
0
71
0
40
0
41
1
42
0
50
0
0
STYLE
5
D8
100
AcDbSymbolTableRecord
100
AcDbTextStyleTableRecord
2
iso_b_vert
3
simplex.shx
70
0
71
0
40
0
41
1
42
0
50
0
0
STYLE
5
D9
100
AcDbSymbolTableRecord
100
AcDbTextStyleTableRecord
2
DWGDirectTextStyle
3
simplex
70
0
71
0
40
0
41
1
42
0
50
0
0
ENDTAB
0
TABLE
2
DIMSTYLE
5
1a7
100
AcDbSymbolTable
100
AcDbDimStyleTable
0
DIMSTYLE
105
27
100
AcDbSymbolTableRecord
100
AcDbDimStyleTableRecord
2
Standard
70
0
3
<>
41
0.18
42
0.0625
44
0.18
140
0.18
147
0.09
73
0
74
0
77
1
271
2
275
0
278
52
280
0
340
11
0
ENDTAB
0
TABLE
2
VIEW
5
1a8
100
AcDbSymbolTable
0
ENDTAB
0
TABLE
2
UCS
5
1a9
100
AcDbSymbolTable
0
ENDTAB
0
TABLE
2
APPID
5
1aa
100
AcDbSymbolTable
0
APPID
5
12
100
AcDbSymbolTableRecord
100
AcDbRegAppTableRecord
2
ACAD
70
0
0
ENDTAB
0
TABLE
2
BLOCK_RECORD
5
1ab
100
AcDbSymbolTable
0
BLOCK_RECORD
5
1F
100
AcDbSymbolTableRecord
100
AcDbBlockTableRecord
2
*Model_Space
340
0
70
0
0
BLOCK_RECORD
5
1B
100
AcDbSymbolTableRecord
100
AcDbBlockTableRecord
2
*Paper_Space
340
0
70
0
0
BLOCK_RECORD
5
23
100
AcDbSymbolTableRecord
100
AcDbBlockTableRecord
2
*Paper_Space0
340
0
70
0
0
BLOCK_RECORD
5
DB
100
AcDbSymbolTableRecord
100
AcDbBlockTableRecord
2
DimnDraft3D1
340
0
70
0
0
BLOCK_RECORD
5
E9
100
AcDbSymbolTableRecord
100
AcDbBlockTableRecord
2
_CLOSED
340
0
70
0
0
BLOCK_RECORD
5
F0
100
AcDbSymbolTableRecord
100
AcDbBlockTableRecord
2
DimnDraft3D2
340
0
70
0
0
BLOCK_RECORD
5
FE
100
AcDbSymbolTableRecord
100
AcDbBlockTableRecord
2
DimnDraft3D3
340
0
70
0
0
BLOCK_RECORD
5
10D
100
AcDbSymbolTableRecord
100
AcDbBlockTableRecord
2
DimnDraft3D4
340
0
70
0
0
BLOCK_RECORD
5
11B
100
AcDbSymbolTableRecord
100
AcDbBlockTableRecord
2
DimnDraft3D5
340
0
70
0
0
BLOCK_RECORD
5
129
100
AcDbSymbolTableRecord
100
AcDbBlockTableRecord
2
DimnDraft3D6
340
0
70
0
0
ENDTAB
0
ENDSEC
0
SECTION
2
BLOCKS
0
BLOCK
5
20
100
AcDbEntity
8
0
100
AcDbBlockBegin
2
*Model_Space
70
0
10
0
20
0
30
0
3
*Model_Space
0
ENDBLK
5
21
100
AcDbEntity
8
0
100
AcDbBlockEnd
0
BLOCK
5
1C
100
AcDbEntity
8
0
100
AcDbBlockBegin
2
*Paper_Space
70
0
10
0
20
0
30
0
3
*Paper_Space
0
ENDBLK
5
1D
100
AcDbEntity
8
0
100
AcDbBlockEnd
0
BLOCK
5
24
100
AcDbEntity
8
0
100
AcDbBlockBegin
2
*Paper_Space0
70
0
10
0
20
0
30
0
3
*Paper_Space0
0
ENDBLK
5
25
100
AcDbEntity
8
0
100
AcDbBlockEnd
0
BLOCK
5
E6
100
AcDbEntity
8
0
100
AcDbBlockBegin
2
DimnDraft3D1
70
0
10
0
20
0
30
0
3
DimnDraft3D1
0
MTEXT
5
DC
100
AcDbEntity
8
2
62
256
6
ByLayer
370
18
48
1
60
0
100
AcDbMText
10
38.625
20
-5.8125
30
0
210
0
220
0
230
1
1
\W0.5404;2
40
4.5
41
0
44
1.084337
50
90
71
7
72
5
7
iso_b_vert
0
LINE
5
DD
100
AcDbEntity
8
2
62
256
6
ByLayer
370
13
48
1
60
0
100
AcDbLine
10
27
20
-13.4375
30
0
11
42.75
21
-13.4375
31
0
39
0
210
0
220
0
230
1
0
LINE
5
DE
100
AcDbEntity
8
2
62
256
6
ByLayer
370
13
48
1
60
0
100
AcDbLine
10
27
20
-11.4375
30
0
11
42.75
21
-11.4375
31
0
39
0
210
0
220
0
230
1
0
LINE
5
DF
100
AcDbEntity
8
2
62
256
6
ByLayer
370
13
48
1
60
0
100
AcDbLine
10
39.75
20
-4.924342
30
0
11
39.75
21
-24.6875
31
0
39
0
210
0
220
0
230
1
0
LINE
5
E0
100
AcDbEntity
8
2
62
256
6
ByLayer
370
13
48
1
60
0
100
AcDbLine
10
39.75
20
-13.4375
30
0
11
40.144957
21
-16.437499
31
0
39
0
210
0
220
0
230
1
0
LINE
5
E1
100
AcDbEntity
8
2
62
256
6
ByLayer
370
13
48
1
60
0
100
AcDbLine
10
39.75
20
-13.4375
30
0
11
39.355043
21
-16.437501
31
0
39
0
210
0
220
0
230
1
0
LINE
5
E2
100
AcDbEntity
8
2
62
256
6
ByLayer
370
13
48
1
60
0
100
AcDbLine
10
40.144957
20
-16.437499
30
0
11
39.355043
21
-16.437501
31
0
39
0
210
0
220
0
230
1
0
LINE
5
E3
100
AcDbEntity
8
2
62
256
6
ByLayer
370
13
48
1
60
0
100
AcDbLine
10
39.75
20
-11.4375
30
0
11
39.355043
21
-8.437501
31
0
39
0
210
0
220
0
230
1
0
LINE
5
E4
100
AcDbEntity
8
2
62
256
6
ByLayer
370
13
48
1
60
0
100
AcDbLine
10
39.75
20
-11.4375
30
0
11
40.144957
21
-8.437499
31
0
39
0
210
0
220
0
230
1
0
LINE
5
E5
100
AcDbEntity
8
2
62
256
6
ByLayer
370
13
48
1
60
0
100
AcDbLine
10
39.355043
20
-8.437501
30
0
11
40.144957
21
-8.437499
31
0
39
0
210
0
220
0
230
1
0
ENDBLK
5
E7
100
AcDbEntity
8
0
100
AcDbBlockEnd
0
BLOCK
5
EA
100
AcDbEntity
8
0
100
AcDbBlockBegin
2
_CLOSED
70
0
10
0
20
0
30
0
3
_CLOSED
0
LINE
5
EC
100
AcDbEntity
8
0
62
256
6
ByLayer
370
-2
48
1
60
0
100
AcDbLine
10
-1
20
0.166667
30
0
11
0
21
0
31
0
39
0
210
0
220
0
230
1
0
LINE
5
ED
100
AcDbEntity
8
0
62
256
6
ByLayer
370
-2
48
1
60
0
100
AcDbLine
10
0
20
0
30
0
11
-1
21
-0.166667
31
0
39
0
210
0
220
0
230
1
0
LINE
5
EE
100
AcDbEntity
8
0
62
256
6
ByLayer
370
-2
48
1
60
0
100
AcDbLine
10
-1
20
0.166667
30
0
11
-1
21
-0.166667
31
0
39
0
210
0
220
0
230
1
0
LINE
5
EF
100
AcDbEntity
8
0
62
256
6
ByLayer
370
-2
48
1
60
0
100
AcDbLine
10
0
20
0
30
0
11
-1
21
0
31
0
39
0
210
0
220
0
230
1
0
ENDBLK
5
EB
100
AcDbEntity
8
0
100
AcDbBlockEnd
0
BLOCK
5
FB
100
AcDbEntity
8
0
100
AcDbBlockBegin
2
DimnDraft3D2
70
0
10
0
20
0
30
0
3
DimnDraft3D2
0
MTEXT
5
F1
100
AcDbEntity
8
2
62
256
6
ByLayer
370
18
48
1
60
0
100
AcDbMText
10
48.625
20
-2.063158
30
0
210
0
220
0
230
1
1
\W0.6740;26
40
4.5
41
0
44
1.084337
50
90
71
7
72
5
7
iso_b_vert
0
LINE
5
F2
100
AcDbEntity
8
2
62
256
6
ByLayer
370
13
48
1
60
0
100
AcDbLine
10
27
20
-13.4375
30
0
11
52.75
21
-13.4375
31
0
39
0
210
0
220
0
230
1
0
LINE
5
F3
100
AcDbEntity
8
2
62
256
6
ByLayer
370
13
48
1
60
0
100
AcDbLine
10
1.5
20
12.4375
30
0
11
52.75
21
12.4375
31
0
39
0
210
0
220
0
230
1
0
LINE
5
F4
100
AcDbEntity
8
2
62
256
6
ByLayer
370
13
48
1
60
0
100
AcDbLine
10
49.75
20
-13.4375
30
0
11
49.75
21
12.4375
31
0
39
0
210
0
220
0
230
1
0
LINE
5
F5
100
AcDbEntity
8
2
62
256
6
ByLayer
370
13
48
1
60
0
100
AcDbLine
10
49.75
20
-13.4375
30
0
11
49.355043
21
-10.437501
31
0
39
0
210
0
220
0
230
1
0
LINE
5
F6
100
AcDbEntity
8
2
62
256
6
ByLayer
370
13
48
1
60
0
100
AcDbLine
10
49.75
20
-13.4375
30
0
11
50.144957
21
-10.437499
31
0
39
0
210
0
220
0
230
1
0
LINE
5
F7
100
AcDbEntity
8
2
62
256
6
ByLayer
370
13
48
1
60
0
100
AcDbLine
10
49.355043
20
-10.437501
30
0
11
50.144957
21
-10.437499
31
0
39
0
210
0
220
0
230
1
0
LINE
5
F8
100
AcDbEntity
8
2
62
256
6
ByLayer
370
13
48
1
60
0
100
AcDbLine
10
49.75
20
12.4375
30
0
11
50.144957
21
9.437501
31
0
39
0
210
0
220
0
230
1
0
LINE
5
F9
100
AcDbEntity
8
2
62
256
6
ByLayer
370
13
48
1
60
0
100
AcDbLine
10
49.75
20
12.4375
30
0
11
49.355043
21
9.437499
31
0
39
0
210
0
220
0
230
1
0
LINE
5
FA
100
AcDbEntity
8
2
62
256
6
ByLayer
370
13
48
1
60
0
100
AcDbLine
10
50.144957
20
9.437501
30
0
11
49.355043
21
9.437499
31
0
39
0
210
0
220
0
230
1
0
ENDBLK
5
FC
100
AcDbEntity
8
0
100
AcDbBlockEnd
0
BLOCK
5
10A
100
AcDbEntity
8
0
100
AcDbBlockBegin
2
DimnDraft3D3
70
0
10
0
20
0
30
0
3
DimnDraft3D3
0
MTEXT
5
FF
100
AcDbEntity
8
SK2
62
256
6
ByLayer
370
18
48
1
60
0
100
AcDbMText
10
-136.725
20
-1.563158
30
0
210
0
220
0
230
1
1
\W0.6740;25
40
4.5
41
0
44
1.084337
50
90
71
7
72
5
7
iso_b_vert
0
LINE
5
101
100
AcDbEntity
8
SK2
62
256
6
ByLayer
370
13
48
1
60
0
100
AcDbLine
10
-127.35
20
12.4375
30
0
11
-138.6
21
12.4375
31
0
39
0
210
0
220
0
230
1
0
LINE
5
102
100
AcDbEntity
8
SK2
62
256
6
ByLayer
370
13
48
1
60
0
100
AcDbLine
10
-127.35
20
-12.4375
30
0
11
-138.6
21
-12.4375
31
0
39
0
210
0
220
0
230
1
0
LINE
5
103
100
AcDbEntity
8
SK2
62
256
6
ByLayer
370
13
48
1
60
0
100
AcDbLine
10
-135.6
20
12.4375
30
0
11
-135.6
21
-12.4375
31
0
39
0
210
0
220
0
230
1
0
LINE
5
104
100
AcDbEntity
8
SK2
62
256
6
ByLayer
370
13
48
1
60
0
100
AcDbLine
10
-135.6
20
12.4375
30
0
11
-135.205043
21
9.437501
31
0
39
0
210
0
220
0
230
1
0
LINE
5
105
100
AcDbEntity
8
SK2
62
256
6
ByLayer
370
13
48
1
60
0
100
AcDbLine
10
-135.6
20
12.4375
30
0
11
-135.994957
21
9.437499
31
0
39
0
210
0
220
0
230
1
0
LINE
5
106
100
AcDbEntity
8
SK2
62
256
6
ByLayer
370
13
48
1
60
0
100
AcDbLine
10
-135.205043
20
9.437501
30
0
11
-135.994957
21
9.437499
31
0
39
0
210
0
220
0
230
1
0
LINE
5
107
100
AcDbEntity
8
SK2
62
256
6
ByLayer
370
13
48
1
60
0
100
AcDbLine
10
-135.6
20
-12.4375
30
0
11
-135.994957
21
-9.437501
31
0
39
0
210
0
220
0
230
1
0
LINE
5
108
100
AcDbEntity
8
SK2
62
256
6
ByLayer
370
13
48
1
60
0
100
AcDbLine
10
-135.6
20
-12.4375
30
0
11
-135.205043
21
-9.437499
31
0
39
0
210
0
220
0
230
1
0
LINE
5
109
100
AcDbEntity
8
SK2
62
256
6
ByLayer
370
13
48
1
60
0
100
AcDbLine
10
-135.994957
20
-9.437501
30
0
11
-135.205043
21
-9.437499
31
0
39
0
210
0
220
0
230
1
0
ENDBLK
5
10B
100
AcDbEntity
8
0
100
AcDbBlockEnd
0
BLOCK
5
118
100
AcDbEntity
8
0
100
AcDbBlockBegin
2
DimnDraft3D4
70
0
10
0
20
0
30
0
3
DimnDraft3D4
0
MTEXT
5
10E
100
AcDbEntity
8
2
62
256
6
ByLayer
370
18
48
1
60
0
100
AcDbMText
10
21.618421
20
-25.5625
30
0
210
0
220
0
230
1
1
\W0.5404;8
40
4.5
41
0
44
1.084337
50
0
71
7
72
5
7
iso_b_vert
0
LINE
5
10F
100
AcDbEntity
8
2
62
256
6
ByLayer
370
13
48
1
60
0
100
AcDbLine
10
25.5
20
-13.9375
30
0
11
25.5
21
-29.6875
31
0
39
0
210
0
220
0
230
1
0
LINE
5
110
100
AcDbEntity
8
2
62
256
6
ByLayer
370
13
48
1
60
0
100
AcDbLine
10
17.5
20
-12.0625
30
0
11
17.5
21
-29.6875
31
0
39
0
210
0
220
0
230
1
0
LINE
5
111
100
AcDbEntity
8
2
62
256
6
ByLayer
370
13
48
1
60
0
100
AcDbLine
10
36.75
20
-26.6875
30
0
11
6.25
21
-26.6875
31
0
39
0
210
0
220
0
230
1
0
LINE
5
112
100
AcDbEntity
8
2
62
256
6
ByLayer
370
13
48
1
60
0
100
AcDbLine
10
25.5
20
-26.6875
30
0
11
28.499999
21
-26.292543
31
0
39
0
210
0
220
0
230
1
0
LINE
5
113
100
AcDbEntity
8
2
62
256
6
ByLayer
370
13
48
1
60
0
100
AcDbLine
10
25.5
20
-26.6875
30
0
11
28.500001
21
-27.082457
31
0
39
0
210
0
220
0
230
1
0
LINE
5
114
100
AcDbEntity
8
2
62
256
6
ByLayer
370
13
48
1
60
0
100
AcDbLine
10
28.499999
20
-26.292543
30
0
11
28.500001
21
-27.082457
31
0
39
0
210
0
220
0
230
1
0
LINE
5
115
100
AcDbEntity
8
2
62
256
6
ByLayer
370
13
48
1
60
0
100
AcDbLine
10
17.5
20
-26.6875
30
0
11
14.500001
21
-27.082457
31
0
39
0
210
0
220
0
230
1
0
LINE
5
116
100
AcDbEntity
8
2
62
256
6
ByLayer
370
13
48
1
60
0
100
AcDbLine
10
17.5
20
-26.6875
30
0
11
14.499999
21
-26.292543
31
0
39
0
210
0
220
0
230
1
0
LINE
5
117
100
AcDbEntity
8
2
62
256
6
ByLayer
370
13
48
1
60
0
100
AcDbLine
10
14.500001
20
-27.082457
30
0
11
14.499999
21
-26.292543
31
0
39
0
210
0
220
0
230
1
0
ENDBLK
5
119
100
AcDbEntity
8
0
100
AcDbBlockEnd
0
BLOCK
5
126
100
AcDbEntity
8
0
100
AcDbBlockBegin
2
DimnDraft3D5
70
0
10
0
20
0
30
0
3
DimnDraft3D5
0
MTEXT
5
11C
100
AcDbEntity
8
2
62
256
6
ByLayer
370
18
48
1
60
0
100
AcDbMText
10
8.593421
20
24.4375
30
0
210
0
220
0
230
1
1
\W0.7346;25.5
40
4.5
41
0
44
1.084337
50
0
71
7
72
5
7
iso_b_vert
0
LINE
5
11D
100
AcDbEntity
8
2
62
256
6
ByLayer
370
13
48
1
60
0
100
AcDbLine
10
25.5
20
-9.9375
30
0
11
25.5
21
26.3125
31
0
39
0
210
0
220
0
230
1
0
LINE
5
11E
100
AcDbEntity
8
2
62
256
6
ByLayer
370
13
48
1
60
0
100
AcDbLine
10
0
20
13.9375
30
0
11
0
21
26.3125
31
0
39
0
210
0
220
0
230
1
0
LINE
5
11F
100
AcDbEntity
8
2
62
256
6
ByLayer
370
13
48
1
60
0
100
AcDbLine
10
25.5
20
23.3125
30
0
11
0
21
23.3125
31
0
39
0
210
0
220
0
230
1
0
LINE
5
120
100
AcDbEntity
8
2
62
256
6
ByLayer
370
13
48
1
60
0
100
AcDbLine
10
25.5
20
23.3125
30
0
11
22.500001
21
22.917543
31
0
39
0
210
0
220
0
230
1
0
LINE
5
121
100
AcDbEntity
8
2
62
256
6
ByLayer
370
13
48
1
60
0
100
AcDbLine
10
25.5
20
23.3125
30
0
11
22.499999
21
23.707457
31
0
39
0
210
0
220
0
230
1
0
LINE
5
122
100
AcDbEntity
8
2
62
256
6
ByLayer
370
13
48
1
60
0
100
AcDbLine
10
22.500001
20
22.917543
30
0
11
22.499999
21
23.707457
31
0
39
0
210
0
220
0
230
1
0
LINE
5
123
100
AcDbEntity
8
2
62
256
6
ByLayer
370
13
48
1
60
0
100
AcDbLine
10
0
20
23.3125
30
0
11
2.999999
21
23.707457
31
0
39
0
210
0
220
0
230
1
0
LINE
5
124
100
AcDbEntity
8
2
62
256
6
ByLayer
370
13
48
1
60
0
100
AcDbLine
10
0
20
23.3125
30
0
11
3.000001
21
22.917543
31
0
39
0
210
0
220
0
230
1
0
LINE
5
125
100
AcDbEntity
8
2
62
256
6
ByLayer
370
13
48
1
60
0
100
AcDbLine
10
2.999999
20
23.707457
30
0
11
3.000001
21
22.917543
31
0
39
0
210
0
220
0
230
1
0
ENDBLK
5
127
100
AcDbEntity
8
0
100
AcDbBlockEnd
0
BLOCK
5
134
100
AcDbEntity
8
0
100
AcDbBlockBegin
2
DimnDraft3D6
70
0
10
0
20
0
30
0
3
DimnDraft3D6
0
MTEXT
5
12A
100
AcDbEntity
8
SK2
62
256
6
ByLayer
370
18
48
1
60
0
100
AcDbMText
10
-52.857237
20
34.4375
30
0
210
0
220
0
230
1
1
\W0.6217;150
40
4.5
41
0
44
1.084337
50
0
71
7
72
5
7
iso_b_vert
0
LINE
5
12B
100
AcDbEntity
8
SK2
62
256
6
ByLayer
370
13
48
1
60
0
100
AcDbLine
10
25.5
20
-9.9375
30
0
11
25.5
21
36.3125
31
0
39
0
210
0
220
0
230
1
0
LINE
5
12C
100
AcDbEntity
8
SK2
62
256
6
ByLayer
370
13
48
1
60
0
100
AcDbLine
10
-125.85
20
13.9375
30
0
11
-125.85
21
36.3125
31
0
39
0
210
0
220
0
230
1
0
LINE
5
12D
100
AcDbEntity
8
SK2
62
256
6
ByLayer
370
13
48
1
60
0
100
AcDbLine
10
25.5
20
33.3125
30
0
11
-125.85
21
33.3125
31
0
39
0
210
0
220
0
230
1
0
LINE
5
12E
100
AcDbEntity
8
SK2
62
256
6
ByLayer
370
13
48
1
60
0
100
AcDbLine
10
25.5
20
33.3125
30
0
11
22.500001
21
32.917543
31
0
39
0
210
0
220
0
230
1
0
LINE
5
12F
100
AcDbEntity
8
SK2
62
256
6
ByLayer
370
13
48
1
60
0
100
AcDbLine
10
25.5
20
33.3125
30
0
11
22.499999
21
33.707457
31
0
39
0
210
0
220
0
230
1
0
LINE
5
130
100
AcDbEntity
8
SK2
62
256
6
ByLayer
370
13
48
1
60
0
100
AcDbLine
10
22.500001
20
32.917543
30
0
11
22.499999
21
33.707457
31
0
39
0
210
0
220
0
230
1
0
LINE
5
131
100
AcDbEntity
8
SK2
62
256
6
ByLayer
370
13
48
1
60
0
100
AcDbLine
10
-125.85
20
33.3125
30
0
11
-122.850001
21
33.707457
31
0
39
0
210
0
220
0
230
1
0
LINE
5
132
100
AcDbEntity
8
SK2
62
256
6
ByLayer
370
13
48
1
60
0
100
AcDbLine
10
-125.85
20
33.3125
30
0
11
-122.849999
21
32.917543
31
0
39
0
210
0
220
0
230
1
0
LINE
5
133
100
AcDbEntity
8
SK2
62
256
6
ByLayer
370
13
48
1
60
0
100
AcDbLine
10
-122.850001
20
33.707457
30
0
11
-122.849999
21
32.917543
31
0
39
0
210
0
220
0
230
1
0
ENDBLK
5
135
100
AcDbEntity
8
0
100
AcDbBlockEnd
0
ENDSEC
0
SECTION
2
ENTITIES
0
ARC
5
A9
100
AcDbEntity
8
1
62
256
6
ByLayer
370
18
48
1
60
0
100
AcDbCircle
39
0
10
17.6
20
-10.0875
30
0
40
1.59999999999949
210
0
220
0
230
1
100
AcDbArc
50
180
51
270
0
ARC
5
AA
100
AcDbEntity
8
1
62
256
6
ByLayer
370
18
48
1
60
0
100
AcDbCircle
39
0
10
25.3
20
-11.6375
30
0
40
0.2
210
0
220
0
230
1
100
AcDbArc
50
360
51
92.5
0
ARC
5
AB
100
AcDbEntity
8
1
62
256
6
ByLayer
370
18
48
1
60
0
100
AcDbCircle
39
0
10
19.332089
20
-12.4375
30
0
40
0.499999999990787
210
0
220
0
230
1
100
AcDbArc
50
340
51
20
0
ARC
5
AC
100
AcDbEntity
8
1
62
256
6
ByLayer
370
18
48
1
60
0
100
AcDbCircle
39
0
10
-25.3
20
-13.2375
30
0
40
0.2
210
0
220
0
230
-1
100
AcDbArc
50
180
51
272.5
0
ARC
5
AD
100
AcDbEntity
8
1
62
256
6
ByLayer
370
18
48
1
60
0
100
AcDbCircle
39
0
10
5.7
20
-13.2375
30
0
40
0.2
210
0
220
0
230
1
100
AcDbArc
50
180
51
272.5
0
ARC
5
AE
100
AcDbEntity
8
1
62
256
6
ByLayer
370
18
48
1
60
0
100
AcDbCircle
39
0
10
11
20
-5.4375
30
0
40
1.416
210
0
220
0
230
1
100
AcDbArc
50
96.192438
51
150.190711
0
ARC
5
AF
100
AcDbEntity
8
1
62
256
6
ByLayer
370
18
48
1
60
0
100
AcDbCircle
39
0
10
11
20
-5.4375
30
0
40
1.416
210
0
220
0
230
1
100
AcDbArc
50
263.807562
51
276.192438
0
ARC
5
B0
100
AcDbEntity
8
1
62
256
6
ByLayer
370
18
48
1
60
0
100
AcDbCircle
39
0
10
11
20
-5.4375
30
0
40
1.9685
210
0
220
0
230
1
100
AcDbArc
50
120.381422
51
180
0
ARC
5
B1
100
AcDbEntity
8
1
62
256
6
ByLayer
370
18
48
1
60
0
100
AcDbCircle
39
0
10
11
20
-5.4375
30
0
40
1.416
210
0
220
0
230
1
100
AcDbArc
50
29.809289
51
83.807562
0
ARC
5
B2
100
AcDbEntity
8
1
62
256
6
ByLayer
370
18
48
1
60
0
100
AcDbCircle
39
0
10
11
20
-5.4375
30
0
40
1.416
210
0
220
0
230
1
100
AcDbArc
50
330.190711
51
29.809289
0
ARC
5
B3
100
AcDbEntity
8
1
62
256
6
ByLayer
370
18
48
1
60
0
100
AcDbCircle
39
0
10
11
20
-5.4375
30
0
40
1.9685
210
0
220
0
230
1
100
AcDbArc
50
239.618578
51
300.381422
0
ARC
5
B4
100
AcDbEntity
8
1
62
256
6
ByLayer
370
18
48
1
60
0
100
AcDbCircle
39
0
10
11
20
-5.4375
30
0
40
1.9685
210
0
220
0
230
1
100
AcDbArc
50
180
51
239.618578
0
ARC
5
B5
100
AcDbEntity
8
1
62
256
6
ByLayer
370
18
48
1
60
0
100
AcDbCircle
39
0
10
11
20
-5.4375
30
0
40
1.416
210
0
220
0
230
1
100
AcDbArc
50
83.807562
51
96.192438
0
ARC
5
B6
100
AcDbEntity
8
1
62
256
6
ByLayer
370
18
48
1
60
0
100
AcDbCircle
39
0
10
11
20
-5.4375
30
0
40
1.416
210
0
220
0
230
1
100
AcDbArc
50
276.192438
51
330.190711
0
ARC
5
B7
100
AcDbEntity
8
1
62
256
6
ByLayer
370
18
48
1
60
0
100
AcDbCircle
39
0
10
11
20
-5.4375
30
0
40
1.9685
210
0
220
0
230
1
100
AcDbArc
50
59.618578
51
120.381422
0
ARC
5
B8
100
AcDbEntity
8
1
62
256
6
ByLayer
370
18
48
1
60
0
100
AcDbCircle
39
0
10
11
20
-5.4375
30
0
40
1.9685
210
0
220
0
230
1
100
AcDbArc
50
360
51
59.618578
0
ARC
5
B9
100
AcDbEntity
8
1
62
256
6
ByLayer
370
18
48
1
60
0
100
AcDbCircle
39
0
10
11
20
-5.4375
30
0
40
1.416
210
0
220
0
230
1
100
AcDbArc
50
209.809289
51
263.807562
0
ARC
5
BA
100
AcDbEntity
8
1
62
256
6
ByLayer
370
18
48
1
60
0
100
AcDbCircle
39
0
10
11
20
-5.4375
30
0
40
1.416
210
0
220
0
230
1
100
AcDbArc
50
150.190711
51
209.809289
0
ARC
5
BB
100
AcDbEntity
8
1
62
256
6
ByLayer
370
18
48
1
60
0
100
AcDbCircle
39
0
10
11
20
-5.4375
30
0
40
1.9685
210
0
220
0
230
1
100
AcDbArc
50
300.381422
51
360
0
CIRCLE
5
A8
100
AcDbEntity
8
1
62
256
6
ByLayer
370
18
48
1
60
0
100
AcDbCircle
10
11
20
-5.4375
30
0
40
4
39
0
210
0
220
0
230
1
0
CIRCLE
5
BC
100
AcDbEntity
8
1
62
256
6
ByLayer
370
18
48
1
60
0
100
AcDbCircle
10
-11
20
-5.4375
30
0
40
3
39
0
210
0
220
0
230
-1
0
CIRCLE
5
BD
100
AcDbEntity
8
1
62
256
6
ByLayer
370
18
48
1
60
0
100
AcDbCircle
10
-11
20
-5.4375
30
0
40
3.5
39
0
210
0
220
0
230
-1
0
ELLIPSE
5
BE
100
AcDbEntity
8
1
62
256
6
ByLayer
370
18
48
1
60
0
100
AcDbEllipse
10
19.795796
20
-13.063949
30
0
11
-0.147971184429263
21
0.0245871480005804
31
0
210
0
220
0
230
1
40
1
41
-0.18440850597964
42
0.164657350585132
0
ELLIPSE
5
BF
100
AcDbEntity
8
1
62
256
6
ByLayer
370
18
48
1
60
0
100
AcDbEllipse
10
19.795796
20
-11.811051
30
0
11
-0.147971184429263
21
-0.0245871480005799
31
0
210
0
220
0
230
1
40
1
41
-0.164657350585132
42
0.18440850597964
0
POINT
5
6C
100
AcDbEntity
8
2
62
256
6
ByLayer
370
18
48
1
60
0
100
AcDbPoint
10
25.5
20
12.5625
30
0
39
0
210
0
220
0
230
1
50
360
0
POINT
5
6E
100
AcDbEntity
8
80
62
256
6
ByLayer
370
18
48
1
60
0
100
AcDbPoint
10
0
20
0
30
0
39
0
210
0
220
0
230
1
50
360
0
POINT
5
70
100
AcDbEntity
8
2
62
256
6
ByLayer
370
18
48
1
60
0
100
AcDbPoint
10
25.5
20
13.5625
30
0
39
0
210
0
220
0
230
1
50
360
0
POINT
5
71
100
AcDbEntity
8
81
62
256
6
ByLayer
370
18
48
1
60
0
100
AcDbPoint
10
25.5
20
-13.4375
30
0
39
0
210
0
220
0
230
1
50
360
0
SPLINE
5
C0
100
AcDbEntity
8
1
62
256
6
ByLayer
370
18
48
1
60
0
100
AcDbSpline
70
4
71
3
72
8
73
4
40
0
40
0
40
0
40
0
40
1
40
1
40
1
40
1
41
1
10
18.906851383867
20
-12.8178564355667
30
0
41
1
10
18.8567751647697
20
-12.9413912693362
30
0
41
1
10
18.8062919217127
20
-13.064684347282
30
0
41
1
10
18.755042424375
20
-13.1875000000001
30
0
0
SPLINE
5
C1
100
AcDbEntity
8
1
62
256
6
ByLayer
370
18
48
1
60
0
100
AcDbSpline
70
4
71
3
72
12
73
8
40
0
40
0
40
0
40
0
40
0.367292260733822
40
0.367292260733822
40
0.734922303957985
40
0.734922303957985
40
1
40
1
40
1
40
1
41
1
10
18.906851383867
20
-12.0571435644334
30
0
41
1
10
18.9417035961607
20
-12.1431217458899
30
0
41
1
10
18.9649302976673
20
-12.2376042187671
30
0
41
1
10
18.9841590431068
20
-12.4281059378826
30
0
41
1
10
18.9804000460794
20
-12.5267486220199
30
0
41
1
10
18.9513806104925
20
-12.6886365678245
30
0
41
1
10
18.9321762389183
20
-12.7553816358576
30
0
41
1
10
18.9068513838719
20
-12.8178564355688
30
0
0
SPLINE
5
C2
100
AcDbEntity
8
1
62
256
6
ByLayer
370
18
48
1
60
0
100
AcDbSpline
70
4
71
3
72
8
73
4
40
0
40
0
40
0
40
0
40
1
40
1
40
1
40
1
41
1
10
18.755042424375
20
-11.6875000000001
30
0
41
1
10
18.8062919217127
20
-11.8103156527181
30
0
41
1
10
18.8567751647697
20
-11.9336087306639
30
0
41
1
10
18.906851383867
20
-12.0571435644334
30
0
0
SPLINE
5
C3
100
AcDbEntity
8
1
62
256
6
ByLayer
370
18
48
1
60
0
100
AcDbSpline
70
4
71
3
72
14
73
10
40
0
40
0
40
0
40
0
40
0.281038222380425
40
0.281038222380425
40
0.564557857067115
40
0.564557857067115
40
0.820700196129994
40
0.820700196129994
40
1
40
1
40
1
40
1
41
1
10
10.4078822958328
20
-3.79391737191128
30
0
41
1
10
10.3813006245732
20
-3.76658763093008
30
0
41
1
10
10.349043969095
20
-3.7431344754641
30
0
41
1
10
10.277235194489
20
-3.70892513957307
30
0
41
1
10
10.2364720760798
20
-3.69781524095515
30
0
41
1
10
10.1571729147492
20
-3.69215131442581
30
0
41
1
10
10.1175924873016
20
-3.69608827435695
30
0
41
1
10
10.0539176730122
20
-3.71438456535432
30
0
41
1
10
10.0281706327858
20
-3.7253967015366
30
0
41
1
10
10.0044231104048
20
-3.73931894166026
30
0
0
SPLINE
5
C4
100
AcDbEntity
8
1
62
256
6
ByLayer
370
18
48
1
60
0
100
AcDbSpline
70
4
71
3
72
16
73
12
40
0
40
0
40
0
40
0
40
0.0645965064171934
40
0.0645965064171934
40
0.282747320500412
40
0.282747320500412
40
0.503851581407258
40
0.503851581407258
40
0.739476498257858
40
0.739476498257858
40
1
40
1
40
1
40
1
41
1
10
10.0044231104049
20
-7.1356810583398
30
0
41
1
10
10.013014252084
20
-7.14071770744678
30
0
41
1
10
10.0218448367852
20
-7.14537061464472
30
0
41
1
10
10.061059408281
20
-7.16381831327186
30
0
41
1
10
10.093783713078
20
-7.17343690823566
30
0
41
1
10
10.1593454694518
20
-7.18245955
30
0
41
1
10
10.1930080641066
20
-7.1818653386228
30
0
41
1
10
10.2588630387573
20
-7.17103188575985
30
0
41
1
10
10.2916435993958
20
-7.16006237928639
30
0
41
1
10
10.3537963059872
20
-7.12838505353068
30
0
41
1
10
10.3832521428563
20
-7.10640593054782
30
0
41
1
10
10.4078822958328
20
-7.08108262808878
30
0
0
SPLINE
5
C5
100
AcDbEntity
8
1
62
256
6
ByLayer
370
18
48
1
60
0
100
AcDbSpline
70
4
71
3
72
18
73
14
40
0
40
0
40
0
40
0
40
0.213081262000626
40
0.213081262000626
40
0.387160943926343
40
0.387160943926343
40
0.562948999942005
40
0.562948999942005
40
0.715638435810365
40
0.715638435810365
40
0.919170953808121
40
0.919170953808121
40
1
40
1
40
1
40
1
41
1
10
12.1474510335848
20
-4.10934766202143
30
0
41
1
10
12.1253499966636
20
-4.19189739660249
30
0
41
1
10
12.1155116663085
20
-4.28070368281226
30
0
41
1
10
12.125005262533
20
-4.44444083530033
30
0
41
1
10
12.1396283941553
20
-4.52076928250051
30
0
41
1
10
12.190791443592
20
-4.66796999080836
30
0
41
1
10
12.2285222509958
20
-4.74088857501081
30
0
41
1
10
12.314774512508
20
-4.86093127580509
30
0
41
1
10
12.3621656692504
20
-4.91167693660867
30
0
41
1
10
12.4803089305089
20
-5.01129079099724
30
0
41
1
10
12.5554527440064
20
-5.05587522828733
30
0
41
1
10
12.6631437334956
20
-5.09998071617821
30
0
41
1
10
12.6945032391402
20
-5.11064015636086
30
0
41
1
10
12.7260954401444
20
-5.11933803045318
30
0
0
SPLINE
5
C6
100
AcDbEntity
8
1
62
256
6
ByLayer
370
18
48
1
60
0
100
AcDbSpline
70
4
71
3
72
18
73
14
40
0
40
0
40
0
40
0
40
0.213081026856103
40
0.213081026856103
40
0.387160750704734
40
0.387160750704734
40
0.562948851464632
40
0.562948851464632
40
0.715638295683677
40
0.715638295683677
40
0.919170771668894
40
0.919170771668894
40
1
40
1
40
1
40
1
41
1
10
9.27390455985565
20
-5.11933803045318
30
0
41
1
10
9.35629597352582
20
-5.09665426295317
30
0
41
1
10
9.43788286104243
20
-5.06022748697347
30
0
41
1
10
9.57433378174639
20
-4.96922694409628
30
0
41
1
10
9.63278495062045
20
-4.91800848326645
30
0
41
1
10
9.73389585709239
20
-4.79942391211392
30
0
41
1
10
9.77771861576932
20
-4.72999551030074
30
0
41
1
10
9.83765438906531
20
-4.59487551359348
30
0
41
1
10
9.85746328673773
20
-4.52832739263965
30
0
41
1
10
9.88364653566279
20
-4.37602773607887
30
0
41
1
10
9.88410426791435
20
-4.28865409633207
30
0
41
1
10
9.86768795511531
20
-4.17344488314825
30
0
41
1
10
9.86102340782631
20
-4.14100060625688
30
0
41
1
10
9.85254896641513
20
-4.10934766202143
30
0
0
SPLINE
5
C7
100
AcDbEntity
8
1
62
256
6
ByLayer
370
18
48
1
60
0
100
AcDbSpline
70
4
71
3
72
14
73
10
40
0
40
0
40
0
40
0
40
0.285014780844653
40
0.285014780844653
40
0.572350605982664
40
0.572350605982664
40
0.832166772861876
40
0.832166772861876
40
1
40
1
40
1
40
1
41
1
10
9.85254896641513
20
-6.76565233797859
30
0
41
1
10
9.84274553833583
20
-6.80226918943279
30
0
41
1
10
9.83910080086596
20
-6.84177139209442
30
0
41
1
10
9.84630600875906
20
-6.92055123875116
30
0
41
1
10
9.85745708865554
20
-6.9610402482586
30
0
41
1
10
9.89270125088908
20
-7.031774641525
30
0
41
1
10
9.91604741297928
20
-7.06366793530441
30
0
41
1
10
9.96224491610425
20
-7.10754143751319
30
0
41
1
10
9.98267415168661
20
-7.12293049763465
30
0
41
1
10
10.0044231104049
20
-7.1356810583398
30
0
0
SPLINE
5
C8
100
AcDbEntity
8
1
62
256
6
ByLayer
370
18
48
1
60
0
100
AcDbSpline
70
4
71
3
72
14
73
10
40
0
40
0
40
0
40
0
40
0.285013984727018
40
0.285013984727018
40
0.572349910642993
40
0.572349910642993
40
0.832166158509246
40
0.832166158509246
40
1
40
1
40
1
40
1
41
1
10
12.7260954401443
20
-5.75566196954685
30
0
41
1
10
12.7626420033309
20
-5.74560007468037
30
0
41
1
10
12.798562913688
20
-5.72876597586867
30
0
41
1
10
12.8628804284091
20
-5.68270710212502
30
0
41
1
10
12.892169726513
20
-5.65260985396918
30
0
41
1
10
12.9353659032993
20
-5.58643131773161
30
0
41
1
10
12.9510721564613
20
-5.55016094593432
30
0
41
1
10
12.9655563481768
20
-5.48811810151747
30
0
41
1
10
12.9685
20
-5.46271108166582
30
0
41
1
10
12.9685
20
-5.43750000000003
30
0
0
SPLINE
5
C9
100
AcDbEntity
8
1
62
256
6
ByLayer
370
18
48
1
60
0
100
AcDbSpline
70
4
71
3
72
16
73
12
40
0
40
0
40
0
40
0
40
0.0645965064171892
40
0.0645965064171892
40
0.282747320500345
40
0.282747320500345
40
0.503851581407255
40
0.503851581407255
40
0.739476498257855
40
0.739476498257855
40
1
40
1
40
1
40
1
41
1
10
11.9955768895951
20
-3.73931894166023
30
0
41
1
10
11.986985747916
20
-3.73428229255325
30
0
41
1
10
11.9781551632147
20
-3.72962938535531
30
0
41
1
10
11.938940591719
20
-3.71118168672817
30
0
41
1
10
11.9062162869221
20
-3.70156309176437
30
0
41
1
10
11.8406545305483
20
-3.69254045000002
30
0
41
1
10
11.8069919358934
20
-3.69313466137723
30
0
41
1
10
11.7411369612427
20
-3.70396811424018
30
0
41
1
10
11.7083564006042
20
-3.71493762071367
30
0
41
1
10
11.6462036940128
20
-3.74661494646935
30
0
41
1
10
11.6167478571437
20
-3.76859406945223
30
0
41
1
10
11.5921177041672
20
-3.79391737191125
30
0
0
SPLINE
5
CA
100
AcDbEntity
8
1
62
256
6
ByLayer
370
18
48
1
60
0
100
AcDbSpline
70
4
71
3
72
16
73
12
40
0
40
0
40
0
40
0
40
0.0660777514108703
40
0.0660777514108703
40
0.289232858199883
40
0.289232858199883
40
0.515409129607284
40
0.515409129607284
40
0.756439127791313
40
0.756439127791313
40
1
40
1
40
1
40
1
41
1
10
9.03150000000002
20
-5.43750000000003
30
0
41
1
10
9.03150000000002
20
-5.44745860674414
30
0
41
1
10
9.03195213709265
20
-5.45742969629174
30
0
41
1
10
9.03587060694892
20
-5.50058915149882
30
0
41
1
10
9.04412328513874
20
-5.5336843324549
30
0
41
1
10
9.06949773323655
20
-5.59480625649897
30
0
41
1
10
9.08703531823281
20
-5.62354571425425
30
0
41
1
10
9.12968747613971
20
-5.67487829858391
30
0
41
1
10
9.15572950628413
20
-5.69760950260437
30
0
41
1
10
9.21189033697979
20
-5.73354253936773
30
0
41
1
10
9.242638287392
20
-5.74705382916468
30
0
41
1
10
9.27390455985565
20
-5.75566196954685
30
0
0
SPLINE
5
CB
100
AcDbEntity
8
1
62
256
6
ByLayer
370
18
48
1
60
0
100
AcDbSpline
70
4
71
3
72
10
73
6
40
0
40
0
40
0
40
0
40
0.479736826302713
40
0.479736826302713
40
1
40
1
40
1
40
1
41
1
10
10.8472587066235
20
-6.84523793629984
30
0
41
1
10
10.7634717620859
20
-6.86100344076866
30
0
41
1
10
10.6831344436618
20
-6.88995021912078
30
0
41
1
10
10.5347803935531
20
-6.96887369451747
30
0
41
1
10
10.4658766441957
20
-7.02145618460264
30
0
41
1
10
10.4078822958328
20
-7.08108262808878
30
0
0
SPLINE
5
CC
100
AcDbEntity
8
1
62
256
6
ByLayer
370
18
48
1
60
0
100
AcDbSpline
70
4
71
3
72
14
73
10
40
0
40
0
40
0
40
0
40
0.281038222380424
40
0.281038222380424
40
0.564557857067114
40
0.564557857067114
40
0.820700196129994
40
0.820700196129994
40
1
40
1
40
1
40
1
41
1
10
11.5921177041672
20
-7.08108262808878
30
0
41
1
10
11.6186993754268
20
-7.10841236906998
30
0
41
1
10
11.650956030905
20
-7.13186552453595
30
0
41
1
10
11.722764805511
20
-7.16607486042699
30
0
41
1
10
11.7635279239202
20
-7.17718475904488
30
0
41
1
10
11.8428270852508
20
-7.18284868557424
30
0
41
1
10
11.8824075126983
20
-7.1789117256431
30
0
41
1
10
11.9460823269878
20
-7.16061543464571
30
0
41
1
10
11.9718293672142
20
-7.14960329846343
30
0
41
1
10
11.9955768895952
20
-7.13568105833977
30
0
0
SPLINE
5
CD
100
AcDbEntity
8
1
62
256
6
ByLayer
370
18
48
1
60
0
100
AcDbSpline
70
4
71
3
72
14
73
10
40
0
40
0
40
0
40
0
40
0.285014780844649
40
0.285014780844649
40
0.572350605982668
40
0.572350605982668
40
0.832166772861873
40
0.832166772861873
40
1
40
1
40
1
40
1
41
1
10
12.1474510335848
20
-4.10934766202143
30
0
41
1
10
12.1572544616642
20
-4.07273081056724
30
0
41
1
10
12.160899199134
20
-4.03322860790561
30
0
41
1
10
12.1536939912409
20
-3.95444876124887
30
0
41
1
10
12.1425429113444
20
-3.91395975174143
30
0
41
1
10
12.1072987491109
20
-3.84322535847502
30
0
41
1
10
12.0839525870207
20
-3.81133206469562
30
0
41
1
10
12.0377550838957
20
-3.76745856248684
30
0
41
1
10
12.0173258483134
20
-3.75206950236537
30
0
41
1
10
11.9955768895951
20
-3.73931894166023
30
0
0
SPLINE
5
CE
100
AcDbEntity
8
1
62
256
6
ByLayer
370
18
48
1
60
0
100
AcDbSpline
70
4
71
3
72
10
73
6
40
0
40
0
40
0
40
0
40
0.541781546917704
40
0.541781546917704
40
1
40
1
40
1
40
1
41
1
10
11.5921177041672
20
-7.08108262808878
30
0
41
1
10
11.5317893524551
20
-7.0190564969999
30
0
41
1
10
11.4595938121995
20
-6.96461767768477
30
0
41
1
10
11.3098326867734
20
-6.88742229524127
30
0
41
1
10
11.2328667479517
20
-6.86031448813191
30
0
41
1
10
11.1527412933765
20
-6.84523793629984
30
0
0
SPLINE
5
CF
100
AcDbEntity
8
1
62
256
6
ByLayer
370
18
48
1
60
0
100
AcDbSpline
70
4
71
3
72
14
73
10
40
0
40
0
40
0
40
0
40
0.285013984727018
40
0.285013984727018
40
0.572349910642992
40
0.572349910642992
40
0.832166158509246
40
0.832166158509246
40
1
40
1
40
1
40
1
41
1
10
9.27390455985565
20
-5.11933803045318
30
0
41
1
10
9.23735799666909
20
-5.12939992531966
30
0
41
1
10
9.20143708631198
20
-5.14623402413136
30
0
41
1
10
9.13711957159089
20
-5.19229289787501
30
0
41
1
10
9.10783027348705
20
-5.22239014603085
30
0
41
1
10
9.0646340967007
20
-5.28856868226842
30
0
41
1
10
9.04892784353868
20
-5.32483905406571
30
0
41
1
10
9.03444365182324
20
-5.38688189848256
30
0
41
1
10
9.03150000000002
20
-5.41228891833421
30
0
41
1
10
9.03150000000002
20
-5.43750000000003
30
0
0
SPLINE
5
D0
100
AcDbEntity
8
1
62
256
6
ByLayer
370
18
48
1
60
0
100
AcDbSpline
70
4
71
3
72
18
73
14
40
0
40
0
40
0
40
0
40
0.213081026856105
40
0.213081026856105
40
0.387160750704737
40
0.387160750704737
40
0.562948851464637
40
0.562948851464637
40
0.71563829568368
40
0.71563829568368
40
0.919170771668902
40
0.919170771668902
40
1
40
1
40
1
40
1
41
1
10
12.7260954401443
20
-5.75566196954685
30
0
41
1
10
12.6437040264741
20
-5.77834573704686
30
0
41
1
10
12.5621171389576
20
-5.81477251302655
30
0
41
1
10
12.4256662182536
20
-5.90577305590378
30
0
41
1
10
12.3672150493795
20
-5.95699151673361
30
0
41
1
10
12.2661041429076
20
-6.07557608788611
30
0
41
1
10
12.2222813842307
20
-6.14500448969929
30
0
41
1
10
12.1623456109346
20
-6.28012448640655
30
0
41
1
10
12.1425367132623
20
-6.34667260736038
30
0
41
1
10
12.1163534643372
20
-6.49897226392116
30
0
41
1
10
12.1158957320856
20
-6.58634590366799
30
0
41
1
10
12.1323120448847
20
-6.70155511685178
30
0
41
1
10
12.1389765921736
20
-6.73399939374315
30
0
41
1
10
12.1474510335848
20
-6.76565233797859
30
0
0
SPLINE
5
D1
100
AcDbEntity
8
1
62
256
6
ByLayer
370
18
48
1
60
0
100
AcDbSpline
70
4
71
3
72
10
73
6
40
0
40
0
40
0
40
0
40
0.541781546918545
40
0.541781546918545
40
1
40
1
40
1
40
1
41
1
10
10.4078822958328
20
-3.79391737191128
30
0
41
1
10
10.4682106475449
20
-3.85594350300013
30
0
41
1
10
10.5404061878005
20
-3.91038232231526
30
0
41
1
10
10.6901673132265
20
-3.98757770475879
30
0
41
1
10
10.7671332520482
20
-4.01468551186812
30
0
41
1
10
10.8472587066235
20
-4.02976206370019
30
0
0
SPLINE
5
D2
100
AcDbEntity
8
1
62
256
6
ByLayer
370
18
48
1
60
0
100
AcDbSpline
70
4
71
3
72
18
73
14
40
0
40
0
40
0
40
0
40
0.213081262000629
40
0.213081262000629
40
0.387160943926347
40
0.387160943926347
40
0.562948999942006
40
0.562948999942006
40
0.715638435810366
40
0.715638435810366
40
0.919170953808121
40
0.919170953808121
40
1
40
1
40
1
40
1
41
1
10
9.85254896641513
20
-6.76565233797859
30
0
41
1
10
9.87465000333643
20
-6.68310260339754
30
0
41
1
10
9.88448833369145
20
-6.59429631718777
30
0
41
1
10
9.87499473746701
20
-6.4305591646997
30
0
41
1
10
9.86037160584468
20
-6.35423071749952
30
0
41
1
10
9.80920855640798
20
-6.20703000919167
30
0
41
1
10
9.77147774900422
20
-6.13411142498924
30
0
41
1
10
9.68522548749198
20
-6.01406872419494
30
0
41
1
10
9.6378343307496
20
-5.96332306339136
30
0
41
1
10
9.51969106949107
20
-5.86370920900282
30
0
41
1
10
9.44454725599357
20
-5.81912477171269
30
0
41
1
10
9.33685626650438
20
-5.77501928382182
30
0
41
1
10
9.30549676085977
20
-5.76435984363917
30
0
41
1
10
9.27390455985565
20
-5.75566196954685
30
0
0
SPLINE
5
D3
100
AcDbEntity
8
1
62
256
6
ByLayer
370
18
48
1
60
0
100
AcDbSpline
70
4
71
3
72
16
73
12
40
0
40
0
40
0
40
0
40
0.0517235387678362
40
0.0517235387678362
40
0.275098677522047
40
0.275098677522047
40
0.500660612380023
40
0.500660612380023
40
0.740399911602623
40
0.740399911602623
40
1
40
1
40
1
40
1
41
1
10
11.9955768895952
20
-7.13568105833977
30
0
41
1
10
12.0023126525051
20
-7.13173214496922
30
0
41
1
10
12.0089132100843
20
-7.127540684688
30
0
41
1
10
12.0429215049886
20
-7.10421229858349
30
0
41
1
10
12.0678140662249
20
-7.08077794144168
30
0
41
1
10
12.1087337148404
20
-7.02869709081807
30
0
41
1
10
12.1252135093438
20
-6.99935510970406
30
0
41
1
10
12.1490799914639
20
-6.93714422733765
30
0
41
1
10
12.1561625753256
20
-6.90340385102976
30
0
41
1
10
12.1602113511053
20
-6.83468720761849
30
0
41
1
10
12.1563795299009
20
-6.79900122580307
30
0
41
1
10
12.1474510335848
20
-6.76565233797859
30
0
0
SPLINE
5
D4
100
AcDbEntity
8
1
62
256
6
ByLayer
370
18
48
1
60
0
100
AcDbSpline
70
4
71
3
72
16
73
12
40
0
40
0
40
0
40
0
40
0.0660777514108704
40
0.0660777514108704
40
0.289232858199884
40
0.289232858199884
40
0.515409129607285
40
0.515409129607285
40
0.756439127791313
40
0.756439127791313
40
1
40
1
40
1
40
1
41
1
10
12.9685
20
-5.43750000000003
30
0
41
1
10
12.9685
20
-5.42754139325589
30
0
41
1
10
12.9680478629073
20
-5.41757030370829
30
0
41
1
10
12.964129393051
20
-5.37441084850121
30
0
41
1
10
12.9558767148613
20
-5.34131566754516
30
0
41
1
10
12.9305022667634
20
-5.28019374350106
30
0
41
1
10
12.9129646817671
20
-5.25145428574578
30
0
41
1
10
12.8703125238603
20
-5.20012170141612
30
0
41
1
10
12.8442704937159
20
-5.17739049739566
30
0
41
1
10
12.7881096630201
20
-5.14145746063232
30
0
41
1
10
12.757361712608
20
-5.12794617083537
30
0
41
1
10
12.7260954401443
20
-5.11933803045318
30
0
0
SPLINE
5
D5
100
AcDbEntity
8
1
62
256
6
ByLayer
370
18
48
1
60
0
100
AcDbSpline
70
4
71
3
72
10
73
6
40
0
40
0
40
0
40
0
40
0.479736826236798
40
0.479736826236798
40
1
40
1
40
1
40
1
41
1
10
11.1527412933765
20
-4.02976206370019
30
0
41
1
10
11.2365282379028
20
-4.01399655923351
30
0
41
1
10
11.3168655563164
20
-3.98504978088718
30
0
41
1
10
11.4652196064295
20
-3.9061263054958
30
0
41
1
10
11.534123355797
20
-3.85354381540483
30
0
41
1
10
11.5921177041672
20
-3.79391737191128
30
0
0
SPLINE
5
D6
100
AcDbEntity
8
1
62
256
6
ByLayer
370
18
48
1
60
0
100
AcDbSpline
70
4
71
3
72
16
73
12
40
0
40
0
40
0
40
0
40
0.0517235387678384
40
0.0517235387678384
40
0.275098677522055
40
0.275098677522055
40
0.500660612380039
40
0.500660612380039
40
0.740399911602647
40
0.740399911602647
40
1
40
1
40
1
40
1
41
1
10
10.0044231104048
20
-3.73931894166026
30
0
41
1
10
9.99768734749486
20
-3.74326785503084
30
0
41
1
10
9.99108678991567
20
-3.74745931531206
30
0
41
1
10
9.95707849501142
20
-3.77078770141654
30
0
41
1
10
9.932185933775
20
-3.79422205855835
30
0
41
1
10
9.89126628515962
20
-3.84630290918199
30
0
41
1
10
9.87478649065613
20
-3.87564489029597
30
0
41
1
10
9.85092000853612
20
-3.9378557726624
30
0
41
1
10
9.84383742467438
20
-3.97159614897026
30
0
41
1
10
9.83978864889465
20
-4.04031279238154
30
0
41
1
10
9.84362047009918
20
-4.07599877419696
30
0
41
1
10
9.85254896641513
20
-4.10934766202143
30
0
0
LINE
5
73
100
AcDbEntity
8
80
62
256
6
ByLayer
370
18
48
1
60
0
100
AcDbLine
10
0
20
0
30
0
11
-5
21
0
31
0
39
0
210
0
220
0
230
1
0
LINE
5
74
100
AcDbEntity
8
81
62
256
6
ByLayer
370
18
48
1
60
0
100
AcDbLine
10
25.5
20
-13.4375
30
0
11
30.5
21
-13.4375
31
0
39
0
210
0
220
0
230
1
0
LINE
5
75
100
AcDbEntity
8
1
62
256
6
ByLayer
370
18
48
1
60
0
100
AcDbLine
10
10.853838
20
-10.0875
30
0
11
10.853838
21
-13.1875
31
0
39
0
210
0
220
0
230
1
0
LINE
5
77
100
AcDbEntity
8
1
62
256
6
ByLayer
370
18
48
1
60
0
100
AcDbLine
10
0
20
-12.3125
30
0
11
0
21
12.5625
31
0
39
0
210
0
220
0
230
1
0
LINE
5
78
100
AcDbEntity
8
1
62
256
6
ByLayer
370
18
48
1
60
0
100
AcDbLine
10
2.248368
20
12.593153
30
0
11
9.033861
21
12.593153
31
0
39
0
210
0
220
0
230
1
0
LINE
5
79
100
AcDbEntity
8
1
62
256
6
ByLayer
370
18
48
1
60
0
100
AcDbLine
10
16
20
-10.0875
30
0
11
16
21
-1.4375
31
0
39
0
210
0
220
0
230
1
0
LINE
5
7A
100
AcDbEntity
8
1
62
256
6
ByLayer
370
18
48
1
60
0
100
AcDbLine
10
10.853838
20
-13.1875
30
0
11
18.755042
21
-13.1875
31
0
39
0
210
0
220
0
230
1
0
LINE
5
7B
100
AcDbEntity
8
1
62
256
6
ByLayer
370
18
48
1
60
0
100
AcDbLine
10
0.5
20
-12.8125
30
0
11
0.5
21
12.564682
31
0
39
0
210
0
220
0
230
1
0
LINE
5
7C
100
AcDbEntity
8
1
62
256
6
ByLayer
370
18
48
1
60
0
100
AcDbLine
10
0.5
20
-12.8125
30
0
11
0
21
-12.3125
31
0
39
0
210
0
220
0
230
1
0
LINE
5
7D
100
AcDbEntity
8
1
62
256
6
ByLayer
370
18
48
1
60
0
100
AcDbLine
10
0.600481
20
-13.1875
30
0
11
2.248368
21
-13.1875
31
0
39
0
210
0
220
0
230
1
0
LINE
5
7E
100
AcDbEntity
8
1
62
256
6
ByLayer
370
18
48
1
60
0
100
AcDbLine
10
0.5
20
12.564682
30
0
11
2.248368
21
12.593153
31
0
39
0
210
0
220
0
230
1
0
LINE
5
7F
100
AcDbEntity
8
1
62
256
6
ByLayer
370
18
48
1
60
0
100
AcDbLine
10
0.600481
20
-13.1875
30
0
11
0.5
21
-12.8125
31
0
39
0
210
0
220
0
230
1
0
LINE
5
80
100
AcDbEntity
8
1
62
256
6
ByLayer
370
18
48
1
60
0
100
AcDbLine
10
2.248368
20
-13.1875
30
0
11
2.248368
21
12.593153
31
0
39
0
210
0
220
0
230
1
0
LINE
5
81
100
AcDbEntity
8
1
62
256
6
ByLayer
370
18
48
1
60
0
100
AcDbLine
10
9.033861
20
12.593153
30
0
11
16
21
-1.4375
31
0
39
0
210
0
220
0
230
1
0
LINE
5
82
100
AcDbEntity
8
1
62
256
6
ByLayer
370
18
48
1
60
0
100
AcDbLine
10
17.6
20
-11.6875
30
0
11
18.755042
21
-11.6875
31
0
39
0
210
0
220
0
230
1
0
LINE
5
83
100
AcDbEntity
8
1
62
256
6
ByLayer
370
18
48
1
60
0
100
AcDbLine
10
10.853838
20
-13.1875
30
0
11
2.248368
21
-13.1875
31
0
39
0
210
0
220
0
230
1
0
LINE
5
84
100
AcDbEntity
8
1
62
256
6
ByLayer
370
18
48
1
60
0
100
AcDbLine
10
16
20
-10.0875
30
0
11
10.853838
21
-10.0875
31
0
39
0
210
0
220
0
230
1
0
LINE
5
85
100
AcDbEntity
8
1
62
256
6
ByLayer
370
18
48
1
60
0
100
AcDbLine
10
0.5
20
12.564682
30
0
11
0
21
12.5625
31
0
39
0
210
0
220
0
230
1
0
LINE
5
86
100
AcDbEntity
8
SK1
62
256
6
ByLayer
370
18
48
1
60
0
100
AcDbLine
10
0
20
-12.3125
30
0
11
0
21
12.5625
31
0
39
0
210
0
220
0
230
1
0
LINE
5
88
100
AcDbEntity
8
SK1
62
256
6
ByLayer
370
18
48
1
60
0
100
AcDbLine
10
0
20
-12.3125
30
0
11
-125.85
21
-12.3125
31
0
39
0
210
0
220
0
230
1
0
LINE
5
89
100
AcDbEntity
8
SK1
62
256
6
ByLayer
370
18
48
1
60
0
100
AcDbLine
10
-125.85
20
-12.3125
30
0
11
-125.85
21
12.5625
31
0
39
0
210
0
220
0
230
1
0
LINE
5
8A
100
AcDbEntity
8
1
62
256
6
ByLayer
370
18
48
1
60
0
100
AcDbLine
10
19.801935
20
-12.26649
30
0
11
18.958218
21
-12.26649
31
0
39
0
210
0
220
0
230
1
0
LINE
5
8B
100
AcDbEntity
8
1
62
256
6
ByLayer
370
18
48
1
60
0
100
AcDbLine
10
5.5
20
-13.1875
30
0
11
5.5
21
-13.2375
31
0
39
0
210
0
220
0
230
1
0
LINE
5
8C
100
AcDbEntity
8
1
62
256
6
ByLayer
370
18
48
1
60
0
100
AcDbLine
10
10.3
20
-13.2375
30
0
11
10.3
21
-13.1875
31
0
39
0
210
0
220
0
230
1
0
LINE
5
8D
100
AcDbEntity
8
1
62
256
6
ByLayer
370
18
48
1
60
0
100
AcDbLine
10
11.354204
20
-13.187498
30
0
11
11.354204
21
-13.2375
31
0
39
0
210
0
220
0
230
1
0
LINE
5
8E
100
AcDbEntity
8
1
62
256
6
ByLayer
370
18
48
1
60
0
100
AcDbLine
10
11.354204
20
-13.2375
30
0
11
10.3
21
-13.2375
31
0
39
0
210
0
220
0
230
1
0
LINE
5
8F
100
AcDbEntity
8
1
62
256
6
ByLayer
370
18
48
1
60
0
100
AcDbLine
10
19.654842
20
-11.862354
30
0
11
18.82673
21
-11.862354
31
0
39
0
210
0
220
0
230
1
0
LINE
5
90
100
AcDbEntity
8
1
62
256
6
ByLayer
370
18
48
1
60
0
100
AcDbLine
10
8.714138
20
-13.2375
30
0
11
8.5
21
-13.31544
31
0
39
0
210
0
220
0
230
1
0
LINE
5
91
100
AcDbEntity
8
1
62
256
6
ByLayer
370
18
48
1
60
0
100
AcDbLine
10
19.645796
20
-11.811051
30
0
11
18.805754
21
-11.811051
31
0
39
0
210
0
220
0
230
1
0
LINE
5
92
100
AcDbEntity
8
1
62
256
6
ByLayer
370
18
48
1
60
0
100
AcDbLine
10
19.645796
20
-13.063949
30
0
11
19.645796
21
-13.2375
31
0
39
0
210
0
220
0
230
1
0
LINE
5
93
100
AcDbEntity
8
1
62
256
6
ByLayer
370
18
48
1
60
0
100
AcDbLine
10
11.354204
20
-13.2375
30
0
11
19.645796
21
-13.2375
31
0
39
0
210
0
220
0
230
1
0
LINE
5
94
100
AcDbEntity
8
1
62
256
6
ByLayer
370
18
48
1
60
0
100
AcDbLine
10
17.203015
20
-11.6375
30
0
11
19.645796
21
-11.6375
31
0
39
0
210
0
220
0
230
1
0
LINE
5
95
100
AcDbEntity
8
1
62
256
6
ByLayer
370
18
48
1
60
0
100
AcDbLine
10
22.285862
20
-13.2375
30
0
11
20.7
21
-13.2375
31
0
39
0
210
0
220
0
230
1
0
LINE
5
96
100
AcDbEntity
8
1
62
256
6
ByLayer
370
18
48
1
60
0
100
AcDbLine
10
19.654842
20
-13.012646
30
0
11
18.82673
21
-13.012646
31
0
39
0
210
0
220
0
230
1
0
LINE
5
97
100
AcDbEntity
8
1
62
256
6
ByLayer
370
18
48
1
60
0
100
AcDbLine
10
22.285862
20
-11.6375
30
0
11
22.5
21
-11.55956
31
0
39
0
210
0
220
0
230
1
0
LINE
5
98
100
AcDbEntity
8
1
62
256
6
ByLayer
370
18
48
1
60
0
100
AcDbLine
10
19.801935
20
-12.60851
30
0
11
19.654842
21
-13.012646
31
0
39
0
210
0
220
0
230
1
0
LINE
5
99
100
AcDbEntity
8
1
62
256
6
ByLayer
370
18
48
1
60
0
100
AcDbLine
10
25.5
20
-11.6375
30
0
11
25.5
21
-13.2375
31
0
39
0
210
0
220
0
230
1
0
LINE
5
9A
100
AcDbEntity
8
1
62
256
6
ByLayer
370
18
48
1
60
0
100
AcDbLine
10
8.5
20
-13.31544
30
0
11
5.708724
21
-13.43731
31
0
39
0
210
0
220
0
230
1
0
LINE
5
9B
100
AcDbEntity
8
1
62
256
6
ByLayer
370
18
48
1
60
0
100
AcDbLine
10
19.645796
20
-11.811051
30
0
11
19.645796
21
-11.6375
31
0
39
0
210
0
220
0
230
1
0
LINE
5
9C
100
AcDbEntity
8
1
62
256
6
ByLayer
370
18
48
1
60
0
100
AcDbLine
10
20.7
20
-13.2375
30
0
11
20.7
21
-11.6375
31
0
39
0
210
0
220
0
230
1
0
LINE
5
9D
100
AcDbEntity
8
1
62
256
6
ByLayer
370
18
48
1
60
0
100
AcDbLine
10
22.5
20
-13.31544
30
0
11
25.291276
21
-13.43731
31
0
39
0
210
0
220
0
230
1
0
LINE
5
9E
100
AcDbEntity
8
1
62
256
6
ByLayer
370
18
48
1
60
0
100
AcDbLine
10
19.645796
20
-13.2375
30
0
11
20.7
21
-13.2375
31
0
39
0
210
0
220
0
230
1
0
LINE
5
9F
100
AcDbEntity
8
1
62
256
6
ByLayer
370
18
48
1
60
0
100
AcDbLine
10
8.714138
20
-13.2375
30
0
11
10.3
21
-13.2375
31
0
39
0
210
0
220
0
230
1
0
LINE
5
A0
100
AcDbEntity
8
1
62
256
6
ByLayer
370
18
48
1
60
0
100
AcDbLine
10
22.285862
20
-11.6375
30
0
11
20.7
21
-11.6375
31
0
39
0
210
0
220
0
230
1
0
LINE
5
A1
100
AcDbEntity
8
1
62
256
6
ByLayer
370
18
48
1
60
0
100
AcDbLine
10
19.645796
20
-13.063949
30
0
11
18.805754
21
-13.063949
31
0
39
0
210
0
220
0
230
1
0
LINE
5
A2
100
AcDbEntity
8
1
62
256
6
ByLayer
370
18
48
1
60
0
100
AcDbLine
10
22.5
20
-11.55956
30
0
11
25.291276
21
-11.43769
31
0
39
0
210
0
220
0
230
1
0
LINE
5
A3
100
AcDbEntity
8
1
62
256
6
ByLayer
370
18
48
1
60
0
100
AcDbLine
10
22.285862
20
-13.2375
30
0
11
22.5
21
-13.31544
31
0
39
0
210
0
220
0
230
1
0
LINE
5
A4
100
AcDbEntity
8
1
62
256
6
ByLayer
370
18
48
1
60
0
100
AcDbLine
10
19.801935
20
-12.26649
30
0
11
19.654842
21
-11.862354
31
0
39
0
210
0
220
0
230
1
0
LINE
5
A5
100
AcDbEntity
8
1
62
256
6
ByLayer
370
18
48
1
60
0
100
AcDbLine
10
19.645796
20
-11.6375
30
0
11
20.7
21
-11.6375
31
0
39
0
210
0
220
0
230
1
0
LINE
5
A6
100
AcDbEntity
8
1
62
256
6
ByLayer
370
18
48
1
60
0
100
AcDbLine
10
19.801935
20
-12.60851
30
0
11
18.963999
21
-12.60851
31
0
39
0
210
0
220
0
230
1
0
LINE
5
A7
100
AcDbEntity
8
SK1
62
256
6
ByLayer
370
18
48
1
60
0
100
AcDbLine
10
-125.85
20
12.5625
30
0
11
0
21
12.5625
31
0
39
0
210
0
220
0
230
1
0
MTEXT
5
D7
100
AcDbEntity
8
SK6
62
256
6
ByLayer
370
18
48
1
60
0
100
AcDbMText
10
-79.299987
20
-24.297174
30
0
210
0
220
0
230
1
1
\W0.7566;LF123E08-2525B
40
3.5
41
0
44
1.084337
50
0
71
7
72
5
7
iso_b_vert
0
DIMENSION
5
E8
100
AcDbEntity
8
2
62
256
6
ByLayer
370
13
48
1
60
0
100
AcDbDimension
2
DimnDraft3D1
10
39.75
20
-11.4375
30
0
11
39.75
21
-6.9375
31
0
70
32
71
5
72
1
41
1
210
0
220
0
230
1
3
Standard
100
AcDbAlignedDimension
13
27
23
-13.4375
33
0
14
27
24
-11.4375
34
0
50
90
100
AcDbRotatedDimension
1001
ACAD
1000
DSTYLE
1002
{
1070
    74
1070
     0
1070
   279
1070
     0
1070
   172
1070
     1
1070
   173
1070
     1
1070
   340
1005
D8
1070
   271
1070
     3
1070
   272
1070
     3
1070
    77
1070
     1
1070
    73
1070
     0
1070
   171
1070
     4
1070
   274
1070
     4
1070
   177
1070
     2
1070
   176
1070
     2
1070
   178
1070
     7
1070
    78
1070
     8
1070
    41
1041
3.0
1070
   147
1041
2.25
1070
    42
1041
1.5
1070
    44
1041
3.0
1070
   140
1041
4.5
1070
   343
1005
E9
1070
   344
1005
E9
1002
}
0
DIMENSION
5
FD
100
AcDbEntity
8
2
62
256
6
ByLayer
370
13
48
1
60
0
100
AcDbDimension
2
DimnDraft3D2
10
49.75
20
12.4375
30
0
11
49.75
21
-3.188158
31
0
70
32
71
5
72
1
41
1
210
0
220
0
230
1
3
Standard
100
AcDbAlignedDimension
13
27
23
-13.4375
33
0
14
1.5
24
12.4375
34
0
50
90
100
AcDbRotatedDimension
1001
ACAD
1000
DSTYLE
1002
{
1070
    74
1070
     0
1070
   279
1070
     0
1070
   172
1070
     1
1070
   173
1070
     1
1070
   340
1005
D8
1070
   271
1070
     3
1070
   272
1070
     3
1070
    77
1070
     1
1070
    73
1070
     0
1070
   171
1070
     4
1070
   274
1070
     4
1070
   177
1070
     2
1070
   176
1070
     2
1070
   178
1070
     7
1070
    78
1070
     8
1070
    41
1041
3.0
1070
   147
1041
2.25
1070
    42
1041
1.5
1070
    44
1041
3.0
1070
   140
1041
4.5
1070
   343
1005
E9
1070
   344
1005
E9
1002
}
0
DIMENSION
5
10C
100
AcDbEntity
8
SK2
62
256
6
ByLayer
370
13
48
1
60
0
100
AcDbDimension
2
DimnDraft3D3
10
-135.6
20
-12.4375
30
0
11
-135.6
21
-2.688158
31
0
70
32
71
5
72
1
41
1
210
0
220
0
230
1
3
Standard
100
AcDbAlignedDimension
13
-127.35
23
12.4375
33
0
14
-127.35
24
-12.4375
34
0
50
90
100
AcDbRotatedDimension
1001
ACAD
1000
DSTYLE
1002
{
1070
    74
1070
     0
1070
   279
1070
     0
1070
   172
1070
     1
1070
   173
1070
     1
1070
   340
1005
D8
1070
   271
1070
     3
1070
   272
1070
     3
1070
    77
1070
     1
1070
    73
1070
     0
1070
   171
1070
     4
1070
   274
1070
     4
1070
   177
1070
     2
1070
   176
1070
     2
1070
   178
1070
     7
1070
    78
1070
     8
1070
    41
1041
3.0
1070
   147
1041
2.25
1070
    42
1041
1.5
1070
    44
1041
3.0
1070
   140
1041
4.5
1070
   343
1005
E9
1070
   344
1005
E9
1002
}
0
DIMENSION
5
11A
100
AcDbEntity
8
2
62
256
6
ByLayer
370
13
48
1
60
0
100
AcDbDimension
2
DimnDraft3D4
10
17.5
20
-26.6875
30
0
11
20.493421
21
-26.6875
31
0
70
32
71
5
72
1
41
1
210
0
220
0
230
1
3
Standard
100
AcDbAlignedDimension
13
25.5
23
-13.9375
33
0
14
17.5
24
-12.0625
34
0
50
0
100
AcDbRotatedDimension
1001
ACAD
1000
DSTYLE
1002
{
1070
   279
1070
     0
1070
   172
1070
     1
1070
   173
1070
     1
1070
   340
1005
D8
1070
   271
1070
     3
1070
   272
1070
     3
1070
    77
1070
     1
1070
    73
1070
     0
1070
   171
1070
     4
1070
   274
1070
     4
1070
   177
1070
     2
1070
   176
1070
     2
1070
   178
1070
     7
1070
    78
1070
     8
1070
    41
1041
3.0
1070
   147
1041
2.25
1070
    42
1041
1.5
1070
    44
1041
3.0
1070
   140
1041
4.5
1070
   343
1005
E9
1070
   344
1005
E9
1002
}
0
DIMENSION
5
128
100
AcDbEntity
8
2
62
256
6
ByLayer
370
13
48
1
60
0
100
AcDbDimension
2
DimnDraft3D5
10
0
20
23.3125
30
0
11
7.468421
21
23.3125
31
0
70
32
71
5
72
1
41
1
210
0
220
0
230
1
3
Standard
100
AcDbAlignedDimension
13
25.5
23
-9.9375
33
0
14
0
24
13.9375
34
0
50
0
100
AcDbRotatedDimension
1001
ACAD
1000
DSTYLE
1002
{
1070
   279
1070
     0
1070
   172
1070
     1
1070
   173
1070
     1
1070
   340
1005
D8
1070
   271
1070
     3
1070
   272
1070
     3
1070
    77
1070
     1
1070
    73
1070
     0
1070
   171
1070
     4
1070
   274
1070
     4
1070
   177
1070
     2
1070
   176
1070
     2
1070
   178
1070
     7
1070
    78
1070
     8
1070
    41
1041
3.0
1070
   147
1041
2.25
1070
    42
1041
1.5
1070
    44
1041
3.0
1070
   140
1041
4.5
1070
   343
1005
E9
1070
   344
1005
E9
1002
}
0
DIMENSION
5
136
100
AcDbEntity
8
SK2
62
256
6
ByLayer
370
13
48
1
60
0
100
AcDbDimension
2
DimnDraft3D6
10
-125.85
20
33.3125
30
0
11
-53.982237
21
33.3125
31
0
70
32
71
5
72
1
41
1
210
0
220
0
230
1
3
Standard
100
AcDbAlignedDimension
13
25.5
23
-9.9375
33
0
14
-125.85
24
13.9375
34
0
50
0
100
AcDbRotatedDimension
1001
ACAD
1000
DSTYLE
1002
{
1070
   279
1070
     0
1070
   172
1070
     1
1070
   173
1070
     1
1070
   340
1005
D8
1070
   271
1070
     3
1070
   272
1070
     3
1070
    77
1070
     1
1070
    73
1070
     0
1070
   171
1070
     4
1070
   274
1070
     4
1070
   177
1070
     2
1070
   176
1070
     2
1070
   178
1070
     7
1070
    78
1070
     8
1070
    41
1041
3.0
1070
   147
1041
2.25
1070
    42
1041
1.5
1070
    44
1041
3.0
1070
   140
1041
4.5
1070
   343
1005
E9
1070
   344
1005
E9
1002
}
0
ENDSEC
0
SECTION
2
OBJECTS
0
DICTIONARY
5
1a0
330
0
100
AcDbDictionary
280
0
281
1
3
ACAD_GROUP
350
1a1
3
ACAD_MLINESTYLE
350
1a2
0
DICTIONARY
5
1a1
330
0
100
AcDbDictionary
280
0
281
1
0
DICTIONARY
5
1a2
330
0
100
AcDbDictionary
280
0
281
1
3
Standard
350
18
0
MLINESTYLE
5
18
330
1a2
100
AcDbMlineStyle
2
Standard
70
0
3

62
256
51
90
52
90
71
2
49
-0.5
62
256
6
ByLayer
49
0.5
62
256
6
ByLayer
0
RASTERVARIABLES
5
18f
330

100
AcDbRasterVariables
90
0
70
1
71
1
72
1
0
ENDSEC
0
EOF
