0
SECTION
2
HEADER
9
$ACADVER
1
AC1015
9
$DWGCODEPAGE
3
ANSI_1252
9
$HANDSEED
5
1e5
9
$ANGBASE
50
0
9
$ANGDIR
70
0
9
$ATTMODE
70
1
9
$AUNITS
70
0
9
$AUPREC
70
0
9
$CECOLOR
62
256
9
$CELTSCALE
40
1
9
$CELTYPE
6
ByLayer
9
$CELWEIGHT
370
18
9
$CLAYER
8
0
9
$CMLJUST
70
0
9
$CMLSCALE
40
1
9
$CMLSTYLE
2
Standard
9
$DIMSTYLE
2
Standard
9
$TEXTSIZE
40
0.2
9
$TEXTSTYLE
7
Standard
9
$LUNITS
70
2
9
$LUPREC
70
4
9
$EXTNAMES
290
1
9
$INSUNITS
70
4
9
$LTSCALE
40
1
9
$LWDISPLAY
290
1
9
$PDMODE
70
0
9
$PDSIZE
40
0
9
$PLINEGEN
70
0
0
ENDSEC
0
SECTION
2
CLASSES
0
CLASS
1
RASTERVARIABLES
2
AcDbRasterVariables
3
ISM
90
0
280
0
281
0
0
ENDSEC
0
SECTION
2
TABLES
0
TABLE
2
VPORT
5
1db
100
AcDbSymbolTable
0
VPORT
5
1
100
AcDbSymbolTableRecord
100
AcDbViewportTableRecord
2
*Active
70
0
10
0
20
0
11
1
21
1
12
-1
22
1
13
0
23
0
14
0.5
24
0.5
15
10
25
10
16
0
26
0
36
1
17
0
27
0
37
0
0
ENDTAB
0
TABLE
2
LTYPE
5
1dc
100
AcDbSymbolTable
0
LTYPE
5
14
100
AcDbSymbolTableRecord
100
AcDbLinetypeTableRecord
70
0
2
ByBlock
3

72
65
73
0
40
0
0
LTYPE
5
15
100
AcDbSymbolTableRecord
100
AcDbLinetypeTableRecord
70
0
2
ByLayer
3

72
65
73
0
40
0
0
LTYPE
5
16
100
AcDbSymbolTableRecord
100
AcDbLinetypeTableRecord
70
0
2
CONTINUOUS
3
Solid line
72
65
73
0
40
0
0
LTYPE
5
6A
100
AcDbSymbolTableRecord
100
AcDbLinetypeTableRecord
70
0
2
CENTER
3
____ _ ____ _ ____ _ ____
72
65
73
4
40
47.5
49
22
74
0
49
-8.5
74
0
49
8.5
74
0
49
-8.5
74
0
0
LTYPE
5
6B
100
AcDbSymbolTableRecord
100
AcDbLinetypeTableRecord
70
0
2
DASHED
3
__ __ __ __ __ __ __ __ __
72
65
73
2
40
25.72
49
12.86
74
0
49
-12.86
74
0
0
ENDTAB
0
TABLE
2
LAYER
5
1dd
100
AcDbSymbolTable
0
LAYER
5
10
100
AcDbSymbolTableRecord
100
AcDbLayerTableRecord
2
0
70
0
62
7
6
CONTINUOUS
290
1
370
-3
390
0
0
LAYER
5
6D
100
AcDbSymbolTableRecord
100
AcDbLayerTableRecord
2
80
70
0
62
-6
6
CONTINUOUS
290
1
370
-3
390
0
0
LAYER
5
6F
100
AcDbSymbolTableRecord
100
AcDbLayerTableRecord
2
81
70
0
62
-3
6
CONTINUOUS
290
1
370
-3
390
0
0
LAYER
5
72
100
AcDbSymbolTableRecord
100
AcDbLayerTableRecord
2
4
70
0
62
-2
6
CENTER
290
1
370
-3
390
0
0
LAYER
5
77
100
AcDbSymbolTableRecord
100
AcDbLayerTableRecord
2
1
70
0
62
4
6
CONTINUOUS
290
1
370
-3
390
0
0
LAYER
5
139
100
AcDbSymbolTableRecord
100
AcDbLayerTableRecord
2
2
70
0
62
7
6
CONTINUOUS
290
1
370
-3
390
0
0
LAYER
5
1c7
100
AcDbSymbolTableRecord
100
AcDbLayerTableRecord
2
SK4
70
0
62
2
6
CENTER
290
1
370
-3
390
0
0
LAYER
5
1c8
100
AcDbSymbolTableRecord
100
AcDbLayerTableRecord
2
SK1
70
0
62
4
6
CONTINUOUS
290
1
370
-3
390
0
0
LAYER
5
1c9
100
AcDbSymbolTableRecord
100
AcDbLayerTableRecord
2
SK6
70
0
62
5
6
CONTINUOUS
290
1
370
-3
390
0
0
LAYER
5
1ca
100
AcDbSymbolTableRecord
100
AcDbLayerTableRecord
2
SK2
70
0
62
7
6
CONTINUOUS
290
1
370
-3
390
0
0
ENDTAB
0
TABLE
2
STYLE
5
1de
100
AcDbSymbolTable
0
STYLE
5
11
100
AcDbSymbolTableRecord
100
AcDbTextStyleTableRecord
2
Standard
3
txt
70
0
71
0
40
0
41
1
42
0
50
0
0
STYLE
5
134
100
AcDbSymbolTableRecord
100
AcDbTextStyleTableRecord
2
iso_b_vert
3
simplex.shx
70
0
71
0
40
0
41
1
42
0
50
0
0
STYLE
5
135
100
AcDbSymbolTableRecord
100
AcDbTextStyleTableRecord
2
DWGDirectTextStyle
3
simplex
70
0
71
0
40
0
41
1
42
0
50
0
0
ENDTAB
0
TABLE
2
DIMSTYLE
5
1df
100
AcDbSymbolTable
100
AcDbDimStyleTable
0
DIMSTYLE
105
27
100
AcDbSymbolTableRecord
100
AcDbDimStyleTableRecord
2
Standard
70
0
3
<>
41
0.18
42
0.0625
44
0.18
140
0.18
147
0.09
73
0
74
0
77
1
271
2
275
0
278
52
280
0
340
11
0
ENDTAB
0
TABLE
2
VIEW
5
1e0
100
AcDbSymbolTable
0
ENDTAB
0
TABLE
2
UCS
5
1e1
100
AcDbSymbolTable
0
ENDTAB
0
TABLE
2
APPID
5
1e2
100
AcDbSymbolTable
0
APPID
5
12
100
AcDbSymbolTableRecord
100
AcDbRegAppTableRecord
2
ACAD
70
0
0
ENDTAB
0
TABLE
2
BLOCK_RECORD
5
1e3
100
AcDbSymbolTable
0
BLOCK_RECORD
5
1F
100
AcDbSymbolTableRecord
100
AcDbBlockTableRecord
2
*Model_Space
340
0
70
0
0
BLOCK_RECORD
5
1B
100
AcDbSymbolTableRecord
100
AcDbBlockTableRecord
2
*Paper_Space
340
0
70
0
0
BLOCK_RECORD
5
23
100
AcDbSymbolTableRecord
100
AcDbBlockTableRecord
2
*Paper_Space0
340
0
70
0
0
BLOCK_RECORD
5
137
100
AcDbSymbolTableRecord
100
AcDbBlockTableRecord
2
DimnDraft3D1
340
0
70
0
0
BLOCK_RECORD
5
142
100
AcDbSymbolTableRecord
100
AcDbBlockTableRecord
2
DimnDraft3D2
340
0
70
0
0
BLOCK_RECORD
5
14E
100
AcDbSymbolTableRecord
100
AcDbBlockTableRecord
2
DimnDraft3D3
340
0
70
0
0
BLOCK_RECORD
5
159
100
AcDbSymbolTableRecord
100
AcDbBlockTableRecord
2
DimnDraft3D4
340
0
70
0
0
BLOCK_RECORD
5
164
100
AcDbSymbolTableRecord
100
AcDbBlockTableRecord
2
DimnDraft3D5
340
0
70
0
0
ENDTAB
0
ENDSEC
0
SECTION
2
BLOCKS
0
BLOCK
5
20
100
AcDbEntity
8
0
100
AcDbBlockBegin
2
*Model_Space
70
0
10
0
20
0
30
0
3
*Model_Space
0
ENDBLK
5
21
100
AcDbEntity
8
0
100
AcDbBlockEnd
0
BLOCK
5
1C
100
AcDbEntity
8
0
100
AcDbBlockBegin
2
*Paper_Space
70
0
10
0
20
0
30
0
3
*Paper_Space
0
ENDBLK
5
1D
100
AcDbEntity
8
0
100
AcDbBlockEnd
0
BLOCK
5
24
100
AcDbEntity
8
0
100
AcDbBlockBegin
2
*Paper_Space0
70
0
10
0
20
0
30
0
3
*Paper_Space0
0
ENDBLK
5
25
100
AcDbEntity
8
0
100
AcDbBlockEnd
0
BLOCK
5
13F
100
AcDbEntity
8
0
100
AcDbBlockBegin
2
DimnDraft3D1
70
0
10
0
20
0
30
0
3
DimnDraft3D1
0
MTEXT
5
138
100
AcDbEntity
8
2
62
256
6
ByLayer
370
13
48
1
60
0
100
AcDbMText
10
122.710658
20
59.460561
30
0
210
0
220
0
230
1
1
\W0.7138;250
40
3.175
41
0
44
1.084337
50
0
71
7
72
5
7
iso_b_vert
0
LINE
5
13A
100
AcDbEntity
8
2
62
256
6
ByLayer
370
13
48
1
60
0
100
AcDbLine
10
0
20
1.5875
30
0
11
0
21
61.841811
31
0
39
0
210
0
220
0
230
1
0
LINE
5
13B
100
AcDbEntity
8
2
62
256
6
ByLayer
370
13
48
1
60
0
100
AcDbLine
10
250
20
1.5875
30
0
11
250
21
61.841811
31
0
39
0
210
0
220
0
230
1
0
LINE
5
13C
100
AcDbEntity
8
2
62
256
6
ByLayer
370
13
48
1
60
0
100
AcDbLine
10
0
20
58.666811
30
0
11
250
21
58.666811
31
0
39
0
210
0
220
0
230
1
0
SOLID
5
13D
100
AcDbEntity
8
2
62
256
6
ByLayer
370
13
48
1
60
0
100
AcDbTrace
10
0
20
58.666811
30
0
11
3.174998
21
59.084807
31
0
12
3.175002
22
58.248814
32
0
13
0
23
58.666811
33
0
39
0
210
0
220
0
230
1
0
SOLID
5
13E
100
AcDbEntity
8
2
62
256
6
ByLayer
370
13
48
1
60
0
100
AcDbTrace
10
250
20
58.666811
30
0
11
246.825002
21
58.248814
31
0
12
246.824998
22
59.084807
32
0
13
250
23
58.666811
33
0
39
0
210
0
220
0
230
1
0
ENDBLK
5
140
100
AcDbEntity
8
0
100
AcDbBlockEnd
0
BLOCK
5
14B
100
AcDbEntity
8
0
100
AcDbBlockBegin
2
DimnDraft3D2
70
0
10
0
20
0
30
0
3
DimnDraft3D2
0
MTEXT
5
143
100
AcDbEntity
8
SK2
62
256
6
ByLayer
370
13
48
1
60
0
100
AcDbMText
10
-69.354342
20
2.473158
30
0
210
0
220
0
230
1
1
\W0.6217;100
40
3.175
41
0
44
1.084337
50
90
71
7
72
5
7
iso_b_vert
0
MTEXT
5
145
100
AcDbEntity
8
SK2
62
256
6
ByLayer
370
13
48
1
60
0
100
AcDbMText
10
-69.354342
20
-4.645787
30
0
210
0
220
0
230
1
1
%%c
40
3.175
41
0
44
1.084337
50
90
71
7
72
5
7
iso_b_vert
0
LINE
5
146
100
AcDbEntity
8
SK2
62
256
6
ByLayer
370
13
48
1
60
0
100
AcDbLine
10
-1.5875
20
-50
30
0
11
-70.941842
21
-50
31
0
39
0
210
0
220
0
230
1
0
LINE
5
147
100
AcDbEntity
8
SK2
62
256
6
ByLayer
370
13
48
1
60
0
100
AcDbLine
10
-1.5875
20
50
30
0
11
-70.941842
21
50
31
0
39
0
210
0
220
0
230
1
0
LINE
5
148
100
AcDbEntity
8
SK2
62
256
6
ByLayer
370
13
48
1
60
0
100
AcDbLine
10
-67.766842
20
-50
30
0
11
-67.766842
21
50
31
0
39
0
210
0
220
0
230
1
0
SOLID
5
149
100
AcDbEntity
8
SK2
62
256
6
ByLayer
370
13
48
1
60
0
100
AcDbTrace
10
-67.766842
20
-50
30
0
11
-68.184838
21
-46.825002
31
0
12
-67.348845
22
-46.824998
32
0
13
-67.766842
23
-50
33
0
39
0
210
0
220
0
230
1
0
SOLID
5
14A
100
AcDbEntity
8
SK2
62
256
6
ByLayer
370
13
48
1
60
0
100
AcDbTrace
10
-67.766842
20
50
30
0
11
-67.348845
21
46.825002
31
0
12
-68.184838
22
46.824998
32
0
13
-67.766842
23
50
33
0
39
0
210
0
220
0
230
1
0
ENDBLK
5
14C
100
AcDbEntity
8
0
100
AcDbBlockEnd
0
BLOCK
5
156
100
AcDbEntity
8
0
100
AcDbBlockBegin
2
DimnDraft3D3
70
0
10
0
20
0
30
0
3
DimnDraft3D3
0
MTEXT
5
14F
100
AcDbEntity
8
SK2
62
256
6
ByLayer
370
13
48
1
60
0
100
AcDbMText
10
294.617313
20
3.26273
30
0
210
0
220
0
230
1
1
\W0.6740;27
40
3.175
41
0
44
1.084337
50
90
71
7
72
5
7
iso_b_vert
0
MTEXT
5
150
100
AcDbEntity
8
SK2
62
256
6
ByLayer
370
13
48
1
60
0
100
AcDbMText
10
294.617313
20
-3.856215
30
0
210
0
220
0
230
1
1
%%c
40
3.175
41
0
44
1.084337
50
90
71
7
72
5
7
iso_b_vert
0
LINE
5
151
100
AcDbEntity
8
SK2
62
256
6
ByLayer
370
13
48
1
60
0
100
AcDbLine
10
268.5875
20
-13.5
30
0
11
299.379813
21
-13.5
31
0
39
0
210
0
220
0
230
1
0
LINE
5
152
100
AcDbEntity
8
SK2
62
256
6
ByLayer
370
13
48
1
60
0
100
AcDbLine
10
268.5875
20
13.5
30
0
11
299.379813
21
13.5
31
0
39
0
210
0
220
0
230
1
0
LINE
5
153
100
AcDbEntity
8
SK2
62
256
6
ByLayer
370
13
48
1
60
0
100
AcDbLine
10
296.204813
20
-13.5
30
0
11
296.204813
21
13.5
31
0
39
0
210
0
220
0
230
1
0
SOLID
5
154
100
AcDbEntity
8
SK2
62
256
6
ByLayer
370
13
48
1
60
0
100
AcDbTrace
10
296.204813
20
-13.5
30
0
11
295.786817
21
-10.325002
31
0
12
296.62281
22
-10.324998
32
0
13
296.204813
23
-13.5
33
0
39
0
210
0
220
0
230
1
0
SOLID
5
155
100
AcDbEntity
8
SK2
62
256
6
ByLayer
370
13
48
1
60
0
100
AcDbTrace
10
296.204813
20
13.5
30
0
11
296.62281
21
10.325002
31
0
12
295.786817
22
10.324998
32
0
13
296.204813
23
13.5
33
0
39
0
210
0
220
0
230
1
0
ENDBLK
5
157
100
AcDbEntity
8
0
100
AcDbBlockEnd
0
BLOCK
5
161
100
AcDbEntity
8
0
100
AcDbBlockBegin
2
DimnDraft3D4
70
0
10
0
20
0
30
0
3
DimnDraft3D4
0
MTEXT
5
15A
100
AcDbEntity
8
SK2
62
256
6
ByLayer
370
13
48
1
60
0
100
AcDbMText
10
305.170046
20
3.26273
30
0
210
0
220
0
230
1
1
\W0.6740;76
40
3.175
41
0
44
1.084337
50
90
71
7
72
5
7
iso_b_vert
0
MTEXT
5
15B
100
AcDbEntity
8
SK2
62
256
6
ByLayer
370
13
48
1
60
0
100
AcDbMText
10
305.170046
20
-3.856215
30
0
210
0
220
0
230
1
1
%%c
40
3.175
41
0
44
1.084337
50
90
71
7
72
5
7
iso_b_vert
0
LINE
5
15C
100
AcDbEntity
8
SK2
62
256
6
ByLayer
370
13
48
1
60
0
100
AcDbLine
10
251.1875
20
-38
30
0
11
309.932546
21
-38
31
0
39
0
210
0
220
0
230
1
0
LINE
5
15D
100
AcDbEntity
8
SK2
62
256
6
ByLayer
370
13
48
1
60
0
100
AcDbLine
10
251.1875
20
38
30
0
11
309.932546
21
38
31
0
39
0
210
0
220
0
230
1
0
LINE
5
15E
100
AcDbEntity
8
SK2
62
256
6
ByLayer
370
13
48
1
60
0
100
AcDbLine
10
306.757546
20
-38
30
0
11
306.757546
21
38
31
0
39
0
210
0
220
0
230
1
0
SOLID
5
15F
100
AcDbEntity
8
SK2
62
256
6
ByLayer
370
13
48
1
60
0
100
AcDbTrace
10
306.757546
20
-38
30
0
11
306.339549
21
-34.825002
31
0
12
307.175543
22
-34.824998
32
0
13
306.757546
23
-38
33
0
39
0
210
0
220
0
230
1
0
SOLID
5
160
100
AcDbEntity
8
SK2
62
256
6
ByLayer
370
13
48
1
60
0
100
AcDbTrace
10
306.757546
20
38
30
0
11
307.175543
21
34.825002
31
0
12
306.339549
22
34.824998
32
0
13
306.757546
23
38
33
0
39
0
210
0
220
0
230
1
0
ENDBLK
5
162
100
AcDbEntity
8
0
100
AcDbBlockEnd
0
BLOCK
5
16B
100
AcDbEntity
8
0
100
AcDbBlockBegin
2
DimnDraft3D5
70
0
10
0
20
0
30
0
3
DimnDraft3D5
0
MTEXT
5
165
100
AcDbEntity
8
SK2
62
256
6
ByLayer
370
13
48
1
60
0
100
AcDbMText
10
139.107533
20
51.526272
30
0
210
0
220
0
230
1
1
\W0.6217;218
40
3.175
41
0
44
1.084337
50
0
71
7
72
5
7
iso_b_vert
0
LINE
5
166
100
AcDbEntity
8
SK2
62
256
6
ByLayer
370
13
48
1
60
0
100
AcDbLine
10
250
20
1.5875
30
0
11
250
21
53.907522
31
0
39
0
210
0
220
0
230
1
0
LINE
5
167
100
AcDbEntity
8
SK2
62
256
6
ByLayer
370
13
48
1
60
0
100
AcDbLine
10
32
20
39.5875
30
0
11
32
21
53.907522
31
0
39
0
210
0
220
0
230
1
0
LINE
5
168
100
AcDbEntity
8
SK2
62
256
6
ByLayer
370
13
48
1
60
0
100
AcDbLine
10
250
20
50.732522
30
0
11
32
21
50.732522
31
0
39
0
210
0
220
0
230
1
0
SOLID
5
169
100
AcDbEntity
8
SK2
62
256
6
ByLayer
370
13
48
1
60
0
100
AcDbTrace
10
250
20
50.732522
30
0
11
246.825002
21
50.314526
31
0
12
246.824998
22
51.150519
32
0
13
250
23
50.732522
33
0
39
0
210
0
220
0
230
1
0
SOLID
5
16A
100
AcDbEntity
8
SK2
62
256
6
ByLayer
370
13
48
1
60
0
100
AcDbTrace
10
32
20
50.732522
30
0
11
35.174998
21
51.150519
31
0
12
35.175002
22
50.314526
32
0
13
32
23
50.732522
33
0
39
0
210
0
220
0
230
1
0
ENDBLK
5
16C
100
AcDbEntity
8
0
100
AcDbBlockEnd
0
ENDSEC
0
SECTION
2
ENTITIES
0
ARC
5
FF
100
AcDbEntity
8
1
62
256
6
ByLayer
370
18
48
1
60
0
100
AcDbCircle
39
0
10
-32
20
-41
30
0
40
3
210
0
220
0
230
-1
100
AcDbArc
50
0
51
90
0
ARC
5
100
100
AcDbEntity
8
1
62
256
6
ByLayer
370
18
48
1
60
0
100
AcDbCircle
39
0
10
-32
20
41
30
0
40
3
210
0
220
0
230
-1
100
AcDbArc
50
270
51
0
0
ARC
5
101
100
AcDbEntity
8
1
62
256
6
ByLayer
370
18
48
1
60
0
100
AcDbCircle
39
0
10
243.75
20
-37.7
30
0
40
0.3
210
0
220
0
230
1
100
AcDbArc
50
270
51
0
0
ARC
5
102
100
AcDbEntity
8
1
62
256
6
ByLayer
370
18
48
1
60
0
100
AcDbCircle
39
0
10
243.75
20
37.7
30
0
40
0.3
210
0
220
0
230
1
100
AcDbArc
50
0
51
90
0
ARC
5
103
100
AcDbEntity
8
SK1
62
256
6
ByLayer
370
18
48
1
60
0
100
AcDbCircle
39
0
10
0.9
20
38.682247
30
0
40
0.999999999999999
210
0
220
0
230
-1
100
AcDbArc
50
223.098842
51
270
0
ARC
5
104
100
AcDbEntity
8
SK1
62
256
6
ByLayer
370
18
48
1
60
0
100
AcDbCircle
39
0
10
0.9
20
-38.682247
30
0
40
0.999999999999999
210
0
220
0
230
-1
100
AcDbArc
50
90
51
136.901158
0
ARC
5
105
100
AcDbEntity
8
SK1
62
256
6
ByLayer
370
18
48
1
60
0
100
AcDbCircle
39
0
10
1.621937
20
38.682247
30
0
40
1
210
0
220
0
230
-1
100
AcDbArc
50
270
51
285
0
ARC
5
106
100
AcDbEntity
8
SK1
62
256
6
ByLayer
370
18
48
1
60
0
100
AcDbCircle
39
0
10
1.621937
20
-38.682247
30
0
40
1
210
0
220
0
230
-1
100
AcDbArc
50
75
51
90
0
ARC
5
107
100
AcDbEntity
8
SK1
62
256
6
ByLayer
370
18
48
1
60
0
100
AcDbCircle
39
0
10
37
20
-34.25
30
0
40
2
210
0
220
0
230
-1
100
AcDbArc
50
90
51
142.219534
0
ARC
5
108
100
AcDbEntity
8
SK1
62
256
6
ByLayer
370
18
48
1
60
0
100
AcDbCircle
39
0
10
42
20
34.25
30
0
40
2
210
0
220
0
230
-1
100
AcDbArc
50
229.546488
51
270
0
ARC
5
109
100
AcDbEntity
8
SK1
62
256
6
ByLayer
370
18
48
1
60
0
100
AcDbCircle
39
0
10
-250.294161
20
13.8
30
0
40
0.600000000000001
210
0
220
0
230
-1
100
AcDbArc
50
270
51
288.880863
0
ARC
5
10A
100
AcDbEntity
8
SK1
62
256
6
ByLayer
370
18
48
1
60
0
100
AcDbCircle
39
0
10
-250.294161
20
-13.8
30
0
40
0.600000000000001
210
0
220
0
230
-1
100
AcDbArc
50
71.119137
51
90
0
ARC
5
10B
100
AcDbEntity
8
SK1
62
256
6
ByLayer
370
18
48
1
60
0
100
AcDbCircle
39
0
10
-251.401393
20
13.8
30
0
40
0.599999999999998
210
0
220
0
230
-1
100
AcDbArc
50
255
51
270
0
ARC
5
10C
100
AcDbEntity
8
SK1
62
256
6
ByLayer
370
18
48
1
60
0
100
AcDbCircle
39
0
10
-251.401393
20
-13.8
30
0
40
0.599999999999998
210
0
220
0
230
-1
100
AcDbArc
50
90
51
105
0
ARC
5
10D
100
AcDbEntity
8
SK1
62
256
6
ByLayer
370
18
48
1
60
0
100
AcDbCircle
39
0
10
285
20
8
30
0
40
1
210
0
220
0
230
1
100
AcDbArc
50
0
51
90
0
ARC
5
10E
100
AcDbEntity
8
SK1
62
256
6
ByLayer
370
18
48
1
60
0
100
AcDbCircle
39
0
10
285
20
-8
30
0
40
1
210
0
220
0
230
1
100
AcDbArc
50
270
51
0
0
ELLIPSE
5
10F
100
AcDbEntity
8
1
62
256
6
ByLayer
370
18
48
1
60
0
100
AcDbEllipse
10
236.05
20
14.235051
30
0
11
1.49999999999999
21
0
31
0
210
0
220
0
230
1
40
0.927184
41
0
42
6.28318530717959
0
ELLIPSE
5
110
100
AcDbEntity
8
SK1
62
256
6
ByLayer
370
18
48
1
60
0
100
AcDbEllipse
10
-37
20
-33.500125
30
0
11
1.99999999998812
21
0
31
0
210
0
220
0
230
1
40
0.891007
41
1.17312981496979
42
1.5707963267949
0
ELLIPSE
5
111
100
AcDbEntity
8
1
62
256
6
ByLayer
370
18
48
1
60
0
100
AcDbEllipse
10
236.05
20
-35.232986
30
0
11
1.50000000000002
21
0
31
0
210
0
220
0
230
1
40
0.374607
41
0
42
6.28318530717959
0
POINT
5
6C
100
AcDbEntity
8
80
62
256
6
ByLayer
370
18
48
1
60
0
100
AcDbPoint
10
0
20
0
30
0
39
0
210
0
220
0
230
1
50
360
0
POINT
5
6E
100
AcDbEntity
8
81
62
256
6
ByLayer
370
18
48
1
60
0
100
AcDbPoint
10
250
20
0
30
0
39
0
210
0
220
0
230
1
50
360
0
SPLINE
5
112
100
AcDbEntity
8
1
62
256
6
ByLayer
370
18
48
1
60
0
100
AcDbSpline
70
4
71
3
72
26
73
22
40
0
40
0
40
0
40
0
40
0.0134741300158957
40
0.0676110591691473
40
0.119454241334065
40
0.171297803218566
40
0.224629472162622
40
0.277961752613925
40
0.330151260674652
40
0.382341266506952
40
0.435995839911634
40
0.489650669745473
40
0.542733372897107
40
0.595815927269675
40
0.650433093326464
40
0.705049705964608
40
0.758214948603377
40
0.811379553005008
40
0.866142614395542
40
0.920905122970281
40
1
40
1
40
1
40
1
41
1
10
5.00000000000171
20
49.9999999999997
30
0
41
1
10
5.0000301907237
20
49.9999882303301
30
0
41
1
10
5.00392118077893
20
49.999188670205
30
0
41
1
10
5.04371338292668
20
49.991268131692
30
0
41
1
10
5.16555208928638
20
49.9670602730683
30
0
41
1
10
5.35233876325679
20
49.9305809319285
30
0
41
1
10
5.60737782558199
20
49.8817899233964
30
0
41
1
10
5.92784775126029
20
49.8223331265109
30
0
41
1
10
6.30800995355629
20
49.754364844921
30
0
41
1
10
6.74713673828874
20
49.679357555977
30
0
41
1
10
7.247425645349
20
49.5984947121357
30
0
41
1
10
7.80463678564743
20
49.5142635524104
30
0
41
1
10
8.41023146545299
20
49.4297277201131
30
0
41
1
10
9.06537031293369
20
49.3463977838446
30
0
41
1
10
9.76981749328279
20
49.2664343283616
30
0
41
1
10
10.5129478950403
20
49.1929095152427
30
0
41
1
10
11.2820954678801
20
49.1286769134016
30
0
41
1
10
12.0787017205191
20
49.0745625485733
30
0
41
1
10
12.905011347288
20
49.0322084164852
30
0
41
1
10
13.8822378862262
20
48.9987327860956
30
0
41
1
10
14.5826950585809
20
48.9899229189403
30
0
41
1
10
15
20
48.9897948556636
30
0
0
SPLINE
5
113
100
AcDbEntity
8
1
62
256
6
ByLayer
370
18
48
1
60
0
100
AcDbSpline
70
4
71
3
72
21
73
17
40
0
40
0
40
0
40
0
40
0.0702710954087628
40
0.140771470117879
40
0.211047552421119
40
0.281267667927042
40
0.351708545038441
40
0.421935939537038
40
0.493222699531818
40
0.564731222833746
40
0.636017479398019
40
0.708197514042393
40
0.780610319720945
40
0.852782876013079
40
0.92639214744453
40
1
40
1
40
1
40
1
41
1
10
15
20
-48.7749935930288
30
0
41
1
10
14.6292296014385
20
-48.7752712316685
30
0
41
1
10
13.8918997062451
20
-48.7845834648761
30
0
41
1
10
12.796496770622
20
-48.8257926465264
30
0
41
1
10
11.7301370151555
20
-48.8913857870827
30
0
41
1
10
10.7062002676954
20
-48.9798772793332
30
0
41
1
10
9.73583781508463
20
-49.0855650359778
30
0
41
1
10
8.8250004465959
20
-49.2045570599655
30
0
41
1
10
7.98804453003075
20
-49.3320729796935
30
0
41
1
10
7.23373309453372
20
-49.4620502438436
30
0
41
1
10
6.57203746937158
20
-49.5890023784271
30
0
41
1
10
6.01623596613115
20
-49.7065566128642
30
0
41
1
10
5.57149657695223
20
-49.8101640338514
30
0
41
1
10
5.24417853964498
20
-49.895565732026
30
0
41
1
10
5.04527424663091
20
-49.9576903626032
30
0
41
1
10
5.00035110848459
20
-49.9820488350624
30
0
41
1
10
5
20
-49.9899989998
30
0
0
SPLINE
5
114
100
AcDbEntity
8
1
62
256
6
ByLayer
370
18
48
1
60
0
100
AcDbSpline
70
4
71
3
72
21
73
17
40
0
40
0
40
0
40
0
40
0.0599901617255303
40
0.120196829219931
40
0.180203199127109
40
0.23999785351138
40
0.299980803390328
40
0.359811598380187
40
0.422810205701989
40
0.485971571083613
40
0.549014569651726
40
0.644932062801712
40
0.741213843233466
40
0.837284122547719
40
0.91863579448804
40
1
40
1
40
1
40
1
41
1
10
15
20
38.8297566307079
30
0
41
1
10
14.6901365788488
20
38.8294007225861
30
0
41
1
10
14.0742192380349
20
38.806002489264
30
0
41
1
10
13.160068106671
20
38.7017960153799
30
0
41
1
10
12.2727653669259
20
38.5315858360831
30
0
41
1
10
11.4235959570554
20
38.295585883178
30
0
41
1
10
10.61991141652
20
38.0002179099449
30
0
41
1
10
9.85388876344471
20
37.6429547912424
30
0
41
1
10
9.13583881830922
20
37.2233031056226
30
0
41
1
10
8.47052245310227
20
36.745077873187
30
0
41
1
10
7.7671709166132
20
36.1295812656424
30
0
41
1
10
7.07266409127202
20
35.3496263907055
30
0
41
1
10
6.43365449457615
20
34.3900578165626
30
0
41
1
10
5.95392403173171
20
33.4167617538335
30
0
41
1
10
5.60329854561679
20
32.4497443055465
30
0
41
1
10
5.43416871059249
20
31.8204584900202
30
0
41
1
10
5.36310214079492
20
31.5
30
0
0
SPLINE
5
115
100
AcDbEntity
8
1
62
256
6
ByLayer
370
18
48
1
60
0
100
AcDbSpline
70
4
71
1
72
4
73
2
40
0
40
0
40
1
40
1
41
1
10
23.2475952641917
20
31.5
30
0
41
1
10
21.875
20
31.5
30
0
0
SPLINE
5
116
100
AcDbEntity
8
1
62
256
6
ByLayer
370
18
48
1
60
0
100
AcDbSpline
70
4
71
1
72
4
73
2
40
0
40
0
40
1
40
1
41
1
10
21.875
20
-46.3347772164387
30
0
41
1
10
23.2475952641917
20
-48.7749935930288
30
0
0
SPLINE
5
117
100
AcDbEntity
8
1
62
256
6
ByLayer
370
18
48
1
60
0
100
AcDbSpline
70
4
71
1
72
4
73
2
40
0
40
0
40
1
40
1
41
1
10
18.125
20
31.5
30
0
41
1
10
16.7524047358084
20
31.5
30
0
0
SPLINE
5
118
100
AcDbEntity
8
1
62
256
6
ByLayer
370
18
48
1
60
0
100
AcDbSpline
70
4
71
1
72
4
73
2
40
0
40
0
40
1
40
1
41
1
10
16.7524047358084
20
-48.7749935930288
30
0
41
1
10
18.125
20
-46.3347772164387
30
0
0
SPLINE
5
119
100
AcDbEntity
8
1
62
256
6
ByLayer
370
18
48
1
60
0
100
AcDbSpline
70
4
71
3
72
13
73
9
40
0
40
0
40
0
40
0
40
0.0194453336577616
40
0.225363005635077
40
0.431519133275147
40
0.641533347623222
40
0.857384860591551
40
1
40
1
40
1
40
1
41
1
10
21.125
20
-44.6654228682546
30
0
41
1
10
21.1327289887366
20
-44.6654234879784
30
0
41
1
10
21.2220610334134
20
-44.6668272041317
30
0
41
1
10
21.3936949659036
20
-44.701688771909
30
0
41
1
10
21.6095996705221
20
-44.8302260762463
30
0
41
1
10
21.7751014261925
20
-45.0243228948033
30
0
41
1
10
21.8598589218087
20
-45.239087568826
30
0
41
1
10
21.8748560327006
20
-45.3797222897083
30
0
41
1
10
21.875
20
-45.4374570151103
30
0
0
SPLINE
5
11A
100
AcDbEntity
8
1
62
256
6
ByLayer
370
18
48
1
60
0
100
AcDbSpline
70
4
71
3
72
12
73
8
40
0
40
0
40
0
40
0
40
0.195036363465862
40
0.418686539855723
40
0.639029863865422
40
0.853383332185109
40
1
40
1
40
1
40
1
41
1
10
18.125
20
-45.4374570151103
30
0
41
1
10
18.1254421423262
20
-45.3574737927726
30
0
41
1
10
18.1492858116763
20
-45.1944154211089
30
0
41
1
10
18.2652605277521
20
-44.9614025489464
30
0
41
1
10
18.4573467707973
20
-44.7777610956712
30
0
41
1
10
18.6741273641375
20
-44.682455462815
30
0
41
1
10
18.8154226222212
20
-44.6657121445056
30
0
41
1
10
18.875
20
-44.6654228682546
30
0
0
SPLINE
5
11B
100
AcDbEntity
8
SK1
62
256
6
ByLayer
370
18
48
1
60
0
100
AcDbSpline
70
4
71
3
72
24
73
20
40
0
40
0
40
0
40
0
40
0.0571161954319075
40
0.120328893991196
40
0.183256098398684
40
0.24552841133119
40
0.307696346257566
40
0.370276797279626
40
0.432981714396316
40
0.494648376173175
40
0.556399930778801
40
0.618867538865047
40
0.681470038089011
40
0.743708426178089
40
0.806055268305361
40
0.869156864179129
40
0.932224654634887
40
0.994810438509799
40
1
40
1
40
1
40
1
41
1
10
-8.56172832881939
20
37.5785568806191
30
0
41
1
10
-8.56246018567964
20
37.5780968569381
30
0
41
1
10
-8.63435868510894
20
37.562175048876
30
0
41
1
10
-8.98192090677892
20
37.4860946669233
30
0
41
1
10
-9.55727169268008
20
37.3640792661808
30
0
41
1
10
-10.3444167750259
20
37.2133285993197
30
0
41
1
10
-11.3083817255832
20
37.0516704525808
30
0
41
1
10
-12.4217365070624
20
36.8977549856663
30
0
41
1
10
-13.6307132686106
20
36.7668330594984
30
0
41
1
10
-14.8952475496122
20
36.6750979815829
30
0
41
1
10
-16.1659411397938
20
36.6286328080454
30
0
41
1
10
-17.3958936112119
20
36.628645630777
30
0
41
1
10
-18.5395579123916
20
36.6647095070939
30
0
41
1
10
-19.5398834787232
20
36.727950153052
30
0
41
1
10
-20.3665089781116
20
36.8013964176343
30
0
41
1
10
-20.9825517093649
20
36.8698161882221
30
0
41
1
10
-21.3800440080192
20
36.9174764558926
30
0
41
1
10
-21.4806348227594
20
36.9306858609874
30
0
41
1
10
-21.4843682609201
20
36.9311377788886
30
0
41
1
10
-21.484369110709
20
36.9311371977065
30
0
0
SPLINE
5
11C
100
AcDbEntity
8
SK1
62
256
6
ByLayer
370
18
48
1
60
0
100
AcDbSpline
70
4
71
3
72
24
73
20
40
0
40
0
40
0
40
0
40
0.0068852671639822
40
0.0694128607563622
40
0.13252826412511
40
0.195568964895757
40
0.257976637298246
40
0.320160807871993
40
0.382825287040383
40
0.44522625487382
40
0.507028578802949
40
0.5686270056283
40
0.631356781410472
40
0.693867275240435
40
0.756108259330861
40
0.818347120948335
40
0.881385677830223
40
0.944559763009301
40
1
40
1
40
1
40
1
41
1
10
-21.4843269190371
20
-36.9311393077397
30
0
41
1
10
-21.484334392669
20
-36.9311395903154
30
0
41
1
10
-21.4793487704142
20
-36.9305216558029
30
0
41
1
10
-21.3725671416509
20
-36.9165693754009
30
0
41
1
10
-20.9690654087139
20
-36.868268303901
30
0
41
1
10
-20.347114276506
20
-36.7994904927004
30
0
41
1
10
-19.5157858798959
20
-36.7261051922602
30
0
41
1
10
-18.5110459410699
20
-36.6633008113038
30
0
41
1
10
-17.3646722987701
20
-36.6281079408599
30
0
41
1
10
-16.1325538773448
20
-36.6292335585194
30
0
41
1
10
-14.8619236203069
20
-36.6769463861098
30
0
41
1
10
-13.5982992525209
20
-36.7698137109127
30
0
41
1
10
-12.3921720187378
20
-36.9014551777984
30
0
41
1
10
-11.2819122289333
20
-37.05581310489
30
0
41
1
10
-10.3221068690793
20
-37.2173768580048
30
0
41
1
10
-9.53919649617223
20
-37.3677117540217
30
0
41
1
10
-8.96973910627171
20
-37.488770236252
30
0
41
1
10
-8.6314281303198
20
-37.5628690329639
30
0
41
1
10
-8.56251800779828
20
-37.5781280075049
30
0
41
1
10
-8.56178735109978
20
-37.5785539123631
30
0
0
SPLINE
5
11D
100
AcDbEntity
8
SK1
62
256
6
ByLayer
370
18
48
1
60
0
100
AcDbSpline
70
4
71
3
72
12
73
8
40
0
40
0
40
0
40
0
40
0.0081996882297382
40
0.240398581036526
40
0.47406300987882
40
0.807110471924625
40
1
40
1
40
1
40
1
41
1
10
-36.2254640018086
20
-31.8571673261348
30
0
41
1
10
-36.2249949342364
20
-31.8606819800586
30
0
41
1
10
-36.2104514257854
20
-31.9636425207317
30
0
41
1
10
-36.1199064449192
20
-32.1638327701663
30
0
41
1
10
-35.8723718564334
20
-32.47926292574
30
0
41
1
10
-35.6300277482009
20
-32.7676745009882
30
0
41
1
10
-35.4720715572644
20
-32.9607446601429
30
0
41
1
10
-35.4147166032111
20
-33.0306232542964
30
0
0
SPLINE
5
11E
100
AcDbEntity
8
SK1
62
256
6
ByLayer
370
18
48
1
60
0
100
AcDbSpline
70
4
71
3
72
16
73
12
40
0
40
0
40
0
40
0
40
0.0253425304163733
40
0.0509673927783433
40
0.0739072871294466
40
0.109845505890176
40
0.179021773610446
40
0.296450789892421
40
0.414440740613031
40
0.706980223206861
40
1
40
1
40
1
40
1
41
1
10
-37
20
-30.7253096997894
30
0
41
1
10
-36.9811792480686
20
-30.7199106249427
30
0
41
1
10
-36.9421449359971
20
-30.7129598869093
30
0
41
1
10
-36.8782858173274
20
-30.7135727386879
30
0
41
1
10
-36.8097586068262
20
-30.7282136178806
30
0
41
1
10
-36.7222312886313
20
-30.7665100335532
30
0
41
1
10
-36.6135919497278
20
-30.8524928124598
30
0
41
1
10
-36.5107002487425
20
-30.979312428773
30
0
41
1
10
-36.3889762359167
20
-31.2038528703131
30
0
41
1
10
-36.2842105080307
20
-31.5008042274544
30
0
41
1
10
-36.2368337477678
20
-31.7394148220697
30
0
41
1
10
-36.2254640018086
20
-31.8571673261348
30
0
0
SPLINE
5
11F
100
AcDbEntity
8
SK1
62
256
6
ByLayer
370
18
48
1
60
0
100
AcDbSpline
70
4
71
3
72
12
73
8
40
0
40
0
40
0
40
0
40
0.315330404267344
40
0.475174136926691
40
0.634929550757333
40
0.815098536837782
40
1
40
1
40
1
40
1
41
1
10
-37
20
-30.7253096997894
30
0
41
1
10
-37.2956158551834
20
-30.8036454397271
30
0
41
1
10
-37.7236659252615
20
-30.9323970868479
30
0
41
1
10
-38.266774839679
20
-31.1237574856796
30
0
41
1
10
-38.6659227620114
20
-31.2893153537857
30
0
41
1
10
-39.0465377214746
20
-31.4824910836125
30
0
41
1
10
-39.2497866462953
20
-31.635912114639
30
0
41
1
10
-39.3397230903918
20
-31.7181118380392
30
0
0
SPLINE
5
120
100
AcDbEntity
8
SK1
62
256
6
ByLayer
370
18
48
1
60
0
100
AcDbSpline
70
4
71
3
72
16
73
12
40
0
40
0
40
0
40
0
40
0.0232034680074866
40
0.0513407827349732
40
0.0796182295689261
40
0.159702657884014
40
0.240135887790398
40
0.320583210731766
40
0.546939410278247
40
0.77346989423932
40
1
40
1
40
1
40
1
41
1
10
-39.3397230903918
20
-31.7181118380392
30
0
41
1
10
-39.3764226706293
20
-31.7459378208077
30
0
41
1
10
-39.4694986345439
20
-31.8008614056806
30
0
41
1
10
-39.67087810021
20
-31.8577641082641
30
0
41
1
10
-40.0368528103358
20
-31.9311676588267
30
0
41
1
10
-40.5724523156246
20
-32.0045295178774
30
0
41
1
10
-41.2766991113383
20
-32.063086789049
30
0
41
1
10
-42.4223308067957
20
-32.1299642391289
30
0
41
1
10
-44.0115679728694
20
-32.1967464740089
30
0
41
1
10
-46.0527301070264
20
-32.2328987974651
30
0
41
1
10
-47.4166944652301
20
-32.2450106186949
30
0
41
1
10
-48.1000737704868
20
-32.2463475907263
30
0
0
SPLINE
5
121
100
AcDbEntity
8
SK1
62
256
6
ByLayer
370
18
48
1
60
0
100
AcDbSpline
70
4
71
3
72
10
73
6
40
0
40
0
40
0
40
0
40
0.499509763324388
40
0.749783651093189
40
1
40
1
40
1
40
1
41
1
10
-48.1000737704872
20
32.2463475907263
30
0
41
1
10
-47.0777171717653
20
32.2437954899775
30
0
41
1
10
-45.5481864224416
20
32.2240006968788
30
0
41
1
10
-43.5138730851859
20
32.1757295833276
30
0
41
1
10
-42.5036048505385
20
32.1307956702627
30
0
41
1
10
-42
20
32.1042609902806
30
0
0
SPLINE
5
122
100
AcDbEntity
8
SK1
62
256
6
ByLayer
370
18
48
1
60
0
100
AcDbSpline
70
4
71
3
72
11
73
7
40
0
40
0
40
0
40
0
40
0.197335742894937
40
0.394764202436029
40
0.786241601358139
40
1
40
1
40
1
40
1
41
1
10
-40
20
33.7924078981913
30
0
41
1
10
-40.0009244419603
20
33.7283881742334
30
0
41
1
10
-40.0216788363692
20
33.5976772384519
30
0
41
1
10
-40.1440064496994
20
33.3258736001349
30
0
41
1
10
-40.3663412811923
20
33.0352455002685
30
0
41
1
10
-40.6003913844393
20
32.8153896597928
30
0
41
1
10
-40.6917832126947
20
32.7371874091094
30
0
0
SPLINE
5
123
100
AcDbEntity
8
SK1
62
256
6
ByLayer
370
18
48
1
60
0
100
AcDbSpline
70
4
71
3
72
18
73
14
40
0
40
0
40
0
40
0
40
0.287579025794843
40
0.410157825106558
40
0.471443057247502
40
0.534261835019967
40
0.578145720530789
40
0.615557815037107
40
0.652853564264169
40
0.723922307160287
40
0.853978005837929
40
0.986685794095736
40
1
40
1
40
1
40
1
41
1
10
-48.5000000000058
20
-32.2498628013565
30
0
41
1
10
-48.6269288407192
20
-32.1195137399166
30
0
41
1
10
-48.8189051564029
20
-31.9083486761017
30
0
41
1
10
-49.048012507772
20
-31.6284836666289
30
0
41
1
10
-49.179554826697
20
-31.4689933781617
30
0
41
1
10
-49.2786926686263
20
-31.3529945947922
30
0
41
1
10
-49.3752151705496
20
-31.2502788459574
30
0
41
1
10
-49.4575127512509
20
-31.1733261407671
30
0
41
1
10
-49.5486980994174
20
-31.0995795421032
30
0
41
1
10
-49.665855851721
20
-31.021533079747
30
0
41
1
10
-49.7808056699696
20
-30.9526761881762
30
0
41
1
10
-49.8509899707662
20
-30.8983059903692
30
0
41
1
10
-49.881978150741
20
-30.8680173771883
30
0
41
1
10
-49.8847479774267
20
-30.8652520032386
30
0
0
SPLINE
5
124
100
AcDbEntity
8
SK1
62
256
6
ByLayer
370
18
48
1
60
0
100
AcDbSpline
70
4
71
3
72
10
73
6
40
0
40
0
40
0
40
0
40
0.502585628773466
40
0.969039238481274
40
1
40
1
40
1
40
1
41
1
10
-50
20
30.5971053782512
30
0
41
1
10
-49.9995182991507
20
30.6495338679933
30
0
41
1
10
-49.9804403683062
20
30.7435415561281
30
0
41
1
10
-49.9240604995502
20
30.8252063203912
30
0
41
1
10
-49.8871041980013
20
30.862898569179
30
0
41
1
10
-49.884768528685
20
30.8652314603399
30
0
0
SPLINE
5
125
100
AcDbEntity
8
SK1
62
256
6
ByLayer
370
18
48
1
60
0
100
AcDbSpline
70
4
71
2
72
6
73
3
40
0
40
0
40
0
40
1
40
1
40
1
41
1
10
-48.5
20
32.2498628013624
30
0
41
1
10
-48.3143976578866
20
32.2477307094704
30
0
41
1
10
-48.1000737704872
20
32.2463475907263
30
0
0
SPLINE
5
126
100
AcDbEntity
8
SK1
62
256
6
ByLayer
370
18
48
1
60
0
100
AcDbSpline
70
4
71
2
72
6
73
3
40
0
40
0
40
0
40
1
40
1
40
1
41
1
10
-48.1000737704868
20
-32.2463475907263
30
0
41
1
10
-48.3178913734897
20
-32.2486682218418
30
0
41
1
10
-48.5
20
-32.2498628013622
30
0
0
SPLINE
5
127
100
AcDbEntity
8
1
62
256
6
ByLayer
370
18
48
1
60
0
100
AcDbSpline
70
4
71
3
72
13
73
9
40
0
40
0
40
0
40
0
40
0.170457178675032
40
0.392485514769496
40
0.537587153576792
40
0.747992634154038
40
0.958516996642085
40
1
40
1
40
1
40
1
41
1
10
21.875
20
45.6679592274496
30
0
41
1
10
21.8747110529628
20
45.5986311330765
30
0
41
1
10
21.8550905919146
20
45.4456595758634
30
0
41
1
10
21.7646226999606
20
45.2465944508128
30
0
41
1
10
21.6141316670515
20
45.0725713947315
30
0
41
1
10
21.4230727077937
20
44.9473457554541
30
0
41
1
10
21.2409944147498
20
44.9032066482814
30
0
41
1
10
21.1414883976964
20
44.8998937125182
30
0
41
1
10
21.125
20
44.8998886412872
30
0
0
SPLINE
5
128
100
AcDbEntity
8
1
62
256
6
ByLayer
370
18
48
1
60
0
100
AcDbSpline
70
4
71
3
72
13
73
9
40
0
40
0
40
0
40
0
40
0.0484520458003748
40
0.181478604072459
40
0.305018842399427
40
0.527194689880894
40
0.808458580328007
40
1
40
1
40
1
40
1
41
1
10
21.1250000000009
20
33.5223805837097
30
0
41
1
10
21.1477075386025
20
33.5224410586787
30
0
41
1
10
21.2316315225878
20
33.5274775065608
30
0
41
1
10
21.3703537085787
20
33.5693529026291
30
0
41
1
10
21.5578997297567
20
33.6927916932371
30
0
41
1
10
21.743663352045
20
33.925300158755
30
0
41
1
10
21.8534385319024
20
34.2364570095113
30
0
41
1
10
21.8753258603178
20
34.4536900206879
30
0
41
1
10
21.875
20
34.5443555447196
30
0
0
SPLINE
5
129
100
AcDbEntity
8
1
62
256
6
ByLayer
370
18
48
1
60
0
100
AcDbSpline
70
4
71
2
72
6
73
3
40
0
40
0
40
0
40
1
40
1
40
1
41
1
10
23.2475952641917
20
48.9897948556636
30
0
41
1
10
22.5607288750727
20
47.7756373647876
30
0
41
1
10
21.875
20
46.560837403305
30
0
0
SPLINE
5
12A
100
AcDbEntity
8
1
62
256
6
ByLayer
370
18
48
1
60
0
100
AcDbSpline
70
4
71
1
72
4
73
2
40
0
40
0
40
1
40
1
41
1
10
21.875
20
35.7164049100271
30
0
41
1
10
23.2475952641917
20
38.8297566307079
30
0
0
SPLINE
5
12B
100
AcDbEntity
8
1
62
256
6
ByLayer
370
18
48
1
60
0
100
AcDbSpline
70
4
71
2
72
6
73
3
40
0
40
0
40
0
40
1
40
1
40
1
41
1
10
18.125
20
46.560837403305
30
0
41
1
10
17.4392711249274
20
47.7756373647877
30
0
41
1
10
16.7524047358084
20
48.9897948556636
30
0
0
SPLINE
5
12C
100
AcDbEntity
8
1
62
256
6
ByLayer
370
18
48
1
60
0
100
AcDbSpline
70
4
71
1
72
4
73
2
40
0
40
0
40
1
40
1
41
1
10
16.7524047358084
20
38.8297566307079
30
0
41
1
10
18.125
20
35.7164049100271
30
0
0
SPLINE
5
12D
100
AcDbEntity
8
1
62
256
6
ByLayer
370
18
48
1
60
0
100
AcDbSpline
70
4
71
3
72
13
73
9
40
0
40
0
40
0
40
0
40
0.128625871231893
40
0.456934896393151
40
0.663139467381622
40
0.825329368406165
40
0.876108704456654
40
1
40
1
40
1
40
1
41
1
10
18.125
20
34.5443555447196
30
0
41
1
10
18.1248575719579
20
34.4839646379234
30
0
41
1
10
18.138967437688
20
34.2733243454103
30
0
41
1
10
18.231011688515
20
33.9697807237562
30
0
41
1
10
18.426798365138
20
33.70620766666
30
0
41
1
10
18.5894950709492
20
33.592464024872
30
0
41
1
10
18.735898504861
20
33.5355437379231
30
0
41
1
10
18.8159040208921
20
33.5230004582956
30
0
41
1
10
18.875
20
33.5223805837235
30
0
0
SPLINE
5
12E
100
AcDbEntity
8
1
62
256
6
ByLayer
370
18
48
1
60
0
100
AcDbSpline
70
4
71
3
72
13
73
9
40
0
40
0
40
0
40
0
40
0.062132360135131
40
0.185961363356616
40
0.397332703613555
40
0.60856807930506
40
0.823280399644601
40
1
40
1
40
1
40
1
41
1
10
18.875
20
44.8998886412873
30
0
41
1
10
18.8502742229128
20
44.8998998319353
30
0
41
1
10
18.7768462792023
20
44.9035977858958
30
0
41
1
10
18.6215161532455
20
44.9351882059438
30
0
41
1
10
18.4249365473281
20
45.035774689851
30
0
41
1
10
18.2476288678542
20
45.2212775294149
30
0
41
1
10
18.1456803129811
20
45.4434318509048
30
0
41
1
10
18.1253227213544
20
45.5959845329837
30
0
41
1
10
18.125
20
45.6679592274496
30
0
0
SPLINE
5
12F
100
AcDbEntity
8
SK1
62
256
6
ByLayer
370
18
48
1
60
0
100
AcDbSpline
70
4
71
3
72
11
73
7
40
0
40
0
40
0
40
0
40
0.162387928609954
40
0.546693939142505
40
0.773393437373122
40
1
40
1
40
1
40
1
41
1
10
-35.4147166032111
20
-33.0306232542964
30
0
41
1
10
-35.3763606888019
20
-33.0818620581513
30
0
41
1
10
-35.2552082353553
20
-33.2528334831897
30
0
41
1
10
-35.1066292343121
20
-33.4876448307292
30
0
41
1
10
-35.0178266508078
20
-33.73275608428
30
0
41
1
10
-35.000877894363
20
-33.8599252895599
30
0
41
1
10
-35
20
-33.9222759337494
30
0
0
SPLINE
5
130
100
AcDbEntity
8
SK1
62
256
6
ByLayer
370
18
48
1
60
0
100
AcDbSpline
70
4
71
3
72
13
73
9
40
0
40
0
40
0
40
0
40
0.25360184423755
40
0.487423561262509
40
0.721743784772002
40
0.825162518382903
40
0.929838559263564
40
1
40
1
40
1
40
1
41
1
10
-40.6917832126947
20
32.7371874091094
30
0
41
1
10
-40.7658202986241
20
32.671720988456
30
0
41
1
10
-40.9211805424495
20
32.5473126512579
30
0
41
1
10
-41.1821790894051
20
32.3652927751665
30
0
41
1
10
-41.4269996586733
20
32.2271373267399
30
0
41
1
10
-41.660733096569
20
32.1391981044955
30
0
41
1
10
-41.8396417820241
20
32.1030692829048
30
0
41
1
10
-41.9532657174243
20
32.1019337415287
30
0
41
1
10
-42
20
32.1042609902806
30
0
0
SPLINE
5
131
100
AcDbEntity
8
SK1
62
256
6
ByLayer
370
18
48
1
60
0
100
AcDbSpline
70
4
71
3
72
17
73
13
40
0
40
0
40
0
40
0
40
0.15975800216771
40
0.249938485955092
40
0.340711698956866
40
0.382754183577713
40
0.42515714006118
40
0.472364224596047
40
0.55994197198256
40
0.720957911969895
40
0.885532650576321
40
1
40
1
40
1
40
1
41
1
10
-49.884768528685
20
30.8652314603399
30
0
41
1
10
-49.8534019704306
20
30.8953646480718
30
0
41
1
10
-49.7880441777498
20
30.9474516740064
30
0
41
1
10
-49.6710763914036
20
31.0194238140123
30
0
41
1
10
-49.5690563165266
20
31.0841027959177
30
0
41
1
10
-49.4612310037918
20
31.1696449616297
30
0
41
1
10
-49.3692179513748
20
31.2559498473903
30
0
41
1
10
-49.2518389119795
20
31.3825888304511
30
0
41
1
10
-49.084769413103
20
31.5830584306763
30
0
41
1
10
-48.8835876914523
20
31.8299338556958
30
0
41
1
10
-48.6796072217331
20
32.0631340355408
30
0
41
1
10
-48.5518768445277
20
32.1972906142342
30
0
41
1
10
-48.5
20
32.2498628013624
30
0
0
SPLINE
5
132
100
AcDbEntity
8
SK1
62
256
6
ByLayer
370
18
48
1
60
0
100
AcDbSpline
70
4
71
2
72
6
73
3
40
0
40
0
40
0
40
1
40
1
40
1
41
1
10
-49.8847479774267
20
-30.8652520032386
30
0
41
1
10
-49.9984989463844
20
-30.7535342319964
30
0
41
1
10
-50.0000000000001
20
-30.5971053782511
30
0
0
LINE
5
70
100
AcDbEntity
8
81
62
256
6
ByLayer
370
18
48
1
60
0
100
AcDbLine
10
250
20
0
30
0
11
275
21
0
31
0
39
0
210
0
220
0
230
1
0
LINE
5
71
100
AcDbEntity
8
4
62
256
6
ByLayer
370
18
48
0.05
60
0
100
AcDbLine
10
0
20
0
30
0
11
250
21
0
31
0
39
0
210
0
220
0
230
1
0
LINE
5
73
100
AcDbEntity
8
SK4
62
256
6
ByLayer
370
18
48
0.05
60
0
100
AcDbLine
10
-5
20
0
30
0
11
255
21
0
31
0
39
0
210
0
220
0
230
1
0
LINE
5
75
100
AcDbEntity
8
80
62
256
6
ByLayer
370
18
48
1
60
0
100
AcDbLine
10
0
20
0
30
0
11
-25
21
0
31
0
39
0
210
0
220
0
230
1
0
LINE
5
76
100
AcDbEntity
8
1
62
256
6
ByLayer
370
18
48
1
60
0
100
AcDbLine
10
29
20
31.5
30
0
11
23.247595
21
31.5
31
0
39
0
210
0
220
0
230
1
0
LINE
5
78
100
AcDbEntity
8
1
62
256
6
ByLayer
370
18
48
1
60
0
100
AcDbLine
10
23.247595
20
-48.774994
30
0
11
29
21
-48.774994
31
0
39
0
210
0
220
0
230
1
0
LINE
5
79
100
AcDbEntity
8
1
62
256
6
ByLayer
370
18
48
1
60
0
100
AcDbLine
10
0
20
-50
30
0
11
5
21
-50
31
0
39
0
210
0
220
0
230
1
0
LINE
5
7A
100
AcDbEntity
8
1
62
256
6
ByLayer
370
18
48
1
60
0
100
AcDbLine
10
5.006846
20
50
30
0
11
0
21
50
31
0
39
0
210
0
220
0
230
1
0
LINE
5
7B
100
AcDbEntity
8
1
62
256
6
ByLayer
370
18
48
1
60
0
100
AcDbLine
10
16.752405
20
48.989795
30
0
11
15
21
48.989795
31
0
39
0
210
0
220
0
230
1
0
LINE
5
7C
100
AcDbEntity
8
1
62
256
6
ByLayer
370
18
48
1
60
0
100
AcDbLine
10
15
20
38.829757
30
0
11
16.752405
21
38.829757
31
0
39
0
210
0
220
0
230
1
0
LINE
5
7D
100
AcDbEntity
8
1
62
256
6
ByLayer
370
18
48
1
60
0
100
AcDbLine
10
16.752405
20
31.5
30
0
11
5.363102
21
31.5
31
0
39
0
210
0
220
0
230
1
0
LINE
5
7E
100
AcDbEntity
8
1
62
256
6
ByLayer
370
18
48
1
60
0
100
AcDbLine
10
15
20
-48.774994
30
0
11
16.752405
21
-48.774994
31
0
39
0
210
0
220
0
230
1
0
LINE
5
7F
100
AcDbEntity
8
1
62
256
6
ByLayer
370
18
48
1
60
0
100
AcDbLine
10
21.125
20
31.5
30
0
11
18.875
21
31.5
31
0
39
0
210
0
220
0
230
1
0
LINE
5
80
100
AcDbEntity
8
1
62
256
6
ByLayer
370
18
48
1
60
0
100
AcDbLine
10
18.875
20
-44.665423
30
0
11
21.125
21
-44.665423
31
0
39
0
210
0
220
0
230
1
0
LINE
5
81
100
AcDbEntity
8
1
62
256
6
ByLayer
370
18
48
1
60
0
100
AcDbLine
10
15
20
31.5
30
0
11
15
21
38.829757
31
0
39
0
210
0
220
0
230
1
0
LINE
5
82
100
AcDbEntity
8
SK1
62
256
6
ByLayer
370
18
48
1
60
0
100
AcDbLine
10
0
20
38.007496
30
0
11
-0.169824
21
37.998988
31
0
39
0
210
0
220
0
230
1
0
LINE
5
84
100
AcDbEntity
8
SK1
62
256
6
ByLayer
370
18
48
1
60
0
100
AcDbLine
10
-0.169824
20
-37.998988
30
0
11
0
21
-38.007496
31
0
39
0
210
0
220
0
230
1
0
LINE
5
85
100
AcDbEntity
8
1
62
256
6
ByLayer
370
18
48
1
60
0
100
AcDbLine
10
32
20
-38
30
0
11
243.75
21
-38
31
0
39
0
210
0
220
0
230
1
0
LINE
5
86
100
AcDbEntity
8
1
62
256
6
ByLayer
370
18
48
1
60
0
100
AcDbLine
10
243.75
20
38
30
0
11
32
21
38
31
0
39
0
210
0
220
0
230
1
0
LINE
5
87
100
AcDbEntity
8
SK1
62
256
6
ByLayer
370
18
48
1
60
0
100
AcDbLine
10
-2.5
20
-37.882247
30
0
11
-1.880756
21
-37.716321
31
0
39
0
210
0
220
0
230
1
0
LINE
5
88
100
AcDbEntity
8
SK1
62
256
6
ByLayer
370
18
48
1
60
0
100
AcDbLine
10
-1.880756
20
37.716321
30
0
11
-2.5
21
37.882247
31
0
39
0
210
0
220
0
230
1
0
LINE
5
89
100
AcDbEntity
8
SK1
62
256
6
ByLayer
370
18
48
1
60
0
100
AcDbLine
10
-21.474969
20
36.931608
30
0
11
-40
21
36.003511
31
0
39
0
210
0
220
0
230
1
0
LINE
5
8A
100
AcDbEntity
8
SK1
62
256
6
ByLayer
370
18
48
1
60
0
100
AcDbLine
10
-2.5
20
37.882247
30
0
11
-8.5714
21
37.578072
31
0
39
0
210
0
220
0
230
1
0
LINE
5
8B
100
AcDbEntity
8
SK1
62
256
6
ByLayer
370
18
48
1
60
0
100
AcDbLine
10
-8.574264
20
-37.577929
30
0
11
-2.5
21
-37.882247
31
0
39
0
210
0
220
0
230
1
0
LINE
5
8C
100
AcDbEntity
8
SK1
62
256
6
ByLayer
370
18
48
1
60
0
100
AcDbLine
10
-35
20
-36.254009
30
0
11
-21.472238
21
-36.931745
31
0
39
0
210
0
220
0
230
1
0
LINE
5
8D
100
AcDbEntity
8
SK1
62
256
6
ByLayer
370
18
48
1
60
0
100
AcDbLine
10
-0.9
20
37.682247
30
0
11
-1.621937
21
37.682247
31
0
39
0
210
0
220
0
230
1
0
LINE
5
8E
100
AcDbEntity
8
SK1
62
256
6
ByLayer
370
18
48
1
60
0
100
AcDbLine
10
-1.621937
20
-37.682247
30
0
11
-0.9
21
-37.682247
31
0
39
0
210
0
220
0
230
1
0
LINE
5
8F
100
AcDbEntity
8
1
62
256
6
ByLayer
370
18
48
1
60
0
100
AcDbLine
10
21.125
20
44.899889
30
0
11
18.875
21
44.899889
31
0
39
0
210
0
220
0
230
1
0
LINE
5
90
100
AcDbEntity
8
1
62
256
6
ByLayer
370
18
48
1
60
0
100
AcDbLine
10
18.875
20
33.522381
30
0
11
21.125
21
33.522381
31
0
39
0
210
0
220
0
230
1
0
LINE
5
91
100
AcDbEntity
8
1
62
256
6
ByLayer
370
18
48
1
60
0
100
AcDbLine
10
29
20
48.989795
30
0
11
23.247595
21
48.989795
31
0
39
0
210
0
220
0
230
1
0
LINE
5
92
100
AcDbEntity
8
1
62
256
6
ByLayer
370
18
48
1
60
0
100
AcDbLine
10
23.247595
20
38.829757
30
0
11
29
21
38.829757
31
0
39
0
210
0
220
0
230
1
0
LINE
5
93
100
AcDbEntity
8
1
62
256
6
ByLayer
370
18
48
1
60
0
100
AcDbLine
10
18.125
20
35.716405
30
0
11
18.125
21
34.544356
31
0
39
0
210
0
220
0
230
1
0
LINE
5
94
100
AcDbEntity
8
1
62
256
6
ByLayer
370
18
48
1
60
0
100
AcDbLine
10
21.875
20
34.544356
30
0
11
21.875
21
35.716405
31
0
39
0
210
0
220
0
230
1
0
LINE
5
95
100
AcDbEntity
8
1
62
256
6
ByLayer
370
18
48
1
60
0
100
AcDbLine
10
29
20
38.829757
30
0
11
29
21
31.5
31
0
39
0
210
0
220
0
230
1
0
LINE
5
96
100
AcDbEntity
8
SK1
62
256
6
ByLayer
370
18
48
1
60
0
100
AcDbLine
10
-37
20
-31.718112
30
0
11
-37
21
-30.72531
31
0
39
0
210
0
220
0
230
1
0
LINE
5
97
100
AcDbEntity
8
SK1
62
256
6
ByLayer
370
18
48
1
60
0
100
AcDbLine
10
-39.339723
20
-31.718112
30
0
11
-37
21
-31.718112
31
0
39
0
210
0
220
0
230
1
0
LINE
5
98
100
AcDbEntity
8
SK1
62
256
6
ByLayer
370
18
48
1
60
0
100
AcDbLine
10
-48.5
20
-32.25
30
0
11
-37
21
-32.25
31
0
39
0
210
0
220
0
230
1
0
LINE
5
99
100
AcDbEntity
8
SK1
62
256
6
ByLayer
370
18
48
1
60
0
100
AcDbLine
10
-42
20
32.25
30
0
11
-48.5
21
32.25
31
0
39
0
210
0
220
0
230
1
0
LINE
5
9A
100
AcDbEntity
8
SK1
62
256
6
ByLayer
370
18
48
1
60
0
100
AcDbLine
10
-48.5
20
32.25
30
0
11
-49.884043
21
30.865957
31
0
39
0
210
0
220
0
230
1
0
LINE
5
9B
100
AcDbEntity
8
SK1
62
256
6
ByLayer
370
18
48
1
60
0
100
AcDbLine
10
-49.884125
20
-30.865875
30
0
11
-48.5
21
-32.25
31
0
39
0
210
0
220
0
230
1
0
LINE
5
9C
100
AcDbEntity
8
1
62
256
6
ByLayer
370
18
48
1
60
0
100
AcDbLine
10
249.6
20
38
30
0
11
244.05
21
38
31
0
39
0
210
0
220
0
230
1
0
LINE
5
9D
100
AcDbEntity
8
1
62
256
6
ByLayer
370
18
48
1
60
0
100
AcDbLine
10
244.05
20
-38
30
0
11
249.6
21
-38
31
0
39
0
210
0
220
0
230
1
0
LINE
5
9E
100
AcDbEntity
8
1
62
256
6
ByLayer
370
18
48
1
60
0
100
AcDbLine
10
249.6
20
-38
30
0
11
250.1
21
-37.5
31
0
39
0
210
0
220
0
230
1
0
LINE
5
9F
100
AcDbEntity
8
1
62
256
6
ByLayer
370
18
48
1
60
0
100
AcDbLine
10
250.1
20
37.5
30
0
11
249.6
21
38
31
0
39
0
210
0
220
0
230
1
0
LINE
5
A0
100
AcDbEntity
8
SK1
62
256
6
ByLayer
370
18
48
1
60
0
100
AcDbLine
10
267
20
13.5
30
0
11
252.6
21
13.5
31
0
39
0
210
0
220
0
230
1
0
LINE
5
A1
100
AcDbEntity
8
SK1
62
256
6
ByLayer
370
18
48
1
60
0
100
AcDbLine
10
252.6
20
-13.5
30
0
11
267
21
-13.5
31
0
39
0
210
0
220
0
230
1
0
LINE
5
A2
100
AcDbEntity
8
SK1
62
256
6
ByLayer
370
18
48
1
60
0
100
AcDbLine
10
252.6
20
13.5
30
0
11
251.556685
21
13.220445
31
0
39
0
210
0
220
0
230
1
0
LINE
5
A3
100
AcDbEntity
8
SK1
62
256
6
ByLayer
370
18
48
1
60
0
100
AcDbLine
10
251.556685
20
-13.220445
30
0
11
252.6
21
-13.5
31
0
39
0
210
0
220
0
230
1
0
LINE
5
A4
100
AcDbEntity
8
SK1
62
256
6
ByLayer
370
18
48
1
60
0
100
AcDbLine
10
267
20
-13.5
30
0
11
268
21
-12.92265
31
0
39
0
210
0
220
0
230
1
0
LINE
5
A5
100
AcDbEntity
8
SK1
62
256
6
ByLayer
370
18
48
1
60
0
100
AcDbLine
10
268
20
12.92265
30
0
11
267
21
13.5
31
0
39
0
210
0
220
0
230
1
0
LINE
5
A6
100
AcDbEntity
8
SK1
62
256
6
ByLayer
370
18
48
1
60
0
100
AcDbLine
10
251.401393
20
13.2
30
0
11
250.294161
21
13.2
31
0
39
0
210
0
220
0
230
1
0
LINE
5
A7
100
AcDbEntity
8
SK1
62
256
6
ByLayer
370
18
48
1
60
0
100
AcDbLine
10
250.294161
20
-13.2
30
0
11
251.401393
21
-13.2
31
0
39
0
210
0
220
0
230
1
0
LINE
5
A8
100
AcDbEntity
8
SK1
62
256
6
ByLayer
370
18
48
1
60
0
100
AcDbLine
10
285
20
9
30
0
11
278
21
9
31
0
39
0
210
0
220
0
230
1
0
LINE
5
A9
100
AcDbEntity
8
SK1
62
256
6
ByLayer
370
18
48
1
60
0
100
AcDbLine
10
278
20
-9
30
0
11
285
21
-9
31
0
39
0
210
0
220
0
230
1
0
LINE
5
AA
100
AcDbEntity
8
SK1
62
256
6
ByLayer
370
18
48
1
60
0
100
AcDbLine
10
273
20
6
30
0
11
268
21
6
31
0
39
0
210
0
220
0
230
1
0
LINE
5
AB
100
AcDbEntity
8
SK1
62
256
6
ByLayer
370
18
48
1
60
0
100
AcDbLine
10
268
20
-6
30
0
11
273
21
-6
31
0
39
0
210
0
220
0
230
1
0
LINE
5
AC
100
AcDbEntity
8
SK1
62
256
6
ByLayer
370
18
48
1
60
0
100
AcDbLine
10
255.8
20
-25.68925
30
0
11
255.8
21
-15.31075
31
0
39
0
210
0
220
0
230
1
0
LINE
5
AD
100
AcDbEntity
8
SK1
62
256
6
ByLayer
370
18
48
1
60
0
100
AcDbLine
10
250.1
20
-25.68925
30
0
11
255.8
21
-25.68925
31
0
39
0
210
0
220
0
230
1
0
LINE
5
AE
100
AcDbEntity
8
SK1
62
256
6
ByLayer
370
18
48
1
60
0
100
AcDbLine
10
255.8
20
-15.31075
30
0
11
250.1
21
-15.31075
31
0
39
0
210
0
220
0
230
1
0
LINE
5
AF
100
AcDbEntity
8
SK1
62
256
6
ByLayer
370
18
48
1
60
0
100
AcDbLine
10
256.4
20
-15.11075
30
0
11
256.2
21
-14.91075
31
0
39
0
210
0
220
0
230
1
0
LINE
5
B0
100
AcDbEntity
8
SK1
62
256
6
ByLayer
370
18
48
1
60
0
100
AcDbLine
10
256.4
20
-15.11075
30
0
11
256.4
21
-25.88925
31
0
39
0
210
0
220
0
230
1
0
LINE
5
B1
100
AcDbEntity
8
SK1
62
256
6
ByLayer
370
18
48
1
60
0
100
AcDbLine
10
256.2
20
-26.08925
30
0
11
256.4
21
-25.88925
31
0
39
0
210
0
220
0
230
1
0
LINE
5
B2
100
AcDbEntity
8
SK1
62
256
6
ByLayer
370
18
48
1
60
0
100
AcDbLine
10
256.2
20
-26.08925
30
0
11
255.8
21
-25.68925
31
0
39
0
210
0
220
0
230
1
0
LINE
5
B3
100
AcDbEntity
8
SK1
62
256
6
ByLayer
370
18
48
1
60
0
100
AcDbLine
10
255.8
20
-15.31075
30
0
11
256.2
21
-14.91075
31
0
39
0
210
0
220
0
230
1
0
LINE
5
B4
100
AcDbEntity
8
SK1
62
256
6
ByLayer
370
18
48
1
60
0
100
AcDbLine
10
250.1
20
-14.51075
30
0
11
255.8
21
-14.51075
31
0
39
0
210
0
220
0
230
1
0
LINE
5
B5
100
AcDbEntity
8
SK1
62
256
6
ByLayer
370
18
48
1
60
0
100
AcDbLine
10
256.2
20
-14.91075
30
0
11
255.8
21
-14.51075
31
0
39
0
210
0
220
0
230
1
0
LINE
5
B6
100
AcDbEntity
8
SK1
62
256
6
ByLayer
370
18
48
1
60
0
100
AcDbLine
10
255.8
20
-26.48925
30
0
11
250.1
21
-26.48925
31
0
39
0
210
0
220
0
230
1
0
LINE
5
B7
100
AcDbEntity
8
SK1
62
256
6
ByLayer
370
18
48
1
60
0
100
AcDbLine
10
255.8
20
-26.48925
30
0
11
256.2
21
-26.08925
31
0
39
0
210
0
220
0
230
1
0
LINE
5
B8
100
AcDbEntity
8
SK1
62
256
6
ByLayer
370
18
48
1
60
0
100
AcDbLine
10
273.5
20
17
30
0
11
273
21
16.5
31
0
39
0
210
0
220
0
230
1
0
LINE
5
B9
100
AcDbEntity
8
SK1
62
256
6
ByLayer
370
18
48
1
60
0
100
AcDbLine
10
273
20
-16.5
30
0
11
273.5
21
-17
31
0
39
0
210
0
220
0
230
1
0
LINE
5
BA
100
AcDbEntity
8
SK1
62
256
6
ByLayer
370
18
48
1
60
0
100
AcDbLine
10
273.5
20
-17
30
0
11
278
21
-17
31
0
39
0
210
0
220
0
230
1
0
LINE
5
BB
100
AcDbEntity
8
SK1
62
256
6
ByLayer
370
18
48
1
60
0
100
AcDbLine
10
278
20
17
30
0
11
273.5
21
17
31
0
39
0
210
0
220
0
230
1
0
LINE
5
BC
100
AcDbEntity
8
SK1
62
256
6
ByLayer
370
18
48
1
60
0
100
AcDbLine
10
255.8
20
25.68925
30
0
11
250.1
21
25.68925
31
0
39
0
210
0
220
0
230
1
0
LINE
5
BD
100
AcDbEntity
8
SK1
62
256
6
ByLayer
370
18
48
1
60
0
100
AcDbLine
10
255.8
20
15.31075
30
0
11
255.8
21
25.68925
31
0
39
0
210
0
220
0
230
1
0
LINE
5
BE
100
AcDbEntity
8
SK1
62
256
6
ByLayer
370
18
48
1
60
0
100
AcDbLine
10
250.1
20
15.31075
30
0
11
255.8
21
15.31075
31
0
39
0
210
0
220
0
230
1
0
LINE
5
BF
100
AcDbEntity
8
SK1
62
256
6
ByLayer
370
18
48
1
60
0
100
AcDbLine
10
250.1
20
26.48925
30
0
11
255.8
21
26.48925
31
0
39
0
210
0
220
0
230
1
0
LINE
5
C0
100
AcDbEntity
8
SK1
62
256
6
ByLayer
370
18
48
1
60
0
100
AcDbLine
10
256.2
20
26.08925
30
0
11
255.8
21
26.48925
31
0
39
0
210
0
220
0
230
1
0
LINE
5
C1
100
AcDbEntity
8
SK1
62
256
6
ByLayer
370
18
48
1
60
0
100
AcDbLine
10
255.8
20
25.68925
30
0
11
256.2
21
26.08925
31
0
39
0
210
0
220
0
230
1
0
LINE
5
C2
100
AcDbEntity
8
SK1
62
256
6
ByLayer
370
18
48
1
60
0
100
AcDbLine
10
256.2
20
26.08925
30
0
11
256.4
21
25.88925
31
0
39
0
210
0
220
0
230
1
0
LINE
5
C3
100
AcDbEntity
8
SK1
62
256
6
ByLayer
370
18
48
1
60
0
100
AcDbLine
10
256.4
20
25.88925
30
0
11
256.4
21
15.11075
31
0
39
0
210
0
220
0
230
1
0
LINE
5
C4
100
AcDbEntity
8
SK1
62
256
6
ByLayer
370
18
48
1
60
0
100
AcDbLine
10
256.4
20
15.11075
30
0
11
256.2
21
14.91075
31
0
39
0
210
0
220
0
230
1
0
LINE
5
C5
100
AcDbEntity
8
SK1
62
256
6
ByLayer
370
18
48
1
60
0
100
AcDbLine
10
256.2
20
14.91075
30
0
11
255.8
21
15.31075
31
0
39
0
210
0
220
0
230
1
0
LINE
5
C6
100
AcDbEntity
8
SK1
62
256
6
ByLayer
370
18
48
1
60
0
100
AcDbLine
10
255.8
20
14.51075
30
0
11
250.1
21
14.51075
31
0
39
0
210
0
220
0
230
1
0
LINE
5
C7
100
AcDbEntity
8
SK1
62
256
6
ByLayer
370
18
48
1
60
0
100
AcDbLine
10
255.8
20
14.51075
30
0
11
256.2
21
14.91075
31
0
39
0
210
0
220
0
230
1
0
LINE
5
C8
100
AcDbEntity
8
1
62
256
6
ByLayer
370
18
48
1
60
0
100
AcDbLine
10
23.247595
20
31.5
30
0
11
23.247595
21
-48.774994
31
0
39
0
210
0
220
0
230
1
0
LINE
5
C9
100
AcDbEntity
8
1
62
256
6
ByLayer
370
18
48
1
60
0
100
AcDbLine
10
29
20
-48.774994
30
0
11
29
21
31.5
31
0
39
0
210
0
220
0
230
1
0
LINE
5
CA
100
AcDbEntity
8
1
62
256
6
ByLayer
370
18
48
1
60
0
100
AcDbLine
10
0
20
-50
30
0
11
0
21
0
31
0
39
0
210
0
220
0
230
1
0
LINE
5
CB
100
AcDbEntity
8
1
62
256
6
ByLayer
370
18
48
1
60
0
100
AcDbLine
10
5
20
-49.989999
30
0
11
5
21
-50
31
0
39
0
210
0
220
0
230
1
0
LINE
5
CC
100
AcDbEntity
8
1
62
256
6
ByLayer
370
18
48
1
60
0
100
AcDbLine
10
16.752405
20
38.829757
30
0
11
16.752405
21
48.989795
31
0
39
0
210
0
220
0
230
1
0
LINE
5
CD
100
AcDbEntity
8
1
62
256
6
ByLayer
370
18
48
1
60
0
100
AcDbLine
10
16.752405
20
-48.774994
30
0
11
16.752405
21
31.5
31
0
39
0
210
0
220
0
230
1
0
LINE
5
CE
100
AcDbEntity
8
1
62
256
6
ByLayer
370
18
48
1
60
0
100
AcDbLine
10
0
20
0
30
0
11
0
21
50
31
0
39
0
210
0
220
0
230
1
0
LINE
5
CF
100
AcDbEntity
8
1
62
256
6
ByLayer
370
18
48
1
60
0
100
AcDbLine
10
21.875
20
-46.334777
30
0
11
21.875
21
31.5
31
0
39
0
210
0
220
0
230
1
0
LINE
5
D0
100
AcDbEntity
8
1
62
256
6
ByLayer
370
18
48
1
60
0
100
AcDbLine
10
18.125
20
-46.334777
30
0
11
18.125
21
31.5
31
0
39
0
210
0
220
0
230
1
0
LINE
5
D1
100
AcDbEntity
8
1
62
256
6
ByLayer
370
18
48
1
60
0
100
AcDbLine
10
21.125
20
-44.665423
30
0
11
21.125
21
31.5
31
0
39
0
210
0
220
0
230
1
0
LINE
5
D2
100
AcDbEntity
8
1
62
256
6
ByLayer
370
18
48
1
60
0
100
AcDbLine
10
18.875
20
-44.665423
30
0
11
18.875
21
31.5
31
0
39
0
210
0
220
0
230
1
0
LINE
5
D3
100
AcDbEntity
8
1
62
256
6
ByLayer
370
18
48
1
60
0
100
AcDbLine
10
32
20
-38
30
0
11
32
21
0
31
0
39
0
210
0
220
0
230
1
0
LINE
5
D4
100
AcDbEntity
8
1
62
256
6
ByLayer
370
18
48
1
60
0
100
AcDbLine
10
32
20
0
30
0
11
32
21
38
31
0
39
0
210
0
220
0
230
1
0
LINE
5
D5
100
AcDbEntity
8
SK1
62
256
6
ByLayer
370
18
48
1
60
0
100
AcDbLine
10
-0.169824
20
37.998988
30
0
11
-0.169824
21
0
31
0
39
0
210
0
220
0
230
1
0
LINE
5
D6
100
AcDbEntity
8
SK1
62
256
6
ByLayer
370
18
48
1
60
0
100
AcDbLine
10
-0.169824
20
0
30
0
11
-0.169824
21
-37.998988
31
0
39
0
210
0
220
0
230
1
0
LINE
5
D7
100
AcDbEntity
8
1
62
256
6
ByLayer
370
18
48
1
60
0
100
AcDbLine
10
243.75
20
-38
30
0
11
243.75
21
0
31
0
39
0
210
0
220
0
230
1
0
LINE
5
D8
100
AcDbEntity
8
1
62
256
6
ByLayer
370
18
48
1
60
0
100
AcDbLine
10
243.75
20
0
30
0
11
243.75
21
38
31
0
39
0
210
0
220
0
230
1
0
LINE
5
D9
100
AcDbEntity
8
SK1
62
256
6
ByLayer
370
18
48
1
60
0
100
AcDbLine
10
-0.9
20
-37.682247
30
0
11
-0.9
21
37.682247
31
0
39
0
210
0
220
0
230
1
0
LINE
5
DA
100
AcDbEntity
8
SK1
62
256
6
ByLayer
370
18
48
1
60
0
100
AcDbLine
10
-2.5
20
37.882247
30
0
11
-2.5
21
-37.882247
31
0
39
0
210
0
220
0
230
1
0
LINE
5
DB
100
AcDbEntity
8
SK1
62
256
6
ByLayer
370
18
48
1
60
0
100
AcDbLine
10
-1.880756
20
-37.716321
30
0
11
-1.880756
21
37.716321
31
0
39
0
210
0
220
0
230
1
0
LINE
5
DC
100
AcDbEntity
8
SK1
62
256
6
ByLayer
370
18
48
1
60
0
100
AcDbLine
10
-35
20
-36.254009
30
0
11
-35
21
-33.922276
31
0
39
0
210
0
220
0
230
1
0
LINE
5
DD
100
AcDbEntity
8
SK1
62
256
6
ByLayer
370
18
48
1
60
0
100
AcDbLine
10
-48.100074
20
-32.246348
30
0
11
-48.100074
21
32.246348
31
0
39
0
210
0
220
0
230
1
0
LINE
5
DE
100
AcDbEntity
8
SK1
62
256
6
ByLayer
370
18
48
1
60
0
100
AcDbLine
10
-40
20
33.792408
30
0
11
-40
21
36.003511
31
0
39
0
210
0
220
0
230
1
0
LINE
5
DF
100
AcDbEntity
8
SK1
62
256
6
ByLayer
370
18
48
1
60
0
100
AcDbLine
10
-1.621937
20
-37.682247
30
0
11
-1.621937
21
37.682247
31
0
39
0
210
0
220
0
230
1
0
LINE
5
E0
100
AcDbEntity
8
SK1
62
256
6
ByLayer
370
18
48
1
60
0
100
AcDbLine
10
-50
20
-30.597105
30
0
11
-50
21
30.597105
31
0
39
0
210
0
220
0
230
1
0
LINE
5
E1
100
AcDbEntity
8
1
62
256
6
ByLayer
370
18
48
1
60
0
100
AcDbLine
10
21.125
20
33.522381
30
0
11
21.125
21
44.899889
31
0
39
0
210
0
220
0
230
1
0
LINE
5
E2
100
AcDbEntity
8
1
62
256
6
ByLayer
370
18
48
1
60
0
100
AcDbLine
10
18.875
20
33.522381
30
0
11
18.875
21
44.899889
31
0
39
0
210
0
220
0
230
1
0
LINE
5
E3
100
AcDbEntity
8
1
62
256
6
ByLayer
370
18
48
1
60
0
100
AcDbLine
10
23.247595
20
48.989795
30
0
11
23.247595
21
38.829757
31
0
39
0
210
0
220
0
230
1
0
LINE
5
E4
100
AcDbEntity
8
1
62
256
6
ByLayer
370
18
48
1
60
0
100
AcDbLine
10
21.875
20
35.716405
30
0
11
21.875
21
46.560837
31
0
39
0
210
0
220
0
230
1
0
LINE
5
E5
100
AcDbEntity
8
1
62
256
6
ByLayer
370
18
48
1
60
0
100
AcDbLine
10
29
20
38.829757
30
0
11
29
21
48.989795
31
0
39
0
210
0
220
0
230
1
0
LINE
5
E6
100
AcDbEntity
8
1
62
256
6
ByLayer
370
18
48
1
60
0
100
AcDbLine
10
18.125
20
35.716405
30
0
11
18.125
21
46.560837
31
0
39
0
210
0
220
0
230
1
0
LINE
5
E7
100
AcDbEntity
8
SK1
62
256
6
ByLayer
370
18
48
1
60
0
100
AcDbLine
10
-37
20
-32.25
30
0
11
-37
21
-31.718112
31
0
39
0
210
0
220
0
230
1
0
LINE
5
E8
100
AcDbEntity
8
SK1
62
256
6
ByLayer
370
18
48
1
60
0
100
AcDbLine
10
-48.5
20
-32.249863
30
0
11
-48.5
21
-32.25
31
0
39
0
210
0
220
0
230
1
0
LINE
5
E9
100
AcDbEntity
8
SK1
62
256
6
ByLayer
370
18
48
1
60
0
100
AcDbLine
10
-42
20
32.104261
30
0
11
-42
21
32.25
31
0
39
0
210
0
220
0
230
1
0
LINE
5
EA
100
AcDbEntity
8
SK1
62
256
6
ByLayer
370
18
48
1
60
0
100
AcDbLine
10
-48.5
20
32.25
30
0
11
-48.5
21
32.249863
31
0
39
0
210
0
220
0
230
1
0
LINE
5
EB
100
AcDbEntity
8
1
62
256
6
ByLayer
370
18
48
1
60
0
100
AcDbLine
10
244.05
20
38
30
0
11
244.05
21
-38
31
0
39
0
210
0
220
0
230
1
0
LINE
5
EC
100
AcDbEntity
8
1
62
256
6
ByLayer
370
18
48
1
60
0
100
AcDbLine
10
249.6
20
-38
30
0
11
249.6
21
0
31
0
39
0
210
0
220
0
230
1
0
LINE
5
ED
100
AcDbEntity
8
1
62
256
6
ByLayer
370
18
48
1
60
0
100
AcDbLine
10
249.6
20
0
30
0
11
249.6
21
38
31
0
39
0
210
0
220
0
230
1
0
LINE
5
EE
100
AcDbEntity
8
1
62
256
6
ByLayer
370
18
48
1
60
0
100
AcDbLine
10
250.1
20
37.5
30
0
11
250.1
21
0
31
0
39
0
210
0
220
0
230
1
0
LINE
5
EF
100
AcDbEntity
8
1
62
256
6
ByLayer
370
18
48
1
60
0
100
AcDbLine
10
250.1
20
0
30
0
11
250.1
21
-37.5
31
0
39
0
210
0
220
0
230
1
0
LINE
5
F0
100
AcDbEntity
8
SK1
62
256
6
ByLayer
370
18
48
1
60
0
100
AcDbLine
10
250.294161
20
13.2
30
0
11
250.294161
21
-13.2
31
0
39
0
210
0
220
0
230
1
0
LINE
5
F1
100
AcDbEntity
8
SK1
62
256
6
ByLayer
370
18
48
1
60
0
100
AcDbLine
10
252.6
20
13.5
30
0
11
252.6
21
-13.5
31
0
39
0
210
0
220
0
230
1
0
LINE
5
F2
100
AcDbEntity
8
SK1
62
256
6
ByLayer
370
18
48
1
60
0
100
AcDbLine
10
267
20
-13.5
30
0
11
267
21
0
31
0
39
0
210
0
220
0
230
1
0
LINE
5
F3
100
AcDbEntity
8
SK1
62
256
6
ByLayer
370
18
48
1
60
0
100
AcDbLine
10
267
20
0
30
0
11
267
21
13.5
31
0
39
0
210
0
220
0
230
1
0
LINE
5
F4
100
AcDbEntity
8
SK1
62
256
6
ByLayer
370
18
48
1
60
0
100
AcDbLine
10
251.556685
20
13.220445
30
0
11
251.556685
21
-13.220445
31
0
39
0
210
0
220
0
230
1
0
LINE
5
F5
100
AcDbEntity
8
SK1
62
256
6
ByLayer
370
18
48
1
60
0
100
AcDbLine
10
268
20
12.92265
30
0
11
268
21
0
31
0
39
0
210
0
220
0
230
1
0
LINE
5
F6
100
AcDbEntity
8
SK1
62
256
6
ByLayer
370
18
48
1
60
0
100
AcDbLine
10
268
20
0
30
0
11
268
21
-12.92265
31
0
39
0
210
0
220
0
230
1
0
LINE
5
F7
100
AcDbEntity
8
SK1
62
256
6
ByLayer
370
18
48
1
60
0
100
AcDbLine
10
251.401393
20
13.2
30
0
11
251.401393
21
-13.2
31
0
39
0
210
0
220
0
230
1
0
LINE
5
F8
100
AcDbEntity
8
SK1
62
256
6
ByLayer
370
18
48
1
60
0
100
AcDbLine
10
285
20
-9
30
0
11
285
21
9
31
0
39
0
210
0
220
0
230
1
0
LINE
5
F9
100
AcDbEntity
8
SK1
62
256
6
ByLayer
370
18
48
1
60
0
100
AcDbLine
10
286
20
8
30
0
11
286
21
-8
31
0
39
0
210
0
220
0
230
1
0
LINE
5
FA
100
AcDbEntity
8
SK1
62
256
6
ByLayer
370
18
48
1
60
0
100
AcDbLine
10
273.5
20
17
30
0
11
273.5
21
-17
31
0
39
0
210
0
220
0
230
1
0
LINE
5
FB
100
AcDbEntity
8
SK1
62
256
6
ByLayer
370
18
48
1
60
0
100
AcDbLine
10
273
20
-16.5
30
0
11
273
21
16.5
31
0
39
0
210
0
220
0
230
1
0
LINE
5
FC
100
AcDbEntity
8
SK1
62
256
6
ByLayer
370
18
48
1
60
0
100
AcDbLine
10
278
20
-17
30
0
11
278
21
17
31
0
39
0
210
0
220
0
230
1
0
LINE
5
FD
100
AcDbEntity
8
1
62
256
6
ByLayer
370
18
48
1
60
0
100
AcDbLine
10
21.875
20
31.5
30
0
11
21.125
21
31.5
31
0
39
0
210
0
220
0
230
1
0
LINE
5
FE
100
AcDbEntity
8
1
62
256
6
ByLayer
370
18
48
1
60
0
100
AcDbLine
10
18.875
20
31.5
30
0
11
18.124999
21
31.5
31
0
39
0
210
0
220
0
230
1
0
MTEXT
5
133
100
AcDbEntity
8
SK6
62
256
6
ByLayer
370
13
48
1
60
0
100
AcDbMText
10
5.132143
20
62.296798
30
0
210
0
220
0
230
1
1
\W0.7507;HA10-Q27D-076-250
40
3.5
41
0
44
1.084337
50
0
71
7
72
5
7
iso_b_vert
0
DIMENSION
5
141
100
AcDbEntity
8
2
62
256
6
ByLayer
370
13
48
1
60
0
100
AcDbDimension
2
DimnDraft3D1
10
250
20
58.666811
30
0
11
121.916908
21
58.666811
31
0
70
32
71
5
72
1
41
1
210
0
220
0
230
1
3
Standard
100
AcDbAlignedDimension
13
0
23
1.5875
33
0
14
250
24
1.5875
34
0
50
0
100
AcDbRotatedDimension
1001
ACAD
1000
DSTYLE
1002
{
1070
   279
1070
     0
1070
   173
1070
     1
1070
   340
1005
134
1070
   271
1070
     1
1070
   272
1070
     2
1070
    77
1070
     1
1070
    73
1070
     0
1070
   171
1070
     3
1070
   274
1070
     4
1070
   177
1070
     7
1070
   176
1070
     7
1070
   178
1070
     7
1070
    78
1070
     8
1070
    48
1040
-0.005
1070
    41
1041
3.175
1070
   147
1041
1.5875
1070
    42
1041
1.5875
1070
    44
1041
3.175
1070
   140
1041
3.175
1070
   343
1005
0
1070
   344
1005
0
1002
}
0
DIMENSION
5
14D
100
AcDbEntity
8
SK2
62
256
6
ByLayer
370
13
48
1
60
0
100
AcDbDimension
2
DimnDraft3D2
10
-70.941842
20
50
30
0
11
-70.148092
21
1.679408
31
0
70
33
71
5
72
1
41
1
210
0
220
0
230
1
3
Standard
100
AcDbAlignedDimension
13
-1.5875
23
-50
33
0
14
-1.5875
24
50
34
0
1001
ACAD
1000
DSTYLE
1002
{
1070
   279
1070
     0
1070
    74
1070
     0
1070
   173
1070
     1
1070
   340
1005
134
1070
   271
1070
     1
1070
   272
1070
     2
1070
    77
1070
     1
1070
    73
1070
     0
1070
   171
1070
     3
1070
   274
1070
     4
1070
   177
1070
     7
1070
   176
1070
     7
1070
   178
1070
     7
1070
    78
1070
     8
1070
    48
1040
-0.005
1070
    41
1041
3.175
1070
   147
1041
1.5875
1070
    42
1041
1.5875
1070
    44
1041
3.175
1070
   140
1041
3.175
1070
   343
1005
0
1070
   344
1005
0
1002
}
0
DIMENSION
5
158
100
AcDbEntity
8
SK2
62
256
6
ByLayer
370
13
48
1
60
0
100
AcDbDimension
2
DimnDraft3D3
10
299.379813
20
13.5
30
0
11
293.823563
21
2.46898
31
0
70
33
71
5
72
1
41
1
210
0
220
0
230
1
3
Standard
100
AcDbAlignedDimension
13
268.5875
23
-13.5
33
0
14
268.5875
24
13.5
34
0
1001
ACAD
1000
DSTYLE
1002
{
1070
   279
1070
     0
1070
    74
1070
     0
1070
   173
1070
     1
1070
   340
1005
134
1070
   271
1070
     1
1070
   272
1070
     2
1070
    77
1070
     1
1070
    73
1070
     0
1070
   171
1070
     3
1070
   274
1070
     4
1070
   177
1070
     7
1070
   176
1070
     7
1070
   178
1070
     7
1070
    78
1070
     8
1070
    48
1040
-0.005
1070
    41
1041
3.175
1070
   147
1041
1.5875
1070
    42
1041
1.5875
1070
    44
1041
3.175
1070
   140
1041
3.175
1070
   343
1005
0
1070
   344
1005
0
1002
}
0
DIMENSION
5
163
100
AcDbEntity
8
SK2
62
256
6
ByLayer
370
13
48
1
60
0
100
AcDbDimension
2
DimnDraft3D4
10
309.932546
20
38
30
0
11
304.376296
21
2.46898
31
0
70
33
71
5
72
1
41
1
210
0
220
0
230
1
3
Standard
100
AcDbAlignedDimension
13
251.1875
23
-38
33
0
14
251.1875
24
38
34
0
1001
ACAD
1000
DSTYLE
1002
{
1070
   279
1070
     0
1070
    74
1070
     0
1070
   173
1070
     1
1070
   340
1005
134
1070
   271
1070
     1
1070
   272
1070
     2
1070
    77
1070
     1
1070
    73
1070
     0
1070
   171
1070
     3
1070
   274
1070
     4
1070
   177
1070
     7
1070
   176
1070
     7
1070
   178
1070
     7
1070
    78
1070
     8
1070
    48
1040
-0.005
1070
    41
1041
3.175
1070
   147
1041
1.5875
1070
    42
1041
1.5875
1070
    44
1041
3.175
1070
   140
1041
3.175
1070
   343
1005
0
1070
   344
1005
0
1002
}
0
DIMENSION
5
16D
100
AcDbEntity
8
SK2
62
256
6
ByLayer
370
13
48
1
60
0
100
AcDbDimension
2
DimnDraft3D5
10
32
20
50.732522
30
0
11
138.313783
21
50.732522
31
0
70
32
71
5
72
1
41
1
210
0
220
0
230
1
3
Standard
100
AcDbAlignedDimension
13
250
23
1.5875
33
0
14
32
24
39.5875
34
0
50
0
100
AcDbRotatedDimension
1001
ACAD
1000
DSTYLE
1002
{
1070
   279
1070
     0
1070
   173
1070
     1
1070
   340
1005
134
1070
   271
1070
     1
1070
   272
1070
     2
1070
    77
1070
     1
1070
    73
1070
     0
1070
   171
1070
     3
1070
   274
1070
     4
1070
   177
1070
     7
1070
   176
1070
     7
1070
   178
1070
     7
1070
    78
1070
     8
1070
    48
1040
-0.005
1070
    41
1041
3.175
1070
   147
1041
1.5875
1070
    42
1041
1.5875
1070
    44
1041
3.175
1070
   140
1041
3.175
1070
   343
1005
0
1070
   344
1005
0
1002
}
0
ENDSEC
0
SECTION
2
OBJECTS
0
DICTIONARY
5
1d8
330
0
100
AcDbDictionary
280
0
281
1
3
ACAD_GROUP
350
1d9
3
ACAD_MLINESTYLE
350
1da
0
DICTIONARY
5
1d9
330
0
100
AcDbDictionary
280
0
281
1
0
DICTIONARY
5
1da
330
0
100
AcDbDictionary
280
0
281
1
3
Standard
350
18
0
MLINESTYLE
5
18
330
1da
100
AcDbMlineStyle
2
Standard
70
0
3

62
256
51
90
52
90
71
2
49
-0.5
62
256
6
ByLayer
49
0.5
62
256
6
ByLayer
0
RASTERVARIABLES
5
1c6
330

100
AcDbRasterVariables
90
0
70
1
71
1
72
1
0
ENDSEC
0
EOF
