0
SECTION
2
HEADER
9
$ACADVER
1
AC1015
9
$DWGCODEPAGE
3
ANSI_1252
9
$HANDSEED
5
1ec
9
$ANGBASE
50
0
9
$ANGDIR
70
0
9
$ATTMODE
70
1
9
$AUNITS
70
0
9
$AUPREC
70
0
9
$CECOLOR
62
256
9
$CELTSCALE
40
1
9
$CELTYPE
6
ByLayer
9
$CELWEIGHT
370
18
9
$CLAYER
8
0
9
$CMLJUST
70
0
9
$CMLSCALE
40
1
9
$CMLSTYLE
2
Standard
9
$DIMSTYLE
2
Standard
9
$TEXTSIZE
40
0.2
9
$TEXTSTYLE
7
Standard
9
$LUNITS
70
2
9
$LUPREC
70
4
9
$EXTNAMES
290
1
9
$INSUNITS
70
4
9
$LTSCALE
40
1
9
$LWDISPLAY
290
1
9
$PDMODE
70
0
9
$PDSIZE
40
0
9
$PLINEGEN
70
0
0
ENDSEC
0
SECTION
2
CLASSES
0
CLASS
1
RASTERVARIABLES
2
AcDbRasterVariables
3
ISM
90
0
280
0
281
0
0
ENDSEC
0
SECTION
2
TABLES
0
TABLE
2
VPORT
5
1e2
100
AcDbSymbolTable
0
VPORT
5
1
100
AcDbSymbolTableRecord
100
AcDbViewportTableRecord
2
*Active
70
0
10
0
20
0
11
1
21
1
12
-1
22
1
13
0
23
0
14
0.5
24
0.5
15
10
25
10
16
0
26
0
36
1
17
0
27
0
37
0
0
ENDTAB
0
TABLE
2
LTYPE
5
1e3
100
AcDbSymbolTable
0
LTYPE
5
14
100
AcDbSymbolTableRecord
100
AcDbLinetypeTableRecord
70
0
2
ByBlock
3

72
65
73
0
40
0
0
LTYPE
5
15
100
AcDbSymbolTableRecord
100
AcDbLinetypeTableRecord
70
0
2
ByLayer
3

72
65
73
0
40
0
0
LTYPE
5
16
100
AcDbSymbolTableRecord
100
AcDbLinetypeTableRecord
70
0
2
CONTINUOUS
3
Solid line
72
65
73
0
40
0
0
LTYPE
5
6A
100
AcDbSymbolTableRecord
100
AcDbLinetypeTableRecord
70
0
2
CENTER
3
____ _ ____ _ ____ _ ____
72
65
73
4
40
47.5
49
22
74
0
49
-8.5
74
0
49
8.5
74
0
49
-8.5
74
0
0
LTYPE
5
6B
100
AcDbSymbolTableRecord
100
AcDbLinetypeTableRecord
70
0
2
DASHED
3
__ __ __ __ __ __ __ __ __
72
65
73
2
40
25.72
49
12.86
74
0
49
-12.86
74
0
0
ENDTAB
0
TABLE
2
LAYER
5
1e4
100
AcDbSymbolTable
0
LAYER
5
10
100
AcDbSymbolTableRecord
100
AcDbLayerTableRecord
2
0
70
0
62
7
6
CONTINUOUS
290
1
370
-3
390
0
0
LAYER
5
6D
100
AcDbSymbolTableRecord
100
AcDbLayerTableRecord
2
81
70
0
62
-3
6
CONTINUOUS
290
1
370
-3
390
0
0
LAYER
5
6F
100
AcDbSymbolTableRecord
100
AcDbLayerTableRecord
2
80
70
0
62
-6
6
CONTINUOUS
290
1
370
-3
390
0
0
LAYER
5
76
100
AcDbSymbolTableRecord
100
AcDbLayerTableRecord
2
4
70
0
62
-2
6
CENTER
290
1
370
-3
390
0
0
LAYER
5
7A
100
AcDbSymbolTableRecord
100
AcDbLayerTableRecord
2
1
70
0
62
4
6
CONTINUOUS
290
1
370
-3
390
0
0
LAYER
5
E9
100
AcDbSymbolTableRecord
100
AcDbLayerTableRecord
2
2
70
0
62
7
6
CONTINUOUS
290
1
370
-3
390
0
0
LAYER
5
1ce
100
AcDbSymbolTableRecord
100
AcDbLayerTableRecord
2
SK2
70
0
62
7
6
CONTINUOUS
290
1
370
-3
390
0
0
LAYER
5
1cf
100
AcDbSymbolTableRecord
100
AcDbLayerTableRecord
2
SK4
70
0
62
2
6
CENTER
290
1
370
-3
390
0
0
LAYER
5
1d0
100
AcDbSymbolTableRecord
100
AcDbLayerTableRecord
2
SK1
70
0
62
4
6
CONTINUOUS
290
1
370
-3
390
0
0
LAYER
5
1d1
100
AcDbSymbolTableRecord
100
AcDbLayerTableRecord
2
SK6
70
0
62
5
6
CONTINUOUS
290
1
370
-3
390
0
0
ENDTAB
0
TABLE
2
STYLE
5
1e5
100
AcDbSymbolTable
0
STYLE
5
11
100
AcDbSymbolTableRecord
100
AcDbTextStyleTableRecord
2
Standard
3
txt
70
0
71
0
40
0
41
1
42
0
50
0
0
STYLE
5
12C
100
AcDbSymbolTableRecord
100
AcDbTextStyleTableRecord
2
iso_b_vert
3
simplex.shx
70
0
71
0
40
0
41
1
42
0
50
0
0
STYLE
5
12D
100
AcDbSymbolTableRecord
100
AcDbTextStyleTableRecord
2
DWGDirectTextStyle
3
simplex
70
0
71
0
40
0
41
1
42
0
50
0
0
ENDTAB
0
TABLE
2
DIMSTYLE
5
1e6
100
AcDbSymbolTable
100
AcDbDimStyleTable
0
DIMSTYLE
105
27
100
AcDbSymbolTableRecord
100
AcDbDimStyleTableRecord
2
Standard
70
0
3
<>
41
0.18
42
0.0625
44
0.18
140
0.18
147
0.09
73
0
74
0
77
1
271
2
275
0
278
52
280
0
340
11
0
ENDTAB
0
TABLE
2
VIEW
5
1e7
100
AcDbSymbolTable
0
ENDTAB
0
TABLE
2
UCS
5
1e8
100
AcDbSymbolTable
0
ENDTAB
0
TABLE
2
APPID
5
1e9
100
AcDbSymbolTable
0
APPID
5
12
100
AcDbSymbolTableRecord
100
AcDbRegAppTableRecord
2
ACAD
70
0
0
ENDTAB
0
TABLE
2
BLOCK_RECORD
5
1ea
100
AcDbSymbolTable
0
BLOCK_RECORD
5
1F
100
AcDbSymbolTableRecord
100
AcDbBlockTableRecord
2
*Model_Space
340
0
70
0
0
BLOCK_RECORD
5
1B
100
AcDbSymbolTableRecord
100
AcDbBlockTableRecord
2
*Paper_Space
340
0
70
0
0
BLOCK_RECORD
5
23
100
AcDbSymbolTableRecord
100
AcDbBlockTableRecord
2
*Paper_Space0
340
0
70
0
0
BLOCK_RECORD
5
14A
100
AcDbSymbolTableRecord
100
AcDbBlockTableRecord
2
DimnDraft3D1
340
0
70
0
0
BLOCK_RECORD
5
155
100
AcDbSymbolTableRecord
100
AcDbBlockTableRecord
2
DimnDraft3D2
340
0
70
0
0
BLOCK_RECORD
5
15F
100
AcDbSymbolTableRecord
100
AcDbBlockTableRecord
2
DimnDraft3D3
340
0
70
0
0
BLOCK_RECORD
5
16A
100
AcDbSymbolTableRecord
100
AcDbBlockTableRecord
2
DimnDraft3D4
340
0
70
0
0
ENDTAB
0
ENDSEC
0
SECTION
2
BLOCKS
0
BLOCK
5
20
100
AcDbEntity
8
0
100
AcDbBlockBegin
2
*Model_Space
70
0
10
0
20
0
30
0
3
*Model_Space
0
ENDBLK
5
21
100
AcDbEntity
8
0
100
AcDbBlockEnd
0
BLOCK
5
1C
100
AcDbEntity
8
0
100
AcDbBlockBegin
2
*Paper_Space
70
0
10
0
20
0
30
0
3
*Paper_Space
0
ENDBLK
5
1D
100
AcDbEntity
8
0
100
AcDbBlockEnd
0
BLOCK
5
24
100
AcDbEntity
8
0
100
AcDbBlockBegin
2
*Paper_Space0
70
0
10
0
20
0
30
0
3
*Paper_Space0
0
ENDBLK
5
25
100
AcDbEntity
8
0
100
AcDbBlockEnd
0
BLOCK
5
152
100
AcDbEntity
8
0
100
AcDbBlockBegin
2
DimnDraft3D1
70
0
10
0
20
0
30
0
3
DimnDraft3D1
0
MTEXT
5
14B
100
AcDbEntity
8
SK2
62
256
6
ByLayer
370
18
48
1
60
0
100
AcDbMText
10
76.35
20
-19.126316
30
0
210
0
220
0
230
1
1
\W0.5321;10
40
4.5
41
0
44
1.084337
50
90
71
7
72
5
7
iso_b_vert
0
MTEXT
5
14C
100
AcDbEntity
8
SK2
62
256
6
ByLayer
370
18
48
1
60
0
100
AcDbMText
10
76.35
20
-25.84116
30
0
210
0
220
0
230
1
1
%%c
40
4.5
41
0
44
1.084337
50
90
71
7
72
5
7
iso_b_vert
0
LINE
5
14D
100
AcDbEntity
8
SK2
62
256
6
ByLayer
370
13
48
1
60
0
100
AcDbLine
10
58.9875
20
5
30
0
11
80.6
21
5
31
0
39
0
210
0
220
0
230
1
0
LINE
5
14E
100
AcDbEntity
8
SK2
62
256
6
ByLayer
370
13
48
1
60
0
100
AcDbLine
10
58.9875
20
-5
30
0
11
80.6
21
-5
31
0
39
0
210
0
220
0
230
1
0
LINE
5
14F
100
AcDbEntity
8
SK2
62
256
6
ByLayer
370
13
48
1
60
0
100
AcDbLine
10
78.6
20
-29.251316
30
0
11
78.6
21
16.25
31
0
39
0
210
0
220
0
230
1
0
SOLID
5
150
100
AcDbEntity
8
SK2
62
256
6
ByLayer
370
13
48
1
60
0
100
AcDbTrace
10
78.6
20
5
30
0
11
77.602374
21
9.499996
31
0
12
79.597626
22
9.500004
32
0
13
78.6
23
5
33
0
39
0
210
0
220
0
230
1
0
SOLID
5
151
100
AcDbEntity
8
SK2
62
256
6
ByLayer
370
13
48
1
60
0
100
AcDbTrace
10
78.6
20
-5
30
0
11
79.597626
21
-9.499996
31
0
12
77.602374
22
-9.500004
32
0
13
78.6
23
-5
33
0
39
0
210
0
220
0
230
1
0
ENDBLK
5
153
100
AcDbEntity
8
0
100
AcDbBlockEnd
0
BLOCK
5
15C
100
AcDbEntity
8
0
100
AcDbBlockBegin
2
DimnDraft3D2
70
0
10
0
20
0
30
0
3
DimnDraft3D2
0
MTEXT
5
156
100
AcDbEntity
8
SK2
62
256
6
ByLayer
370
18
48
1
60
0
100
AcDbMText
10
37.688158
20
46.695
30
0
210
0
220
0
230
1
1
\W0.7178;2,4
40
4.5
41
0
44
1.084337
50
0
71
7
72
5
7
iso_b_vert
0
LINE
5
157
100
AcDbEntity
8
SK2
62
256
6
ByLayer
370
13
48
1
60
0
100
AcDbLine
10
57.4
20
6.5875
30
0
11
57.4
21
47.57
31
0
39
0
210
0
220
0
230
1
0
LINE
5
158
100
AcDbEntity
8
SK2
62
256
6
ByLayer
370
13
48
1
60
0
100
AcDbLine
10
55
20
17.5875
30
0
11
55
21
47.57
31
0
39
0
210
0
220
0
230
1
0
LINE
5
159
100
AcDbEntity
8
SK2
62
256
6
ByLayer
370
13
48
1
60
0
100
AcDbLine
10
36.563158
20
45.57
30
0
11
68.65
21
45.57
31
0
39
0
210
0
220
0
230
1
0
SOLID
5
15A
100
AcDbEntity
8
SK2
62
256
6
ByLayer
370
13
48
1
60
0
100
AcDbTrace
10
57.4
20
45.57
30
0
11
61.899996
21
46.567626
31
0
12
61.900004
22
44.572374
32
0
13
57.4
23
45.57
33
0
39
0
210
0
220
0
230
1
0
SOLID
5
15B
100
AcDbEntity
8
SK2
62
256
6
ByLayer
370
13
48
1
60
0
100
AcDbTrace
10
55
20
45.57
30
0
11
50.500004
21
44.572374
31
0
12
50.499996
22
46.567626
32
0
13
55
23
45.57
33
0
39
0
210
0
220
0
230
1
0
ENDBLK
5
15D
100
AcDbEntity
8
0
100
AcDbBlockEnd
0
BLOCK
5
167
100
AcDbEntity
8
0
100
AcDbBlockBegin
2
DimnDraft3D3
70
0
10
0
20
0
30
0
3
DimnDraft3D3
0
MTEXT
5
160
100
AcDbEntity
8
SK2
62
256
6
ByLayer
370
18
48
1
60
0
100
AcDbMText
10
-58.25
20
2.936842
30
0
210
0
220
0
230
1
1
\W0.6740;63
40
4.5
41
0
44
1.084337
50
90
71
7
72
5
7
iso_b_vert
0
MTEXT
5
161
100
AcDbEntity
8
SK2
62
256
6
ByLayer
370
18
48
1
60
0
100
AcDbMText
10
-58.25
20
-3.778002
30
0
210
0
220
0
230
1
1
%%c
40
4.5
41
0
44
1.084337
50
90
71
7
72
5
7
iso_b_vert
0
LINE
5
162
100
AcDbEntity
8
SK2
62
256
6
ByLayer
370
13
48
1
60
0
100
AcDbLine
10
-1.5875
20
-31.5
30
0
11
-58
21
-31.5
31
0
39
0
210
0
220
0
230
1
0
LINE
5
163
100
AcDbEntity
8
SK2
62
256
6
ByLayer
370
13
48
1
60
0
100
AcDbLine
10
-1.5875
20
31.5
30
0
11
-58
21
31.5
31
0
39
0
210
0
220
0
230
1
0
LINE
5
164
100
AcDbEntity
8
SK2
62
256
6
ByLayer
370
13
48
1
60
0
100
AcDbLine
10
-56
20
-31.5
30
0
11
-56
21
31.5
31
0
39
0
210
0
220
0
230
1
0
SOLID
5
165
100
AcDbEntity
8
SK2
62
256
6
ByLayer
370
13
48
1
60
0
100
AcDbTrace
10
-56
20
-31.5
30
0
11
-56.997626
21
-27.000004
31
0
12
-55.002374
22
-26.999996
32
0
13
-56
23
-31.5
33
0
39
0
210
0
220
0
230
1
0
SOLID
5
166
100
AcDbEntity
8
SK2
62
256
6
ByLayer
370
13
48
1
60
0
100
AcDbTrace
10
-56
20
31.5
30
0
11
-55.002374
21
27.000004
31
0
12
-56.997626
22
26.999996
32
0
13
-56
23
31.5
33
0
39
0
210
0
220
0
230
1
0
ENDBLK
5
168
100
AcDbEntity
8
0
100
AcDbBlockEnd
0
BLOCK
5
172
100
AcDbEntity
8
0
100
AcDbBlockBegin
2
DimnDraft3D4
70
0
10
0
20
0
30
0
3
DimnDraft3D4
0
MTEXT
5
16B
100
AcDbEntity
8
SK2
62
256
6
ByLayer
370
18
48
1
60
0
100
AcDbMText
10
91.35
20
2.936842
30
0
210
0
220
0
230
1
1
\W0.6740;32
40
4.5
41
0
44
1.084337
50
90
71
7
72
5
7
iso_b_vert
0
MTEXT
5
16C
100
AcDbEntity
8
SK2
62
256
6
ByLayer
370
18
48
1
60
0
100
AcDbMText
10
91.35
20
-3.778002
30
0
210
0
220
0
230
1
1
%%c
40
4.5
41
0
44
1.084337
50
90
71
7
72
5
7
iso_b_vert
0
LINE
5
16D
100
AcDbEntity
8
SK2
62
256
6
ByLayer
370
13
48
1
60
0
100
AcDbLine
10
56.5875
20
-16
30
0
11
95.6
21
-16
31
0
39
0
210
0
220
0
230
1
0
LINE
5
16E
100
AcDbEntity
8
SK2
62
256
6
ByLayer
370
13
48
1
60
0
100
AcDbLine
10
56.5875
20
16
30
0
11
95.6
21
16
31
0
39
0
210
0
220
0
230
1
0
LINE
5
16F
100
AcDbEntity
8
SK2
62
256
6
ByLayer
370
13
48
1
60
0
100
AcDbLine
10
93.6
20
-16
30
0
11
93.6
21
16
31
0
39
0
210
0
220
0
230
1
0
SOLID
5
170
100
AcDbEntity
8
SK2
62
256
6
ByLayer
370
13
48
1
60
0
100
AcDbTrace
10
93.6
20
-16
30
0
11
92.602374
21
-11.500004
31
0
12
94.597626
22
-11.499996
32
0
13
93.6
23
-16
33
0
39
0
210
0
220
0
230
1
0
SOLID
5
171
100
AcDbEntity
8
SK2
62
256
6
ByLayer
370
13
48
1
60
0
100
AcDbTrace
10
93.6
20
16
30
0
11
94.597626
21
11.500004
31
0
12
92.602374
22
11.499996
32
0
13
93.6
23
16
33
0
39
0
210
0
220
0
230
1
0
ENDBLK
5
173
100
AcDbEntity
8
0
100
AcDbBlockEnd
0
ENDSEC
0
SECTION
2
ENTITIES
0
ARC
5
FB
100
AcDbEntity
8
1
62
256
6
ByLayer
370
18
48
1
60
0
100
AcDbCircle
39
0
10
-54.878892
20
-4.381175
30
0
40
0.4
210
0
220
0
230
-1
100
AcDbArc
50
239.5
51
252.376224
0
ARC
5
FC
100
AcDbEntity
8
SK1
62
256
6
ByLayer
370
18
48
1
60
0
100
AcDbCircle
39
0
10
27.2
20
22.245
30
0
40
1.4
210
0
220
0
230
-1
100
AcDbArc
50
235.077078
51
270
0
ARC
5
FD
100
AcDbEntity
8
1
62
256
6
ByLayer
370
18
48
1
60
0
100
AcDbCircle
39
0
10
-54.878892
20
11.175175
30
0
40
0.4
210
0
220
0
230
-1
100
AcDbArc
50
239.5
51
252.376224
0
ARC
5
FE
100
AcDbEntity
8
1
62
256
6
ByLayer
370
18
48
1
60
0
100
AcDbCircle
39
0
10
-54.878892
20
4.381175
30
0
40
0.4
210
0
220
0
230
-1
100
AcDbArc
50
107.623776
51
120.5
0
ARC
5
FF
100
AcDbEntity
8
SK1
62
256
6
ByLayer
370
18
48
1
60
0
100
AcDbCircle
39
0
10
0.45
20
-24.570431
30
0
40
0.6
210
0
220
0
230
-1
100
AcDbArc
50
90
51
138.590378
0
ARC
5
100
100
AcDbEntity
8
SK1
62
256
6
ByLayer
370
18
48
1
60
0
100
AcDbCircle
39
0
10
0.45
20
24.570431
30
0
40
0.6
210
0
220
0
230
-1
100
AcDbArc
50
221.409622
51
270
0
ARC
5
101
100
AcDbEntity
8
1
62
256
6
ByLayer
370
18
48
1
60
0
100
AcDbCircle
39
0
10
-54.878892
20
-11.175175
30
0
40
0.4
210
0
220
0
230
-1
100
AcDbArc
50
107.623776
51
120.5
0
ARC
5
102
100
AcDbEntity
8
SK1
62
256
6
ByLayer
370
18
48
1
60
0
100
AcDbCircle
39
0
10
23.2
20
-22.245
30
0
40
1.4
210
0
220
0
230
-1
100
AcDbArc
50
90
51
139.158777
0
ARC
5
103
100
AcDbEntity
8
1
62
256
6
ByLayer
370
18
48
1
60
0
100
AcDbCircle
39
0
10
-26.95
20
-17
30
0
40
1
210
0
220
0
230
-1
100
AcDbArc
50
0
51
90
0
ARC
5
104
100
AcDbEntity
8
1
62
256
6
ByLayer
370
18
48
1
60
0
100
AcDbCircle
39
0
10
-26.95
20
17
30
0
40
1
210
0
220
0
230
-1
100
AcDbArc
50
270
51
0
0
ELLIPSE
5
105
100
AcDbEntity
8
SK1
62
256
6
ByLayer
370
13
48
1
60
0
100
AcDbEllipse
10
-23.2
20
-21.778508
30
0
11
-1.4
21
1.71444889535133E-16
31
0
210
0
220
0
230
1
40
0.891007
41
-2.03608609507003
42
-1.5707963267949
0
POINT
5
6C
100
AcDbEntity
8
81
62
256
6
ByLayer
370
18
48
1
60
0
100
AcDbPoint
10
55
20
0
30
0
39
0
210
0
220
0
230
1
50
360
0
POINT
5
6E
100
AcDbEntity
8
80
62
256
6
ByLayer
370
18
48
1
60
0
100
AcDbPoint
10
0
20
0
30
0
39
0
210
0
220
0
230
1
50
360
0
POINT
5
70
100
AcDbEntity
8
SK2
62
256
6
ByLayer
370
18
48
1
60
1
100
AcDbPoint
10
0
20
-31.5
30
0
39
0
210
0
220
0
230
1
50
360
0
POINT
5
72
100
AcDbEntity
8
SK2
62
256
6
ByLayer
370
18
48
1
60
1
100
AcDbPoint
10
0
20
31.5
30
0
39
0
210
0
220
0
230
1
50
360
0
SPLINE
5
106
100
AcDbEntity
8
SK1
62
256
6
ByLayer
370
18
48
1
60
0
100
AcDbSpline
70
4
71
3
72
28
73
24
40
0
40
0
40
0
40
0
40
0.0156250000000003
40
0.0156250000000003
40
0.0312500000000006
40
0.0312500000000006
40
0.0625000000000011
40
0.0625000000000011
40
0.0937500000000017
40
0.0937500000000017
40
0.125000000000002
40
0.125000000000002
40
0.187500000000001
40
0.187500000000001
40
0.250000000000001
40
0.250000000000001
40
0.375
40
0.375
40
0.5
40
0.5
40
0.75
40
0.75
40
1
40
1
40
1
40
1
41
1
10
-23.2
20
-19.4725065681034
30
0
41
1
10
-23.1876502058549
20
-19.4697129132036
30
0
41
1
10
-23.1748847628705
20
-19.4677095952295
30
0
41
1
10
-23.1483383773588
20
-19.4656403206953
30
0
41
1
10
-23.1343760848
20
-19.4656198739454
30
0
41
1
10
-23.0935849629471
20
-19.4688291914607
30
0
41
1
10
-23.067081566601
20
-19.4754004428959
30
0
41
1
10
-23.0204194165109
20
-19.4931105485257
30
0
41
1
10
-23.0002900983264
20
-19.5038637712727
30
0
41
1
10
-22.9634130695384
20
-19.527335072255
30
0
41
1
10
-22.9472402693794
20
-19.5397543365687
30
0
41
1
10
-22.9027611907552
20
-19.5780017983515
30
0
41
1
10
-22.8782780140498
20
-19.6049557007804
30
0
41
1
10
-22.8347029279809
20
-19.659729636182
30
0
41
1
10
-22.8159778532693
20
-19.6872751764781
30
0
41
1
10
-22.7652741193391
20
-19.7700001304787
30
0
41
1
10
-22.7386990696325
20
-19.8252605344213
30
0
41
1
10
-22.693186878316
20
-19.9352660922314
30
0
41
1
10
-22.6744258675471
20
-19.9900867935991
30
0
41
1
10
-22.626495595419
20
-20.1530310183227
30
0
41
1
10
-22.6056606993562
20
-20.2589525452543
30
0
41
1
10
-22.5781968672318
20
-20.4653952654228
30
0
41
1
10
-22.5717791044903
20
-20.5659154603382
30
0
41
1
10
-22.571845502751
20
-20.6637088720743
30
0
0
SPLINE
5
107
100
AcDbEntity
8
SK1
62
256
6
ByLayer
370
18
48
1
60
0
100
AcDbSpline
70
4
71
3
72
24
73
20
40
0
40
0
40
0
40
0
40
0.249999999999998
40
0.249999999999998
40
0.374999999999998
40
0.374999999999998
40
0.499999999999998
40
0.499999999999998
40
0.624999999999997
40
0.624999999999997
40
0.749999999999997
40
0.749999999999997
40
0.812499999999998
40
0.812499999999998
40
0.874999999999998
40
0.874999999999998
40
0.937499999999999
40
0.937499999999999
40
1
40
1
40
1
40
1
41
1
10
-23.2
20
-19.4725065681034
30
0
41
1
10
-23.4577645521646
20
-19.5308156537197
30
0
41
1
10
-23.7110215598315
20
-19.5927309127619
30
0
41
1
10
-24.0802456285699
20
-19.6941332815307
30
0
41
1
10
-24.2018072233507
20
-19.7294669445773
30
0
41
1
10
-24.4384878085563
20
-19.8034487178426
30
0
41
1
10
-24.5535683637339
20
-19.8420607367675
30
0
41
1
10
-24.7749475554853
20
-19.9236521975046
30
0
41
1
10
-24.8812885806188
20
-19.9666105586424
30
0
41
1
10
-25.0813501274025
20
-20.058803708456
30
0
41
1
10
-25.1752032097578
20
-20.1079725720551
30
0
41
1
10
-25.3007369764709
20
-20.1893079354521
30
0
41
1
10
-25.3396343291087
20
-20.2175277603439
30
0
41
1
10
-25.4086340830932
20
-20.2755373707948
30
0
41
1
10
-25.4389691743771
20
-20.3054671422381
30
0
41
1
10
-25.4893901655705
20
-20.3676029500868
30
0
41
1
10
-25.5093651042269
20
-20.3998763092482
30
0
41
1
10
-25.5359144945267
20
-20.4648034817868
30
0
41
1
10
-25.5427334623998
20
-20.4977100970871
30
0
41
1
10
-25.5425277000738
20
-20.5310987896625
30
0
0
SPLINE
5
108
100
AcDbEntity
8
SK1
62
256
6
ByLayer
370
18
48
1
60
0
100
AcDbSpline
70
4
71
3
72
28
73
24
40
0
40
0
40
0
40
0
40
0.249999999999999
40
0.249999999999999
40
0.499999999999998
40
0.499999999999998
40
0.624999999999998
40
0.624999999999998
40
0.749999999999997
40
0.749999999999997
40
0.812499999999998
40
0.812499999999998
40
0.874999999999999
40
0.874999999999999
40
0.90625
40
0.90625
40
0.9375
40
0.9375
40
0.968750000000001
40
0.968750000000001
40
0.984375
40
0.984375
40
1
40
1
40
1
40
1
41
1
10
-30.7499999999997
20
-20.8447435124645
30
0
41
1
10
-30.2971691275869
20
-20.8439693671223
30
0
41
1
10
-29.8448372764214
20
-20.8414478438301
30
0
41
1
10
-28.9417030471519
20
-20.8310039243337
30
0
41
1
10
-28.4908612436777
20
-20.8231886403276
30
0
41
1
10
-27.8172910526117
20
-20.8041470946947
30
0
41
1
10
-27.5931952319325
20
-20.7965606674488
30
0
41
1
10
-27.1467868612304
20
-20.7775160548389
30
0
41
1
10
-26.9242995973496
20
-20.7661332248456
30
0
41
1
10
-26.5935596270585
20
-20.7437379525012
30
0
41
1
10
-26.4837478352699
20
-20.7353669713704
30
0
41
1
10
-26.2660793251743
20
-20.7157897042607
30
0
41
1
10
-26.1580350954131
20
-20.7046307191569
30
0
41
1
10
-25.9992597879575
20
-20.6839836468159
30
0
41
1
10
-25.9468520478655
20
-20.6764338748358
30
0
41
1
10
-25.8440820739599
20
-20.6592613891808
30
0
41
1
10
-25.7938237447176
20
-20.6497059570442
30
0
41
1
10
-25.6976119310275
20
-20.6268908772017
30
0
41
1
10
-25.6513865086135
20
-20.613808167133
30
0
41
1
10
-25.5930569234485
20
-20.5880807875395
30
0
41
1
10
-25.5759091649547
20
-20.5786316923602
30
0
41
1
10
-25.5501996273289
20
-20.5565664823866
30
0
41
1
10
-25.5424468386049
20
-20.5442200387263
30
0
41
1
10
-25.5425277000738
20
-20.5310987896625
30
0
0
SPLINE
5
109
100
AcDbEntity
8
SK1
62
256
6
ByLayer
370
18
48
1
60
0
100
AcDbSpline
70
4
71
3
72
8
73
4
40
0
40
0
40
0
40
0
40
1
40
1
40
1
40
1
41
1
10
-30.75
20
-20.8447435124635
30
0
41
1
10
-30.7533711052677
20
-20.8412726012272
30
0
41
1
10
-30.7567195771044
20
-20.8377949233474
30
0
41
1
10
-30.7600449304076
20
-20.834310484867
30
0
0
SPLINE
5
10A
100
AcDbEntity
8
1
62
256
6
ByLayer
370
18
48
1
60
0
100
AcDbSpline
70
4
71
3
72
10
73
6
40
0
40
0
40
0
40
0
40
0.5
40
0.5
40
1
40
1
40
1
40
1
41
1
10
16.075
20
26.697103190234
30
0
41
1
10
16.075
20
26.6419796332792
30
0
41
1
10
16.085313399115
20
26.5879379927726
30
0
41
1
10
16.1257493575893
20
26.4861152843445
30
0
41
1
10
16.155388814132
20
26.4396356978774
30
0
41
1
10
16.1937397274627
20
26.4
30
0
0
SPLINE
5
10B
100
AcDbEntity
8
SK1
62
256
6
ByLayer
370
18
48
1
60
0
100
AcDbSpline
70
4
71
3
72
26
73
22
40
0
40
0
40
0
40
0
40
0.0006764708766604
40
0.0633953329430091
40
0.126685483466671
40
0.189898021271862
40
0.252156150351738
40
0.314235919471413
40
0.376776245817195
40
0.418636446286365
40
0.45972665041939
40
0.500816632347959
40
0.562213534556396
40
0.624629023760401
40
0.687024331782743
40
0.749127349339768
40
0.811546787493437
40
0.874847163395511
40
0.917521954736819
40
0.959389058024513
40
1
40
1
40
1
40
1
41
1
10
-13.2177934543917
20
-23.6584171317998
30
0
41
1
10
-13.2177923667342
20
-23.6584172297449
30
0
41
1
10
-13.2173967415956
20
-23.6583866373157
30
0
41
1
10
-13.1616096328168
20
-23.6508684367483
30
0
41
1
10
-12.9144920324724
20
-23.6200136287987
30
0
41
1
10
-12.5255803695119
20
-23.5745174615052
30
0
41
1
10
-11.9989642209678
20
-23.5247879317695
30
0
41
1
10
-11.3573756932146
20
-23.4810458840184
30
0
41
1
10
-10.7005533998241
20
-23.4574298950785
30
0
41
1
10
-10.0885230129701
20
-23.451865013628
30
0
41
1
10
-9.54693420506581
20
-23.4598315298167
30
0
41
1
10
-8.90951807385736
20
-23.4851205982741
30
0
41
1
10
-8.17786259869689
20
-23.5365480612051
30
0
41
1
10
-7.38983333107262
20
-23.621013805521
30
0
41
1
10
-6.6616907801762
20
-23.7217208777334
30
0
41
1
10
-6.02840548876293
20
-23.8288123445708
30
0
41
1
10
-5.50803766082578
20
-23.9298107209512
30
0
41
1
10
-5.16572715956701
20
-24.0035562219615
30
0
41
1
10
-4.95722777014458
20
-24.0494296368069
30
0
41
1
10
-4.85001282350609
20
-24.073465985041
30
0
41
1
10
-4.8268439139498
20
-24.0788005937943
30
0
41
1
10
-4.82679042242387
20
-24.078808666112
30
0
0
SPLINE
5
10C
100
AcDbEntity
8
1
62
256
6
ByLayer
370
18
48
1
60
0
100
AcDbSpline
70
4
71
3
72
14
73
10
40
0
40
0
40
0
40
0
40
0.500000000000004
40
0.500000000000004
40
0.750000000000011
40
0.750000000000011
40
0.875000000000006
40
0.875000000000006
40
1
40
1
40
1
40
1
41
1
10
16.1937397274627
20
26.4
30
0
41
1
10
16.2182309805126
20
26.4
30
0
41
1
10
16.247144716711
20
26.4
30
0
41
1
10
16.3087939885721
20
26.4
30
0
41
1
10
16.3324007862069
20
26.4
30
0
41
1
10
16.3770388913467
20
26.4
30
0
41
1
10
16.3938072947253
20
26.4
30
0
41
1
10
16.4316350807094
20
26.4
30
0
41
1
10
16.4529533111466
20
26.4
30
0
41
1
10
16.475
20
26.4
30
0
0
SPLINE
5
10D
100
AcDbEntity
8
1
62
256
6
ByLayer
370
18
48
1
60
0
100
AcDbSpline
70
4
71
3
72
8
73
4
40
0
40
0
40
0
40
0
40
1
40
1
40
1
40
1
41
1
10
14.6253876765866
20
-30.1503829784963
30
0
41
1
10
15.1100404143128
20
-29.2741992018061
30
0
41
1
10
15.5933771502786
20
-28.3972829993794
30
0
41
1
10
16.075
20
-27.5194446025754
30
0
0
SPLINE
5
10E
100
AcDbEntity
8
1
62
256
6
ByLayer
370
18
48
1
60
0
100
AcDbSpline
70
4
71
3
72
8
73
4
40
0
40
0
40
0
40
0
40
1
40
1
40
1
40
1
41
1
10
16.075
20
19.85
30
0
41
1
10
15.6053593920639
20
19.85
30
0
41
1
10
15.1208218166183
20
19.85
30
0
41
1
10
14.6253876765866
20
19.85
30
0
0
SPLINE
5
10F
100
AcDbEntity
8
1
62
256
6
ByLayer
370
18
48
1
60
0
100
AcDbSpline
70
4
71
3
72
8
73
4
40
0
40
0
40
0
40
0
40
1
40
1
40
1
40
1
41
1
10
25.95
20
-29.6281216709733
30
0
41
1
10
25.7833972663251
20
-29.802269958847
30
0
41
1
10
25.616729518114
20
-29.9763560701552
30
0
41
1
10
25.45
20
-30.1503829784963
30
0
0
SPLINE
5
110
100
AcDbEntity
8
1
62
256
6
ByLayer
370
18
48
1
60
0
100
AcDbSpline
70
4
71
3
72
8
73
4
40
0
40
0
40
0
40
0
40
1
40
1
40
1
40
1
41
1
10
19.925
20
-27.5194446025754
30
0
41
1
10
20.4066228497215
20
-28.3972829993794
30
0
41
1
10
20.8899595856872
20
-29.2741992018061
30
0
41
1
10
21.3746123234134
20
-30.1503829784963
30
0
0
SPLINE
5
111
100
AcDbEntity
8
1
62
256
6
ByLayer
370
18
48
1
60
0
100
AcDbSpline
70
4
71
3
72
8
73
4
40
0
40
0
40
0
40
0
40
1
40
1
40
1
40
1
41
1
10
21.3746123234134
20
19.85
30
0
41
1
10
20.8791781833817
20
19.85
30
0
41
1
10
20.3946406079361
20
19.85
30
0
41
1
10
19.925
20
19.85
30
0
0
SPLINE
5
112
100
AcDbEntity
8
1
62
256
6
ByLayer
370
18
48
1
60
0
100
AcDbSpline
70
4
71
3
72
38
73
34
40
0
40
0
40
0
40
0
40
0.125
40
0.125
40
0.1875
40
0.1875
40
0.21875
40
0.21875
40
0.25
40
0.25
40
0.375
40
0.375
40
0.40625
40
0.40625
40
0.4375
40
0.4375
40
0.499999999999999
40
0.499999999999999
40
0.624999999999998
40
0.624999999999998
40
0.656249999999998
40
0.656249999999998
40
0.687499999999998
40
0.687499999999998
40
0.749999999999998
40
0.749999999999998
40
0.812499999999998
40
0.812499999999998
40
0.843749999999999
40
0.843749999999999
40
0.874999999999999
40
0.874999999999999
40
1
40
1
40
1
40
1
41
1
10
4.94999999999999
20
31.4699984111852
30
0
41
1
10
4.94999999999999
20
31.4698296536479
30
0
41
1
10
5.00230708374832
20
31.4562391697278
30
0
41
1
10
5.15571452437678
20
31.4176655060856
30
0
41
1
10
5.21943610515427
20
31.4017728091575
30
0
41
1
10
5.33430027174887
20
31.3736107488786
30
0
41
1
10
5.37593431951345
20
31.363472478499
30
0
41
1
10
5.46511004302158
20
31.3419559785114
30
0
41
1
10
5.51257900794357
20
31.3305949262852
30
0
41
1
10
5.76402842320039
20
31.2710321527611
30
0
41
1
10
6.00990201671502
20
31.2145668222899
30
0
41
1
10
6.37269305826686
20
31.1368630165868
30
0
41
1
10
6.44804988741382
20
31.1209660315191
30
0
41
1
10
6.60445685283204
20
31.0885594101366
30
0
41
1
10
6.68565103015175
20
31.0720225423576
30
0
41
1
10
6.93526213232312
20
31.0221827684181
30
0
41
1
10
7.11040967239754
20
30.9884987967216
30
0
41
1
10
7.66147908373202
20
30.8874987365028
30
0
41
1
10
8.06276376430699
20
30.8202083776254
30
0
41
1
10
8.60874373574561
20
30.7409539903556
30
0
41
1
10
8.72013162231119
20
30.7253594651143
30
0
41
1
10
8.9449358800284
20
30.6951200042667
30
0
41
1
10
9.05865310544962
20
30.680430490746
30
0
41
1
10
9.40370630453722
20
30.637794896977
30
0
41
1
10
9.63893458885079
20
30.6112816361137
30
0
41
1
10
10.1197726748233
20
30.5628267498568
30
0
41
1
10
10.3653820618296
20
30.5408840370385
30
0
41
1
10
10.7418048251405
20
30.5119727078943
30
0
41
1
10
10.8686162375855
20
30.5030029512015
30
0
41
1
10
11.1249812853466
20
30.4864983825466
30
0
41
1
10
11.254389755313
20
30.4789778793734
30
0
41
1
10
11.9019328821944
20
30.4454958853764
30
0
41
1
10
12.4264244436086
20
30.4315723180712
30
0
41
1
10
12.9575
20
30.4315723180712
30
0
0
SPLINE
5
113
100
AcDbEntity
8
1
62
256
6
ByLayer
370
18
48
1
60
0
100
AcDbSpline
70
4
71
3
72
30
73
26
40
0
40
0
40
0
40
0
40
0.125
40
0.125
40
0.1875
40
0.1875
40
0.25
40
0.25
40
0.375000000000001
40
0.375000000000001
40
0.406250000000001
40
0.406250000000001
40
0.437500000000001
40
0.437500000000001
40
0.500000000000001
40
0.500000000000001
40
0.625
40
0.625
40
0.6875
40
0.6875
40
0.749999999999999
40
0.749999999999999
40
0.875
40
0.875
40
1
40
1
40
1
40
1
41
1
10
12.1956203456893
20
24.4200409500066
30
0
41
1
10
11.7562475112852
20
24.4200409500066
30
0
41
1
10
11.3251302963921
20
24.3909497578602
30
0
41
1
10
10.6901035240454
20
24.3056038437389
30
0
41
1
10
10.4803827549288
20
24.2701435456968
30
0
41
1
10
10.0648745595293
20
24.1848444282514
30
0
41
1
10
9.85878661776317
20
24.1348190364467
30
0
41
1
10
9.26006146735202
20
23.9663861964588
30
0
41
1
10
8.88205821250946
20
23.8289334719872
30
0
41
1
10
8.4339120188076
20
23.6260043199278
30
0
41
1
10
8.34550879717324
20
23.5838515747132
30
0
41
1
10
8.1711319880734
20
23.4963787949209
30
0
41
1
10
8.08500476697938
20
23.4509668686439
30
0
41
1
10
7.83231360064809
20
23.311091922816
30
0
41
1
10
7.67087988193626
20
23.212752963373
30
0
41
1
10
7.20608604579277
20
22.9028875991274
30
0
41
1
10
6.92215056716839
20
22.6765668917347
30
0
41
1
10
6.53098295835537
20
22.3078010914531
30
0
41
1
10
6.40659745200387
20
22.1800697643894
30
0
41
1
10
6.17226321560696
20
21.9188742079098
30
0
41
1
10
6.06179410768456
20
21.784936542704
30
0
41
1
10
5.74865705723417
20
21.3734069993164
30
0
41
1
10
5.56418709064181
20
21.0861176330193
30
0
41
1
10
5.23652490731592
20
20.4866364512196
30
0
41
1
10
5.09337039057024
20
20.1744346090999
30
0
41
1
10
4.96821549226033
20
19.85
30
0
0
SPLINE
5
114
100
AcDbEntity
8
1
62
256
6
ByLayer
370
18
48
1
60
0
100
AcDbSpline
70
4
71
3
72
8
73
4
40
0
40
0
40
0
40
0
40
1
40
1
40
1
40
1
41
1
10
25.45
20
19.85
30
0
41
1
10
25.6172281053953
20
19.85
30
0
41
1
10
25.7839073195555
20
19.85
30
0
41
1
10
25.95
20
19.85
30
0
0
SPLINE
5
115
100
AcDbEntity
8
1
62
256
6
ByLayer
370
18
48
1
60
0
100
AcDbSpline
70
4
71
3
72
14
73
10
40
0
40
0
40
0
40
0
40
0.125000000000006
40
0.125000000000006
40
0.250000000000011
40
0.250000000000011
40
0.500000000000009
40
0.500000000000009
40
1
40
1
40
1
40
1
41
1
10
19.525
20
26.4
30
0
41
1
10
19.5471989190232
20
26.4
30
0
41
1
10
19.5685877183419
20
26.4
30
0
41
1
10
19.6064969261275
20
26.4
30
0
41
1
10
19.6233706470219
20
26.4
30
0
41
1
10
19.6682167548468
20
26.4
30
0
41
1
10
19.691837071748
20
26.4
30
0
41
1
10
19.7529339688684
20
26.4
30
0
41
1
10
19.7817887217438
20
26.4
30
0
41
1
10
19.8062602725374
20
26.4
30
0
0
SPLINE
5
116
100
AcDbEntity
8
1
62
256
6
ByLayer
370
18
48
1
60
0
100
AcDbSpline
70
4
71
3
72
12
73
8
40
0
40
0
40
0
40
0
40
0.250000000000007
40
0.250000000000007
40
0.500000000000015
40
0.500000000000015
40
1
40
1
40
1
40
1
41
1
10
19.8062602725373
20
26.4
30
0
41
1
10
19.8254284358842
20
26.4198103112886
30
0
41
1
10
19.842285623029
20
26.4411937101347
30
0
41
1
10
19.8716842168587
20
26.4868982708972
30
0
41
1
10
19.8843197277938
20
26.511491084155
30
0
41
1
10
19.9146347048598
20
26.5877662333161
30
0
41
1
10
19.925
20
26.6420047967162
30
0
41
1
10
19.925
20
26.697103190234
30
0
0
SPLINE
5
117
100
AcDbEntity
8
SK1
62
256
6
ByLayer
370
18
48
1
60
0
100
AcDbSpline
70
4
71
3
72
12
73
8
40
0
40
0
40
0
40
0
40
0.25
40
0.25
40
0.499999999999999
40
0.499999999999999
40
1
40
1
40
1
40
1
41
1
10
-31.0675798041839
20
-20.2481331121841
30
0
41
1
10
-31.0676023659514
20
-20.296990296398
30
0
41
1
10
-31.0585660353668
20
-20.3475498311117
30
0
41
1
10
-31.0253596698745
20
-20.4503174808064
30
0
41
1
10
-31.0012677601939
20
-20.5024452969696
30
0
41
1
10
-30.9155247238345
20
-20.6540597597046
30
0
41
1
10
-30.8409817572411
20
-20.7495016335411
30
0
41
1
10
-30.7600449304084
20
-20.8343104848681
30
0
0
SPLINE
5
118
100
AcDbEntity
8
1
62
256
6
ByLayer
370
18
48
1
60
0
100
AcDbSpline
70
4
71
3
72
16
73
12
40
0
40
0
40
0
40
0
40
0.330461242503108
40
0.330461242503108
40
0.665230621251551
40
0.665230621251551
40
0.832615310625775
40
0.832615310625775
40
0.916307655312888
40
0.916307655312888
40
1
40
1
40
1
40
1
41
1
10
19.813464
20
-26.4
30
0
41
1
10
19.7972277432652
20
-26.4
30
0
41
1
10
19.7785743925097
20
-26.4
30
0
41
1
10
19.7331597587649
20
-26.4
30
0
41
1
10
19.7067289670813
20
-26.4
30
0
41
1
10
19.6536024190797
20
-26.4
30
0
41
1
10
19.633431925426
20
-26.4
30
0
41
1
10
19.5970095019048
20
-26.4
30
0
41
1
10
19.5840823839824
20
-26.4
30
0
41
1
10
19.5558393454617
20
-26.4
30
0
41
1
10
19.5405156727525
20
-26.4
30
0
41
1
10
19.525
20
-26.4
30
0
0
SPLINE
5
119
100
AcDbEntity
8
1
62
256
6
ByLayer
370
18
48
1
60
0
100
AcDbSpline
70
4
71
3
72
36
73
32
40
0
40
0
40
0
40
0
40
0.125
40
0.125
40
0.1875
40
0.1875
40
0.21875
40
0.21875
40
0.25
40
0.25
40
0.375
40
0.375
40
0.40625
40
0.40625
40
0.4375
40
0.4375
40
0.5
40
0.5
40
0.625
40
0.625
40
0.65625
40
0.65625
40
0.6875
40
0.6875
40
0.75
40
0.75
40
0.8125
40
0.8125
40
0.875
40
0.875
40
1
40
1
40
1
40
1
41
1
10
12.95
20
-30.1503829784963
30
0
41
1
10
12.4182627187732
20
-30.1503829784963
30
0
41
1
10
11.8959989210176
20
-30.1662190884818
30
0
41
1
10
11.1260959657865
20
-30.2113619657957
30
0
41
1
10
10.8717264718107
20
-30.2299778939183
30
0
41
1
10
10.4936216560128
20
-30.2629761000306
30
0
41
1
10
10.3678086409658
20
-30.2748587965686
30
0
41
1
10
10.1194618268704
20
-30.3000493570684
30
0
41
1
10
9.99692951457195
20
-30.3133501209502
30
0
41
1
10
9.39226886038051
20
-30.3830824778242
30
0
41
1
10
8.93391089121613
20
-30.4491689339867
30
0
41
1
10
8.39183435684626
20
-30.5402922027968
30
0
41
1
10
8.28497698908882
20
-30.5589441303185
30
0
41
1
10
8.07441560051001
20
-30.5969970538394
30
0
41
1
10
7.97072778568187
20
-30.6163994640843
30
0
41
1
10
7.66769106088228
20
-30.674925228277
30
0
41
1
10
7.47519443651623
20
-30.7145691260908
30
0
41
1
10
6.92538504075443
20
-30.8339192459421
30
0
41
1
10
6.59546778476641
20
-30.9140497914083
30
0
41
1
10
6.23018156491224
20
-31.0102994103381
30
0
41
1
10
6.1597699232795
20
-31.0292845486695
30
0
41
1
10
6.02512185094676
20
-31.0663691769891
30
0
41
1
10
5.9607330741635
20
-31.0845086951601
30
0
41
1
10
5.7762484438189
20
-31.137589019802
30
0
41
1
10
5.66481288123552
20
-31.1711913504447
30
0
41
1
10
5.46492163805172
20
-31.2341535567076
30
0
41
1
10
5.37646500709747
20
-31.2635146855691
30
0
41
1
10
5.22310216121372
20
-31.3173168408205
30
0
41
1
10
5.15801311819183
20
-31.3418449109977
30
0
41
1
10
5.00241912655019
20
-31.4059316510968
30
0
41
1
10
4.94999999999999
20
-31.4363570809238
30
0
41
1
10
4.94999999999999
20
-31.4535466005028
30
0
0
SPLINE
5
11A
100
AcDbEntity
8
SK1
62
256
6
ByLayer
370
18
48
1
60
0
100
AcDbSpline
70
4
71
3
72
46
73
42
40
0
40
0
40
0
40
0
40
0.125000000000013
40
0.125000000000013
40
0.250000000000026
40
0.250000000000026
40
0.312500000000032
40
0.312500000000032
40
0.375000000000038
40
0.375000000000038
40
0.406250000000041
40
0.406250000000041
40
0.437500000000044
40
0.437500000000044
40
0.453125000000045
40
0.453125000000045
40
0.468750000000046
40
0.468750000000046
40
0.484375000000048
40
0.484375000000048
40
0.492187500000048
40
0.492187500000048
40
0.500000000000049
40
0.500000000000049
40
0.515625000000047
40
0.515625000000047
40
0.531250000000045
40
0.531250000000045
40
0.562500000000042
40
0.562500000000042
40
0.593750000000039
40
0.593750000000039
40
0.625000000000036
40
0.625000000000036
40
0.68750000000003
40
0.68750000000003
40
0.750000000000023
40
0.750000000000023
40
0.875000000000012
40
0.875000000000012
40
1
40
1
40
1
40
1
41
1
10
-31.8423156651183
20
-19.5578384055689
30
0
41
1
10
-31.8423333696428
20
-19.4426929042022
30
0
41
1
10
-31.8403624974038
20
-19.3293941361595
30
0
41
1
10
-31.8313432234647
20
-19.1075119538047
30
0
41
1
10
-31.8244089309848
20
-18.9988225695829
30
0
41
1
10
-31.8067667315249
20
-18.8425127768667
30
0
41
1
10
-31.7996556490151
20
-18.7915521022421
30
0
41
1
10
-31.7813470584703
20
-18.6934256973633
30
0
41
1
10
-31.7702616033531
20
-18.6461559068278
30
0
41
1
10
-31.7475764476873
20
-18.5808761554346
30
0
41
1
10
-31.7389660789657
20
-18.5600325845583
30
0
41
1
10
-31.7184564160709
20
-18.5219079017731
30
0
41
1
10
-31.7066535903261
20
-18.5044901779696
30
0
41
1
10
-31.6840003263438
20
-18.4836215277604
30
0
41
1
10
-31.6756254278418
20
-18.4775833385398
30
0
41
1
10
-31.6562502532763
20
-18.4687098696513
30
0
41
1
10
-31.6452055204549
20
-18.4657549438783
30
0
41
1
10
-31.6182146378951
20
-18.4664683260197
30
0
41
1
10
-31.6022228809055
20
-18.4699939999055
30
0
41
1
10
-31.5718428985261
20
-18.4871723444239
30
0
41
1
10
-31.5607128581554
20
-18.4949940594776
30
0
41
1
10
-31.5378522429091
20
-18.5145478872333
30
0
41
1
10
-31.5264536291923
20
-18.5259792148935
30
0
41
1
10
-31.4944102236695
20
-18.561868704672
30
0
41
1
10
-31.4759723818174
20
-18.5874183975319
30
0
41
1
10
-31.4437175201457
20
-18.6364112948863
30
0
41
1
10
-31.4295173532009
20
-18.6605516956074
30
0
41
1
10
-31.3910298428172
20
-18.7302522221032
30
0
41
1
10
-31.370069699777
20
-18.7743064812745
30
0
41
1
10
-31.3320753412387
20
-18.8603988401025
30
0
41
1
10
-31.3153650281157
20
-18.9020761034658
30
0
41
1
10
-31.2849697125712
20
-18.9829941343838
30
0
41
1
10
-31.2712520291668
20
-19.0223801855131
30
0
41
1
10
-31.2332190537206
20
-19.1382763207174
30
0
41
1
10
-31.2119759209019
20
-19.212559124825
30
0
41
1
10
-31.1747887053939
20
-19.3572829828764
30
0
41
1
10
-31.158910908852
20
-19.4276759801284
30
0
41
1
10
-31.1175998345456
20
-19.634271366272
30
0
41
1
10
-31.098618347077
20
-19.7648038232766
30
0
41
1
10
-31.0735396200986
20
-20.0146708735929
30
0
41
1
10
-31.067527100527
20
-20.1340040983327
30
0
41
1
10
-31.0675798041839
20
-20.2481331121841
30
0
0
SPLINE
5
11B
100
AcDbEntity
8
SK1
62
256
6
ByLayer
370
18
48
1
60
0
100
AcDbSpline
70
4
71
3
72
14
73
10
40
0
40
0
40
0
40
0
40
0.335305498425961
40
0.335305498425961
40
0.667652749212985
40
0.667652749212985
40
0.833826374606492
40
0.833826374606492
40
1
40
1
40
1
40
1
41
1
10
-31.8915269653701
20
-19.703563509645
30
0
41
1
10
-31.8862812781568
20
-19.7090150371345
30
0
41
1
10
-31.8791359242649
20
-19.7088490836853
30
0
41
1
10
-31.8642483451557
20
-19.6943359625788
30
0
41
1
10
-31.8566861682458
20
-19.6798070029846
30
0
41
1
10
-31.8484469114169
20
-19.6447492917015
30
0
41
1
10
-31.8462031265134
20
-19.6308338087905
30
0
41
1
10
-31.8431317226051
20
-19.598059464364
30
0
41
1
10
-31.8423124056037
20
-19.5790374185097
30
0
41
1
10
-31.8423156651183
20
-19.5578384055689
30
0
0
SPLINE
5
11C
100
AcDbEntity
8
SK1
62
256
6
ByLayer
370
18
48
1
60
0
100
AcDbSpline
70
4
71
3
72
8
73
4
40
0
40
0
40
0
40
0
40
1
40
1
40
1
40
1
41
1
10
-30.7600449304183
20
20.8343104848558
30
0
41
1
10
-30.7567195771116
20
20.83779492334
30
0
41
1
10
-30.7533711052713
20
20.8412726012235
30
0
41
1
10
-30.75
20
20.8447435124635
30
0
0
SPLINE
5
11D
100
AcDbEntity
8
SK1
62
256
6
ByLayer
370
18
48
1
60
0
100
AcDbSpline
70
4
71
3
72
12
73
8
40
0
40
0
40
0
40
0
40
0.500000000000001
40
0.500000000000001
40
0.750000000000001
40
0.750000000000001
40
1
40
1
40
1
40
1
41
1
10
-30.75
20
20.8447435124634
30
0
41
1
10
-30.1550416961173
20
20.843726390558
30
0
41
1
10
-29.5610680020745
20
20.8397833747407
30
0
41
1
10
-28.6727964488951
20
20.8257901832184
30
0
41
1
10
-28.3771606131415
20
20.8197595020288
30
0
41
1
10
-27.7872843517739
20
20.8034860351553
30
0
41
1
10
-27.4930169396388
20
20.7933253891619
30
0
41
1
10
-27.2
20
20.7793761248443
30
0
0
SPLINE
5
11E
100
AcDbEntity
8
SK1
62
256
6
ByLayer
370
18
48
1
60
0
100
AcDbSpline
70
4
71
3
72
26
73
22
40
0
40
0
40
0
40
0
40
0.125
40
0.125
40
0.249999999999999
40
0.249999999999999
40
0.499999999999998
40
0.499999999999998
40
0.624999999999999
40
0.624999999999999
40
0.75
40
0.75
40
0.812500000000001
40
0.812500000000001
40
0.875000000000002
40
0.875000000000002
40
0.937500000000003
40
0.937500000000003
40
0.968750000000001
40
0.968750000000001
40
1
40
1
40
1
40
1
41
1
10
-25.8
20
21.8338164768251
30
0
41
1
10
-25.8
20
21.7915616932459
30
0
41
1
10
-25.8090351025927
20
21.7478886231867
30
0
41
1
10
-25.8431548692958
20
21.6578071143861
30
0
41
1
10
-25.8684641645678
20
21.6111821444051
30
0
41
1
10
-25.9642469084144
20
21.4706306346814
30
0
41
1
10
-26.0542386223504
20
21.3750914378881
30
0
41
1
10
-26.2216636085842
20
21.2296229266402
30
0
41
1
10
-26.2831168969646
20
21.1806521199652
30
0
41
1
10
-26.417112194867
20
21.08282757941
30
0
41
1
10
-26.4893081339087
20
21.034041361489
30
0
41
1
10
-26.6081703997843
20
20.9624296091495
30
0
41
1
10
-26.64952079047
20
20.9388574261358
30
0
41
1
10
-26.7375692634737
20
20.8928909727541
30
0
41
1
10
-26.7838545339876
20
20.87062177108
30
0
41
1
10
-26.8849324792838
20
20.8294629205491
30
0
41
1
10
-26.9405411248387
20
20.8101386317689
30
0
41
1
10
-27.033741492765
20
20.7896833685914
30
0
41
1
10
-27.066632898975
20
20.7843942438384
30
0
41
1
10
-27.1327297867291
20
20.7784773789045
30
0
41
1
10
-27.166849727636
20
20.7777979843037
30
0
41
1
10
-27.2000000000001
20
20.7793761248439
30
0
0
SPLINE
5
11F
100
AcDbEntity
8
SK1
62
256
6
ByLayer
370
18
48
1
60
0
100
AcDbSpline
70
4
71
3
72
20
73
16
40
0
40
0
40
0
40
0
40
0.0624999999999992
40
0.0624999999999992
40
0.124999999999998
40
0.124999999999998
40
0.249999999999998
40
0.249999999999998
40
0.374999999999998
40
0.374999999999998
40
0.499999999999998
40
0.499999999999998
40
0.749999999999999
40
0.749999999999999
40
1
40
1
40
1
40
1
41
1
10
-22.5718455027507
20
-20.6637088720744
30
0
41
1
10
-22.5718668370775
20
-20.695130728284
30
0
41
1
10
-22.5671706424718
20
-20.7267211158018
30
0
41
1
10
-22.549777668403
20
-20.7884452210753
30
0
41
1
10
-22.5371368339948
20
-20.8188378574837
30
0
41
1
10
-22.4907497329018
20
-20.9088265676243
30
0
41
1
10
-22.448800964515
20
-20.9673003853156
30
0
41
1
10
-22.3579876970575
20
-21.0817522166242
30
0
41
1
10
-22.3091147545311
20
-21.1376578096081
30
0
41
1
10
-22.2123773774188
20
-21.2475918157347
30
0
41
1
10
-22.1644141108179
20
-21.3016087266559
30
0
41
1
10
-22.0285176565244
20
-21.4613183789041
30
0
41
1
10
-21.9485004319115
20
-21.5648394371908
30
0
41
1
10
-21.8339547161812
20
-21.7659172917464
30
0
41
1
10
-21.8
20
-21.8616285601574
30
0
41
1
10
-21.8
20
-21.9520839046692
30
0
0
SPLINE
5
120
100
AcDbEntity
8
SK1
62
256
6
ByLayer
370
18
48
1
60
0
100
AcDbSpline
70
4
71
3
72
29
73
25
40
0
40
0
40
0
40
0
40
0.0001260176018946
40
0.0417259567354367
40
0.0832973320085088
40
0.125531328466322
40
0.18146222219339
40
0.235548952095668
40
0.289417361843292
40
0.344713684546051
40
0.400818526589256
40
0.454561151460468
40
0.507688707063421
40
0.561992638056559
40
0.61613146034281
40
0.670459322768628
40
0.707006372368031
40
0.743248671423069
40
0.779693591605864
40
0.834407683813354
40
0.889542520941289
40
0.94502840702509
40
0.999906782094776
40
1
40
1
40
1
40
1
41
1
10
-4.82678538604005
20
24.0788081052064
30
0
41
1
10
-4.82678635705432
20
24.0788083467335
30
0
41
1
10
-4.8268562377898
20
24.07881260836
30
0
41
1
10
-4.84997757100641
20
24.0733624294671
30
0
41
1
10
-4.95774628773481
20
24.0490091099233
30
0
41
1
10
-5.15567118437497
20
24.0054404560577
30
0
41
1
10
-5.45708688937128
20
23.940068613375
30
0
41
1
10
-5.88782640663248
20
23.8542079141257
30
0
41
1
10
-6.41462912933562
20
23.7617814637824
30
0
41
1
10
-7.02761772804087
20
23.6698975714757
30
0
41
1
10
-7.69549785967325
20
23.5856104819641
30
0
41
1
10
-8.39859198845491
20
23.5181688393972
30
0
41
1
10
-9.11612225467573
20
23.4735270830018
30
0
41
1
10
-9.83225622232968
20
23.452697276601
30
0
41
1
10
-10.5297920108902
20
23.4533008271137
30
0
41
1
10
-11.1099807168399
20
23.4714524648398
30
0
41
1
10
-11.576726137279
20
23.496095407416
30
0
41
1
10
-11.9427001455191
20
23.5218722049107
30
0
41
1
10
-12.3217933412728
20
23.5548538306832
30
0
41
1
10
-12.685846833581
20
23.5927752718756
30
0
41
1
10
-12.9869048164863
20
23.6290377948474
30
0
41
1
10
-13.176023749263
20
23.6528261956842
30
0
41
1
10
-13.2178393477541
20
23.6584250715281
30
0
41
1
10
-13.2177900783072
20
23.6584173939741
30
0
41
1
10
-13.2177890893814
20
23.6584172450442
30
0
0
SPLINE
5
121
100
AcDbEntity
8
SK1
62
256
6
ByLayer
370
18
48
1
60
0
100
AcDbSpline
70
4
71
3
72
12
73
8
40
0
40
0
40
0
40
0
40
0.25
40
0.25
40
0.5
40
0.5
40
1
40
1
40
1
40
1
41
1
10
-31.8423156651183
20
19.5578384055689
30
0
41
1
10
-31.8423091894369
20
19.5999545092391
30
0
41
1
10
-31.8455917378832
20
19.632485699749
30
0
41
1
10
-31.8566881179001
20
19.6799291409913
30
0
41
1
10
-31.8641941814282
20
19.6942133335598
30
0
41
1
10
-31.8862602077993
20
19.7159322808133
30
0
41
1
10
-31.9
20
19.7022637505358
30
0
41
1
10
-31.9
20
19.6726615351915
30
0
0
SPLINE
5
122
100
AcDbEntity
8
SK1
62
256
6
ByLayer
370
18
48
1
60
0
100
AcDbSpline
70
4
71
3
72
46
73
42
40
0
40
0
40
0
40
0
40
0.125000000000002
40
0.125000000000002
40
0.250000000000005
40
0.250000000000005
40
0.312500000000006
40
0.312500000000006
40
0.375000000000007
40
0.375000000000007
40
0.406250000000008
40
0.406250000000008
40
0.437500000000008
40
0.437500000000008
40
0.468750000000009
40
0.468750000000009
40
0.484375000000009
40
0.484375000000009
40
0.500000000000009
40
0.500000000000009
40
0.507812500000008
40
0.507812500000008
40
0.515625000000007
40
0.515625000000007
40
0.531250000000007
40
0.531250000000007
40
0.546875000000007
40
0.546875000000007
40
0.562500000000007
40
0.562500000000007
40
0.593750000000006
40
0.593750000000006
40
0.625000000000005
40
0.625000000000005
40
0.687500000000005
40
0.687500000000005
40
0.750000000000004
40
0.750000000000004
40
0.875000000000002
40
0.875000000000002
40
1
40
1
40
1
40
1
41
1
10
-31.0675798041839
20
20.2481331121841
30
0
41
1
10
-31.0675270596297
20
20.1339155356784
30
0
41
1
10
-31.0735498251319
20
20.0146004534606
30
0
41
1
10
-31.0985886373097
20
19.7650685993917
30
0
41
1
10
-31.1175078252541
20
19.6349330944518
30
0
41
1
10
-31.1586164093568
20
19.4290492129044
30
0
41
1
10
-31.174463091719
20
19.3586225326657
30
0
41
1
10
-31.2118452738115
20
19.2129961113654
30
0
41
1
10
-31.2333420532151
20
19.1378139218668
30
0
41
1
10
-31.2716956560997
20
19.0210730068394
30
0
41
1
10
-31.2855209894063
20
18.981444429778
30
0
41
1
10
-31.3161148762585
20
18.9001655384288
30
0
41
1
10
-31.3329109071436
20
18.8583842201109
30
0
41
1
10
-31.371028513756
20
18.7722610206365
30
0
41
1
10
-31.3920547532747
20
18.7282065809141
30
0
41
1
10
-31.4306785409237
20
18.6585498606934
30
0
41
1
10
-31.4449003422993
20
18.6344621100173
30
0
41
1
10
-31.477633748689
20
18.5850613112172
30
0
41
1
10
-31.4962091563577
20
18.5595509902958
30
0
41
1
10
-31.5284835681265
20
18.5238786367316
30
0
41
1
10
-31.5399890407317
20
18.5125323717037
30
0
41
1
10
-31.5629081097261
20
18.4933433044005
30
0
41
1
10
-31.5739496407319
20
18.4858058385281
30
0
41
1
10
-31.6041085453024
20
18.4693372908997
30
0
41
1
10
-31.6200106507229
20
18.4661707907915
30
0
41
1
10
-31.6465952899331
20
18.4660000946665
30
0
41
1
10
-31.6575780118012
20
18.4691435930138
30
0
41
1
10
-31.6767017209795
20
18.478273973885
30
0
41
1
10
-31.6849215107291
20
18.4843546857569
30
0
41
1
10
-31.7072201019517
20
18.5052627206646
30
0
41
1
10
-31.7190034404449
20
18.5227753662719
30
0
41
1
10
-31.739370752522
20
18.5609413366349
30
0
41
1
10
-31.7478705596817
20
18.5816413722694
30
0
41
1
10
-31.7703670152431
20
18.6466253171813
30
0
41
1
10
-31.7814132924851
20
18.6937425561479
30
0
41
1
10
-31.7996689558078
20
18.7916617154488
30
0
41
1
10
-31.8067731217691
20
18.8425646818118
30
0
41
1
10
-31.8244061221442
20
18.9988071124354
30
0
41
1
10
-31.831350309781
20
19.1076314108608
30
0
41
1
10
-31.8403664097762
20
19.3295453236177
30
0
41
1
10
-31.842333353774
20
19.4427961106814
30
0
41
1
10
-31.8423156651183
20
19.5578384055689
30
0
0
SPLINE
5
123
100
AcDbEntity
8
SK1
62
256
6
ByLayer
370
18
48
1
60
0
100
AcDbSpline
70
4
71
3
72
14
73
10
40
0
40
0
40
0
40
0
40
0.500000000000003
40
0.500000000000003
40
0.750000000000003
40
0.750000000000003
40
0.875000000000002
40
0.875000000000002
40
1
40
1
40
1
40
1
41
1
10
-30.7600449304182
20
20.8343104848558
30
0
41
1
10
-30.8410158990396
20
20.7494658583927
30
0
41
1
10
-30.9153687674598
20
20.654147883949
30
0
41
1
10
-31.0007051028079
20
20.5035329800827
30
0
41
1
10
-31.0245900033694
20
20.4521521286422
30
0
41
1
10
-31.0497392687941
20
20.3751260560866
30
0
41
1
10
-31.0563287190667
20
20.3494639188075
30
0
41
1
10
-31.0652639534866
20
20.2984378669064
30
0
41
1
10
-31.0675912850396
20
20.2729947455574
30
0
41
1
10
-31.0675798041816
20
20.2481331121862
30
0
0
SPLINE
5
124
100
AcDbEntity
8
1
62
256
6
ByLayer
370
18
48
1
60
0
100
AcDbSpline
70
4
71
3
72
14
73
10
40
0
40
0
40
0
40
0
40
0.168648379045438
40
0.168648379045438
40
0.337296758090876
40
0.337296758090876
40
0.674593516181752
40
0.674593516181752
40
1
40
1
40
1
40
1
41
1
10
16.475
20
-26.4
30
0
41
1
10
16.4436701214745
20
-26.4
30
0
41
1
10
16.4145454579586
20
-26.4
30
0
41
1
10
16.3657196668088
20
-26.4
30
0
41
1
10
16.3456772764679
20
-26.4
30
0
41
1
10
16.2922017349905
20
-26.4
30
0
41
1
10
16.2659392404307
20
-26.4
30
0
41
1
10
16.2213258285018
20
-26.4
30
0
41
1
10
16.2030186582581
20
-26.4
30
0
41
1
10
16.1870769999999
20
-26.4
30
0
0
SPLINE
5
125
100
AcDbEntity
8
1
62
256
6
ByLayer
370
18
48
1
60
0
100
AcDbSpline
70
4
71
3
72
8
73
4
40
0
40
0
40
0
40
0
40
1
40
1
40
1
40
1
41
1
10
16.075
20
21.0858397386544
30
0
41
1
10
15.6053593920639
20
22.2030165042125
30
0
41
1
10
15.1208218166183
20
23.3141891921863
30
0
41
1
10
14.6253876765866
20
24.4200409500066
30
0
0
SPLINE
5
126
100
AcDbEntity
8
1
62
256
6
ByLayer
370
18
48
1
60
0
100
AcDbSpline
70
4
71
3
72
8
73
4
40
0
40
0
40
0
40
0
40
1
40
1
40
1
40
1
41
1
10
25.95
20
23.7722190802626
30
0
41
1
10
25.7839073195555
20
23.9886015011042
30
0
41
1
10
25.6172281053954
20
24.2045348217587
30
0
41
1
10
25.45
20
24.4200409500066
30
0
0
SPLINE
5
127
100
AcDbEntity
8
1
62
256
6
ByLayer
370
18
48
1
60
0
100
AcDbSpline
70
4
71
3
72
8
73
4
40
0
40
0
40
0
40
0
40
1
40
1
40
1
40
1
41
1
10
21.3746123234134
20
30.4315723180712
30
0
41
1
10
20.8902935147949
20
29.5640826443993
30
0
41
1
10
20.4069881139936
20
28.6960191551286
30
0
41
1
10
19.925
20
27.8272318284485
30
0
0
SPLINE
5
128
100
AcDbEntity
8
1
62
256
6
ByLayer
370
18
48
1
60
0
100
AcDbSpline
70
4
71
3
72
8
73
4
40
0
40
0
40
0
40
0
40
1
40
1
40
1
40
1
41
1
10
16.075
20
27.8272318284485
30
0
41
1
10
15.5930118860064
20
28.6960191551286
30
0
41
1
10
15.1097064852051
20
29.5640826443993
30
0
41
1
10
14.6253876765866
20
30.4315723180712
30
0
0
SPLINE
5
129
100
AcDbEntity
8
1
62
256
6
ByLayer
370
18
48
1
60
0
100
AcDbSpline
70
4
71
3
72
8
73
4
40
0
40
0
40
0
40
0
40
1
40
1
40
1
40
1
41
1
10
21.3746123234134
20
24.4200409500066
30
0
41
1
10
20.8791781833817
20
23.3141891921862
30
0
41
1
10
20.3946406079361
20
22.2030165042125
30
0
41
1
10
19.925
20
21.0858397386544
30
0
0
SPLINE
5
12A
100
AcDbEntity
8
1
62
256
6
ByLayer
370
18
48
1
60
0
100
AcDbSpline
70
4
71
3
72
8
73
4
40
0
40
0
40
0
40
0
40
1
40
1
40
1
40
1
41
1
10
25.45
20
30.4315723180712
30
0
41
1
10
25.6167149861769
20
30.2591684553937
30
0
41
1
10
25.7833824731882
20
30.0867186469207
30
0
41
1
10
25.95
20
29.9142205940586
30
0
0
LINE
5
73
100
AcDbEntity
8
SK4
62
256
6
ByLayer
370
18
48
0.05
60
0
100
AcDbLine
10
60
20
0
30
0
11
-36.9
21
0
31
0
39
0
210
0
220
0
230
1
0
LINE
5
75
100
AcDbEntity
8
4
62
256
6
ByLayer
370
18
48
0.05
60
0
100
AcDbLine
10
60
20
0
30
0
11
0
21
0
31
0
39
0
210
0
220
0
230
1
0
LINE
5
77
100
AcDbEntity
8
81
62
256
6
ByLayer
370
18
48
1
60
0
100
AcDbLine
10
55
20
0
30
0
11
60
21
0
31
0
39
0
210
0
220
0
230
1
0
LINE
5
78
100
AcDbEntity
8
80
62
256
6
ByLayer
370
18
48
1
60
0
100
AcDbLine
10
0
20
0
30
0
11
-5
21
0
31
0
39
0
210
0
220
0
230
1
0
LINE
5
79
100
AcDbEntity
8
1
62
256
6
ByLayer
370
18
48
1
60
0
100
AcDbLine
10
57.2
20
-3.478175
30
0
11
55.081908
21
-4.725826
31
0
39
0
210
0
220
0
230
1
0
LINE
5
7B
100
AcDbEntity
8
1
62
256
6
ByLayer
370
18
48
1
60
0
100
AcDbLine
10
55.081908
20
-10.830523
30
0
11
57.2
21
-12.078175
31
0
39
0
210
0
220
0
230
1
0
LINE
5
7C
100
AcDbEntity
8
1
62
256
6
ByLayer
370
18
48
1
60
0
100
AcDbLine
10
57.3
20
-3.478175
30
0
11
57.2
21
-3.478175
31
0
39
0
210
0
220
0
230
1
0
LINE
5
7D
100
AcDbEntity
8
1
62
256
6
ByLayer
370
18
48
1
60
0
100
AcDbLine
10
57.2
20
-12.078175
30
0
11
57.3
21
-12.078175
31
0
39
0
210
0
220
0
230
1
0
LINE
5
7E
100
AcDbEntity
8
1
62
256
6
ByLayer
370
18
48
1
60
0
100
AcDbLine
10
0.5
20
31.47
30
0
11
0
21
30.97
31
0
39
0
210
0
220
0
230
1
0
LINE
5
7F
100
AcDbEntity
8
1
62
256
6
ByLayer
370
18
48
1
60
0
100
AcDbLine
10
0
20
-30.97
30
0
11
0.5
21
-31.47
31
0
39
0
210
0
220
0
230
1
0
LINE
5
80
100
AcDbEntity
8
1
62
256
6
ByLayer
370
18
48
1
60
0
100
AcDbLine
10
4.949182
20
31.47
30
0
11
0.5
21
31.47
31
0
39
0
210
0
220
0
230
1
0
LINE
5
81
100
AcDbEntity
8
1
62
256
6
ByLayer
370
18
48
1
60
0
100
AcDbLine
10
4.949408
20
31.47
30
0
11
4.949182
21
31.47
31
0
39
0
210
0
220
0
230
1
0
LINE
5
82
100
AcDbEntity
8
1
62
256
6
ByLayer
370
18
48
1
60
0
100
AcDbLine
10
4.95
20
31.47
30
0
11
4.949408
21
31.47
31
0
39
0
210
0
220
0
230
1
0
LINE
5
83
100
AcDbEntity
8
1
62
256
6
ByLayer
370
18
48
1
60
0
100
AcDbLine
10
0.5
20
-31.47
30
0
11
4.95
21
-31.47
31
0
39
0
210
0
220
0
230
1
0
LINE
5
84
100
AcDbEntity
8
SK1
62
256
6
ByLayer
370
18
48
1
60
0
100
AcDbLine
10
-13.216696
20
23.658472
30
0
11
-25.8
21
23.028046
31
0
39
0
210
0
220
0
230
1
0
LINE
5
86
100
AcDbEntity
8
SK1
62
256
6
ByLayer
370
18
48
1
60
0
100
AcDbLine
10
-21.8
20
-23.228447
30
0
11
-13.216952
21
-23.658459
31
0
39
0
210
0
220
0
230
1
0
LINE
5
87
100
AcDbEntity
8
SK1
62
256
6
ByLayer
370
18
48
1
60
0
100
AcDbLine
10
-2
20
-24.220431
30
0
11
-1.566987
21
-23.970431
31
0
39
0
210
0
220
0
230
1
0
LINE
5
88
100
AcDbEntity
8
SK1
62
256
6
ByLayer
370
18
48
1
60
0
100
AcDbLine
10
-1.566987
20
23.970431
30
0
11
-2
21
24.220431
31
0
39
0
210
0
220
0
230
1
0
LINE
5
89
100
AcDbEntity
8
SK1
62
256
6
ByLayer
370
18
48
1
60
0
100
AcDbLine
10
-0.45
20
23.970431
30
0
11
-1.566987
21
23.970431
31
0
39
0
210
0
220
0
230
1
0
LINE
5
8A
100
AcDbEntity
8
SK1
62
256
6
ByLayer
370
18
48
1
60
0
100
AcDbLine
10
-1.566987
20
-23.970431
30
0
11
-0.45
21
-23.970431
31
0
39
0
210
0
220
0
230
1
0
LINE
5
8B
100
AcDbEntity
8
1
62
256
6
ByLayer
370
18
48
1
60
0
100
AcDbLine
10
54.7
20
-16
30
0
11
55
21
-15.7
31
0
39
0
210
0
220
0
230
1
0
LINE
5
8C
100
AcDbEntity
8
1
62
256
6
ByLayer
370
18
48
1
60
0
100
AcDbLine
10
55
20
15.7
30
0
11
54.7
21
16
31
0
39
0
210
0
220
0
230
1
0
LINE
5
8D
100
AcDbEntity
8
SK1
62
256
6
ByLayer
370
18
48
1
60
0
100
AcDbLine
10
-30.75
20
-20.845
30
0
11
-23.2
21
-20.845
31
0
39
0
210
0
220
0
230
1
0
LINE
5
8E
100
AcDbEntity
8
SK1
62
256
6
ByLayer
370
18
48
1
60
0
100
AcDbLine
10
-30.75
20
20.845
30
0
11
-31.892671
21
19.702329
31
0
39
0
210
0
220
0
230
1
0
LINE
5
8F
100
AcDbEntity
8
SK1
62
256
6
ByLayer
370
18
48
1
60
0
100
AcDbLine
10
-31.898454
20
-19.696546
30
0
11
-30.75
21
-20.845
31
0
39
0
210
0
220
0
230
1
0
LINE
5
90
100
AcDbEntity
8
SK1
62
256
6
ByLayer
370
18
48
1
60
0
100
AcDbLine
10
-27.2
20
20.845
30
0
11
-30.75
21
20.845
31
0
39
0
210
0
220
0
230
1
0
LINE
5
91
100
AcDbEntity
8
1
62
256
6
ByLayer
370
18
48
1
60
0
100
AcDbLine
10
57.299997
20
-4.882282
30
0
11
57.4
21
-4.824545
31
0
39
0
210
0
220
0
230
1
0
LINE
5
92
100
AcDbEntity
8
1
62
256
6
ByLayer
370
18
48
1
60
0
100
AcDbLine
10
57.4
20
4.824545
30
0
11
57.299997
21
4.882282
31
0
39
0
210
0
220
0
230
1
0
LINE
5
93
100
AcDbEntity
8
1
62
256
6
ByLayer
370
18
48
1
60
0
100
AcDbLine
10
57.3
20
12.078175
30
0
11
57.2
21
12.078175
31
0
39
0
210
0
220
0
230
1
0
LINE
5
94
100
AcDbEntity
8
1
62
256
6
ByLayer
370
18
48
1
60
0
100
AcDbLine
10
57.2
20
3.478175
30
0
11
57.3
21
3.478175
31
0
39
0
210
0
220
0
230
1
0
LINE
5
95
100
AcDbEntity
8
1
62
256
6
ByLayer
370
18
48
1
60
0
100
AcDbLine
10
57.2
20
12.078175
30
0
11
55.081908
21
10.830523
31
0
39
0
210
0
220
0
230
1
0
LINE
5
96
100
AcDbEntity
8
1
62
256
6
ByLayer
370
18
48
1
60
0
100
AcDbLine
10
55.081908
20
4.725826
30
0
11
57.2
21
3.478175
31
0
39
0
210
0
220
0
230
1
0
LINE
5
97
100
AcDbEntity
8
SK1
62
256
6
ByLayer
370
18
48
1
60
0
100
AcDbLine
10
-2
20
24.220431
30
0
11
-4.827947
21
24.07875
31
0
39
0
210
0
220
0
230
1
0
LINE
5
98
100
AcDbEntity
8
SK1
62
256
6
ByLayer
370
18
48
1
60
0
100
AcDbLine
10
-4.828129
20
-24.078741
30
0
11
-2
21
-24.220431
31
0
39
0
210
0
220
0
230
1
0
LINE
5
99
100
AcDbEntity
8
1
62
256
6
ByLayer
370
18
48
1
60
0
100
AcDbLine
10
54.7
20
16
30
0
11
26.95
21
16
31
0
39
0
210
0
220
0
230
1
0
LINE
5
9A
100
AcDbEntity
8
1
62
256
6
ByLayer
370
18
48
1
60
0
100
AcDbLine
10
26.95
20
-16
30
0
11
54.7
21
-16
31
0
39
0
210
0
220
0
230
1
0
LINE
5
9B
100
AcDbEntity
8
1
62
256
6
ByLayer
370
18
48
1
60
0
100
AcDbLine
10
21.374612
20
30.431572
30
0
11
25.45
21
30.431572
31
0
39
0
210
0
220
0
230
1
0
LINE
5
9C
100
AcDbEntity
8
1
62
256
6
ByLayer
370
18
48
1
60
0
100
AcDbLine
10
14.625388
20
19.85
30
0
11
14.625388
21
-30.150383
31
0
39
0
210
0
220
0
230
1
0
LINE
5
9D
100
AcDbEntity
8
1
62
256
6
ByLayer
370
18
48
1
60
0
100
AcDbLine
10
16.075
20
19.85
30
0
11
16.075
21
-27.519445
31
0
39
0
210
0
220
0
230
1
0
LINE
5
9E
100
AcDbEntity
8
1
62
256
6
ByLayer
370
18
48
1
60
0
100
AcDbLine
10
21.374612
20
-30.150383
30
0
11
21.374612
21
19.85
31
0
39
0
210
0
220
0
230
1
0
LINE
5
9F
100
AcDbEntity
8
1
62
256
6
ByLayer
370
18
48
1
60
0
100
AcDbLine
10
25.45
20
19.85
30
0
11
21.374612
21
19.85
31
0
39
0
210
0
220
0
230
1
0
LINE
5
A0
100
AcDbEntity
8
1
62
256
6
ByLayer
370
18
48
1
60
0
100
AcDbLine
10
25.45
20
-30.150383
30
0
11
21.374612
21
-30.150383
31
0
39
0
210
0
220
0
230
1
0
LINE
5
A1
100
AcDbEntity
8
1
62
256
6
ByLayer
370
18
48
1
60
0
100
AcDbLine
10
19.925
20
19.85
30
0
11
19.925
21
-27.519445
31
0
39
0
210
0
220
0
230
1
0
LINE
5
A2
100
AcDbEntity
8
1
62
256
6
ByLayer
370
18
48
1
60
0
100
AcDbLine
10
12.9575
20
30.431572
30
0
11
14.625388
21
30.431572
31
0
39
0
210
0
220
0
230
1
0
LINE
5
A3
100
AcDbEntity
8
1
62
256
6
ByLayer
370
18
48
1
60
0
100
AcDbLine
10
14.625388
20
30.431572
30
0
11
14.625388
21
24.420041
31
0
39
0
210
0
220
0
230
1
0
LINE
5
A4
100
AcDbEntity
8
1
62
256
6
ByLayer
370
18
48
1
60
0
100
AcDbLine
10
12.19562
20
24.420041
30
0
11
14.625388
21
24.420041
31
0
39
0
210
0
220
0
230
1
0
LINE
5
A5
100
AcDbEntity
8
1
62
256
6
ByLayer
370
18
48
1
60
0
100
AcDbLine
10
14.625388
20
19.85
30
0
11
4.968215
21
19.85
31
0
39
0
210
0
220
0
230
1
0
LINE
5
A6
100
AcDbEntity
8
1
62
256
6
ByLayer
370
18
48
1
60
0
100
AcDbLine
10
0
20
30.97
30
0
11
0
21
-30.97
31
0
39
0
210
0
220
0
230
1
0
LINE
5
A7
100
AcDbEntity
8
1
62
256
6
ByLayer
370
18
48
1
60
0
100
AcDbLine
10
0.5
20
0
30
0
11
0.5
21
-31.47
31
0
39
0
210
0
220
0
230
1
0
LINE
5
A8
100
AcDbEntity
8
1
62
256
6
ByLayer
370
18
48
1
60
0
100
AcDbLine
10
0.5
20
31.47
30
0
11
0.5
21
0
31
0
39
0
210
0
220
0
230
1
0
LINE
5
A9
100
AcDbEntity
8
1
62
256
6
ByLayer
370
18
48
1
60
0
100
AcDbLine
10
25.95
20
19.85
30
0
11
25.95
21
-29.628122
31
0
39
0
210
0
220
0
230
1
0
LINE
5
AA
100
AcDbEntity
8
1
62
256
6
ByLayer
370
13
48
1
60
0
100
AcDbLine
10
16.475
20
26.4
30
0
11
16.475
21
-26.4
31
0
39
0
210
0
220
0
230
1
0
LINE
5
AB
100
AcDbEntity
8
1
62
256
6
ByLayer
370
18
48
1
60
0
100
AcDbLine
10
25.45
20
-30.150383
30
0
11
25.45
21
19.85
31
0
39
0
210
0
220
0
230
1
0
LINE
5
AC
100
AcDbEntity
8
1
62
256
6
ByLayer
370
13
48
1
60
0
100
AcDbLine
10
19.525
20
-26.4
30
0
11
19.525
21
26.4
31
0
39
0
210
0
220
0
230
1
0
LINE
5
AD
100
AcDbEntity
8
1
62
256
6
ByLayer
370
18
48
1
60
0
100
AcDbLine
10
14.625388
20
-30.150383
30
0
11
12.95
21
-30.150383
31
0
39
0
210
0
220
0
230
1
0
LINE
5
AE
100
AcDbEntity
8
1
62
256
6
ByLayer
370
13
48
1
60
0
100
AcDbLine
10
12.19562
20
19.85
30
0
11
12.19562
21
24.420041
31
0
39
0
210
0
220
0
230
1
0
LINE
5
AF
100
AcDbEntity
8
1
62
256
6
ByLayer
370
18
48
1
60
0
100
AcDbLine
10
4.95
20
-31.47
30
0
11
4.95
21
-31.453547
31
0
39
0
210
0
220
0
230
1
0
LINE
5
B0
100
AcDbEntity
8
SK1
62
256
6
ByLayer
370
13
48
1
60
0
100
AcDbLine
10
-0.45
20
-23.970431
30
0
11
-0.45
21
23.970431
31
0
39
0
210
0
220
0
230
1
0
LINE
5
B1
100
AcDbEntity
8
1
62
256
6
ByLayer
370
18
48
1
60
0
100
AcDbLine
10
57.4
20
0
30
0
11
57.4
21
-4.824545
31
0
39
0
210
0
220
0
230
1
0
LINE
5
B2
100
AcDbEntity
8
1
62
256
6
ByLayer
370
18
48
1
60
0
100
AcDbLine
10
57.4
20
4.824545
30
0
11
57.4
21
0
31
0
39
0
210
0
220
0
230
1
0
LINE
5
B3
100
AcDbEntity
8
1
62
256
6
ByLayer
370
18
48
1
60
0
100
AcDbLine
10
57.1
20
0
30
0
11
57.1
21
-3.537064
31
0
39
0
210
0
220
0
230
1
0
LINE
5
B4
100
AcDbEntity
8
1
62
256
6
ByLayer
370
18
48
1
60
0
100
AcDbLine
10
57.1
20
3.537411
30
0
11
57.1
21
0
31
0
39
0
210
0
220
0
230
1
0
LINE
5
B5
100
AcDbEntity
8
SK1
62
256
6
ByLayer
370
13
48
1
60
0
100
AcDbLine
10
-30.760045
20
20.83431
30
0
11
-30.760045
21
-20.83431
31
0
39
0
210
0
220
0
230
1
0
LINE
5
B6
100
AcDbEntity
8
SK1
62
256
6
ByLayer
370
18
48
1
60
0
100
AcDbLine
10
-25.8
20
23.028046
30
0
11
-25.8
21
21.833816
31
0
39
0
210
0
220
0
230
1
0
LINE
5
B7
100
AcDbEntity
8
SK1
62
256
6
ByLayer
370
18
48
1
60
0
100
AcDbLine
10
-21.8
20
-21.952084
30
0
11
-21.8
21
-23.228447
31
0
39
0
210
0
220
0
230
1
0
LINE
5
B8
100
AcDbEntity
8
SK1
62
256
6
ByLayer
370
18
48
1
60
0
100
AcDbLine
10
-2
20
24.220431
30
0
11
-2
21
-24.220431
31
0
39
0
210
0
220
0
230
1
0
LINE
5
B9
100
AcDbEntity
8
SK1
62
256
6
ByLayer
370
18
48
1
60
0
100
AcDbLine
10
-1.566987
20
23.970431
30
0
11
-1.566987
21
-23.970431
31
0
39
0
210
0
220
0
230
1
0
LINE
5
BA
100
AcDbEntity
8
1
62
256
6
ByLayer
370
18
48
1
60
0
100
AcDbLine
10
19.525
20
-26.4
30
0
11
16.475
21
-26.4
31
0
39
0
210
0
220
0
230
1
0
LINE
5
BB
100
AcDbEntity
8
1
62
256
6
ByLayer
370
18
48
1
60
0
100
AcDbLine
10
16.475
20
26.4
30
0
11
19.525
21
26.4
31
0
39
0
210
0
220
0
230
1
0
LINE
5
BC
100
AcDbEntity
8
1
62
256
6
ByLayer
370
18
48
1
60
0
100
AcDbLine
10
16.075
20
19.85
30
0
11
16.075
21
21.08584
31
0
39
0
210
0
220
0
230
1
0
LINE
5
BD
100
AcDbEntity
8
1
62
256
6
ByLayer
370
18
48
1
60
0
100
AcDbLine
10
19.925
20
21.08584
30
0
11
19.925
21
19.85
31
0
39
0
210
0
220
0
230
1
0
LINE
5
BE
100
AcDbEntity
8
1
62
256
6
ByLayer
370
18
48
1
60
0
100
AcDbLine
10
25.95
20
29.914221
30
0
11
25.95
21
23.772219
31
0
39
0
210
0
220
0
230
1
0
LINE
5
BF
100
AcDbEntity
8
1
62
256
6
ByLayer
370
18
48
1
60
0
100
AcDbLine
10
16.075
20
27.827232
30
0
11
16.075
21
21.08584
31
0
39
0
210
0
220
0
230
1
0
LINE
5
C0
100
AcDbEntity
8
1
62
256
6
ByLayer
370
18
48
1
60
0
100
AcDbLine
10
21.374612
20
24.420041
30
0
11
25.45
21
24.420041
31
0
39
0
210
0
220
0
230
1
0
LINE
5
C1
100
AcDbEntity
8
1
62
256
6
ByLayer
370
18
48
1
60
0
100
AcDbLine
10
25.95
20
23.772219
30
0
11
25.95
21
19.85
31
0
39
0
210
0
220
0
230
1
0
LINE
5
C2
100
AcDbEntity
8
1
62
256
6
ByLayer
370
13
48
1
60
0
100
AcDbLine
10
26.95
20
0
30
0
11
26.95
21
-16
31
0
39
0
210
0
220
0
230
1
0
LINE
5
C3
100
AcDbEntity
8
1
62
256
6
ByLayer
370
13
48
1
60
0
100
AcDbLine
10
26.95
20
16
30
0
11
26.95
21
0
31
0
39
0
210
0
220
0
230
1
0
LINE
5
C4
100
AcDbEntity
8
1
62
256
6
ByLayer
370
18
48
1
60
0
100
AcDbLine
10
55.496976
20
-4.481405
30
0
11
55.496976
21
4.481188
31
0
39
0
210
0
220
0
230
1
0
LINE
5
C5
100
AcDbEntity
8
SK1
62
256
6
ByLayer
370
13
48
1
60
0
100
AcDbLine
10
-31.842316
20
-19.557838
30
0
11
-31.06758
21
-20.248133
31
0
39
0
210
0
220
0
230
1
0
LINE
5
C6
100
AcDbEntity
8
SK1
62
256
6
ByLayer
370
13
48
1
60
0
100
AcDbLine
10
-31.842316
20
19.557838
30
0
11
-31.06758
21
20.248133
31
0
39
0
210
0
220
0
230
1
0
LINE
5
C7
100
AcDbEntity
8
SK1
62
256
6
ByLayer
370
13
48
1
60
0
100
AcDbLine
10
-23.2
20
-20.531099
30
0
11
-23.2
21
-19.472507
31
0
39
0
210
0
220
0
230
1
0
LINE
5
C8
100
AcDbEntity
8
SK1
62
256
6
ByLayer
370
13
48
1
60
0
100
AcDbLine
10
-25.542528
20
-20.531099
30
0
11
-23.2
21
-20.531099
31
0
39
0
210
0
220
0
230
1
0
LINE
5
C9
100
AcDbEntity
8
SK1
62
256
6
ByLayer
370
13
48
1
60
0
100
AcDbLine
10
-23.2
20
-20.531099
30
0
11
-23.2
21
-20.845
31
0
39
0
210
0
220
0
230
1
0
LINE
5
CA
100
AcDbEntity
8
1
62
256
6
ByLayer
370
18
48
1
60
0
100
AcDbLine
10
54.7
20
0
30
0
11
54.7
21
-16
31
0
39
0
210
0
220
0
230
1
0
LINE
5
CB
100
AcDbEntity
8
1
62
256
6
ByLayer
370
18
48
1
60
0
100
AcDbLine
10
54.7
20
16
30
0
11
54.7
21
0
31
0
39
0
210
0
220
0
230
1
0
LINE
5
CC
100
AcDbEntity
8
SK1
62
256
6
ByLayer
370
13
48
1
60
0
100
AcDbLine
10
-27.2
20
20.845
30
0
11
-27.2
21
20.779376
31
0
39
0
210
0
220
0
230
1
0
LINE
5
CD
100
AcDbEntity
8
SK1
62
256
6
ByLayer
370
18
48
1
60
0
100
AcDbLine
10
-31.9
20
-19.672662
30
0
11
-31.9
21
19.672662
31
0
39
0
210
0
220
0
230
1
0
LINE
5
CE
100
AcDbEntity
8
1
62
256
6
ByLayer
370
18
48
1
60
0
100
AcDbLine
10
55
20
0
30
0
11
55
21
-15.7
31
0
39
0
210
0
220
0
230
1
0
LINE
5
CF
100
AcDbEntity
8
1
62
256
6
ByLayer
370
18
48
1
60
0
100
AcDbLine
10
55
20
15.7
30
0
11
55
21
0
31
0
39
0
210
0
220
0
230
1
0
LINE
5
D0
100
AcDbEntity
8
1
62
256
6
ByLayer
370
18
48
1
60
0
100
AcDbLine
10
25.45
20
24.420041
30
0
11
25.45
21
30.431572
31
0
39
0
210
0
220
0
230
1
0
LINE
5
D1
100
AcDbEntity
8
1
62
256
6
ByLayer
370
18
48
1
60
0
100
AcDbLine
10
21.374612
20
24.420041
30
0
11
21.374612
21
30.431572
31
0
39
0
210
0
220
0
230
1
0
LINE
5
D2
100
AcDbEntity
8
1
62
256
6
ByLayer
370
18
48
1
60
0
100
AcDbLine
10
19.925
20
27.827232
30
0
11
19.925
21
21.08584
31
0
39
0
210
0
220
0
230
1
0
LINE
5
D3
100
AcDbEntity
8
1
62
256
6
ByLayer
370
18
48
1
60
0
100
AcDbLine
10
57.2
20
7.778175
30
0
11
57.2
21
3.478175
31
0
39
0
210
0
220
0
230
1
0
LINE
5
D4
100
AcDbEntity
8
1
62
256
6
ByLayer
370
18
48
1
60
0
100
AcDbLine
10
57.2
20
12.078175
30
0
11
57.2
21
7.778175
31
0
39
0
210
0
220
0
230
1
0
LINE
5
D5
100
AcDbEntity
8
1
62
256
6
ByLayer
370
13
48
1
60
0
100
AcDbLine
10
55.081908
20
-7.778175
30
0
11
55.081908
21
-10.830523
31
0
39
0
210
0
220
0
230
1
0
LINE
5
D6
100
AcDbEntity
8
1
62
256
6
ByLayer
370
13
48
1
60
0
100
AcDbLine
10
55.081908
20
-4.725826
30
0
11
55.081908
21
-7.778175
31
0
39
0
210
0
220
0
230
1
0
LINE
5
D7
100
AcDbEntity
8
1
62
256
6
ByLayer
370
18
48
1
60
0
100
AcDbLine
10
57.3
20
7.778175
30
0
11
57.3
21
3.478175
31
0
39
0
210
0
220
0
230
1
0
LINE
5
D8
100
AcDbEntity
8
1
62
256
6
ByLayer
370
18
48
1
60
0
100
AcDbLine
10
57.3
20
12.078175
30
0
11
57.3
21
7.778175
31
0
39
0
210
0
220
0
230
1
0
LINE
5
D9
100
AcDbEntity
8
1
62
256
6
ByLayer
370
18
48
1
60
0
100
AcDbLine
10
57.2
20
-7.778175
30
0
11
57.2
21
-12.078175
31
0
39
0
210
0
220
0
230
1
0
LINE
5
DA
100
AcDbEntity
8
1
62
256
6
ByLayer
370
18
48
1
60
0
100
AcDbLine
10
57.2
20
-3.478175
30
0
11
57.2
21
-7.778175
31
0
39
0
210
0
220
0
230
1
0
LINE
5
DB
100
AcDbEntity
8
1
62
256
6
ByLayer
370
13
48
1
60
0
100
AcDbLine
10
55.081908
20
7.778175
30
0
11
55.081908
21
4.725826
31
0
39
0
210
0
220
0
230
1
0
LINE
5
DC
100
AcDbEntity
8
1
62
256
6
ByLayer
370
13
48
1
60
0
100
AcDbLine
10
55.081908
20
10.830523
30
0
11
55.081908
21
7.778175
31
0
39
0
210
0
220
0
230
1
0
LINE
5
DD
100
AcDbEntity
8
1
62
256
6
ByLayer
370
18
48
1
60
0
100
AcDbLine
10
57.3
20
-7.778175
30
0
11
57.3
21
-12.078175
31
0
39
0
210
0
220
0
230
1
0
LINE
5
DE
100
AcDbEntity
8
1
62
256
6
ByLayer
370
18
48
1
60
0
100
AcDbLine
10
57.3
20
-3.478175
30
0
11
57.3
21
-7.778175
31
0
39
0
210
0
220
0
230
1
0
LINE
5
DF
100
AcDbEntity
8
SK2
62
256
6
ByLayer
370
13
48
1
60
0
100
AcDbLine
10
-31.9
20
69.57
30
0
11
0
21
69.57
31
0
39
0
210
0
220
0
230
1
0
LINE
5
E0
100
AcDbEntity
8
SK2
62
256
6
ByLayer
370
13
48
1
60
0
100
AcDbLine
10
0
20
33.0875
30
0
11
0
21
71.57
31
0
39
0
210
0
220
0
230
1
0
LINE
5
E1
100
AcDbEntity
8
SK2
62
256
6
ByLayer
370
13
48
1
60
0
100
AcDbLine
10
-31.9
20
24.3875
30
0
11
-31.9
21
71.57
31
0
39
0
210
0
220
0
230
1
0
LINE
5
E2
100
AcDbEntity
8
1
62
256
6
ByLayer
370
18
48
1
60
1
100
AcDbLine
10
0
20
69.57
30
0
11
-4.499996
21
68.572374
31
0
39
0
210
0
220
0
230
1
0
LINE
5
E3
100
AcDbEntity
8
1
62
256
6
ByLayer
370
18
48
1
60
1
100
AcDbLine
10
-4.499996
20
68.572374
30
0
11
-4.500004
21
70.567626
31
0
39
0
210
0
220
0
230
1
0
LINE
5
E4
100
AcDbEntity
8
1
62
256
6
ByLayer
370
18
48
1
60
1
100
AcDbLine
10
-4.500004
20
70.567626
30
0
11
0
21
69.57
31
0
39
0
210
0
220
0
230
1
0
LINE
5
E5
100
AcDbEntity
8
1
62
256
6
ByLayer
370
18
48
1
60
1
100
AcDbLine
10
-31.9
20
69.57
30
0
11
-27.400004
21
70.567626
31
0
39
0
210
0
220
0
230
1
0
LINE
5
E6
100
AcDbEntity
8
1
62
256
6
ByLayer
370
18
48
1
60
1
100
AcDbLine
10
-27.400004
20
70.567626
30
0
11
-27.399996
21
68.572374
31
0
39
0
210
0
220
0
230
1
0
LINE
5
E7
100
AcDbEntity
8
1
62
256
6
ByLayer
370
18
48
1
60
1
100
AcDbLine
10
-27.399996
20
68.572374
30
0
11
-31.9
21
69.57
31
0
39
0
210
0
220
0
230
1
0
LINE
5
E8
100
AcDbEntity
8
2
62
256
6
ByLayer
370
13
48
1
60
0
100
AcDbLine
10
0
20
69.57
30
0
11
55
21
69.57
31
0
39
0
210
0
220
0
230
1
0
LINE
5
EA
100
AcDbEntity
8
2
62
256
6
ByLayer
370
13
48
1
60
0
100
AcDbLine
10
55
20
6.5875
30
0
11
55
21
71.57
31
0
39
0
210
0
220
0
230
1
0
LINE
5
EB
100
AcDbEntity
8
2
62
256
6
ByLayer
370
13
48
1
60
0
100
AcDbLine
10
0
20
33.0875
30
0
11
0
21
71.57
31
0
39
0
210
0
220
0
230
1
0
LINE
5
EC
100
AcDbEntity
8
1
62
256
6
ByLayer
370
18
48
1
60
1
100
AcDbLine
10
55
20
69.57
30
0
11
50.500004
21
68.572374
31
0
39
0
210
0
220
0
230
1
0
LINE
5
ED
100
AcDbEntity
8
1
62
256
6
ByLayer
370
18
48
1
60
1
100
AcDbLine
10
50.500004
20
68.572374
30
0
11
50.499996
21
70.567626
31
0
39
0
210
0
220
0
230
1
0
LINE
5
EE
100
AcDbEntity
8
1
62
256
6
ByLayer
370
18
48
1
60
1
100
AcDbLine
10
50.499996
20
70.567626
30
0
11
55
21
69.57
31
0
39
0
210
0
220
0
230
1
0
LINE
5
EF
100
AcDbEntity
8
1
62
256
6
ByLayer
370
18
48
1
60
1
100
AcDbLine
10
0
20
69.57
30
0
11
4.499996
21
70.567626
31
0
39
0
210
0
220
0
230
1
0
LINE
5
F0
100
AcDbEntity
8
1
62
256
6
ByLayer
370
18
48
1
60
1
100
AcDbLine
10
4.499996
20
70.567626
30
0
11
4.500004
21
68.572374
31
0
39
0
210
0
220
0
230
1
0
LINE
5
F1
100
AcDbEntity
8
1
62
256
6
ByLayer
370
18
48
1
60
1
100
AcDbLine
10
4.500004
20
68.572374
30
0
11
0
21
69.57
31
0
39
0
210
0
220
0
230
1
0
LINE
5
F2
100
AcDbEntity
8
SK2
62
256
6
ByLayer
370
13
48
1
60
0
100
AcDbLine
10
25.95
20
57.57
30
0
11
0
21
57.57
31
0
39
0
210
0
220
0
230
1
0
LINE
5
F3
100
AcDbEntity
8
SK2
62
256
6
ByLayer
370
13
48
1
60
0
100
AcDbLine
10
0
20
33.0875
30
0
11
0
21
59.57
31
0
39
0
210
0
220
0
230
1
0
LINE
5
F4
100
AcDbEntity
8
SK2
62
256
6
ByLayer
370
13
48
1
60
0
100
AcDbLine
10
25.95
20
33.0875
30
0
11
25.95
21
59.57
31
0
39
0
210
0
220
0
230
1
0
LINE
5
F5
100
AcDbEntity
8
1
62
256
6
ByLayer
370
18
48
1
60
1
100
AcDbLine
10
0
20
57.57
30
0
11
4.499996
21
58.567626
31
0
39
0
210
0
220
0
230
1
0
LINE
5
F6
100
AcDbEntity
8
1
62
256
6
ByLayer
370
18
48
1
60
1
100
AcDbLine
10
4.499996
20
58.567626
30
0
11
4.500004
21
56.572374
31
0
39
0
210
0
220
0
230
1
0
LINE
5
F7
100
AcDbEntity
8
1
62
256
6
ByLayer
370
18
48
1
60
1
100
AcDbLine
10
4.500004
20
56.572374
30
0
11
0
21
57.57
31
0
39
0
210
0
220
0
230
1
0
LINE
5
F8
100
AcDbEntity
8
1
62
256
6
ByLayer
370
18
48
1
60
1
100
AcDbLine
10
25.95
20
57.57
30
0
11
21.450004
21
56.572374
31
0
39
0
210
0
220
0
230
1
0
LINE
5
F9
100
AcDbEntity
8
1
62
256
6
ByLayer
370
18
48
1
60
1
100
AcDbLine
10
21.450004
20
56.572374
30
0
11
21.449996
21
58.567626
31
0
39
0
210
0
220
0
230
1
0
LINE
5
FA
100
AcDbEntity
8
1
62
256
6
ByLayer
370
18
48
1
60
1
100
AcDbLine
10
21.449996
20
58.567626
30
0
11
25.95
21
57.57
31
0
39
0
210
0
220
0
230
1
0
LINE
5
130
100
AcDbEntity
8
1
62
256
6
ByLayer
370
18
48
1
60
1
100
AcDbLine
10
0
20
69.57
30
0
11
-4.499996
21
68.572374
31
0
39
0
210
0
220
0
230
1
0
LINE
5
131
100
AcDbEntity
8
1
62
256
6
ByLayer
370
18
48
1
60
1
100
AcDbLine
10
-4.499996
20
68.572374
30
0
11
-4.500004
21
70.567626
31
0
39
0
210
0
220
0
230
1
0
LINE
5
132
100
AcDbEntity
8
1
62
256
6
ByLayer
370
18
48
1
60
1
100
AcDbLine
10
-4.500004
20
70.567626
30
0
11
0
21
69.57
31
0
39
0
210
0
220
0
230
1
0
LINE
5
134
100
AcDbEntity
8
1
62
256
6
ByLayer
370
18
48
1
60
1
100
AcDbLine
10
-31.9
20
69.57
30
0
11
-27.400004
21
70.567626
31
0
39
0
210
0
220
0
230
1
0
LINE
5
135
100
AcDbEntity
8
1
62
256
6
ByLayer
370
18
48
1
60
1
100
AcDbLine
10
-27.400004
20
70.567626
30
0
11
-27.399996
21
68.572374
31
0
39
0
210
0
220
0
230
1
0
LINE
5
136
100
AcDbEntity
8
1
62
256
6
ByLayer
370
18
48
1
60
1
100
AcDbLine
10
-27.399996
20
68.572374
30
0
11
-31.9
21
69.57
31
0
39
0
210
0
220
0
230
1
0
LINE
5
139
100
AcDbEntity
8
1
62
256
6
ByLayer
370
18
48
1
60
1
100
AcDbLine
10
55
20
69.57
30
0
11
50.500004
21
68.572374
31
0
39
0
210
0
220
0
230
1
0
LINE
5
13A
100
AcDbEntity
8
1
62
256
6
ByLayer
370
18
48
1
60
1
100
AcDbLine
10
50.500004
20
68.572374
30
0
11
50.499996
21
70.567626
31
0
39
0
210
0
220
0
230
1
0
LINE
5
13B
100
AcDbEntity
8
1
62
256
6
ByLayer
370
18
48
1
60
1
100
AcDbLine
10
50.499996
20
70.567626
30
0
11
55
21
69.57
31
0
39
0
210
0
220
0
230
1
0
LINE
5
13D
100
AcDbEntity
8
1
62
256
6
ByLayer
370
18
48
1
60
1
100
AcDbLine
10
0
20
69.57
30
0
11
4.499996
21
70.567626
31
0
39
0
210
0
220
0
230
1
0
LINE
5
13E
100
AcDbEntity
8
1
62
256
6
ByLayer
370
18
48
1
60
1
100
AcDbLine
10
4.499996
20
70.567626
30
0
11
4.500004
21
68.572374
31
0
39
0
210
0
220
0
230
1
0
LINE
5
13F
100
AcDbEntity
8
1
62
256
6
ByLayer
370
18
48
1
60
1
100
AcDbLine
10
4.500004
20
68.572374
30
0
11
0
21
69.57
31
0
39
0
210
0
220
0
230
1
0
LINE
5
142
100
AcDbEntity
8
1
62
256
6
ByLayer
370
18
48
1
60
1
100
AcDbLine
10
0
20
57.57
30
0
11
4.499996
21
58.567626
31
0
39
0
210
0
220
0
230
1
0
LINE
5
143
100
AcDbEntity
8
1
62
256
6
ByLayer
370
18
48
1
60
1
100
AcDbLine
10
4.499996
20
58.567626
30
0
11
4.500004
21
56.572374
31
0
39
0
210
0
220
0
230
1
0
LINE
5
144
100
AcDbEntity
8
1
62
256
6
ByLayer
370
18
48
1
60
1
100
AcDbLine
10
4.500004
20
56.572374
30
0
11
0
21
57.57
31
0
39
0
210
0
220
0
230
1
0
LINE
5
146
100
AcDbEntity
8
1
62
256
6
ByLayer
370
18
48
1
60
1
100
AcDbLine
10
25.95
20
57.57
30
0
11
21.450004
21
56.572374
31
0
39
0
210
0
220
0
230
1
0
LINE
5
147
100
AcDbEntity
8
1
62
256
6
ByLayer
370
18
48
1
60
1
100
AcDbLine
10
21.450004
20
56.572374
30
0
11
21.449996
21
58.567626
31
0
39
0
210
0
220
0
230
1
0
LINE
5
148
100
AcDbEntity
8
1
62
256
6
ByLayer
370
18
48
1
60
1
100
AcDbLine
10
21.449996
20
58.567626
30
0
11
25.95
21
57.57
31
0
39
0
210
0
220
0
230
1
0
MTEXT
5
12B
100
AcDbEntity
8
SK6
62
256
6
ByLayer
370
18
48
1
60
0
100
AcDbMText
10
-12.325
20
-71.125
30
0
210
0
220
0
230
1
1
\W0.7493;HA06-X10-032-055
40
4.5
41
0
44
1.084337
50
0
71
7
72
5
7
iso_b_vert
0
MTEXT
5
12F
100
AcDbEntity
8
SK2
62
256
6
ByLayer
370
18
48
1
60
0
100
AcDbMText
10
-17.453947
20
70.695
30
0
210
0
220
0
230
1
1
\W0.6740;32
40
4.5
41
0
44
1.084337
50
0
71
7
72
5
7
iso_b_vert
0
MTEXT
5
138
100
AcDbEntity
8
2
62
256
6
ByLayer
370
18
48
1
60
0
100
AcDbMText
10
25.996053
20
70.695
30
0
210
0
220
0
230
1
1
\W0.6740;55
40
4.5
41
0
44
1.084337
50
0
71
7
72
5
7
iso_b_vert
0
MTEXT
5
141
100
AcDbEntity
8
SK2
62
256
6
ByLayer
370
18
48
1
60
0
100
AcDbMText
10
11.471053
20
58.695
30
0
210
0
220
0
230
1
1
\W0.6740;26
40
4.5
41
0
44
1.084337
50
0
71
7
72
5
7
iso_b_vert
0
HATCH
5
133
100
AcDbEntity
8
SK2
62
256
6
ByLayer
370
13
48
1
60
0
100
AcDbHatch
10
0
20
0
30
0
210
0
220
0
230
1
2
ANSI31
70
0
71
0
91
1
92
5
93
3
72
1
10
0
20
69.57
11
-4.49999633551516
21
68.5723740181135
72
1
10
-4.49999633551516
20
68.5723740181135
11
-4.50000366448484
21
70.5676259818865
72
1
10
-4.50000366448484
20
70.5676259818865
11
0
21
69.57
97
0
75
0
76
1
52
0
41
0.02
77
0
78
1
53
44.9999999999999
43
0
44
0
45
-0.0449012806053457
46
0.0449012806053459
79
0
47
0
98
1
10
0
20
0
0
HATCH
5
137
100
AcDbEntity
8
SK2
62
256
6
ByLayer
370
13
48
1
60
0
100
AcDbHatch
10
0
20
0
30
0
210
0
220
0
230
1
2
ANSI31
70
0
71
0
91
1
92
5
93
3
72
1
10
-31.9
20
69.57
11
-27.4000036644848
21
70.5676259818865
72
1
10
-27.4000036644848
20
70.5676259818865
11
-27.3999963355152
21
68.5723740181135
72
1
10
-27.3999963355152
20
68.5723740181135
11
-31.9
21
69.57
97
0
75
0
76
1
52
0
41
0.02
77
0
78
1
53
44.9999999999999
43
0
44
0
45
-0.0449012806053457
46
0.0449012806053459
79
0
47
0
98
1
10
0
20
0
0
HATCH
5
13C
100
AcDbEntity
8
2
62
256
6
ByLayer
370
13
48
1
60
0
100
AcDbHatch
10
0
20
0
30
0
210
0
220
0
230
1
2
ANSI31
70
0
71
0
91
1
92
5
93
3
72
1
10
55
20
69.57
11
50.5000036644848
21
68.5723740181135
72
1
10
50.5000036644848
20
68.5723740181135
11
50.4999963355152
21
70.5676259818865
72
1
10
50.4999963355152
20
70.5676259818865
11
55
21
69.57
97
0
75
0
76
1
52
0
41
0.02
77
0
78
1
53
44.9999999999999
43
0
44
0
45
-0.0449012806053457
46
0.0449012806053459
79
0
47
0
98
1
10
0
20
0
0
HATCH
5
140
100
AcDbEntity
8
2
62
256
6
ByLayer
370
13
48
1
60
0
100
AcDbHatch
10
0
20
0
30
0
210
0
220
0
230
1
2
ANSI31
70
0
71
0
91
1
92
5
93
3
72
1
10
0
20
69.57
11
4.49999633551516
21
70.5676259818865
72
1
10
4.49999633551516
20
70.5676259818865
11
4.50000366448484
21
68.5723740181135
72
1
10
4.50000366448484
20
68.5723740181135
11
0
21
69.57
97
0
75
0
76
1
52
0
41
0.02
77
0
78
1
53
44.9999999999999
43
0
44
0
45
-0.0449012806053457
46
0.0449012806053459
79
0
47
0
98
1
10
0
20
0
0
HATCH
5
145
100
AcDbEntity
8
SK2
62
256
6
ByLayer
370
13
48
1
60
0
100
AcDbHatch
10
0
20
0
30
0
210
0
220
0
230
1
2
ANSI31
70
0
71
0
91
1
92
5
93
3
72
1
10
0
20
57.57
11
4.49999633551516
21
58.5676259818865
72
1
10
4.49999633551516
20
58.5676259818865
11
4.50000366448484
21
56.5723740181135
72
1
10
4.50000366448484
20
56.5723740181135
11
0
21
57.57
97
0
75
0
76
1
52
0
41
0.02
77
0
78
1
53
44.9999999999999
43
0
44
0
45
-0.0449012806053457
46
0.0449012806053459
79
0
47
0
98
1
10
0
20
0
0
HATCH
5
149
100
AcDbEntity
8
SK2
62
256
6
ByLayer
370
13
48
1
60
0
100
AcDbHatch
10
0
20
0
30
0
210
0
220
0
230
1
2
ANSI31
70
0
71
0
91
1
92
5
93
3
72
1
10
25.95
20
57.57
11
21.4500036644849
21
56.5723740181135
72
1
10
21.4500036644849
20
56.5723740181135
11
21.4499963355152
21
58.5676259818865
72
1
10
21.4499963355152
20
58.5676259818865
11
25.95
21
57.57
97
0
75
0
76
1
52
0
41
0.02
77
0
78
1
53
44.9999999999999
43
0
44
0
45
-0.0449012806053457
46
0.0449012806053459
79
0
47
0
98
1
10
0
20
0
0
DIMENSION
5
154
100
AcDbEntity
8
SK2
62
256
6
ByLayer
370
13
48
1
60
0
100
AcDbDimension
2
DimnDraft3D1
10
80.6
20
-5
30
0
11
75.225
21
-20.251316
31
0
70
33
71
5
72
1
41
1
210
0
220
0
230
1
3
Standard
100
AcDbAlignedDimension
13
58.9875
23
5
33
0
14
58.9875
24
-5
34
0
1001
ACAD
1000
DSTYLE
1002
{
1070
   279
1070
     0
1070
    74
1070
     0
1070
   173
1070
     1
1070
   340
1005
12C
1070
   271
1070
     1
1070
   272
1070
     2
1070
    77
1070
     1
1070
    73
1070
     0
1070
   171
1070
     3
1070
   274
1070
     4
1070
   177
1070
     2
1070
   176
1070
     2
1070
   178
1070
     2
1070
    78
1070
     8
1070
    48
1040
-0.005
1070
    41
1041
4.5
1070
   147
1041
2.25
1070
    42
1041
1.5875
1070
    44
1041
2.0
1070
   140
1041
4.5
1070
   343
1005
0
1070
   344
1005
0
1002
}
0
DIMENSION
5
15E
100
AcDbEntity
8
SK2
62
256
6
ByLayer
370
13
48
1
60
0
100
AcDbDimension
2
DimnDraft3D2
10
55
20
45.57
30
0
11
36.563158
21
45.57
31
0
70
32
71
5
72
1
41
1
210
0
220
0
230
1
3
Standard
100
AcDbAlignedDimension
13
57.4
23
6.5875
33
0
14
55
24
17.5875
34
0
50
0
100
AcDbRotatedDimension
1001
ACAD
1000
DSTYLE
1002
{
1070
   279
1070
     0
1070
   172
1070
     1
1070
   173
1070
     1
1070
   340
1005
12C
1070
   271
1070
     1
1070
   272
1070
     2
1070
    77
1070
     1
1070
    73
1070
     0
1070
   171
1070
     3
1070
   274
1070
     4
1070
   177
1070
     2
1070
   176
1070
     2
1070
   178
1070
     2
1070
    78
1070
     8
1070
    48
1040
-0.005
1070
    41
1041
4.5
1070
   147
1041
2.25
1070
    42
1041
1.5875
1070
    44
1041
2.0
1070
   140
1041
4.5
1070
   343
1005
0
1070
   344
1005
0
1002
}
0
DIMENSION
5
169
100
AcDbEntity
8
SK2
62
256
6
ByLayer
370
13
48
1
60
0
100
AcDbDimension
2
DimnDraft3D3
10
-58
20
31.5
30
0
11
-59.375
21
1.811842
31
0
70
33
71
5
72
1
41
1
210
0
220
0
230
1
3
Standard
100
AcDbAlignedDimension
13
-1.5875
23
-31.5
33
0
14
-1.5875
24
31.5
34
0
1001
ACAD
1000
DSTYLE
1002
{
1070
   279
1070
     0
1070
    74
1070
     0
1070
   173
1070
     1
1070
   340
1005
12C
1070
   271
1070
     0
1070
   272
1070
     2
1070
    77
1070
     1
1070
    73
1070
     0
1070
   171
1070
     3
1070
   274
1070
     4
1070
   177
1070
     2
1070
   176
1070
     2
1070
   178
1070
     2
1070
    78
1070
     8
1070
    48
1040
-0.005
1070
    41
1041
4.5
1070
   147
1041
2.25
1070
    42
1041
1.5875
1070
    44
1041
2.0
1070
   140
1041
4.5
1070
   343
1005
0
1070
   344
1005
0
1002
}
0
DIMENSION
5
174
100
AcDbEntity
8
SK2
62
256
6
ByLayer
370
13
48
1
60
0
100
AcDbDimension
2
DimnDraft3D4
10
95.6
20
16
30
0
11
90.225
21
1.811842
31
0
70
33
71
5
72
1
41
1
210
0
220
0
230
1
3
Standard
100
AcDbAlignedDimension
13
56.5875
23
-16
33
0
14
56.5875
24
16
34
0
1001
ACAD
1000
DSTYLE
1002
{
1070
   279
1070
     0
1070
    74
1070
     0
1070
   173
1070
     1
1070
   340
1005
12C
1070
   271
1070
     1
1070
   272
1070
     2
1070
    77
1070
     1
1070
    73
1070
     0
1070
   171
1070
     3
1070
   274
1070
     4
1070
   177
1070
     2
1070
   176
1070
     2
1070
   178
1070
     2
1070
    78
1070
     8
1070
    48
1040
-0.005
1070
    41
1041
4.5
1070
   147
1041
2.25
1070
    42
1041
1.5875
1070
    44
1041
2.0
1070
   140
1041
4.5
1070
   343
1005
0
1070
   344
1005
0
1002
}
0
ENDSEC
0
SECTION
2
OBJECTS
0
DICTIONARY
5
1df
330
0
100
AcDbDictionary
280
0
281
1
3
ACAD_GROUP
350
1e0
3
ACAD_MLINESTYLE
350
1e1
0
DICTIONARY
5
1e0
330
0
100
AcDbDictionary
280
0
281
1
0
DICTIONARY
5
1e1
330
0
100
AcDbDictionary
280
0
281
1
3
Standard
350
18
0
MLINESTYLE
5
18
330
1e1
100
AcDbMlineStyle
2
Standard
70
0
3

62
256
51
90
52
90
71
2
49
-0.5
62
256
6
ByLayer
49
0.5
62
256
6
ByLayer
0
RASTERVARIABLES
5
1cd
330

100
AcDbRasterVariables
90
0
70
1
71
1
72
1
0
ENDSEC
0
EOF
