0
SECTION
2
HEADER
9
$ACADVER
1
AC1015
9
$DWGCODEPAGE
3
ANSI_1252
9
$HANDSEED
5
1ea
9
$ANGBASE
50
0
9
$ANGDIR
70
0
9
$ATTMODE
70
1
9
$AUNITS
70
0
9
$AUPREC
70
0
9
$CECOLOR
62
256
9
$CELTSCALE
40
1
9
$CELTYPE
6
ByLayer
9
$CELWEIGHT
370
18
9
$CLAYER
8
0
9
$CMLJUST
70
0
9
$CMLSCALE
40
1
9
$CMLSTYLE
2
Standard
9
$DIMSTYLE
2
Standard
9
$TEXTSIZE
40
0.2
9
$TEXTSTYLE
7
Standard
9
$LUNITS
70
2
9
$LUPREC
70
4
9
$EXTNAMES
290
1
9
$INSUNITS
70
4
9
$LTSCALE
40
1
9
$LWDISPLAY
290
1
9
$PDMODE
70
0
9
$PDSIZE
40
0
9
$PLINEGEN
70
0
0
ENDSEC
0
SECTION
2
CLASSES
0
CLASS
1
RASTERVARIABLES
2
AcDbRasterVariables
3
ISM
90
0
280
0
281
0
0
ENDSEC
0
SECTION
2
TABLES
0
TABLE
2
VPORT
5
1e0
100
AcDbSymbolTable
0
VPORT
5
1
100
AcDbSymbolTableRecord
100
AcDbViewportTableRecord
2
*Active
70
0
10
0
20
0
11
1
21
1
12
-1
22
1
13
0
23
0
14
0.5
24
0.5
15
10
25
10
16
0
26
0
36
1
17
0
27
0
37
0
0
ENDTAB
0
TABLE
2
LTYPE
5
1e1
100
AcDbSymbolTable
0
LTYPE
5
14
100
AcDbSymbolTableRecord
100
AcDbLinetypeTableRecord
70
0
2
ByBlock
3

72
65
73
0
40
0
0
LTYPE
5
15
100
AcDbSymbolTableRecord
100
AcDbLinetypeTableRecord
70
0
2
ByLayer
3

72
65
73
0
40
0
0
LTYPE
5
16
100
AcDbSymbolTableRecord
100
AcDbLinetypeTableRecord
70
0
2
CONTINUOUS
3
Solid line
72
65
73
0
40
0
0
LTYPE
5
6A
100
AcDbSymbolTableRecord
100
AcDbLinetypeTableRecord
70
0
2
CENTER
3
____ _ ____ _ ____ _ ____
72
65
73
4
40
47.5
49
22
74
0
49
-8.5
74
0
49
8.5
74
0
49
-8.5
74
0
0
LTYPE
5
6B
100
AcDbSymbolTableRecord
100
AcDbLinetypeTableRecord
70
0
2
DASHED
3
__ __ __ __ __ __ __ __ __
72
65
73
2
40
25.72
49
12.86
74
0
49
-12.86
74
0
0
ENDTAB
0
TABLE
2
LAYER
5
1e2
100
AcDbSymbolTable
0
LAYER
5
10
100
AcDbSymbolTableRecord
100
AcDbLayerTableRecord
2
0
70
0
62
7
6
CONTINUOUS
290
1
370
-3
390
0
0
LAYER
5
6D
100
AcDbSymbolTableRecord
100
AcDbLayerTableRecord
2
80
70
0
62
-6
6
CONTINUOUS
290
1
370
-3
390
0
0
LAYER
5
6F
100
AcDbSymbolTableRecord
100
AcDbLayerTableRecord
2
81
70
0
62
-3
6
CONTINUOUS
290
1
370
-3
390
0
0
LAYER
5
72
100
AcDbSymbolTableRecord
100
AcDbLayerTableRecord
2
4
70
0
62
-2
6
CENTER
290
1
370
-3
390
0
0
LAYER
5
7C
100
AcDbSymbolTableRecord
100
AcDbLayerTableRecord
2
1
70
0
62
4
6
CONTINUOUS
290
1
370
-3
390
0
0
LAYER
5
13E
100
AcDbSymbolTableRecord
100
AcDbLayerTableRecord
2
2
70
0
62
7
6
CONTINUOUS
290
1
370
-3
390
0
0
LAYER
5
1cc
100
AcDbSymbolTableRecord
100
AcDbLayerTableRecord
2
SK4
70
0
62
2
6
CENTER
290
1
370
-3
390
0
0
LAYER
5
1cd
100
AcDbSymbolTableRecord
100
AcDbLayerTableRecord
2
SK1
70
0
62
4
6
CONTINUOUS
290
1
370
-3
390
0
0
LAYER
5
1ce
100
AcDbSymbolTableRecord
100
AcDbLayerTableRecord
2
SK6
70
0
62
5
6
CONTINUOUS
290
1
370
-3
390
0
0
LAYER
5
1cf
100
AcDbSymbolTableRecord
100
AcDbLayerTableRecord
2
SK2
70
0
62
7
6
CONTINUOUS
290
1
370
-3
390
0
0
ENDTAB
0
TABLE
2
STYLE
5
1e3
100
AcDbSymbolTable
0
STYLE
5
11
100
AcDbSymbolTableRecord
100
AcDbTextStyleTableRecord
2
Standard
3
txt
70
0
71
0
40
0
41
1
42
0
50
0
0
STYLE
5
139
100
AcDbSymbolTableRecord
100
AcDbTextStyleTableRecord
2
iso_b_vert
3
simplex.shx
70
0
71
0
40
0
41
1
42
0
50
0
0
STYLE
5
13A
100
AcDbSymbolTableRecord
100
AcDbTextStyleTableRecord
2
DWGDirectTextStyle
3
simplex
70
0
71
0
40
0
41
1
42
0
50
0
0
ENDTAB
0
TABLE
2
DIMSTYLE
5
1e4
100
AcDbSymbolTable
100
AcDbDimStyleTable
0
DIMSTYLE
105
27
100
AcDbSymbolTableRecord
100
AcDbDimStyleTableRecord
2
Standard
70
0
3
<>
41
0.18
42
0.0625
44
0.18
140
0.18
147
0.09
73
0
74
0
77
1
271
2
275
0
278
52
280
0
340
11
0
ENDTAB
0
TABLE
2
VIEW
5
1e5
100
AcDbSymbolTable
0
ENDTAB
0
TABLE
2
UCS
5
1e6
100
AcDbSymbolTable
0
ENDTAB
0
TABLE
2
APPID
5
1e7
100
AcDbSymbolTable
0
APPID
5
12
100
AcDbSymbolTableRecord
100
AcDbRegAppTableRecord
2
ACAD
70
0
0
ENDTAB
0
TABLE
2
BLOCK_RECORD
5
1e8
100
AcDbSymbolTable
0
BLOCK_RECORD
5
1F
100
AcDbSymbolTableRecord
100
AcDbBlockTableRecord
2
*Model_Space
340
0
70
0
0
BLOCK_RECORD
5
1B
100
AcDbSymbolTableRecord
100
AcDbBlockTableRecord
2
*Paper_Space
340
0
70
0
0
BLOCK_RECORD
5
23
100
AcDbSymbolTableRecord
100
AcDbBlockTableRecord
2
*Paper_Space0
340
0
70
0
0
BLOCK_RECORD
5
13C
100
AcDbSymbolTableRecord
100
AcDbBlockTableRecord
2
DimnDraft3D1
340
0
70
0
0
BLOCK_RECORD
5
147
100
AcDbSymbolTableRecord
100
AcDbBlockTableRecord
2
DimnDraft3D2
340
0
70
0
0
BLOCK_RECORD
5
153
100
AcDbSymbolTableRecord
100
AcDbBlockTableRecord
2
DimnDraft3D3
340
0
70
0
0
BLOCK_RECORD
5
15E
100
AcDbSymbolTableRecord
100
AcDbBlockTableRecord
2
DimnDraft3D4
340
0
70
0
0
BLOCK_RECORD
5
169
100
AcDbSymbolTableRecord
100
AcDbBlockTableRecord
2
DimnDraft3D5
340
0
70
0
0
ENDTAB
0
ENDSEC
0
SECTION
2
BLOCKS
0
BLOCK
5
20
100
AcDbEntity
8
0
100
AcDbBlockBegin
2
*Model_Space
70
0
10
0
20
0
30
0
3
*Model_Space
0
ENDBLK
5
21
100
AcDbEntity
8
0
100
AcDbBlockEnd
0
BLOCK
5
1C
100
AcDbEntity
8
0
100
AcDbBlockBegin
2
*Paper_Space
70
0
10
0
20
0
30
0
3
*Paper_Space
0
ENDBLK
5
1D
100
AcDbEntity
8
0
100
AcDbBlockEnd
0
BLOCK
5
24
100
AcDbEntity
8
0
100
AcDbBlockBegin
2
*Paper_Space0
70
0
10
0
20
0
30
0
3
*Paper_Space0
0
ENDBLK
5
25
100
AcDbEntity
8
0
100
AcDbBlockEnd
0
BLOCK
5
144
100
AcDbEntity
8
0
100
AcDbBlockBegin
2
DimnDraft3D1
70
0
10
0
20
0
30
0
3
DimnDraft3D1
0
MTEXT
5
13D
100
AcDbEntity
8
2
62
256
6
ByLayer
370
13
48
1
60
0
100
AcDbMText
10
112.710658
20
59.460561
30
0
210
0
220
0
230
1
1
\W0.7138;230
40
3.175
41
0
44
1.084337
50
0
71
7
72
5
7
iso_b_vert
0
LINE
5
13F
100
AcDbEntity
8
2
62
256
6
ByLayer
370
13
48
1
60
0
100
AcDbLine
10
0
20
1.5875
30
0
11
0
21
61.841811
31
0
39
0
210
0
220
0
230
1
0
LINE
5
140
100
AcDbEntity
8
2
62
256
6
ByLayer
370
13
48
1
60
0
100
AcDbLine
10
230
20
1.5875
30
0
11
230
21
61.841811
31
0
39
0
210
0
220
0
230
1
0
LINE
5
141
100
AcDbEntity
8
2
62
256
6
ByLayer
370
13
48
1
60
0
100
AcDbLine
10
0
20
58.666811
30
0
11
230
21
58.666811
31
0
39
0
210
0
220
0
230
1
0
SOLID
5
142
100
AcDbEntity
8
2
62
256
6
ByLayer
370
13
48
1
60
0
100
AcDbTrace
10
0
20
58.666811
30
0
11
3.174998
21
59.084807
31
0
12
3.175002
22
58.248814
32
0
13
0
23
58.666811
33
0
39
0
210
0
220
0
230
1
0
SOLID
5
143
100
AcDbEntity
8
2
62
256
6
ByLayer
370
13
48
1
60
0
100
AcDbTrace
10
230
20
58.666811
30
0
11
226.825002
21
58.248814
31
0
12
226.824998
22
59.084807
32
0
13
230
23
58.666811
33
0
39
0
210
0
220
0
230
1
0
ENDBLK
5
145
100
AcDbEntity
8
0
100
AcDbBlockEnd
0
BLOCK
5
150
100
AcDbEntity
8
0
100
AcDbBlockBegin
2
DimnDraft3D2
70
0
10
0
20
0
30
0
3
DimnDraft3D2
0
MTEXT
5
148
100
AcDbEntity
8
SK2
62
256
6
ByLayer
370
13
48
1
60
0
100
AcDbMText
10
-48.419066
20
3.26273
30
0
210
0
220
0
230
1
1
\W0.6740;63
40
3.175
41
0
44
1.084337
50
90
71
7
72
5
7
iso_b_vert
0
MTEXT
5
14A
100
AcDbEntity
8
SK2
62
256
6
ByLayer
370
13
48
1
60
0
100
AcDbMText
10
-48.419066
20
-3.856215
30
0
210
0
220
0
230
1
1
%%c
40
3.175
41
0
44
1.084337
50
90
71
7
72
5
7
iso_b_vert
0
LINE
5
14B
100
AcDbEntity
8
SK2
62
256
6
ByLayer
370
13
48
1
60
0
100
AcDbLine
10
-1.5875
20
-31.5
30
0
11
-50.006566
21
-31.5
31
0
39
0
210
0
220
0
230
1
0
LINE
5
14C
100
AcDbEntity
8
SK2
62
256
6
ByLayer
370
13
48
1
60
0
100
AcDbLine
10
-1.5875
20
31.5
30
0
11
-50.006566
21
31.5
31
0
39
0
210
0
220
0
230
1
0
LINE
5
14D
100
AcDbEntity
8
SK2
62
256
6
ByLayer
370
13
48
1
60
0
100
AcDbLine
10
-46.831566
20
-31.5
30
0
11
-46.831566
21
31.5
31
0
39
0
210
0
220
0
230
1
0
SOLID
5
14E
100
AcDbEntity
8
SK2
62
256
6
ByLayer
370
13
48
1
60
0
100
AcDbTrace
10
-46.831566
20
-31.5
30
0
11
-47.249562
21
-28.325002
31
0
12
-46.413569
22
-28.324998
32
0
13
-46.831566
23
-31.5
33
0
39
0
210
0
220
0
230
1
0
SOLID
5
14F
100
AcDbEntity
8
SK2
62
256
6
ByLayer
370
13
48
1
60
0
100
AcDbTrace
10
-46.831566
20
31.5
30
0
11
-46.413569
21
28.325002
31
0
12
-47.249562
22
28.324998
32
0
13
-46.831566
23
31.5
33
0
39
0
210
0
220
0
230
1
0
ENDBLK
5
151
100
AcDbEntity
8
0
100
AcDbBlockEnd
0
BLOCK
5
15B
100
AcDbEntity
8
0
100
AcDbBlockBegin
2
DimnDraft3D3
70
0
10
0
20
0
30
0
3
DimnDraft3D3
0
MTEXT
5
154
100
AcDbEntity
8
SK2
62
256
6
ByLayer
370
13
48
1
60
0
100
AcDbMText
10
264.486659
20
3.659605
30
0
210
0
220
0
230
1
1
\W0.5321;16
40
3.175
41
0
44
1.084337
50
90
71
7
72
5
7
iso_b_vert
0
MTEXT
5
155
100
AcDbEntity
8
SK2
62
256
6
ByLayer
370
13
48
1
60
0
100
AcDbMText
10
264.486659
20
-3.45934
30
0
210
0
220
0
230
1
1
%%c
40
3.175
41
0
44
1.084337
50
90
71
7
72
5
7
iso_b_vert
0
LINE
5
156
100
AcDbEntity
8
SK2
62
256
6
ByLayer
370
13
48
1
60
0
100
AcDbLine
10
241.5875
20
-8
30
0
11
269.249159
21
-8
31
0
39
0
210
0
220
0
230
1
0
LINE
5
157
100
AcDbEntity
8
SK2
62
256
6
ByLayer
370
13
48
1
60
0
100
AcDbLine
10
241.5875
20
8
30
0
11
269.249159
21
8
31
0
39
0
210
0
220
0
230
1
0
LINE
5
158
100
AcDbEntity
8
SK2
62
256
6
ByLayer
370
13
48
1
60
0
100
AcDbLine
10
266.074159
20
-8
30
0
11
266.074159
21
8
31
0
39
0
210
0
220
0
230
1
0
SOLID
5
159
100
AcDbEntity
8
SK2
62
256
6
ByLayer
370
13
48
1
60
0
100
AcDbTrace
10
266.074159
20
-8
30
0
11
265.656163
21
-4.825002
31
0
12
266.492156
22
-4.824998
32
0
13
266.074159
23
-8
33
0
39
0
210
0
220
0
230
1
0
SOLID
5
15A
100
AcDbEntity
8
SK2
62
256
6
ByLayer
370
13
48
1
60
0
100
AcDbTrace
10
266.074159
20
8
30
0
11
266.492156
21
4.825002
31
0
12
265.656163
22
4.824998
32
0
13
266.074159
23
8
33
0
39
0
210
0
220
0
230
1
0
ENDBLK
5
15C
100
AcDbEntity
8
0
100
AcDbBlockEnd
0
BLOCK
5
166
100
AcDbEntity
8
0
100
AcDbBlockBegin
2
DimnDraft3D4
70
0
10
0
20
0
30
0
3
DimnDraft3D4
0
MTEXT
5
15F
100
AcDbEntity
8
SK2
62
256
6
ByLayer
370
13
48
1
60
0
100
AcDbMText
10
277.377961
20
3.26273
30
0
210
0
220
0
230
1
1
\W0.6740;38
40
3.175
41
0
44
1.084337
50
90
71
7
72
5
7
iso_b_vert
0
MTEXT
5
160
100
AcDbEntity
8
SK2
62
256
6
ByLayer
370
13
48
1
60
0
100
AcDbMText
10
277.377961
20
-3.856215
30
0
210
0
220
0
230
1
1
%%c
40
3.175
41
0
44
1.084337
50
90
71
7
72
5
7
iso_b_vert
0
LINE
5
161
100
AcDbEntity
8
SK2
62
256
6
ByLayer
370
13
48
1
60
0
100
AcDbLine
10
227.6875
20
-19
30
0
11
282.140461
21
-19
31
0
39
0
210
0
220
0
230
1
0
LINE
5
162
100
AcDbEntity
8
SK2
62
256
6
ByLayer
370
13
48
1
60
0
100
AcDbLine
10
227.6875
20
19
30
0
11
282.140461
21
19
31
0
39
0
210
0
220
0
230
1
0
LINE
5
163
100
AcDbEntity
8
SK2
62
256
6
ByLayer
370
13
48
1
60
0
100
AcDbLine
10
278.965461
20
-19
30
0
11
278.965461
21
19
31
0
39
0
210
0
220
0
230
1
0
SOLID
5
164
100
AcDbEntity
8
SK2
62
256
6
ByLayer
370
13
48
1
60
0
100
AcDbTrace
10
278.965461
20
-19
30
0
11
278.547464
21
-15.825002
31
0
12
279.383458
22
-15.824998
32
0
13
278.965461
23
-19
33
0
39
0
210
0
220
0
230
1
0
SOLID
5
165
100
AcDbEntity
8
SK2
62
256
6
ByLayer
370
13
48
1
60
0
100
AcDbTrace
10
278.965461
20
19
30
0
11
279.383458
21
15.825002
31
0
12
278.547464
22
15.824998
32
0
13
278.965461
23
19
33
0
39
0
210
0
220
0
230
1
0
ENDBLK
5
167
100
AcDbEntity
8
0
100
AcDbBlockEnd
0
BLOCK
5
170
100
AcDbEntity
8
0
100
AcDbBlockBegin
2
DimnDraft3D5
70
0
10
0
20
0
30
0
3
DimnDraft3D5
0
MTEXT
5
16A
100
AcDbEntity
8
SK2
62
256
6
ByLayer
370
13
48
1
60
0
100
AcDbMText
10
127.607533
20
49.75766
30
0
210
0
220
0
230
1
1
\W0.6949;201
40
3.175
41
0
44
1.084337
50
0
71
7
72
5
7
iso_b_vert
0
LINE
5
16B
100
AcDbEntity
8
SK2
62
256
6
ByLayer
370
13
48
1
60
0
100
AcDbLine
10
29
20
20.5875
30
0
11
29
21
52.13891
31
0
39
0
210
0
220
0
230
1
0
LINE
5
16C
100
AcDbEntity
8
SK2
62
256
6
ByLayer
370
13
48
1
60
0
100
AcDbLine
10
230
20
1.5875
30
0
11
230
21
52.13891
31
0
39
0
210
0
220
0
230
1
0
LINE
5
16D
100
AcDbEntity
8
SK2
62
256
6
ByLayer
370
13
48
1
60
0
100
AcDbLine
10
29
20
48.96391
30
0
11
230
21
48.96391
31
0
39
0
210
0
220
0
230
1
0
SOLID
5
16E
100
AcDbEntity
8
SK2
62
256
6
ByLayer
370
13
48
1
60
0
100
AcDbTrace
10
29
20
48.96391
30
0
11
32.174998
21
49.381907
31
0
12
32.175002
22
48.545913
32
0
13
29
23
48.96391
33
0
39
0
210
0
220
0
230
1
0
SOLID
5
16F
100
AcDbEntity
8
SK2
62
256
6
ByLayer
370
13
48
1
60
0
100
AcDbTrace
10
230
20
48.96391
30
0
11
226.825002
21
48.545913
31
0
12
226.824998
22
49.381907
32
0
13
230
23
48.96391
33
0
39
0
210
0
220
0
230
1
0
ENDBLK
5
171
100
AcDbEntity
8
0
100
AcDbBlockEnd
0
ENDSEC
0
SECTION
2
ENTITIES
0
ARC
5
101
100
AcDbEntity
8
SK1
62
256
6
ByLayer
370
18
48
1
60
0
100
AcDbCircle
39
0
10
255.5
20
6
30
0
40
0.5
210
0
220
0
230
1
100
AcDbArc
50
0
51
90
0
ARC
5
102
100
AcDbEntity
8
SK1
62
256
6
ByLayer
370
18
48
1
60
0
100
AcDbCircle
39
0
10
255.5
20
-6
30
0
40
0.5
210
0
220
0
230
1
100
AcDbArc
50
270
51
0
0
ARC
5
103
100
AcDbEntity
8
SK1
62
256
6
ByLayer
370
18
48
1
60
0
100
AcDbCircle
39
0
10
0.5
20
24.620428
30
0
40
0.6
210
0
220
0
230
-1
100
AcDbArc
50
213.55731
51
270
0
ARC
5
104
100
AcDbEntity
8
SK1
62
256
6
ByLayer
370
18
48
1
60
0
100
AcDbCircle
39
0
10
0.5
20
-24.620428
30
0
40
0.6
210
0
220
0
230
-1
100
AcDbArc
50
90
51
146.44269
0
ARC
5
105
100
AcDbEntity
8
SK1
62
256
6
ByLayer
370
18
48
1
60
0
100
AcDbCircle
39
0
10
1.174598
20
24.620428
30
0
40
0.600000000000001
210
0
220
0
230
-1
100
AcDbArc
50
270
51
285
0
ARC
5
106
100
AcDbEntity
8
SK1
62
256
6
ByLayer
370
18
48
1
60
0
100
AcDbCircle
39
0
10
1.174598
20
-24.620428
30
0
40
0.600000000000001
210
0
220
0
230
-1
100
AcDbArc
50
75
51
90
0
ARC
5
107
100
AcDbEntity
8
1
62
256
6
ByLayer
370
18
48
1
60
0
100
AcDbCircle
39
0
10
-29
20
-22
30
0
40
3
210
0
220
0
230
-1
100
AcDbArc
50
0
51
90
0
ARC
5
108
100
AcDbEntity
8
1
62
256
6
ByLayer
370
18
48
1
60
0
100
AcDbCircle
39
0
10
-29
20
22
30
0
40
3
210
0
220
0
230
-1
100
AcDbArc
50
270
51
0
0
ARC
5
109
100
AcDbEntity
8
1
62
256
6
ByLayer
370
18
48
1
60
0
100
AcDbCircle
39
0
10
224.75
20
-18.7
30
0
40
0.3
210
0
220
0
230
1
100
AcDbArc
50
270
51
0
0
ARC
5
10A
100
AcDbEntity
8
1
62
256
6
ByLayer
370
18
48
1
60
0
100
AcDbCircle
39
0
10
224.75
20
18.7
30
0
40
0.3
210
0
220
0
230
1
100
AcDbArc
50
0
51
90
0
ARC
5
10B
100
AcDbEntity
8
SK1
62
256
6
ByLayer
370
18
48
1
60
0
100
AcDbCircle
39
0
10
23.5
20
-22.37
30
0
40
1.5
210
0
220
0
230
-1
100
AcDbArc
50
90
51
135.230986
0
ARC
5
10C
100
AcDbEntity
8
SK1
62
256
6
ByLayer
370
18
48
1
60
0
100
AcDbCircle
39
0
10
27.5
20
22.37
30
0
40
1.5
210
0
220
0
230
-1
100
AcDbArc
50
239.405682
51
243.134348
0
ARC
5
10D
100
AcDbEntity
8
SK1
62
256
6
ByLayer
370
18
48
1
60
0
100
AcDbCircle
39
0
10
27.5
20
22.37
30
0
40
1.5
210
0
220
0
230
-1
100
AcDbArc
50
243.134348
51
270
0
ARC
5
10E
100
AcDbEntity
8
SK1
62
256
6
ByLayer
370
18
48
1
60
0
100
AcDbCircle
39
0
10
-230.294161
20
8.3
30
0
40
0.600000000000001
210
0
220
0
230
-1
100
AcDbArc
50
270
51
288.880863
0
ARC
5
10F
100
AcDbEntity
8
SK1
62
256
6
ByLayer
370
18
48
1
60
0
100
AcDbCircle
39
0
10
-230.294161
20
-8.3
30
0
40
0.600000000000001
210
0
220
0
230
-1
100
AcDbArc
50
71.119137
51
90
0
ARC
5
110
100
AcDbEntity
8
SK1
62
256
6
ByLayer
370
18
48
1
60
0
100
AcDbCircle
39
0
10
-231.401393
20
8.3
30
0
40
0.6
210
0
220
0
230
-1
100
AcDbArc
50
255
51
270
0
ARC
5
111
100
AcDbEntity
8
SK1
62
256
6
ByLayer
370
18
48
1
60
0
100
AcDbCircle
39
0
10
-231.401393
20
-8.3
30
0
40
0.6
210
0
220
0
230
-1
100
AcDbArc
50
90
51
105
0
ELLIPSE
5
112
100
AcDbEntity
8
SK1
62
256
6
ByLayer
370
18
48
1
60
0
100
AcDbEllipse
10
-23.5
20
-21.892609
30
0
11
1.49999999998896
21
0
31
0
210
0
220
0
230
1
40
0.891007
41
1.18888513856637
42
1.5707963267949
0
POINT
5
6C
100
AcDbEntity
8
80
62
256
6
ByLayer
370
18
48
1
60
0
100
AcDbPoint
10
0
20
0
30
0
39
0
210
0
220
0
230
1
50
360
0
POINT
5
6E
100
AcDbEntity
8
81
62
256
6
ByLayer
370
18
48
1
60
0
100
AcDbPoint
10
230
20
0
30
0
39
0
210
0
220
0
230
1
50
360
0
SPLINE
5
113
100
AcDbEntity
8
1
62
256
6
ByLayer
370
18
48
1
60
0
100
AcDbSpline
70
4
71
3
72
26
73
22
40
0
40
0
40
0
40
0
40
0.009881513291087
40
0.0638445446333422
40
0.115056015474523
40
0.166268054332333
40
0.218941919295105
40
0.271616717246637
40
0.323333241559407
40
0.375050556895243
40
0.428189734704984
40
0.481329360181777
40
0.534466363831401
40
0.587603189465452
40
0.642266504632887
40
0.696928963298023
40
0.750286826810294
40
0.803643621265354
40
0.858637852849133
40
0.913631098224711
40
1
40
1
40
1
40
1
41
1
10
5.00000000000365
20
31.4999999999991
30
0
41
1
10
5.00002353143747
20
31.4999889108305
30
0
41
1
10
5.00224982854138
20
31.4993960117541
30
0
41
1
10
5.03015326502614
20
31.4923533132865
30
0
41
1
10
5.12284872108659
20
31.4689393259613
30
0
41
1
10
5.26609496596241
20
31.4333419343564
30
0
41
1
10
5.46271621438582
20
31.3854117008861
30
0
41
1
10
5.71074661288226
20
31.3266705356564
30
0
41
1
10
6.00589863911685
20
31.2591659774426
30
0
41
1
10
6.34770186417457
20
31.184302703586
30
0
41
1
10
6.73752114290472
20
31.1032753321106
30
0
41
1
10
7.17365328608697
20
31.0182058276066
30
0
41
1
10
7.65010393519442
20
30.932069051761
30
0
41
1
10
8.16834663880406
20
30.8463952530009
30
0
41
1
10
8.72662023052106
20
30.7636725109093
30
0
41
1
10
9.31718407346722
20
30.6870129421525
30
0
41
1
10
9.93019511952311
20
30.6194268584428
30
0
41
1
10
10.5670396898032
20
30.5618707169296
30
0
41
1
10
11.2289754924839
20
30.5161931570989
30
0
41
1
10
12.0420852024095
20
30.477852902526
30
0
41
1
10
12.6344867456254
20
30.4673842359598
30
0
41
1
10
13
20
30.4671954731642
30
0
0
SPLINE
5
114
100
AcDbEntity
8
1
62
256
6
ByLayer
370
18
48
1
60
0
100
AcDbSpline
70
4
71
3
72
21
73
17
40
0
40
0
40
0
40
0
40
0.0693845517022
40
0.138999245008048
40
0.208392209437931
40
0.277691709874636
40
0.347207055276611
40
0.416518594473252
40
0.487594979436754
40
0.558888486333646
40
0.629964653257064
40
0.702637615556254
40
0.775546105606464
40
0.848206609964743
40
0.924104721166187
40
1
40
1
40
1
40
1
41
1
10
13
20
-30.1869176962472
30
0
41
1
10
12.7063231841407
20
-30.1872096524832
30
0
41
1
10
12.1223413409987
20
-30.196862688559
30
0
41
1
10
11.2548800276156
20
-30.2395690634433
30
0
41
1
10
10.4107793578438
20
-30.3074910092105
30
0
41
1
10
9.60052675093577
20
-30.3990182894925
30
0
41
1
10
8.83254312553862
20
-30.508315285705
30
0
41
1
10
8.10847225191489
20
-30.6319114603513
30
0
41
1
10
7.43967519610518
20
-30.7651334750495
30
0
41
1
10
6.83362453722447
20
-30.9019567951841
30
0
41
1
10
6.29848137259766
20
-31.0368245010542
30
0
41
1
10
5.84549767244271
20
-31.1632276180045
30
0
41
1
10
5.480150216316
20
-31.2762628399086
30
0
41
1
10
5.20710946333942
20
-31.3718008076764
30
0
41
1
10
5.03871129917846
20
-31.4437717315615
30
0
41
1
10
5.00035366848531
20
-31.4737085503413
30
0
41
1
10
5
20
-31.4841229828623
30
0
0
SPLINE
5
115
100
AcDbEntity
8
1
62
256
6
ByLayer
370
18
48
1
60
0
100
AcDbSpline
70
4
71
3
72
16
73
12
40
0
40
0
40
0
40
0
40
0.10938948074904
40
0.218804367109887
40
0.327858892002275
40
0.436973571600126
40
0.551211464990424
40
0.665526885641791
40
0.776830239096553
40
0.888530088020359
40
1
40
1
40
1
40
1
41
1
10
13
20
24.3361870472759
30
0
41
1
10
12.6291534125821
20
24.3355361529019
30
0
41
1
10
11.9003079635942
20
24.2938640498108
30
0
41
1
10
10.8316271782811
20
24.1095109435787
30
0
41
1
10
9.83311041179052
20
23.8064278773714
30
0
41
1
10
8.90649775117283
20
23.3918250820533
30
0
41
1
10
8.07528223201916
20
22.8665572269342
30
0
41
1
10
7.35473307523232
20
22.2483494748981
30
0
41
1
10
6.75548524140653
20
21.5568228868852
30
0
41
1
10
6.26704224075389
20
20.8082267805268
30
0
41
1
10
6.0036061153389
20
20.2752667337645
30
0
41
1
10
5.8882860963442
20
20
30
0
0
SPLINE
5
116
100
AcDbEntity
8
1
62
256
6
ByLayer
370
18
48
1
60
0
100
AcDbSpline
70
4
71
2
72
6
73
3
40
0
40
0
40
0
40
1
40
1
40
1
41
1
10
19.875
20
-27.4603534582684
30
0
41
1
10
20.6238714927229
20
-28.8249472403234
30
0
41
1
10
21.3774990747593
20
-30.1869176962472
30
0
0
SPLINE
5
117
100
AcDbEntity
8
1
62
256
6
ByLayer
370
18
48
1
60
0
100
AcDbSpline
70
4
71
2
72
6
73
3
40
0
40
0
40
0
40
1
40
1
40
1
41
1
10
14.6225009252407
20
-30.1869176962472
30
0
41
1
10
15.3761285072771
20
-28.8249472403234
30
0
41
1
10
16.125
20
-27.4603534582684
30
0
0
SPLINE
5
118
100
AcDbEntity
8
1
62
256
6
ByLayer
370
18
48
1
60
0
100
AcDbSpline
70
4
71
3
72
11
73
7
40
0
40
0
40
0
40
0
40
0.126735072900044
40
0.342155653872507
40
0.748399957580977
40
1
40
1
40
1
40
1
41
1
10
16.386133422799
20
26.5
30
0
41
1
10
16.3651049855021
20
26.5189227202612
30
0
41
1
10
16.3115326488789
20
26.572638997511
30
0
41
1
10
16.2121912564462
20
26.7069204763722
30
0
41
1
10
16.1398909258727
20
26.8922765051486
30
0
41
1
10
16.1251186887282
20
27.0366604319106
30
0
41
1
10
16.125
20
27.0935878022827
30
0
0
SPLINE
5
119
100
AcDbEntity
8
1
62
256
6
ByLayer
370
18
48
1
60
0
100
AcDbSpline
70
4
71
3
72
10
73
6
40
0
40
0
40
0
40
0
40
0.379463237959342
40
0.658490123634261
40
1
40
1
40
1
40
1
41
1
10
19.875
20
27.0935878022827
30
0
41
1
10
19.8745576455501
20
27.0066317302311
30
0
41
1
10
19.8522399257014
20
26.8632896357798
30
0
41
1
10
19.7588878411878
20
26.6577796764069
30
0
41
1
10
19.6714327922511
20
26.5525701354798
30
0
41
1
10
19.6138665772009
20
26.5
30
0
0
SPLINE
5
11A
100
AcDbEntity
8
SK1
62
256
6
ByLayer
370
18
48
1
60
0
100
AcDbSpline
70
4
71
3
72
24
73
20
40
0
40
0
40
0
40
0
40
0.0599184375212796
40
0.121508167837198
40
0.18313395251315
40
0.247233721288934
40
0.311361785858955
40
0.372467732346759
40
0.433094640325411
40
0.495827722136206
40
0.558965387905692
40
0.619639067649569
40
0.68054547558805
40
0.744333193768286
40
0.808260404393334
40
0.869832646298796
40
0.931570374019357
40
0.995981634347682
40
1
40
1
40
1
40
1
41
1
10
-4.81084905197209
20
24.0796058662309
30
0
41
1
10
-4.80856881580073
20
24.0794049248276
30
0
41
1
10
-4.85368076058459
20
24.0683800995989
30
0
41
1
10
-5.07130159665622
20
24.0170281650497
30
0
41
1
10
-5.45643597904613
20
23.935521283579
30
0
41
1
10
-5.98650418991757
20
23.833882086318
30
0
41
1
10
-6.61906602196871
20
23.7236853318701
30
0
41
1
10
-7.33900570193302
20
23.6203412695709
30
0
41
1
10
-8.1262004959514
20
23.536163948328
30
0
41
1
10
-8.9576252189456
20
23.4777844423315
30
0
41
1
10
-9.79332386115316
20
23.4462411251063
30
0
41
1
10
-10.5932094083522
20
23.4463068572537
30
0
41
1
10
-11.3282471992119
20
23.474314401834
30
0
41
1
10
-11.9778486892926
20
23.5201837887766
30
0
41
1
10
-12.5267567613345
20
23.5695675308123
30
0
41
1
10
-12.9322351167597
20
23.6149157564926
30
0
41
1
10
-13.1769926760885
20
23.6481004709689
30
0
41
1
10
-13.2331889475763
20
23.6573302567635
30
0
41
1
10
-13.2353444584291
20
23.657542800523
30
0
41
1
10
-13.2353682596609
20
23.6575404694305
30
0
0
SPLINE
5
11B
100
AcDbEntity
8
SK1
62
256
6
ByLayer
370
18
48
1
60
0
100
AcDbSpline
70
4
71
3
72
24
73
20
40
0
40
0
40
0
40
0
40
0.005375147322354
40
0.0697206297952388
40
0.131435845510156
40
0.19302860520659
40
0.257014087479034
40
0.3207317798362
40
0.381609804514038
40
0.442303794089169
40
0.505511499732588
40
0.56816199352151
40
0.6287578632028
40
0.689880742202294
40
0.754064347598277
40
0.818107437955328
40
0.879730517476381
40
0.941379792674629
40
1
40
1
40
1
40
1
41
1
10
-13.2353556246351
20
-23.6575410549979
30
0
41
1
10
-13.2353215894245
20
-23.6575447146848
30
0
41
1
10
-13.2324929288346
20
-23.6572490799912
30
0
41
1
10
-13.1734482873189
20
-23.6476186231965
30
0
41
1
10
-12.9254269899792
20
-23.6141228674664
30
0
41
1
10
-12.5168388929135
20
-23.5686052879743
30
0
41
1
10
-11.9656655497104
20
-23.519200001509
30
0
41
1
10
-11.314278766823
20
-23.4735139677382
30
0
41
1
10
-10.577877226428
20
-23.4459751981292
30
0
41
1
10
-9.77676800433436
20
-23.4465368323833
30
0
41
1
10
-8.94084555728381
20
-23.4787042636663
30
0
41
1
10
-8.11001157938162
20
-23.5376471052653
30
0
41
1
10
-7.32435109192347
20
-23.6222523183644
30
0
41
1
10
-6.60599519071363
20
-23.7258392103137
30
0
41
1
10
-5.97523231681831
20
-23.8359694032618
30
0
41
1
10
-5.44734536067309
20
-23.9373337087896
30
0
41
1
10
-5.06524451274562
20
-24.0183723147866
30
0
41
1
10
-4.85238466310884
20
-24.0687185517485
30
0
41
1
10
-4.80870463759202
20
-24.0794129454555
30
0
41
1
10
-4.8108747448712
20
-24.0796045324998
30
0
0
SPLINE
5
11C
100
AcDbEntity
8
SK1
62
256
6
ByLayer
370
18
48
1
60
0
100
AcDbSpline
70
4
71
3
72
11
73
7
40
0
40
0
40
0
40
0
40
0.275312768421209
40
0.601833679033274
40
0.929023952906012
40
1
40
1
40
1
40
1
41
1
10
-22.9409580342545
20
-20.6523889187467
30
0
41
1
10
-22.9300817526173
20
-20.720000681876
30
0
41
1
10
-22.8822476230036
20
-20.8634893251801
30
0
41
1
10
-22.6875619701385
20
-21.0685348417393
30
0
41
1
10
-22.5288510360736
20
-21.2191321504158
30
0
41
1
10
-22.4478708652547
20
-21.3007213905956
30
0
41
1
10
-22.4335112264916
20
-21.315200299818
30
0
0
SPLINE
5
11D
100
AcDbEntity
8
SK1
62
256
6
ByLayer
370
18
48
1
60
0
100
AcDbSpline
70
4
71
3
72
16
73
12
40
0
40
0
40
0
40
0
40
0.0218018519762797
40
0.0438741142147756
40
0.0636342095759451
40
0.0942929117668631
40
0.152666156083509
40
0.249234711773134
40
0.346260835019039
40
0.672673550539986
40
1
40
1
40
1
40
1
41
1
10
-23.5
20
-19.6762639588796
30
0
41
1
10
-23.4860103964123
20
-19.6722200326067
30
0
41
1
10
-23.4569556731507
20
-19.6669867195894
30
0
41
1
10
-23.409354050151
20
-19.6673307582166
30
0
41
1
10
-23.3583742229852
20
-19.6781053049173
30
0
41
1
10
-23.2938248457566
20
-19.7061610301037
30
0
41
1
10
-23.2150907030105
20
-19.7680975746819
30
0
41
1
10
-23.141218690196
20
-19.858685035348
30
0
41
1
10
-23.0380691059724
20
-20.0494950896731
30
0
41
1
10
-22.9563542743769
20
-20.3213539286044
30
0
41
1
10
-22.9354674399461
20
-20.5438028985864
30
0
41
1
10
-22.9409580342545
20
-20.6523889187467
30
0
0
SPLINE
5
11E
100
AcDbEntity
8
SK1
62
256
6
ByLayer
370
18
48
1
60
0
100
AcDbSpline
70
4
71
3
72
12
73
8
40
0
40
0
40
0
40
0
40
0.348010272631602
40
0.524181172475537
40
0.699718642851078
40
0.876165699667473
40
1
40
1
40
1
40
1
41
1
10
-23.5
20
-19.6762639588796
30
0
41
1
10
-23.7666060449476
20
-19.7451306273831
30
0
41
1
10
-24.1391310987929
20
-19.8645147060205
30
0
41
1
10
-24.5937607063647
20
-20.0508171526104
30
0
41
1
10
-24.8836142087495
20
-20.2142208771567
30
0
41
1
10
-25.0663979020817
20
-20.388224989444
30
0
41
1
10
-25.0970995709352
20
-20.5058472940521
30
0
41
1
10
-25.0980376759617
20
-20.5560987896625
30
0
0
SPLINE
5
11F
100
AcDbEntity
8
SK1
62
256
6
ByLayer
370
18
48
1
60
0
100
AcDbSpline
70
4
71
3
72
17
73
13
40
0
40
0
40
0
40
0
40
0.0104295426005001
40
0.0240001597943939
40
0.0487581300607073
40
0.0911684607339435
40
0.133790251102814
40
0.268849298792937
40
0.40434167808176
40
0.539858832743823
40
0.79160736578744
40
1
40
1
40
1
40
1
41
1
10
-25.0980376759621
20
-20.5560987896625
30
0
41
1
10
-25.0985652796219
20
-20.5655132863308
30
0
41
1
10
-25.1056783522262
20
-20.5858094113603
30
0
41
1
10
-25.155456154394
20
-20.6207929886906
30
0
41
1
10
-25.2745697243076
20
-20.6611193712898
30
0
41
1
10
-25.4606554844133
20
-20.6983678400103
30
0
41
1
10
-25.8558179134794
20
-20.7482110202519
30
0
41
1
10
-26.4353022554174
20
-20.796760658025
30
0
41
1
10
-27.202356802554
20
-20.827981588285
30
0
41
1
10
-28.196007280135
20
-20.8511846834216
30
0
41
1
10
-29.3316994545135
20
-20.8678439410475
30
0
41
1
10
-30.2117204708782
20
-20.8706902889456
30
0
41
1
10
-30.6108621650281
20
-20.8699995196269
30
0
0
SPLINE
5
120
100
AcDbEntity
8
SK1
62
256
6
ByLayer
370
18
48
1
60
0
100
AcDbSpline
70
4
71
1
72
4
73
2
40
0
40
0
40
1
40
1
41
1
10
-30.860044262292
20
20.8698178837389
30
0
41
1
10
-30.6147033403665
20
20.8699992034104
30
0
0
SPLINE
5
121
100
AcDbEntity
8
SK1
62
256
6
ByLayer
370
18
48
1
60
0
100
AcDbSpline
70
4
71
3
72
13
73
9
40
0
40
0
40
0
40
0
40
0.0137653440578869
40
0.25327977934906
40
0.4930981374477
40
0.738654836977838
40
0.984089458827098
40
1
40
1
40
1
40
1
41
1
10
-25.9999999999999
20
21.8822317267111
30
0
41
1
10
-26.0000030082876
20
21.8789248327593
30
0
41
1
10
-26.0010290787094
20
21.8179322020152
30
0
41
1
10
-26.0408878483169
20
21.6924504425364
30
0
41
1
10
-26.1871389916881
20
21.4977890423758
30
0
41
1
10
-26.4079786249255
20
21.2952752312949
30
0
41
1
10
-26.609947916753
20
21.1547193185889
30
0
41
1
10
-26.7278680531967
20
21.0839820872174
30
0
41
1
10
-26.7350973541062
20
21.0796789079761
30
0
0
SPLINE
5
122
100
AcDbEntity
8
SK1
62
256
6
ByLayer
370
18
48
1
60
0
100
AcDbSpline
70
4
71
3
72
10
73
6
40
0
40
0
40
0
40
0
40
0.249352744316275
40
0.968594540471138
40
1
40
1
40
1
40
1
41
1
10
-32
20
19.7878644435972
30
0
41
1
10
-31.9998803203567
20
19.8017755277596
30
0
41
1
10
-31.995613675076
20
19.8529281700996
30
0
41
1
10
-31.9736884630512
20
19.8956757045885
30
0
41
1
10
-31.9501421333181
20
19.9198583868589
30
0
41
1
10
-31.9491419398877
20
19.920858056825
30
0
0
SPLINE
5
123
100
AcDbEntity
8
SK1
62
256
6
ByLayer
370
18
48
1
60
0
100
AcDbSpline
70
4
71
3
72
19
73
15
40
0
40
0
40
0
40
0
40
0.249997917203805
40
0.422968906632305
40
0.466286118513754
40
0.482201538901878
40
0.490044666836576
40
0.496657642639557
40
0.503304035742707
40
0.510880466444251
40
0.523447301325317
40
0.560005190130941
40
0.705379293231992
40
1
40
1
40
1
40
1
41
1
10
-31.7350358013016
20
19.9011770951908
30
0
41
1
10
-31.7379774901783
20
19.8442669325557
30
0
41
1
10
-31.7281989855609
20
19.7626135677127
30
0
41
1
10
-31.708044513665
20
19.6801979079271
30
0
41
1
10
-31.6796996183322
20
19.6583678285512
30
0
41
1
10
-31.6659185289955
20
19.6589896419863
30
0
41
1
10
-31.657576872927
20
19.6625375426635
30
0
41
1
10
-31.650725958017
20
19.6671831369409
30
0
41
1
10
-31.6435743479895
20
19.6738369451006
30
0
41
1
10
-31.635276382733
20
19.683710725623
30
0
41
1
10
-31.6213972069588
20
19.7046895365472
30
0
41
1
10
-31.5916474394522
20
19.7691881032848
30
0
41
1
10
-31.5617995585687
20
19.8975681461872
30
0
41
1
10
-31.547021526672
20
20.0041624243787
30
0
41
1
10
-31.5521354617859
20
20.0641424909755
30
0
0
SPLINE
5
124
100
AcDbEntity
8
SK1
62
256
6
ByLayer
370
18
48
1
60
0
100
AcDbSpline
70
4
71
3
72
11
73
7
40
0
40
0
40
0
40
0
40
0.0878644708723746
40
0.299756330783329
40
0.514308603169363
40
1
40
1
40
1
40
1
41
1
10
-31.552135461786
20
20.0641424909754
30
0
41
1
10
-31.550009539557
20
20.0847651479631
30
0
41
1
10
-31.5361018527751
20
20.1574635408588
30
0
41
1
10
-31.4480738187316
20
20.3134813815691
30
0
41
1
10
-31.2836580993094
20
20.5620567313978
30
0
41
1
10
-31.1436065416056
20
20.7279380720671
30
0
41
1
10
-31.0401932646188
20
20.8298059071777
30
0
0
SPLINE
5
125
100
AcDbEntity
8
SK1
62
256
6
ByLayer
370
18
48
1
60
0
100
AcDbSpline
70
4
71
1
72
4
73
2
40
0
40
0
40
1
40
1
41
1
10
-31
20
20.869170065617
30
0
41
1
10
-30.860044262292
20
20.8698178837389
30
0
0
SPLINE
5
126
100
AcDbEntity
8
SK1
62
256
6
ByLayer
370
18
48
1
60
0
100
AcDbSpline
70
4
71
1
72
4
73
2
40
0
40
0
40
1
40
1
41
1
10
-30.860044262292
20
-20.8698178837414
30
0
41
1
10
-31
20
-20.8691700656172
30
0
0
SPLINE
5
127
100
AcDbEntity
8
SK1
62
256
6
ByLayer
370
18
48
1
60
0
100
AcDbSpline
70
4
71
1
72
4
73
2
40
0
40
0
40
1
40
1
41
1
10
-31
20
-20.8691700656172
30
0
41
1
10
-31.040129536947
20
-20.8298697188265
30
0
0
SPLINE
5
128
100
AcDbEntity
8
SK1
62
256
6
ByLayer
370
18
48
1
60
0
100
AcDbSpline
70
4
71
3
72
21
73
17
40
0
40
0
40
0
40
0
40
0.165117911265844
40
0.326376036956629
40
0.388338901241228
40
0.442085148664039
40
0.461866954908238
40
0.483108413017654
40
0.49101239445227
40
0.498992029572028
40
0.505074008744259
40
0.511137511461792
40
0.521338387944434
40
0.546858121537933
40
0.638657565997299
40
1
40
1
40
1
40
1
41
1
10
-31.5521354617861
20
-20.0641424909754
30
0
41
1
10
-31.5514661056546
20
-20.0290609359845
30
0
41
1
10
-31.5556720345731
20
-19.9551665572156
30
0
41
1
10
-31.5701891678909
20
-19.8588199720778
30
0
41
1
10
-31.5903323647652
20
-19.7826312896095
30
0
41
1
10
-31.6043228181161
20
-19.7422250192595
30
0
41
1
10
-31.6185139312739
20
-19.7113254226065
30
0
41
1
10
-31.6281447896707
20
-19.693984808791
30
0
41
1
10
-31.638079108554
20
-19.6802136953699
30
0
41
1
10
-31.6451525894186
20
-19.6721978118178
30
0
41
1
10
-31.6520442338067
20
-19.6662056783419
30
0
41
1
10
-31.6591389578521
20
-19.6616484764125
30
0
41
1
10
-31.6700644402098
20
-19.6577944869435
30
0
41
1
10
-31.6919127730499
20
-19.6624607662014
30
0
41
1
10
-31.7278843060354
20
-19.7319198569438
30
0
41
1
10
-31.7464512985852
20
-19.8108825703984
30
0
41
1
10
-31.7350358013015
20
-19.9011770951909
30
0
0
SPLINE
5
129
100
AcDbEntity
8
SK1
62
256
6
ByLayer
370
18
48
1
60
0
100
AcDbSpline
70
4
71
3
72
12
73
8
40
0
40
0
40
0
40
0
40
0.0049270354856287
40
0.144791694386501
40
0.375010597938592
40
0.60986169828582
40
1
40
1
40
1
40
1
41
1
10
-31.7350358013014
20
-19.9011770951909
30
0
41
1
10
-31.7350322434838
20
-19.9019337295775
30
0
41
1
10
-31.7350867322829
20
-19.923962428007
30
0
41
1
10
-31.7529982256254
20
-19.9608937790578
30
0
41
1
10
-31.8076215193431
20
-19.9743706419588
30
0
41
1
10
-31.8821325847062
20
-19.9678461181003
30
0
41
1
10
-31.9255205031948
20
-19.9438821539614
30
0
41
1
10
-31.9491872522555
20
-19.920812711337
30
0
0
SPLINE
5
12A
100
AcDbEntity
8
1
62
256
6
ByLayer
370
18
48
1
60
0
100
AcDbSpline
70
4
71
2
72
6
73
3
40
0
40
0
40
0
40
1
40
1
40
1
41
1
10
14.6225009252407
20
24.3361870472759
30
0
41
1
10
15.3959019516576
20
22.6067367736342
30
0
41
1
10
16.125
20
20.8583559288126
30
0
0
SPLINE
5
12B
100
AcDbEntity
8
1
62
256
6
ByLayer
370
18
48
1
60
0
100
AcDbSpline
70
4
71
2
72
6
73
3
40
0
40
0
40
0
40
1
40
1
40
1
41
1
10
16.125
20
27.7681654426977
30
0
41
1
10
15.3756550327952
20
29.1187399565072
30
0
41
1
10
14.6225009252407
20
30.4671954731642
30
0
0
SPLINE
5
12C
100
AcDbEntity
8
1
62
256
6
ByLayer
370
18
48
1
60
0
100
AcDbSpline
70
4
71
2
72
6
73
3
40
0
40
0
40
0
40
1
40
1
40
1
41
1
10
21.3774990747593
20
30.4671954731642
30
0
41
1
10
20.6243449672048
20
29.1187399565072
30
0
41
1
10
19.875
20
27.7681654426977
30
0
0
SPLINE
5
12D
100
AcDbEntity
8
1
62
256
6
ByLayer
370
18
48
1
60
0
100
AcDbSpline
70
4
71
2
72
6
73
3
40
0
40
0
40
0
40
1
40
1
40
1
41
1
10
19.875
20
20.8583559288126
30
0
41
1
10
20.6040980483424
20
22.6067367736342
30
0
41
1
10
21.3774990747593
20
24.3361870472759
30
0
0
SPLINE
5
12E
100
AcDbEntity
8
SK1
62
256
6
ByLayer
370
18
48
1
60
0
100
AcDbSpline
70
4
71
1
72
4
73
2
40
0
40
0
40
1
40
1
41
1
10
-30.6108621650281
20
-20.8699995196269
30
0
41
1
10
-30.8600442622921
20
-20.869817883739
30
0
0
SPLINE
5
12F
100
AcDbEntity
8
SK1
62
256
6
ByLayer
370
18
48
1
60
0
100
AcDbSpline
70
4
71
3
72
11
73
7
40
0
40
0
40
0
40
0
40
0.21058598966521
40
0.479422187236391
40
0.739851968930835
40
1
40
1
40
1
40
1
41
1
10
-22.4335112264916
20
-21.315200299818
30
0
41
1
10
-22.3810790228567
20
-21.3673762023894
30
0
41
1
10
-22.2709401953095
20
-21.4846043858305
30
0
41
1
10
-22.1273287829665
20
-21.6603954888209
30
0
41
1
10
-22.0250343239923
20
-21.8407893794134
30
0
41
1
10
-22.0016189302552
20
-21.952406087013
30
0
41
1
10
-22
20
-22.006574370281
30
0
0
SPLINE
5
130
100
AcDbEntity
8
SK1
62
256
6
ByLayer
370
18
48
1
60
0
100
AcDbSpline
70
4
71
3
72
11
73
7
40
0
40
0
40
0
40
0
40
0.396067315010588
40
0.837471395009139
40
0.982061157123693
40
1
40
1
40
1
40
1
41
1
10
-31.9491419398877
20
19.9208580568251
30
0
41
1
10
-31.9238422115072
20
19.9455196751456
30
0
41
1
10
-31.8696564720595
20
19.9727466520197
30
0
41
1
10
-31.76945803937
20
19.9805331827525
30
0
41
1
10
-31.7356331466664
20
19.9279990877777
30
0
41
1
10
-31.735035083492
20
19.9039230598418
30
0
41
1
10
-31.7350358013032
20
19.9011770951889
30
0
0
SPLINE
5
131
100
AcDbEntity
8
SK1
62
256
6
ByLayer
370
18
48
1
60
0
100
AcDbSpline
70
4
71
1
72
4
73
2
40
0
40
0
40
1
40
1
41
1
10
-31.0401932646188
20
20.8298059071777
30
0
41
1
10
-30.9999999999977
20
20.8691700656193
30
0
0
SPLINE
5
132
100
AcDbEntity
8
SK1
62
256
6
ByLayer
370
18
48
1
60
0
100
AcDbSpline
70
4
71
3
72
12
73
8
40
0
40
0
40
0
40
0
40
0.451559129441246
40
0.710155115145583
40
0.842047679743496
40
0.972451049118078
40
1
40
1
40
1
40
1
41
1
10
-31.040129536947
20
-20.8298697188266
30
0
41
1
10
-31.1361052098171
20
-20.7352304916682
30
0
41
1
10
-31.2777020684057
20
-20.5692359534271
30
0
41
1
10
-31.4326739753571
20
-20.3385993686314
30
0
41
1
10
-31.5184139968243
20
-20.1867419677914
30
0
41
1
10
-31.5497298854785
20
-20.1052742430654
30
0
41
1
10
-31.5520504358399
20
-20.0701083836641
30
0
41
1
10
-31.552135461786
20
-20.0641424909754
30
0
0
SPLINE
5
133
100
AcDbEntity
8
SK1
62
256
6
ByLayer
370
18
48
1
60
0
100
AcDbSpline
70
4
71
3
72
10
73
6
40
0
40
0
40
0
40
0
40
0.12264029605975
40
0.960741311380632
40
1
40
1
40
1
40
1
41
1
10
-31.9491872522555
20
-19.920812711337
30
0
41
1
10
-31.9531129415285
20
-19.9168982043388
30
0
41
1
10
-31.981991998728
20
-19.8848439738594
30
0
41
1
10
-31.9993823381178
20
-19.8382398583924
30
0
41
1
10
-31.9999974017545
20
-19.7900391180786
30
0
41
1
10
-32
20
-19.7878644435972
30
0
0
SPLINE
5
134
100
AcDbEntity
8
SK1
62
256
6
ByLayer
370
18
48
1
60
0
100
AcDbSpline
70
4
71
3
72
12
73
8
40
0
40
0
40
0
40
0
40
0.30265825430589
40
0.513445157489726
40
0.722630053022238
40
0.874983063533823
40
1
40
1
40
1
40
1
41
1
10
-26.7350973541062
20
21.0796789079761
30
0
41
1
10
-26.7916016635108
20
21.0448706371374
30
0
41
1
10
-26.8969155679074
20
20.9885887337857
30
0
41
1
10
-27.0626174166072
20
20.9129558642665
30
0
41
1
10
-27.2165262093835
20
20.8621202870037
30
0
41
1
10
-27.3697670671131
20
20.8345318523564
30
0
41
1
10
-27.4588920915926
20
20.8318914904804
30
0
41
1
10
-27.5
20
20.8329097750396
30
0
0
SPLINE
5
135
100
AcDbEntity
8
SK1
62
256
6
ByLayer
370
18
48
1
60
0
100
AcDbSpline
70
4
71
2
72
6
73
3
40
0
40
0
40
0
40
1
40
1
40
1
41
1
10
-30.6147033403665
20
20.8699992034104
30
0
41
1
10
-29.0508126552907
20
20.8732280076067
30
0
41
1
10
-27.5
20
20.8329097750396
30
0
0
SPLINE
5
136
100
AcDbEntity
8
1
62
256
6
ByLayer
370
18
48
1
60
0
100
AcDbSpline
70
4
71
2
72
6
73
3
40
0
40
0
40
0
40
1
40
1
40
1
41
1
10
230.1
20
-18.0591746696797
30
0
41
1
10
229.850082657436
20
-18.3151916007372
30
0
41
1
10
229.6
20
-18.5710470827576
30
0
0
SPLINE
5
137
100
AcDbEntity
8
1
62
256
6
ByLayer
370
18
48
1
60
0
100
AcDbSpline
70
4
71
2
72
6
73
3
40
0
40
0
40
0
40
1
40
1
40
1
41
1
10
229.6
20
18.5710470827576
30
0
41
1
10
229.850082657436
20
18.3151916007372
30
0
41
1
10
230.1
20
18.0591746696797
30
0
0
LINE
5
70
100
AcDbEntity
8
81
62
256
6
ByLayer
370
18
48
1
60
0
100
AcDbLine
10
230
20
0
30
0
11
253
21
0
31
0
39
0
210
0
220
0
230
1
0
LINE
5
71
100
AcDbEntity
8
4
62
256
6
ByLayer
370
18
48
0.05
60
0
100
AcDbLine
10
0
20
0
30
0
11
230
21
0
31
0
39
0
210
0
220
0
230
1
0
LINE
5
73
100
AcDbEntity
8
SK4
62
256
6
ByLayer
370
18
48
0.05
60
0
100
AcDbLine
10
-5
20
0
30
0
11
235
21
0
31
0
39
0
210
0
220
0
230
1
0
LINE
5
75
100
AcDbEntity
8
80
62
256
6
ByLayer
370
18
48
1
60
0
100
AcDbLine
10
0
20
0
30
0
11
-23
21
0
31
0
39
0
210
0
220
0
230
1
0
LINE
5
76
100
AcDbEntity
8
SK1
62
256
6
ByLayer
370
18
48
1
60
0
100
AcDbLine
10
255.5
20
6.5
30
0
11
251
21
6.5
31
0
39
0
210
0
220
0
230
1
0
LINE
5
78
100
AcDbEntity
8
SK1
62
256
6
ByLayer
370
18
48
1
60
0
100
AcDbLine
10
251
20
-6.5
30
0
11
255.5
21
-6.5
31
0
39
0
210
0
220
0
230
1
0
LINE
5
79
100
AcDbEntity
8
SK1
62
256
6
ByLayer
370
18
48
1
60
0
100
AcDbLine
10
246
20
4
30
0
11
241
21
4
31
0
39
0
210
0
220
0
230
1
0
LINE
5
7A
100
AcDbEntity
8
SK1
62
256
6
ByLayer
370
18
48
1
60
0
100
AcDbLine
10
241
20
-4
30
0
11
246
21
-4
31
0
39
0
210
0
220
0
230
1
0
LINE
5
7B
100
AcDbEntity
8
1
62
256
6
ByLayer
370
18
48
1
60
0
100
AcDbLine
10
0
20
-31.5
30
0
11
5
21
-31.5
31
0
39
0
210
0
220
0
230
1
0
LINE
5
7D
100
AcDbEntity
8
1
62
256
6
ByLayer
370
18
48
1
60
0
100
AcDbLine
10
5.004382
20
31.5
30
0
11
0
21
31.5
31
0
39
0
210
0
220
0
230
1
0
LINE
5
7E
100
AcDbEntity
8
1
62
256
6
ByLayer
370
18
48
1
60
0
100
AcDbLine
10
14.622501
20
30.467195
30
0
11
13
21
30.467195
31
0
39
0
210
0
220
0
230
1
0
LINE
5
7F
100
AcDbEntity
8
1
62
256
6
ByLayer
370
18
48
1
60
0
100
AcDbLine
10
13
20
24.336187
30
0
11
14.622501
21
24.336187
31
0
39
0
210
0
220
0
230
1
0
LINE
5
80
100
AcDbEntity
8
1
62
256
6
ByLayer
370
18
48
1
60
0
100
AcDbLine
10
14.622501
20
20
30
0
11
5.888286
21
20
31
0
39
0
210
0
220
0
230
1
0
LINE
5
81
100
AcDbEntity
8
1
62
256
6
ByLayer
370
18
48
1
60
0
100
AcDbLine
10
13
20
-30.186918
30
0
11
14.622501
21
-30.186918
31
0
39
0
210
0
220
0
230
1
0
LINE
5
82
100
AcDbEntity
8
1
62
256
6
ByLayer
370
18
48
1
60
0
100
AcDbLine
10
26
20
20
30
0
11
21.377499
21
20
31
0
39
0
210
0
220
0
230
1
0
LINE
5
83
100
AcDbEntity
8
1
62
256
6
ByLayer
370
18
48
1
60
0
100
AcDbLine
10
21.377499
20
-30.186918
30
0
11
26
21
-30.186918
31
0
39
0
210
0
220
0
230
1
0
LINE
5
84
100
AcDbEntity
8
1
62
256
6
ByLayer
370
18
48
1
60
0
100
AcDbLine
10
19.125
20
26.5
30
0
11
16.875
21
26.5
31
0
39
0
210
0
220
0
230
1
0
LINE
5
85
100
AcDbEntity
8
1
62
256
6
ByLayer
370
18
48
1
60
0
100
AcDbLine
10
16.875
20
-26.5
30
0
11
19.125
21
-26.5
31
0
39
0
210
0
220
0
230
1
0
LINE
5
86
100
AcDbEntity
8
1
62
256
6
ByLayer
370
18
48
1
60
0
100
AcDbLine
10
13
20
20
30
0
11
13
21
24.336187
31
0
39
0
210
0
220
0
230
1
0
LINE
5
87
100
AcDbEntity
8
SK1
62
256
6
ByLayer
370
18
48
1
60
0
100
AcDbLine
10
-2
20
-24.220428
30
0
11
-1.32989
21
-24.040873
31
0
39
0
210
0
220
0
230
1
0
LINE
5
88
100
AcDbEntity
8
SK1
62
256
6
ByLayer
370
18
48
1
60
0
100
AcDbLine
10
-1.32989
20
24.040873
30
0
11
-2
21
24.220428
31
0
39
0
210
0
220
0
230
1
0
LINE
5
89
100
AcDbEntity
8
SK1
62
256
6
ByLayer
370
18
48
1
60
0
100
AcDbLine
10
-13.23098
20
23.65776
30
0
11
-26
21
23.018037
31
0
39
0
210
0
220
0
230
1
0
LINE
5
8A
100
AcDbEntity
8
SK1
62
256
6
ByLayer
370
18
48
1
60
0
100
AcDbLine
10
-2
20
24.220428
30
0
11
-4.815397
21
24.079378
31
0
39
0
210
0
220
0
230
1
0
LINE
5
8B
100
AcDbEntity
8
SK1
62
256
6
ByLayer
370
18
48
1
60
0
100
AcDbLine
10
-4.816865
20
-24.079305
30
0
11
-2
21
-24.220428
31
0
39
0
210
0
220
0
230
1
0
LINE
5
8C
100
AcDbEntity
8
SK1
62
256
6
ByLayer
370
18
48
1
60
0
100
AcDbLine
10
-22
20
-23.218436
30
0
11
-13.229612
21
-23.657829
31
0
39
0
210
0
220
0
230
1
0
LINE
5
8D
100
AcDbEntity
8
SK1
62
256
6
ByLayer
370
18
48
1
60
0
100
AcDbLine
10
-0.5
20
24.020428
30
0
11
-1.174598
21
24.020428
31
0
39
0
210
0
220
0
230
1
0
LINE
5
8E
100
AcDbEntity
8
SK1
62
256
6
ByLayer
370
18
48
1
60
0
100
AcDbLine
10
-1.174598
20
-24.020428
30
0
11
-0.5
21
-24.020428
31
0
39
0
210
0
220
0
230
1
0
LINE
5
8F
100
AcDbEntity
8
1
62
256
6
ByLayer
370
18
48
1
60
0
100
AcDbLine
10
26
20
30.467195
30
0
11
21.377499
21
30.467195
31
0
39
0
210
0
220
0
230
1
0
LINE
5
90
100
AcDbEntity
8
1
62
256
6
ByLayer
370
18
48
1
60
0
100
AcDbLine
10
21.377499
20
24.336187
30
0
11
26
21
24.336187
31
0
39
0
210
0
220
0
230
1
0
LINE
5
91
100
AcDbEntity
8
1
62
256
6
ByLayer
370
18
48
1
60
0
100
AcDbLine
10
16.125
20
20.858356
30
0
11
16.125
21
20
31
0
39
0
210
0
220
0
230
1
0
LINE
5
92
100
AcDbEntity
8
1
62
256
6
ByLayer
370
18
48
1
60
0
100
AcDbLine
10
19.875
20
20
30
0
11
19.875
21
20.858356
31
0
39
0
210
0
220
0
230
1
0
LINE
5
93
100
AcDbEntity
8
1
62
256
6
ByLayer
370
18
48
1
60
0
100
AcDbLine
10
26
20
24.336187
30
0
11
26
21
20
31
0
39
0
210
0
220
0
230
1
0
LINE
5
94
100
AcDbEntity
8
1
62
256
6
ByLayer
370
18
48
1
60
0
100
AcDbLine
10
29
20
-19
30
0
11
224.75
21
-19
31
0
39
0
210
0
220
0
230
1
0
LINE
5
95
100
AcDbEntity
8
1
62
256
6
ByLayer
370
18
48
1
60
0
100
AcDbLine
10
224.75
20
19
30
0
11
29
21
19
31
0
39
0
210
0
220
0
230
1
0
LINE
5
96
100
AcDbEntity
8
SK1
62
256
6
ByLayer
370
18
48
1
60
0
100
AcDbLine
10
-23.5
20
-20.556099
30
0
11
-23.5
21
-19.676264
31
0
39
0
210
0
220
0
230
1
0
LINE
5
97
100
AcDbEntity
8
SK1
62
256
6
ByLayer
370
18
48
1
60
0
100
AcDbLine
10
-25.098038
20
-20.556099
30
0
11
-23.5
21
-20.556099
31
0
39
0
210
0
220
0
230
1
0
LINE
5
98
100
AcDbEntity
8
SK1
62
256
6
ByLayer
370
18
48
1
60
0
100
AcDbLine
10
-31.552135
20
-20.064142
30
0
11
-31.735036
21
-19.901177
31
0
39
0
210
0
220
0
230
1
0
LINE
5
99
100
AcDbEntity
8
SK1
62
256
6
ByLayer
370
18
48
1
60
0
100
AcDbLine
10
-31.735036
20
19.901177
30
0
11
-31.552135
21
20.064142
31
0
39
0
210
0
220
0
230
1
0
LINE
5
9A
100
AcDbEntity
8
SK1
62
256
6
ByLayer
370
18
48
1
60
0
100
AcDbLine
10
-30.611067
20
-20.87
30
0
11
-23.5
21
-20.87
31
0
39
0
210
0
220
0
230
1
0
LINE
5
9B
100
AcDbEntity
8
SK1
62
256
6
ByLayer
370
18
48
1
60
0
100
AcDbLine
10
-31.042384
20
20.827616
30
0
11
-31.94924
21
19.92076
31
0
39
0
210
0
220
0
230
1
0
LINE
5
9C
100
AcDbEntity
8
SK1
62
256
6
ByLayer
370
18
48
1
60
0
100
AcDbLine
10
-31.949526
20
-19.920474
30
0
11
-31.042179
21
-20.827821
31
0
39
0
210
0
220
0
230
1
0
LINE
5
9D
100
AcDbEntity
8
SK1
62
256
6
ByLayer
370
18
48
1
60
0
100
AcDbLine
10
-27.5
20
20.87
30
0
11
-30.614966
21
20.87
31
0
39
0
210
0
220
0
230
1
0
LINE
5
9E
100
AcDbEntity
8
1
62
256
6
ByLayer
370
18
48
1
60
0
100
AcDbLine
10
226.1
20
19
30
0
11
225.05
21
19
31
0
39
0
210
0
220
0
230
1
0
LINE
5
9F
100
AcDbEntity
8
1
62
256
6
ByLayer
370
18
48
1
60
0
100
AcDbLine
10
225.05
20
-19
30
0
11
226.1
21
-19
31
0
39
0
210
0
220
0
230
1
0
LINE
5
A0
100
AcDbEntity
8
1
62
256
6
ByLayer
370
18
48
1
60
0
100
AcDbLine
10
226.1
20
-18.571047
30
0
11
229.6
21
-18.571047
31
0
39
0
210
0
220
0
230
1
0
LINE
5
A1
100
AcDbEntity
8
1
62
256
6
ByLayer
370
18
48
1
60
0
100
AcDbLine
10
229.6
20
18.571047
30
0
11
226.1
21
18.571047
31
0
39
0
210
0
220
0
230
1
0
LINE
5
A2
100
AcDbEntity
8
SK1
62
256
6
ByLayer
370
18
48
1
60
0
100
AcDbLine
10
240
20
-8
30
0
11
241
21
-7.42265
31
0
39
0
210
0
220
0
230
1
0
LINE
5
A3
100
AcDbEntity
8
SK1
62
256
6
ByLayer
370
18
48
1
60
0
100
AcDbLine
10
241
20
7.42265
30
0
11
240
21
8
31
0
39
0
210
0
220
0
230
1
0
LINE
5
A4
100
AcDbEntity
8
SK1
62
256
6
ByLayer
370
18
48
1
60
0
100
AcDbLine
10
232.6
20
8
30
0
11
231.556685
21
7.720445
31
0
39
0
210
0
220
0
230
1
0
LINE
5
A5
100
AcDbEntity
8
SK1
62
256
6
ByLayer
370
18
48
1
60
0
100
AcDbLine
10
231.556685
20
-7.720445
30
0
11
232.6
21
-8
31
0
39
0
210
0
220
0
230
1
0
LINE
5
A6
100
AcDbEntity
8
SK1
62
256
6
ByLayer
370
18
48
1
60
0
100
AcDbLine
10
240
20
8
30
0
11
232.6
21
8
31
0
39
0
210
0
220
0
230
1
0
LINE
5
A7
100
AcDbEntity
8
SK1
62
256
6
ByLayer
370
18
48
1
60
0
100
AcDbLine
10
232.6
20
-8
30
0
11
240
21
-8
31
0
39
0
210
0
220
0
230
1
0
LINE
5
A8
100
AcDbEntity
8
SK1
62
256
6
ByLayer
370
18
48
1
60
0
100
AcDbLine
10
231.401393
20
7.7
30
0
11
230.294161
21
7.7
31
0
39
0
210
0
220
0
230
1
0
LINE
5
A9
100
AcDbEntity
8
SK1
62
256
6
ByLayer
370
18
48
1
60
0
100
AcDbLine
10
230.294161
20
-7.7
30
0
11
231.401393
21
-7.7
31
0
39
0
210
0
220
0
230
1
0
LINE
5
AA
100
AcDbEntity
8
SK1
62
256
6
ByLayer
370
18
48
1
60
0
100
AcDbLine
10
234.6
20
16.6745
30
0
11
230.1
21
16.6745
31
0
39
0
210
0
220
0
230
1
0
LINE
5
AB
100
AcDbEntity
8
SK1
62
256
6
ByLayer
370
18
48
1
60
0
100
AcDbLine
10
234.6
20
9.5255
30
0
11
234.6
21
16.6745
31
0
39
0
210
0
220
0
230
1
0
LINE
5
AC
100
AcDbEntity
8
SK1
62
256
6
ByLayer
370
18
48
1
60
0
100
AcDbLine
10
230.1
20
9.5255
30
0
11
234.6
21
9.5255
31
0
39
0
210
0
220
0
230
1
0
LINE
5
AD
100
AcDbEntity
8
SK1
62
256
6
ByLayer
370
18
48
1
60
0
100
AcDbLine
10
234.6
20
8.7255
30
0
11
230.1
21
8.7255
31
0
39
0
210
0
220
0
230
1
0
LINE
5
AE
100
AcDbEntity
8
SK1
62
256
6
ByLayer
370
18
48
1
60
0
100
AcDbLine
10
235
20
9.1255
30
0
11
234.6
21
9.5255
31
0
39
0
210
0
220
0
230
1
0
LINE
5
AF
100
AcDbEntity
8
SK1
62
256
6
ByLayer
370
18
48
1
60
0
100
AcDbLine
10
234.6
20
8.7255
30
0
11
235
21
9.1255
31
0
39
0
210
0
220
0
230
1
0
LINE
5
B0
100
AcDbEntity
8
SK1
62
256
6
ByLayer
370
18
48
1
60
0
100
AcDbLine
10
234.6
20
16.6745
30
0
11
235
21
17.0745
31
0
39
0
210
0
220
0
230
1
0
LINE
5
B1
100
AcDbEntity
8
SK1
62
256
6
ByLayer
370
18
48
1
60
0
100
AcDbLine
10
235
20
17.0745
30
0
11
235.1
21
16.9745
31
0
39
0
210
0
220
0
230
1
0
LINE
5
B2
100
AcDbEntity
8
SK1
62
256
6
ByLayer
370
18
48
1
60
0
100
AcDbLine
10
235.1
20
16.9745
30
0
11
235.1
21
9.2255
31
0
39
0
210
0
220
0
230
1
0
LINE
5
B3
100
AcDbEntity
8
SK1
62
256
6
ByLayer
370
18
48
1
60
0
100
AcDbLine
10
235.1
20
9.2255
30
0
11
235
21
9.1255
31
0
39
0
210
0
220
0
230
1
0
LINE
5
B4
100
AcDbEntity
8
SK1
62
256
6
ByLayer
370
18
48
1
60
0
100
AcDbLine
10
230.1
20
17.4745
30
0
11
234.6
21
17.4745
31
0
39
0
210
0
220
0
230
1
0
LINE
5
B5
100
AcDbEntity
8
SK1
62
256
6
ByLayer
370
18
48
1
60
0
100
AcDbLine
10
235
20
17.0745
30
0
11
234.6
21
17.4745
31
0
39
0
210
0
220
0
230
1
0
LINE
5
B6
100
AcDbEntity
8
SK1
62
256
6
ByLayer
370
18
48
1
60
0
100
AcDbLine
10
230.1
20
-8.7255
30
0
11
234.6
21
-8.7255
31
0
39
0
210
0
220
0
230
1
0
LINE
5
B7
100
AcDbEntity
8
SK1
62
256
6
ByLayer
370
18
48
1
60
0
100
AcDbLine
10
235
20
-9.1255
30
0
11
234.6
21
-8.7255
31
0
39
0
210
0
220
0
230
1
0
LINE
5
B8
100
AcDbEntity
8
SK1
62
256
6
ByLayer
370
18
48
1
60
0
100
AcDbLine
10
234.6
20
-9.5255
30
0
11
235
21
-9.1255
31
0
39
0
210
0
220
0
230
1
0
LINE
5
B9
100
AcDbEntity
8
SK1
62
256
6
ByLayer
370
18
48
1
60
0
100
AcDbLine
10
234.6
20
-9.5255
30
0
11
230.1
21
-9.5255
31
0
39
0
210
0
220
0
230
1
0
LINE
5
BA
100
AcDbEntity
8
SK1
62
256
6
ByLayer
370
18
48
1
60
0
100
AcDbLine
10
235.1
20
-9.2255
30
0
11
235
21
-9.1255
31
0
39
0
210
0
220
0
230
1
0
LINE
5
BB
100
AcDbEntity
8
SK1
62
256
6
ByLayer
370
18
48
1
60
0
100
AcDbLine
10
235.1
20
-9.2255
30
0
11
235.1
21
-16.9745
31
0
39
0
210
0
220
0
230
1
0
LINE
5
BC
100
AcDbEntity
8
SK1
62
256
6
ByLayer
370
18
48
1
60
0
100
AcDbLine
10
235
20
-17.0745
30
0
11
235.1
21
-16.9745
31
0
39
0
210
0
220
0
230
1
0
LINE
5
BD
100
AcDbEntity
8
SK1
62
256
6
ByLayer
370
18
48
1
60
0
100
AcDbLine
10
235
20
-17.0745
30
0
11
234.6
21
-16.6745
31
0
39
0
210
0
220
0
230
1
0
LINE
5
BE
100
AcDbEntity
8
SK1
62
256
6
ByLayer
370
18
48
1
60
0
100
AcDbLine
10
234.6
20
-16.6745
30
0
11
234.6
21
-9.5255
31
0
39
0
210
0
220
0
230
1
0
LINE
5
BF
100
AcDbEntity
8
SK1
62
256
6
ByLayer
370
18
48
1
60
0
100
AcDbLine
10
234.6
20
-17.4745
30
0
11
230.1
21
-17.4745
31
0
39
0
210
0
220
0
230
1
0
LINE
5
C0
100
AcDbEntity
8
SK1
62
256
6
ByLayer
370
18
48
1
60
0
100
AcDbLine
10
230.1
20
-16.6745
30
0
11
234.6
21
-16.6745
31
0
39
0
210
0
220
0
230
1
0
LINE
5
C1
100
AcDbEntity
8
SK1
62
256
6
ByLayer
370
18
48
1
60
0
100
AcDbLine
10
234.6
20
-17.4745
30
0
11
235
21
-17.0745
31
0
39
0
210
0
220
0
230
1
0
LINE
5
C2
100
AcDbEntity
8
SK1
62
256
6
ByLayer
370
18
48
1
60
0
100
AcDbLine
10
247
20
-10
30
0
11
251
21
-10
31
0
39
0
210
0
220
0
230
1
0
LINE
5
C3
100
AcDbEntity
8
SK1
62
256
6
ByLayer
370
18
48
1
60
0
100
AcDbLine
10
251
20
10
30
0
11
247
21
10
31
0
39
0
210
0
220
0
230
1
0
LINE
5
C4
100
AcDbEntity
8
SK1
62
256
6
ByLayer
370
18
48
1
60
0
100
AcDbLine
10
247
20
10
30
0
11
246
21
9
31
0
39
0
210
0
220
0
230
1
0
LINE
5
C5
100
AcDbEntity
8
SK1
62
256
6
ByLayer
370
18
48
1
60
0
100
AcDbLine
10
246
20
-9
30
0
11
247
21
-10
31
0
39
0
210
0
220
0
230
1
0
LINE
5
C6
100
AcDbEntity
8
SK1
62
256
6
ByLayer
370
18
48
1
60
0
100
AcDbLine
10
255.5
20
-6.5
30
0
11
255.5
21
6.5
31
0
39
0
210
0
220
0
230
1
0
LINE
5
C7
100
AcDbEntity
8
SK1
62
256
6
ByLayer
370
18
48
1
60
0
100
AcDbLine
10
256
20
6
30
0
11
256
21
-6
31
0
39
0
210
0
220
0
230
1
0
LINE
5
C8
100
AcDbEntity
8
1
62
256
6
ByLayer
370
18
48
1
60
0
100
AcDbLine
10
0
20
-31.5
30
0
11
0
21
0
31
0
39
0
210
0
220
0
230
1
0
LINE
5
C9
100
AcDbEntity
8
1
62
256
6
ByLayer
370
18
48
1
60
0
100
AcDbLine
10
5
20
-31.484123
30
0
11
5
21
-31.5
31
0
39
0
210
0
220
0
230
1
0
LINE
5
CA
100
AcDbEntity
8
1
62
256
6
ByLayer
370
18
48
1
60
0
100
AcDbLine
10
14.622501
20
24.336187
30
0
11
14.622501
21
30.467195
31
0
39
0
210
0
220
0
230
1
0
LINE
5
CB
100
AcDbEntity
8
1
62
256
6
ByLayer
370
18
48
1
60
0
100
AcDbLine
10
14.622501
20
-30.186918
30
0
11
14.622501
21
20
31
0
39
0
210
0
220
0
230
1
0
LINE
5
CC
100
AcDbEntity
8
1
62
256
6
ByLayer
370
18
48
1
60
0
100
AcDbLine
10
0
20
0
30
0
11
0
21
31.5
31
0
39
0
210
0
220
0
230
1
0
LINE
5
CD
100
AcDbEntity
8
1
62
256
6
ByLayer
370
18
48
1
60
0
100
AcDbLine
10
21.377499
20
20
30
0
11
21.377499
21
-30.186918
31
0
39
0
210
0
220
0
230
1
0
LINE
5
CE
100
AcDbEntity
8
1
62
256
6
ByLayer
370
18
48
1
60
0
100
AcDbLine
10
19.875
20
-27.460353
30
0
11
19.875
21
20
31
0
39
0
210
0
220
0
230
1
0
LINE
5
CF
100
AcDbEntity
8
1
62
256
6
ByLayer
370
18
48
1
60
0
100
AcDbLine
10
16.125
20
-27.460353
30
0
11
16.125
21
20
31
0
39
0
210
0
220
0
230
1
0
LINE
5
D0
100
AcDbEntity
8
1
62
256
6
ByLayer
370
18
48
1
60
0
100
AcDbLine
10
26
20
-30.186918
30
0
11
26
21
20
31
0
39
0
210
0
220
0
230
1
0
LINE
5
D1
100
AcDbEntity
8
1
62
256
6
ByLayer
370
18
48
1
60
0
100
AcDbLine
10
16.875
20
-26.5
30
0
11
16.875
21
26.5
31
0
39
0
210
0
220
0
230
1
0
LINE
5
D2
100
AcDbEntity
8
1
62
256
6
ByLayer
370
18
48
1
60
0
100
AcDbLine
10
19.125
20
-26.5
30
0
11
19.125
21
26.5
31
0
39
0
210
0
220
0
230
1
0
LINE
5
D3
100
AcDbEntity
8
SK1
62
256
6
ByLayer
370
18
48
1
60
0
100
AcDbLine
10
-0.5
20
-24.020428
30
0
11
-0.5
21
24.020428
31
0
39
0
210
0
220
0
230
1
0
LINE
5
D4
100
AcDbEntity
8
SK1
62
256
6
ByLayer
370
18
48
1
60
0
100
AcDbLine
10
-2
20
24.220428
30
0
11
-2
21
-24.220428
31
0
39
0
210
0
220
0
230
1
0
LINE
5
D5
100
AcDbEntity
8
SK1
62
256
6
ByLayer
370
18
48
1
60
0
100
AcDbLine
10
-1.32989
20
-24.040873
30
0
11
-1.32989
21
24.040873
31
0
39
0
210
0
220
0
230
1
0
LINE
5
D6
100
AcDbEntity
8
SK1
62
256
6
ByLayer
370
18
48
1
60
0
100
AcDbLine
10
-22
20
-23.218436
30
0
11
-22
21
-22.006574
31
0
39
0
210
0
220
0
230
1
0
LINE
5
D7
100
AcDbEntity
8
SK1
62
256
6
ByLayer
370
18
48
1
60
0
100
AcDbLine
10
-30.860044
20
-20.869818
30
0
11
-30.860044
21
20.869818
31
0
39
0
210
0
220
0
230
1
0
LINE
5
D8
100
AcDbEntity
8
SK1
62
256
6
ByLayer
370
18
48
1
60
0
100
AcDbLine
10
-26
20
21.882232
30
0
11
-26
21
23.018037
31
0
39
0
210
0
220
0
230
1
0
LINE
5
D9
100
AcDbEntity
8
SK1
62
256
6
ByLayer
370
18
48
1
60
0
100
AcDbLine
10
-1.174598
20
-24.020428
30
0
11
-1.174598
21
24.020428
31
0
39
0
210
0
220
0
230
1
0
LINE
5
DA
100
AcDbEntity
8
SK1
62
256
6
ByLayer
370
18
48
1
60
0
100
AcDbLine
10
-32
20
-19.787864
30
0
11
-32
21
19.787864
31
0
39
0
210
0
220
0
230
1
0
LINE
5
DB
100
AcDbEntity
8
1
62
256
6
ByLayer
370
18
48
1
60
0
100
AcDbLine
10
29
20
-19
30
0
11
29
21
0
31
0
39
0
210
0
220
0
230
1
0
LINE
5
DC
100
AcDbEntity
8
1
62
256
6
ByLayer
370
18
48
1
60
0
100
AcDbLine
10
29
20
0
30
0
11
29
21
19
31
0
39
0
210
0
220
0
230
1
0
LINE
5
DD
100
AcDbEntity
8
1
62
256
6
ByLayer
370
18
48
1
60
0
100
AcDbLine
10
21.377499
20
30.467195
30
0
11
21.377499
21
24.336187
31
0
39
0
210
0
220
0
230
1
0
LINE
5
DE
100
AcDbEntity
8
1
62
256
6
ByLayer
370
18
48
1
60
0
100
AcDbLine
10
26
20
24.336187
30
0
11
26
21
30.467195
31
0
39
0
210
0
220
0
230
1
0
LINE
5
DF
100
AcDbEntity
8
1
62
256
6
ByLayer
370
18
48
1
60
0
100
AcDbLine
10
16.125
20
20.858356
30
0
11
16.125
21
27.768165
31
0
39
0
210
0
220
0
230
1
0
LINE
5
E0
100
AcDbEntity
8
1
62
256
6
ByLayer
370
18
48
1
60
0
100
AcDbLine
10
19.875
20
20.858356
30
0
11
19.875
21
27.768165
31
0
39
0
210
0
220
0
230
1
0
LINE
5
E1
100
AcDbEntity
8
1
62
256
6
ByLayer
370
18
48
1
60
0
100
AcDbLine
10
224.75
20
-19
30
0
11
224.75
21
0
31
0
39
0
210
0
220
0
230
1
0
LINE
5
E2
100
AcDbEntity
8
1
62
256
6
ByLayer
370
18
48
1
60
0
100
AcDbLine
10
224.75
20
0
30
0
11
224.75
21
19
31
0
39
0
210
0
220
0
230
1
0
LINE
5
E3
100
AcDbEntity
8
SK1
62
256
6
ByLayer
370
18
48
1
60
0
100
AcDbLine
10
-23.5
20
-20.87
30
0
11
-23.5
21
-20.556099
31
0
39
0
210
0
220
0
230
1
0
LINE
5
E4
100
AcDbEntity
8
SK1
62
256
6
ByLayer
370
18
48
1
60
0
100
AcDbLine
10
-27.5
20
20.83291
30
0
11
-27.5
21
20.87
31
0
39
0
210
0
220
0
230
1
0
LINE
5
E5
100
AcDbEntity
8
1
62
256
6
ByLayer
370
18
48
1
60
0
100
AcDbLine
10
225.05
20
19
30
0
11
225.05
21
0
31
0
39
0
210
0
220
0
230
1
0
LINE
5
E6
100
AcDbEntity
8
1
62
256
6
ByLayer
370
18
48
1
60
0
100
AcDbLine
10
226.1
20
-19
30
0
11
226.1
21
-18.571047
31
0
39
0
210
0
220
0
230
1
0
LINE
5
E7
100
AcDbEntity
8
1
62
256
6
ByLayer
370
18
48
1
60
0
100
AcDbLine
10
225.05
20
0
30
0
11
225.05
21
-19
31
0
39
0
210
0
220
0
230
1
0
LINE
5
E8
100
AcDbEntity
8
1
62
256
6
ByLayer
370
18
48
1
60
0
100
AcDbLine
10
226.1
20
18.571047
30
0
11
226.1
21
19
31
0
39
0
210
0
220
0
230
1
0
LINE
5
E9
100
AcDbEntity
8
1
62
256
6
ByLayer
370
18
48
1
60
0
100
AcDbLine
10
229.6
20
-18.571047
30
0
11
229.6
21
18.571047
31
0
39
0
210
0
220
0
230
1
0
LINE
5
EA
100
AcDbEntity
8
1
62
256
6
ByLayer
370
18
48
1
60
0
100
AcDbLine
10
230.1
20
18.059175
30
0
11
230.1
21
-18.059175
31
0
39
0
210
0
220
0
230
1
0
LINE
5
EB
100
AcDbEntity
8
SK1
62
256
6
ByLayer
370
18
48
1
60
0
100
AcDbLine
10
230.294161
20
7.7
30
0
11
230.294161
21
0
31
0
39
0
210
0
220
0
230
1
0
LINE
5
EC
100
AcDbEntity
8
SK1
62
256
6
ByLayer
370
18
48
1
60
0
100
AcDbLine
10
230.294161
20
0
30
0
11
230.294161
21
-7.7
31
0
39
0
210
0
220
0
230
1
0
LINE
5
ED
100
AcDbEntity
8
SK1
62
256
6
ByLayer
370
18
48
1
60
0
100
AcDbLine
10
241
20
7.42265
30
0
11
241
21
-7.42265
31
0
39
0
210
0
220
0
230
1
0
LINE
5
EE
100
AcDbEntity
8
SK1
62
256
6
ByLayer
370
18
48
1
60
0
100
AcDbLine
10
240
20
-8
30
0
11
240
21
8
31
0
39
0
210
0
220
0
230
1
0
LINE
5
EF
100
AcDbEntity
8
SK1
62
256
6
ByLayer
370
18
48
1
60
0
100
AcDbLine
10
232.6
20
8
30
0
11
232.6
21
0
31
0
39
0
210
0
220
0
230
1
0
LINE
5
F0
100
AcDbEntity
8
SK1
62
256
6
ByLayer
370
18
48
1
60
0
100
AcDbLine
10
231.556685
20
7.720445
30
0
11
231.556685
21
0
31
0
39
0
210
0
220
0
230
1
0
LINE
5
F1
100
AcDbEntity
8
SK1
62
256
6
ByLayer
370
18
48
1
60
0
100
AcDbLine
10
232.6
20
0
30
0
11
232.6
21
-8
31
0
39
0
210
0
220
0
230
1
0
LINE
5
F2
100
AcDbEntity
8
SK1
62
256
6
ByLayer
370
18
48
1
60
0
100
AcDbLine
10
231.556685
20
0
30
0
11
231.556685
21
-7.720445
31
0
39
0
210
0
220
0
230
1
0
LINE
5
F3
100
AcDbEntity
8
SK1
62
256
6
ByLayer
370
18
48
1
60
0
100
AcDbLine
10
231.401393
20
7.7
30
0
11
231.401393
21
0
31
0
39
0
210
0
220
0
230
1
0
LINE
5
F4
100
AcDbEntity
8
SK1
62
256
6
ByLayer
370
18
48
1
60
0
100
AcDbLine
10
231.401393
20
0
30
0
11
231.401393
21
-7.7
31
0
39
0
210
0
220
0
230
1
0
LINE
5
F5
100
AcDbEntity
8
SK1
62
256
6
ByLayer
370
18
48
1
60
0
100
AcDbLine
10
251
20
-10
30
0
11
251
21
-5.469441
31
0
39
0
210
0
220
0
230
1
0
LINE
5
F6
100
AcDbEntity
8
SK1
62
256
6
ByLayer
370
18
48
1
60
0
100
AcDbLine
10
247
20
10
30
0
11
247
21
-5.469441
31
0
39
0
210
0
220
0
230
1
0
LINE
5
F7
100
AcDbEntity
8
SK1
62
256
6
ByLayer
370
18
48
1
60
0
100
AcDbLine
10
251
20
-5.469441
30
0
11
251
21
10
31
0
39
0
210
0
220
0
230
1
0
LINE
5
F8
100
AcDbEntity
8
SK1
62
256
6
ByLayer
370
18
48
1
60
0
100
AcDbLine
10
247
20
-5.469441
30
0
11
247
21
-10
31
0
39
0
210
0
220
0
230
1
0
LINE
5
F9
100
AcDbEntity
8
SK1
62
256
6
ByLayer
370
18
48
1
60
0
100
AcDbLine
10
246
20
-9
30
0
11
246
21
-4.922497
31
0
39
0
210
0
220
0
230
1
0
LINE
5
FA
100
AcDbEntity
8
SK1
62
256
6
ByLayer
370
18
48
1
60
0
100
AcDbLine
10
246
20
-4.922497
30
0
11
246
21
9
31
0
39
0
210
0
220
0
230
1
0
LINE
5
FB
100
AcDbEntity
8
1
62
256
6
ByLayer
370
18
48
1
60
0
100
AcDbLine
10
21.377499
20
20
30
0
11
19.875
21
20
31
0
39
0
210
0
220
0
230
1
0
LINE
5
FC
100
AcDbEntity
8
1
62
256
6
ByLayer
370
18
48
1
60
0
100
AcDbLine
10
16.125
20
20
30
0
11
14.622501
21
20
31
0
39
0
210
0
220
0
230
1
0
LINE
5
FD
100
AcDbEntity
8
1
62
256
6
ByLayer
370
18
48
1
60
0
100
AcDbLine
10
16.875
20
26.5
30
0
11
16.386133
21
26.5
31
0
39
0
210
0
220
0
230
1
0
LINE
5
FE
100
AcDbEntity
8
1
62
256
6
ByLayer
370
18
48
1
60
0
100
AcDbLine
10
16.172773
20
-26.5
30
0
11
16.875
21
-26.5
31
0
39
0
210
0
220
0
230
1
0
LINE
5
FF
100
AcDbEntity
8
1
62
256
6
ByLayer
370
18
48
1
60
0
100
AcDbLine
10
19.613867
20
26.5
30
0
11
19.125
21
26.5
31
0
39
0
210
0
220
0
230
1
0
LINE
5
100
100
AcDbEntity
8
1
62
256
6
ByLayer
370
18
48
1
60
0
100
AcDbLine
10
19.125
20
-26.5
30
0
11
19.827227
21
-26.5
31
0
39
0
210
0
220
0
230
1
0
MTEXT
5
138
100
AcDbEntity
8
SK6
62
256
6
ByLayer
370
13
48
1
60
0
100
AcDbMText
10
5.132143
20
62.296798
30
0
210
0
220
0
230
1
1
\W0.7507;HA06-Q16D-038-230
40
3.5
41
0
44
1.084337
50
0
71
7
72
5
7
iso_b_vert
0
DIMENSION
5
146
100
AcDbEntity
8
2
62
256
6
ByLayer
370
13
48
1
60
0
100
AcDbDimension
2
DimnDraft3D1
10
230
20
58.666811
30
0
11
111.916908
21
58.666811
31
0
70
32
71
5
72
1
41
1
210
0
220
0
230
1
3
Standard
100
AcDbAlignedDimension
13
0
23
1.5875
33
0
14
230
24
1.5875
34
0
50
0
100
AcDbRotatedDimension
1001
ACAD
1000
DSTYLE
1002
{
1070
   279
1070
     0
1070
   173
1070
     1
1070
   340
1005
139
1070
   271
1070
     1
1070
   272
1070
     2
1070
    77
1070
     1
1070
    73
1070
     0
1070
   171
1070
     3
1070
   274
1070
     4
1070
   177
1070
     7
1070
   176
1070
     7
1070
   178
1070
     7
1070
    78
1070
     8
1070
    48
1040
-0.005
1070
    41
1041
3.175
1070
   147
1041
1.5875
1070
    42
1041
1.5875
1070
    44
1041
3.175
1070
   140
1041
3.175
1070
   343
1005
0
1070
   344
1005
0
1002
}
0
DIMENSION
5
152
100
AcDbEntity
8
SK2
62
256
6
ByLayer
370
13
48
1
60
0
100
AcDbDimension
2
DimnDraft3D2
10
-50.006566
20
31.5
30
0
11
-49.212816
21
2.46898
31
0
70
33
71
5
72
1
41
1
210
0
220
0
230
1
3
Standard
100
AcDbAlignedDimension
13
-1.5875
23
-31.5
33
0
14
-1.5875
24
31.5
34
0
1001
ACAD
1000
DSTYLE
1002
{
1070
   279
1070
     0
1070
    74
1070
     0
1070
   173
1070
     1
1070
   340
1005
139
1070
   271
1070
     1
1070
   272
1070
     2
1070
    77
1070
     1
1070
    73
1070
     0
1070
   171
1070
     3
1070
   274
1070
     4
1070
   177
1070
     7
1070
   176
1070
     7
1070
   178
1070
     7
1070
    78
1070
     8
1070
    48
1040
-0.005
1070
    41
1041
3.175
1070
   147
1041
1.5875
1070
    42
1041
1.5875
1070
    44
1041
3.175
1070
   140
1041
3.175
1070
   343
1005
0
1070
   344
1005
0
1002
}
0
DIMENSION
5
15D
100
AcDbEntity
8
SK2
62
256
6
ByLayer
370
13
48
1
60
0
100
AcDbDimension
2
DimnDraft3D3
10
269.249159
20
8
30
0
11
263.692909
21
2.865855
31
0
70
33
71
5
72
1
41
1
210
0
220
0
230
1
3
Standard
100
AcDbAlignedDimension
13
241.5875
23
-8
33
0
14
241.5875
24
8
34
0
1001
ACAD
1000
DSTYLE
1002
{
1070
   279
1070
     0
1070
    74
1070
     0
1070
   173
1070
     1
1070
   340
1005
139
1070
   271
1070
     1
1070
   272
1070
     2
1070
    77
1070
     1
1070
    73
1070
     0
1070
   171
1070
     3
1070
   274
1070
     4
1070
   177
1070
     7
1070
   176
1070
     7
1070
   178
1070
     7
1070
    78
1070
     8
1070
    48
1040
-0.005
1070
    41
1041
3.175
1070
   147
1041
1.5875
1070
    42
1041
1.5875
1070
    44
1041
3.175
1070
   140
1041
3.175
1070
   343
1005
0
1070
   344
1005
0
1002
}
0
DIMENSION
5
168
100
AcDbEntity
8
SK2
62
256
6
ByLayer
370
13
48
1
60
0
100
AcDbDimension
2
DimnDraft3D4
10
282.140461
20
19
30
0
11
276.584211
21
2.46898
31
0
70
33
71
5
72
1
41
1
210
0
220
0
230
1
3
Standard
100
AcDbAlignedDimension
13
227.6875
23
-19
33
0
14
227.6875
24
19
34
0
1001
ACAD
1000
DSTYLE
1002
{
1070
   279
1070
     0
1070
    74
1070
     0
1070
   173
1070
     1
1070
   340
1005
139
1070
   271
1070
     1
1070
   272
1070
     2
1070
    77
1070
     1
1070
    73
1070
     0
1070
   171
1070
     3
1070
   274
1070
     4
1070
   177
1070
     7
1070
   176
1070
     7
1070
   178
1070
     7
1070
    78
1070
     8
1070
    48
1040
-0.005
1070
    41
1041
3.175
1070
   147
1041
1.5875
1070
    42
1041
1.5875
1070
    44
1041
3.175
1070
   140
1041
3.175
1070
   343
1005
0
1070
   344
1005
0
1002
}
0
DIMENSION
5
172
100
AcDbEntity
8
SK2
62
256
6
ByLayer
370
13
48
1
60
0
100
AcDbDimension
2
DimnDraft3D5
10
230
20
48.96391
30
0
11
126.813783
21
48.96391
31
0
70
32
71
5
72
1
41
1
210
0
220
0
230
1
3
Standard
100
AcDbAlignedDimension
13
29
23
20.5875
33
0
14
230
24
1.5875
34
0
50
0
100
AcDbRotatedDimension
1001
ACAD
1000
DSTYLE
1002
{
1070
   279
1070
     0
1070
   173
1070
     1
1070
   340
1005
139
1070
   271
1070
     1
1070
   272
1070
     2
1070
    77
1070
     1
1070
    73
1070
     0
1070
   171
1070
     3
1070
   274
1070
     4
1070
   177
1070
     7
1070
   176
1070
     7
1070
   178
1070
     7
1070
    78
1070
     8
1070
    48
1040
-0.005
1070
    41
1041
3.175
1070
   147
1041
1.5875
1070
    42
1041
1.5875
1070
    44
1041
3.175
1070
   140
1041
3.175
1070
   343
1005
0
1070
   344
1005
0
1002
}
0
ENDSEC
0
SECTION
2
OBJECTS
0
DICTIONARY
5
1dd
330
0
100
AcDbDictionary
280
0
281
1
3
ACAD_GROUP
350
1de
3
ACAD_MLINESTYLE
350
1df
0
DICTIONARY
5
1de
330
0
100
AcDbDictionary
280
0
281
1
0
DICTIONARY
5
1df
330
0
100
AcDbDictionary
280
0
281
1
3
Standard
350
18
0
MLINESTYLE
5
18
330
1df
100
AcDbMlineStyle
2
Standard
70
0
3

62
256
51
90
52
90
71
2
49
-0.5
62
256
6
ByLayer
49
0.5
62
256
6
ByLayer
0
RASTERVARIABLES
5
1cb
330

100
AcDbRasterVariables
90
0
70
1
71
1
72
1
0
ENDSEC
0
EOF
