0
SECTION
2
HEADER
9
$ACADVER
1
AC1015
9
$DWGCODEPAGE
3
ANSI_1252
9
$HANDSEED
5
25a
9
$ANGBASE
50
0
9
$ANGDIR
70
0
9
$ATTMODE
70
1
9
$AUNITS
70
0
9
$AUPREC
70
0
9
$CECOLOR
62
256
9
$CELTSCALE
40
1
9
$CELTYPE
6
ByLayer
9
$CELWEIGHT
370
18
9
$CLAYER
8
0
9
$CMLJUST
70
0
9
$CMLSCALE
40
1
9
$CMLSTYLE
2
Standard
9
$DIMSTYLE
2
Standard
9
$TEXTSIZE
40
0.2
9
$TEXTSTYLE
7
Standard
9
$LUNITS
70
2
9
$LUPREC
70
4
9
$EXTNAMES
290
1
9
$INSUNITS
70
4
9
$LTSCALE
40
1
9
$LWDISPLAY
290
1
9
$PDMODE
70
0
9
$PDSIZE
40
0
9
$PLINEGEN
70
0
0
ENDSEC
0
SECTION
2
CLASSES
0
CLASS
1
RASTERVARIABLES
2
AcDbRasterVariables
3
ISM
90
0
280
0
281
0
0
ENDSEC
0
SECTION
2
TABLES
0
TABLE
2
VPORT
5
250
100
AcDbSymbolTable
0
VPORT
5
1
100
AcDbSymbolTableRecord
100
AcDbViewportTableRecord
2
*Active
70
0
10
0
20
0
11
1
21
1
12
-1
22
1
13
0
23
0
14
0.5
24
0.5
15
10
25
10
16
0
26
0
36
1
17
0
27
0
37
0
0
ENDTAB
0
TABLE
2
LTYPE
5
251
100
AcDbSymbolTable
0
LTYPE
5
14
100
AcDbSymbolTableRecord
100
AcDbLinetypeTableRecord
70
0
2
ByBlock
3

72
65
73
0
40
0
0
LTYPE
5
15
100
AcDbSymbolTableRecord
100
AcDbLinetypeTableRecord
70
0
2
ByLayer
3

72
65
73
0
40
0
0
LTYPE
5
16
100
AcDbSymbolTableRecord
100
AcDbLinetypeTableRecord
70
0
2
CONTINUOUS
3
Solid line
72
65
73
0
40
0
0
LTYPE
5
6A
100
AcDbSymbolTableRecord
100
AcDbLinetypeTableRecord
70
0
2
CENTER
3
____ _ ____ _ ____ _ ____
72
65
73
4
40
47.5
49
22
74
0
49
-8.5
74
0
49
8.5
74
0
49
-8.5
74
0
0
LTYPE
5
6B
100
AcDbSymbolTableRecord
100
AcDbLinetypeTableRecord
70
0
2
DASHED
3
__ __ __ __ __ __ __ __ __
72
65
73
2
40
25.72
49
12.86
74
0
49
-12.86
74
0
0
ENDTAB
0
TABLE
2
LAYER
5
252
100
AcDbSymbolTable
0
LAYER
5
10
100
AcDbSymbolTableRecord
100
AcDbLayerTableRecord
2
0
70
0
62
7
6
CONTINUOUS
290
1
370
-3
390
0
0
LAYER
5
6D
100
AcDbSymbolTableRecord
100
AcDbLayerTableRecord
2
80
70
0
62
-6
6
CONTINUOUS
290
1
370
-3
390
0
0
LAYER
5
6F
100
AcDbSymbolTableRecord
100
AcDbLayerTableRecord
2
81
70
0
62
-3
6
CONTINUOUS
290
1
370
-3
390
0
0
LAYER
5
71
100
AcDbSymbolTableRecord
100
AcDbLayerTableRecord
2
1
70
0
62
4
6
CONTINUOUS
290
1
370
-3
390
0
0
LAYER
5
E0
100
AcDbSymbolTableRecord
100
AcDbLayerTableRecord
2
4
70
0
62
-2
6
CENTER
290
1
370
-3
390
0
0
LAYER
5
19E
100
AcDbSymbolTableRecord
100
AcDbLayerTableRecord
2
2
70
0
62
7
6
CONTINUOUS
290
1
370
-3
390
0
0
LAYER
5
23c
100
AcDbSymbolTableRecord
100
AcDbLayerTableRecord
2
SK1
70
0
62
4
6
CONTINUOUS
290
1
370
-3
390
0
0
LAYER
5
23d
100
AcDbSymbolTableRecord
100
AcDbLayerTableRecord
2
SK4
70
0
62
2
6
CENTER
290
1
370
-3
390
0
0
LAYER
5
23e
100
AcDbSymbolTableRecord
100
AcDbLayerTableRecord
2
SK6
70
0
62
5
6
CONTINUOUS
290
1
370
-3
390
0
0
LAYER
5
23f
100
AcDbSymbolTableRecord
100
AcDbLayerTableRecord
2
SK2
70
0
62
7
6
CONTINUOUS
290
1
370
-3
390
0
0
ENDTAB
0
TABLE
2
STYLE
5
253
100
AcDbSymbolTable
0
STYLE
5
11
100
AcDbSymbolTableRecord
100
AcDbTextStyleTableRecord
2
Standard
3
txt
70
0
71
0
40
0
41
1
42
0
50
0
0
STYLE
5
198
100
AcDbSymbolTableRecord
100
AcDbTextStyleTableRecord
2
iso_b_vert
3
simplex.shx
70
0
71
0
40
0
41
1
42
0
50
0
0
STYLE
5
199
100
AcDbSymbolTableRecord
100
AcDbTextStyleTableRecord
2
DWGDirectTextStyle
3
isocp
70
0
71
0
40
0
41
1
42
0
50
0
0
STYLE
5
19D
100
AcDbSymbolTableRecord
100
AcDbTextStyleTableRecord
2
iso-1
3
isocp.shx
70
0
71
0
40
0
41
1
42
0
50
0
0
ENDTAB
0
TABLE
2
DIMSTYLE
5
254
100
AcDbSymbolTable
100
AcDbDimStyleTable
0
DIMSTYLE
105
27
100
AcDbSymbolTableRecord
100
AcDbDimStyleTableRecord
2
Standard
70
0
3
<>
41
0.18
42
0.0625
44
0.18
140
0.18
147
0.09
73
0
74
0
77
1
271
2
275
0
278
52
280
0
340
11
0
ENDTAB
0
TABLE
2
VIEW
5
255
100
AcDbSymbolTable
0
ENDTAB
0
TABLE
2
UCS
5
256
100
AcDbSymbolTable
0
ENDTAB
0
TABLE
2
APPID
5
257
100
AcDbSymbolTable
0
APPID
5
12
100
AcDbSymbolTableRecord
100
AcDbRegAppTableRecord
2
ACAD
70
0
0
ENDTAB
0
TABLE
2
BLOCK_RECORD
5
258
100
AcDbSymbolTable
0
BLOCK_RECORD
5
1F
100
AcDbSymbolTableRecord
100
AcDbBlockTableRecord
2
*Model_Space
340
0
70
0
0
BLOCK_RECORD
5
1B
100
AcDbSymbolTableRecord
100
AcDbBlockTableRecord
2
*Paper_Space
340
0
70
0
0
BLOCK_RECORD
5
23
100
AcDbSymbolTableRecord
100
AcDbBlockTableRecord
2
*Paper_Space0
340
0
70
0
0
BLOCK_RECORD
5
19B
100
AcDbSymbolTableRecord
100
AcDbBlockTableRecord
2
DimnDraft3D1
340
0
70
0
0
BLOCK_RECORD
5
1A7
100
AcDbSymbolTableRecord
100
AcDbBlockTableRecord
2
DimnDraft3D2
340
0
70
0
0
BLOCK_RECORD
5
1B1
100
AcDbSymbolTableRecord
100
AcDbBlockTableRecord
2
DimnDraft3D3
340
0
70
0
0
BLOCK_RECORD
5
1BC
100
AcDbSymbolTableRecord
100
AcDbBlockTableRecord
2
DimnDraft3D4
340
0
70
0
0
BLOCK_RECORD
5
1C7
100
AcDbSymbolTableRecord
100
AcDbBlockTableRecord
2
DimnDraft3D5
340
0
70
0
0
BLOCK_RECORD
5
1D1
100
AcDbSymbolTableRecord
100
AcDbBlockTableRecord
2
DimnDraft3D6
340
0
70
0
0
BLOCK_RECORD
5
1DA
100
AcDbSymbolTableRecord
100
AcDbBlockTableRecord
2
DimnDraft3D7
340
0
70
0
0
ENDTAB
0
ENDSEC
0
SECTION
2
BLOCKS
0
BLOCK
5
20
100
AcDbEntity
8
0
100
AcDbBlockBegin
2
*Model_Space
70
0
10
0
20
0
30
0
3
*Model_Space
0
ENDBLK
5
21
100
AcDbEntity
8
0
100
AcDbBlockEnd
0
BLOCK
5
1C
100
AcDbEntity
8
0
100
AcDbBlockBegin
2
*Paper_Space
70
0
10
0
20
0
30
0
3
*Paper_Space
0
ENDBLK
5
1D
100
AcDbEntity
8
0
100
AcDbBlockEnd
0
BLOCK
5
24
100
AcDbEntity
8
0
100
AcDbBlockBegin
2
*Paper_Space0
70
0
10
0
20
0
30
0
3
*Paper_Space0
0
ENDBLK
5
25
100
AcDbEntity
8
0
100
AcDbBlockEnd
0
BLOCK
5
1A4
100
AcDbEntity
8
0
100
AcDbBlockBegin
2
DimnDraft3D1
70
0
10
0
20
0
30
0
3
DimnDraft3D1
0
MTEXT
5
19C
100
AcDbEntity
8
2
62
256
6
ByLayer
370
13
48
1
60
0
100
AcDbMText
10
48.051053
20
35.458772
30
0
210
0
220
0
230
1
1
\W0.5929;100
40
3.5
41
0
44
0.963855
50
0
71
7
72
5
7
iso-1
0
LINE
5
19F
100
AcDbEntity
8
2
62
256
6
ByLayer
370
13
48
1
60
0
100
AcDbLine
10
100
20
8.5875
30
0
11
100
21
37.741615
31
0
39
0
210
0
220
0
230
1
0
LINE
5
1A0
100
AcDbEntity
8
2
62
256
6
ByLayer
370
13
48
1
60
0
100
AcDbLine
10
0
20
1.5875
30
0
11
0
21
37.741615
31
0
39
0
210
0
220
0
230
1
0
LINE
5
1A1
100
AcDbEntity
8
2
62
256
6
ByLayer
370
13
48
1
60
0
100
AcDbLine
10
100
20
34.566615
30
0
11
0
21
34.566615
31
0
39
0
210
0
220
0
230
1
0
SOLID
5
1A2
100
AcDbEntity
8
2
62
256
6
ByLayer
370
13
48
1
60
0
100
AcDbTrace
10
100
20
34.566615
30
0
11
96.825002
21
34.148618
31
0
12
96.824998
22
34.984611
32
0
13
100
23
34.566615
33
0
39
0
210
0
220
0
230
1
0
SOLID
5
1A3
100
AcDbEntity
8
2
62
256
6
ByLayer
370
13
48
1
60
0
100
AcDbTrace
10
0
20
34.566615
30
0
11
3.174998
21
34.984611
31
0
12
3.175002
22
34.148618
32
0
13
0
23
34.566615
33
0
39
0
210
0
220
0
230
1
0
ENDBLK
5
1A5
100
AcDbEntity
8
0
100
AcDbBlockEnd
0
BLOCK
5
1AE
100
AcDbEntity
8
0
100
AcDbBlockBegin
2
DimnDraft3D2
70
0
10
0
20
0
30
0
3
DimnDraft3D2
0
MTEXT
5
1A8
100
AcDbEntity
8
2
62
256
6
ByLayer
370
13
48
1
60
0
100
AcDbMText
10
111.823587
20
17.155786
30
0
210
0
220
0
230
1
1
\W0.5211;7
40
3.5
41
0
44
0.963855
50
90
71
7
72
5
7
iso-1
0
LINE
5
1A9
100
AcDbEntity
8
2
62
256
6
ByLayer
370
13
48
1
60
0
100
AcDbLine
10
101.5875
20
7
30
0
11
115.890744
21
7
31
0
39
0
210
0
220
0
230
1
0
LINE
5
1AA
100
AcDbEntity
8
2
62
256
6
ByLayer
370
13
48
1
60
0
100
AcDbLine
10
106.5875
20
0
30
0
11
115.890744
21
0
31
0
39
0
210
0
220
0
230
1
0
LINE
5
1AB
100
AcDbEntity
8
2
62
256
6
ByLayer
370
13
48
1
60
0
100
AcDbLine
10
112.715744
20
0
30
0
11
112.715744
21
17.791312
31
0
39
0
210
0
220
0
230
1
0
SOLID
5
1AC
100
AcDbEntity
8
2
62
256
6
ByLayer
370
13
48
1
60
0
100
AcDbTrace
10
112.715744
20
7
30
0
11
113.133741
21
3.825002
31
0
12
112.297747
22
3.824998
32
0
13
112.715744
23
7
33
0
39
0
210
0
220
0
230
1
0
SOLID
5
1AD
100
AcDbEntity
8
2
62
256
6
ByLayer
370
13
48
1
60
0
100
AcDbTrace
10
112.715744
20
0
30
0
11
112.297747
21
3.174998
31
0
12
113.133741
22
3.175002
32
0
13
112.715744
23
0
33
0
39
0
210
0
220
0
230
1
0
ENDBLK
5
1AF
100
AcDbEntity
8
0
100
AcDbBlockEnd
0
BLOCK
5
1B9
100
AcDbEntity
8
0
100
AcDbBlockBegin
2
DimnDraft3D3
70
0
10
0
20
0
30
0
3
DimnDraft3D3
0
MTEXT
5
1B2
100
AcDbEntity
8
2
62
256
6
ByLayer
370
13
48
1
60
0
100
AcDbMText
10
109.680989
20
-16.085189
30
0
210
0
220
0
230
1
1
\W0.7802;91%%d
40
3.5
41
0
44
0.963855
50
0
71
7
72
5
7
iso-1
0
LINE
5
1B3
100
AcDbEntity
8
2
62
256
6
ByLayer
370
13
48
1
60
0
100
AcDbLine
10
99.828498
20
-3.347963
30
0
11
99.518177
21
-21.126263
31
0
39
0
210
0
220
0
230
1
0
LINE
5
1B4
100
AcDbEntity
8
2
62
256
6
ByLayer
370
13
48
1
60
0
100
AcDbLine
10
106.5875
20
0
30
0
11
121.016418
21
0
31
0
39
0
210
0
220
0
230
1
0
ARC
5
1B5
100
AcDbEntity
8
2
62
256
6
ByLayer
370
13
48
1
60
0
100
AcDbCircle
39
0
10
99.886937
20
0
30
0
40
17.9544807430189
210
0
220
0
230
1
100
AcDbArc
50
269
51
294.100667
0
ARC
5
1B6
100
AcDbEntity
8
2
62
256
6
ByLayer
370
13
48
1
60
0
100
AcDbCircle
39
0
10
99.886937
20
0
30
0
40
17.9544807430189
210
0
220
0
230
1
100
AcDbArc
50
325.614862
51
0
0
SOLID
5
1B7
100
AcDbEntity
8
2
62
256
6
ByLayer
370
13
48
1
60
0
100
AcDbTrace
10
99.573588
20
-17.951746
30
0
11
102.736325
21
-17.449323
31
0
12
102.758597
22
-18.285019
32
0
13
99.573588
23
-17.951746
33
0
39
0
210
0
220
0
230
1
0
SOLID
5
1B8
100
AcDbEntity
8
2
62
256
6
ByLayer
370
13
48
1
60
0
100
AcDbTrace
10
117.841418
20
0
30
0
11
118.119054
21
-3.190338
31
0
12
117.283873
22
-3.15349
32
0
13
117.841418
23
0
33
0
39
0
210
0
220
0
230
1
0
ENDBLK
5
1BA
100
AcDbEntity
8
0
100
AcDbBlockEnd
0
BLOCK
5
1C4
100
AcDbEntity
8
0
100
AcDbBlockBegin
2
DimnDraft3D4
70
0
10
0
20
0
30
0
3
DimnDraft3D4
0
MTEXT
5
1BD
100
AcDbEntity
8
SK2
62
256
6
ByLayer
370
13
48
1
60
0
100
AcDbMText
10
68.891974
20
19.674641
30
0
210
0
220
0
230
1
1
\W0.6385;60
40
3.5
41
0
44
0.963855
50
0
71
7
72
5
7
iso-1
0
LINE
5
1BF
100
AcDbEntity
8
SK2
62
256
6
ByLayer
370
13
48
1
60
0
100
AcDbLine
10
100
20
8.5875
30
0
11
100
21
21.957484
31
0
39
0
210
0
220
0
230
1
0
LINE
5
1C0
100
AcDbEntity
8
SK2
62
256
6
ByLayer
370
13
48
1
60
0
100
AcDbLine
10
40
20
3.5875
30
0
11
40
21
21.957484
31
0
39
0
210
0
220
0
230
1
0
LINE
5
1C1
100
AcDbEntity
8
SK2
62
256
6
ByLayer
370
13
48
1
60
0
100
AcDbLine
10
100
20
18.782484
30
0
11
40
21
18.782484
31
0
39
0
210
0
220
0
230
1
0
SOLID
5
1C2
100
AcDbEntity
8
SK2
62
256
6
ByLayer
370
13
48
1
60
0
100
AcDbTrace
10
100
20
18.782484
30
0
11
96.825002
21
18.364487
31
0
12
96.824998
22
19.20048
32
0
13
100
23
18.782484
33
0
39
0
210
0
220
0
230
1
0
SOLID
5
1C3
100
AcDbEntity
8
SK2
62
256
6
ByLayer
370
13
48
1
60
0
100
AcDbTrace
10
40
20
18.782484
30
0
11
43.174998
21
19.20048
31
0
12
43.175002
22
18.364487
32
0
13
40
23
18.782484
33
0
39
0
210
0
220
0
230
1
0
ENDBLK
5
1C5
100
AcDbEntity
8
0
100
AcDbBlockEnd
0
BLOCK
5
1CE
100
AcDbEntity
8
0
100
AcDbBlockBegin
2
DimnDraft3D5
70
0
10
0
20
0
30
0
3
DimnDraft3D5
0
MTEXT
5
1C8
100
AcDbEntity
8
SK2
62
256
6
ByLayer
370
13
48
1
60
0
100
AcDbMText
10
19.811184
20
-39.640225
30
0
210
0
220
0
230
1
1
\W0.6072;151,25
40
3.5
41
0
44
0.963855
50
0
71
7
72
5
7
iso-1
0
LINE
5
1C9
100
AcDbEntity
8
SK2
62
256
6
ByLayer
370
13
48
1
60
0
100
AcDbLine
10
100
20
5.4125
30
0
11
100
21
-43.707382
31
0
39
0
210
0
220
0
230
1
0
LINE
5
1CA
100
AcDbEntity
8
SK2
62
256
6
ByLayer
370
13
48
1
60
0
100
AcDbLine
10
-51.25
20
-6.0875
30
0
11
-51.25
21
-43.707382
31
0
39
0
210
0
220
0
230
1
0
LINE
5
1CB
100
AcDbEntity
8
SK2
62
256
6
ByLayer
370
13
48
1
60
0
100
AcDbLine
10
100
20
-40.532382
30
0
11
-51.25
21
-40.532382
31
0
39
0
210
0
220
0
230
1
0
SOLID
5
1CC
100
AcDbEntity
8
SK2
62
256
6
ByLayer
370
13
48
1
60
0
100
AcDbTrace
10
100
20
-40.532382
30
0
11
96.825002
21
-40.950379
31
0
12
96.824998
22
-40.114385
32
0
13
100
23
-40.532382
33
0
39
0
210
0
220
0
230
1
0
SOLID
5
1CD
100
AcDbEntity
8
SK2
62
256
6
ByLayer
370
13
48
1
60
0
100
AcDbTrace
10
-51.25
20
-40.532382
30
0
11
-48.075002
21
-40.114385
31
0
12
-48.074998
22
-40.950379
32
0
13
-51.25
23
-40.532382
33
0
39
0
210
0
220
0
230
1
0
ENDBLK
5
1CF
100
AcDbEntity
8
0
100
AcDbBlockEnd
0
BLOCK
5
1D7
100
AcDbEntity
8
0
100
AcDbBlockBegin
2
DimnDraft3D6
70
0
10
0
20
0
30
0
3
DimnDraft3D6
0
MTEXT
5
1D2
100
AcDbEntity
8
SK2
62
256
6
ByLayer
370
13
48
1
60
0
100
AcDbMText
10
24.520383
20
-19.240139
30
0
210
0
220
0
230
1
1
\W0.5144;10
40
3.5
41
0
44
0.963855
50
90
71
7
72
5
7
iso-1
0
MTEXT
5
1D3
100
AcDbEntity
8
SK2
62
256
6
ByLayer
370
13
48
1
60
0
100
AcDbMText
10
24.520383
20
-24.462795
30
0
210
0
220
0
230
1
1
%%c
40
3.5
41
0
44
0.963855
50
90
71
7
72
5
7
iso-1
0
LINE
5
1D4
100
AcDbEntity
8
SK2
62
256
6
ByLayer
370
13
48
1
60
0
100
AcDbLine
10
26.28754
20
5
30
0
11
26.28754
21
-27.115139
31
0
39
0
210
0
220
0
230
1
0
SOLID
5
1D5
100
AcDbEntity
8
SK2
62
256
6
ByLayer
370
13
48
1
60
0
100
AcDbTrace
10
26.28754
20
5
30
0
11
26.705537
21
1.825002
31
0
12
25.869543
22
1.824998
32
0
13
26.28754
23
5
33
0
39
0
210
0
220
0
230
1
0
SOLID
5
1D6
100
AcDbEntity
8
SK2
62
256
6
ByLayer
370
13
48
1
60
0
100
AcDbTrace
10
26.28754
20
-5
30
0
11
25.869543
21
-1.825002
31
0
12
26.705537
22
-1.824998
32
0
13
26.28754
23
-5
33
0
39
0
210
0
220
0
230
1
0
ENDBLK
5
1D8
100
AcDbEntity
8
0
100
AcDbBlockEnd
0
BLOCK
5
1E0
100
AcDbEntity
8
0
100
AcDbBlockBegin
2
DimnDraft3D7
70
0
10
0
20
0
30
0
3
DimnDraft3D7
0
MTEXT
5
1DB
100
AcDbEntity
8
SK2
62
256
6
ByLayer
370
13
48
1
60
0
100
AcDbMText
10
71.212499
20
-26.499757
30
0
210
0
220
0
230
1
1
\W0.6600;10,45
40
3.5
41
0
44
0.963855
50
90
71
7
72
5
7
iso-1
0
MTEXT
5
1DC
100
AcDbEntity
8
SK2
62
256
6
ByLayer
370
13
48
1
60
0
100
AcDbMText
10
71.212499
20
-31.722413
30
0
210
0
220
0
230
1
1
%%c
40
3.5
41
0
44
0.963855
50
90
71
7
72
5
7
iso-1
0
LINE
5
1DD
100
AcDbEntity
8
SK2
62
256
6
ByLayer
370
13
48
1
60
0
100
AcDbLine
10
72.979656
20
5.225
30
0
11
72.979656
21
-34.374757
31
0
39
0
210
0
220
0
230
1
0
SOLID
5
1DE
100
AcDbEntity
8
SK2
62
256
6
ByLayer
370
13
48
1
60
0
100
AcDbTrace
10
72.979656
20
5.225
30
0
11
73.397652
21
2.050002
31
0
12
72.561659
22
2.049998
32
0
13
72.979656
23
5.225
33
0
39
0
210
0
220
0
230
1
0
SOLID
5
1DF
100
AcDbEntity
8
SK2
62
256
6
ByLayer
370
13
48
1
60
0
100
AcDbTrace
10
72.979656
20
-5.225
30
0
11
72.561659
21
-2.050002
31
0
12
73.397652
22
-2.049998
32
0
13
72.979656
23
-5.225
33
0
39
0
210
0
220
0
230
1
0
ENDBLK
5
1E1
100
AcDbEntity
8
0
100
AcDbBlockEnd
0
ENDSEC
0
SECTION
2
ENTITIES
0
ARC
5
E5
100
AcDbEntity
8
1
62
256
6
ByLayer
370
18
48
1
60
1
100
AcDbCircle
39
0
10
70.850559
20
66.215891
30
6.362713
40
1.65
210
0.0683945395744008
220
-0.0693440978973894
230
-0.995245488833385
100
AcDbArc
50
165.468507
51
26.496368
0
ARC
5
E6
100
AcDbEntity
8
1
62
256
6
ByLayer
370
18
48
1
60
1
100
AcDbCircle
39
0
10
67.507982
20
62.818198
30
6.362713
40
0.396875
210
0.0683945395744008
220
-0.0693440978973894
230
-0.995245488833385
100
AcDbArc
50
165.468507
51
285.468507
0
ARC
5
E7
100
AcDbEntity
8
1
62
256
6
ByLayer
370
18
48
1
60
1
100
AcDbCircle
39
0
10
75.464336
20
65.019981
30
6.362713
40
0.396875
210
0.0683945395744008
220
-0.0693440978973894
230
-0.995245488833385
100
AcDbArc
50
285.468507
51
45.468507
0
ARC
5
E8
100
AcDbEntity
8
1
62
256
6
ByLayer
370
18
48
1
60
1
100
AcDbCircle
39
0
10
69.579359
20
70.809494
30
6.362713
40
0.396875
210
0.0683945395744008
220
-0.0693440978973894
230
-0.995245488833385
100
AcDbArc
50
45.468507
51
165.468507
0
ARC
5
E9
100
AcDbEntity
8
1
62
256
6
ByLayer
370
18
48
1
60
1
100
AcDbCircle
39
0
10
70.850559
20
66.215891
30
6.362713
40
1.65
210
0.0683945395744008
220
-0.0693440978973894
230
-0.995245488833385
100
AcDbArc
50
153.503632
51
165.468507
0
ARC
5
EA
100
AcDbEntity
8
1
62
256
6
ByLayer
370
18
48
1
60
1
100
AcDbCircle
39
0
10
70.850559
20
66.215891
30
6.362713
40
1.65
210
0.0683945395744008
220
-0.0693440978973894
230
-0.995245488833385
100
AcDbArc
50
26.496368
51
153.503632
0
ARC
5
EB
100
AcDbEntity
8
1
62
256
6
ByLayer
370
18
48
1
60
1
100
AcDbCircle
39
0
10
70.850559
20
66.215891
30
6.860299
40
1.62827492246153
210
0.0683945395744008
220
-0.0693440978973894
230
-0.995245488833385
100
AcDbArc
50
153.503632
51
165.486944
0
ARC
5
EC
100
AcDbEntity
8
1
62
256
6
ByLayer
370
18
48
1
60
1
100
AcDbCircle
39
0
10
70.850559
20
66.215891
30
6.860299
40
1.62827492246153
210
0.0683945395744008
220
-0.0693440978973894
230
-0.995245488833385
100
AcDbArc
50
345.468507
51
26.496368
0
ARC
5
ED
100
AcDbEntity
8
1
62
256
6
ByLayer
370
18
48
1
60
1
100
AcDbCircle
39
0
10
70.850559
20
66.215891
30
6.860299
40
1.62827492246153
210
0.0683945395744008
220
-0.0693440978973894
230
-0.995245488833385
100
AcDbArc
50
165.486944
51
345.468507
0
ARC
5
EE
100
AcDbEntity
8
1
62
256
6
ByLayer
370
18
48
1
60
1
100
AcDbCircle
39
0
10
-70.850559
20
66.215891
30
-7.093871
40
1.5586117724725
210
-0.0683945395744008
220
0.0693440978973894
230
0.995245488833385
100
AcDbArc
50
14.531493
51
188.47101
0
ARC
5
EF
100
AcDbEntity
8
1
62
256
6
ByLayer
370
18
48
1
60
1
100
AcDbCircle
39
0
10
-70.850559
20
66.215891
30
-7.093871
40
1.5586117724725
210
-0.0683945395744008
220
0.0693440978973894
230
0.995245488833385
100
AcDbArc
50
351.529232
51
3.333367
0
ARC
5
F0
100
AcDbEntity
8
1
62
256
6
ByLayer
370
18
48
1
60
1
100
AcDbCircle
39
0
10
-70.850559
20
66.215891
30
-7.093871
40
1.5586117724725
210
-0.0683945395744008
220
0.0693440978973894
230
0.995245488833385
100
AcDbArc
50
3.333367
51
14.531493
0
ARC
5
F1
100
AcDbEntity
8
1
62
256
6
ByLayer
370
18
48
1
60
1
100
AcDbCircle
39
0
10
70.850559
20
66.215891
30
6.393022
40
1.55
210
0.0683945395744008
220
-0.0693440978973894
230
-0.995245488833385
100
AcDbArc
50
255.468507
51
0
0
ARC
5
F3
100
AcDbEntity
8
1
62
256
6
ByLayer
370
18
48
1
60
1
100
AcDbCircle
39
0
10
70.850559
20
66.215891
30
6.208445
40
1.03505
210
0.0683945395744008
220
-0.0693440978973894
230
-0.995245488833385
100
AcDbArc
50
74.990493
51
195.468498
0
ARC
5
F4
100
AcDbEntity
8
1
62
256
6
ByLayer
370
18
48
1
60
0
100
AcDbCircle
39
0
10
70.850559
20
66.215891
30
6.270382
40
0.927770677953782
210
0.0683945395744008
220
-0.0693440978973894
230
-0.995245488833385
100
AcDbArc
50
150.46216
51
150.474853
0
ARC
5
F5
100
AcDbEntity
8
1
62
256
6
ByLayer
370
18
48
1
60
0
100
AcDbCircle
39
0
10
70.850559
20
66.215891
30
6.270382
40
0.927770677953782
210
0.0683945395744008
220
-0.0693440978973894
230
-0.995245488833385
100
AcDbArc
50
120.46216
51
120.474853
0
ARC
5
F6
100
AcDbEntity
8
1
62
256
6
ByLayer
370
18
48
1
60
1
100
AcDbCircle
39
0
10
70.850559
20
66.215891
30
6.208445
40
1.03505
210
0.0683945395744008
220
-0.0693440978973894
230
-0.995245488833385
100
AcDbArc
50
257.977253
51
15.468515
0
ARC
5
F7
100
AcDbEntity
8
1
62
256
6
ByLayer
370
18
48
1
60
1
100
AcDbCircle
39
0
10
70.850559
20
66.215891
30
6.208445
40
1.03505
210
0.0683945395744008
220
-0.0693440978973894
230
-0.995245488833385
100
AcDbArc
50
195.468498
51
255.94652
0
ARC
5
F8
100
AcDbEntity
8
1
62
256
6
ByLayer
370
18
48
1
60
1
100
AcDbCircle
39
0
10
70.850559
20
66.215891
30
6.208445
40
1.03505
210
0.0683945395744008
220
-0.0693440978973894
230
-0.995245488833385
100
AcDbArc
50
15.468515
51
72.95976
0
ARC
5
F9
100
AcDbEntity
8
1
62
256
6
ByLayer
370
18
48
1
60
0
100
AcDbCircle
39
0
10
70.850559
20
66.215891
30
6.270382
40
0.927770677953782
210
0.0683945395744008
220
-0.0693440978973894
230
-0.995245488833385
100
AcDbArc
50
60.46216
51
60.579492
0
ARC
5
FA
100
AcDbEntity
8
1
62
256
6
ByLayer
370
18
48
1
60
0
100
AcDbCircle
39
0
10
70.850559
20
66.215891
30
6.270382
40
0.927770677953782
210
0.0683945395744008
220
-0.0693440978973894
230
-0.995245488833385
100
AcDbArc
50
330.46216
51
330.474853
0
ARC
5
FB
100
AcDbEntity
8
1
62
256
6
ByLayer
370
18
48
1
60
0
100
AcDbCircle
39
0
10
70.850559
20
66.215891
30
6.270382
40
0.927770677953782
210
0.0683945395744008
220
-0.0693440978973894
230
-0.995245488833385
100
AcDbArc
50
300.46216
51
300.474853
0
ARC
5
FC
100
AcDbEntity
8
1
62
256
6
ByLayer
370
18
48
1
60
0
100
AcDbCircle
39
0
10
70.850559
20
66.215891
30
6.270382
40
0.927770677953782
210
0.0683945395744008
220
-0.0693440978973894
230
-0.995245488833385
100
AcDbArc
50
270.357522
51
270.474853
0
ARC
5
FD
100
AcDbEntity
8
1
62
256
6
ByLayer
370
18
48
1
60
1
100
AcDbCircle
39
0
10
70.850559
20
66.215891
30
7.108445
40
1.54999999999998
210
0.0683945395744008
220
-0.0693440978973894
230
-0.995245488833385
100
AcDbArc
50
0
51
180
0
ARC
5
FE
100
AcDbEntity
8
1
62
256
6
ByLayer
370
18
48
1
60
1
100
AcDbCircle
39
0
10
70.850559
20
66.215891
30
6.393022
40
1.55
210
0.0683945395744008
220
-0.0693440978973894
230
-0.995245488833385
100
AcDbArc
50
180
51
255.468507
0
ARC
5
FF
100
AcDbEntity
8
1
62
256
6
ByLayer
370
18
48
1
60
1
100
AcDbCircle
39
0
10
70.850559
20
66.215891
30
6.393022
40
1.55
210
0.0683945395744008
220
-0.0693440978973894
230
-0.995245488833385
100
AcDbArc
50
0
51
180
0
ARC
5
100
100
AcDbEntity
8
1
62
256
6
ByLayer
370
18
48
1
60
0
100
AcDbCircle
39
0
10
-70.850559
20
66.215891
30
-7.108445
40
0.927770677953782
210
-0.0683945395744008
220
0.0693440978973894
230
0.995245488833385
100
AcDbArc
50
239.525147
51
239.53784
0
ARC
5
101
100
AcDbEntity
8
1
62
256
6
ByLayer
370
18
48
1
60
0
100
AcDbCircle
39
0
10
-70.850559
20
66.215891
30
-7.108445
40
0.927770677953782
210
-0.0683945395744008
220
0.0693440978973894
230
0.995245488833385
100
AcDbArc
50
269.525147
51
269.642478
0
ARC
5
102
100
AcDbEntity
8
1
62
256
6
ByLayer
370
18
48
1
60
1
100
AcDbCircle
39
0
10
-70.850559
20
66.215891
30
-7.108445
40
0.7912
210
-0.0683945395744008
220
0.0693440978973894
230
0.995245488833385
100
AcDbArc
50
14.531493
51
59.529171
0
ARC
5
103
100
AcDbEntity
8
1
62
256
6
ByLayer
370
18
48
1
60
1
100
AcDbCircle
39
0
10
-70.850559
20
66.215891
30
-7.108445
40
0.7912
210
-0.0683945395744008
220
0.0693440978973894
230
0.995245488833385
100
AcDbArc
50
86.978004
51
125.984707
0
ARC
5
104
100
AcDbEntity
8
1
62
256
6
ByLayer
370
18
48
1
60
1
100
AcDbCircle
39
0
10
-70.850559
20
66.215891
30
-7.108445
40
0.7912
210
-0.0683945395744008
220
0.0693440978973894
230
0.995245488833385
100
AcDbArc
50
147.843624
51
180
0
ARC
5
105
100
AcDbEntity
8
1
62
256
6
ByLayer
370
18
48
1
60
1
100
AcDbCircle
39
0
10
70.850559
20
66.215891
30
7.308445
40
0.7912
210
0.0683945395744008
220
-0.0693440978973894
230
-0.995245488833385
100
AcDbArc
50
180
51
0
0
ARC
5
106
100
AcDbEntity
8
1
62
256
6
ByLayer
370
18
48
1
60
1
100
AcDbCircle
39
0
10
-70.850559
20
66.215891
30
-7.108445
40
0.7912
210
-0.0683945395744008
220
0.0693440978973894
230
0.995245488833385
100
AcDbArc
50
0
51
7.92046
0
ARC
5
107
100
AcDbEntity
8
1
62
256
6
ByLayer
370
18
48
1
60
1
100
AcDbCircle
39
0
10
-70.850559
20
66.215891
30
-7.108445
40
0.7912
210
-0.0683945395744008
220
0.0693440978973894
230
0.995245488833385
100
AcDbArc
50
180
51
0
0
ARC
5
108
100
AcDbEntity
8
1
62
256
6
ByLayer
370
18
48
1
60
1
100
AcDbCircle
39
0
10
0
20
0
30
45.75
40
5.225
210
1
220
0
230
0
100
AcDbArc
50
0
51
180
0
ARC
5
109
100
AcDbEntity
8
1
62
256
6
ByLayer
370
18
48
1
60
1
100
AcDbCircle
39
0
10
67.344085
20
62.651689
30
6.592713
40
0.875000000000031
210
0.0683945395744008
220
-0.0693440978973894
230
-0.995245488833385
100
AcDbArc
50
93.741536
51
117.451173
0
ARC
5
10A
100
AcDbEntity
8
1
62
256
6
ByLayer
370
18
48
1
60
1
100
AcDbCircle
39
0
10
-67.344085
20
62.651689
30
-8.742713
40
0.875000000000031
210
-0.0683945395744008
220
0.0693440978973894
230
0.995245488833385
100
AcDbArc
50
199.74833
51
225.866901
0
ARC
5
10B
100
AcDbEntity
8
1
62
256
6
ByLayer
370
18
48
1
60
1
100
AcDbCircle
39
0
10
67.344085
20
62.651689
30
9.042713
40
0.875000000000047
210
0.0683945395744008
220
-0.0693440978973894
230
-0.995245488833385
100
AcDbArc
50
189.737463
51
255.468507
0
ARC
5
10C
100
AcDbEntity
8
1
62
256
6
ByLayer
370
18
48
1
60
1
100
AcDbCircle
39
0
10
67.344085
20
62.651689
30
9.042713
40
0.875000000000047
210
0.0683945395744008
220
-0.0693440978973894
230
-0.995245488833385
100
AcDbArc
50
255.468507
51
337.950535
0
ARC
5
10D
100
AcDbEntity
8
1
62
256
6
ByLayer
370
18
48
1
60
1
100
AcDbCircle
39
0
10
-68.367337
20
62.933973
30
-8.742713
40
1
210
-0.0683945395744008
220
0.0693440978973894
230
0.995245488833385
100
AcDbArc
50
284.531493
51
294.454179
0
ARC
5
10E
100
AcDbEntity
8
1
62
256
6
ByLayer
370
18
48
1
60
1
100
AcDbCircle
39
0
10
-68.464138
20
62.908881
30
-6.592713
40
1
210
-0.0683945395744008
220
0.0693440978973894
230
0.995245488833385
100
AcDbArc
50
194.531493
51
197.542885
0
ARC
5
10F
100
AcDbEntity
8
1
62
256
6
ByLayer
370
18
48
1
60
1
100
AcDbCircle
39
0
10
-68.464138
20
62.908881
30
-8.742713
40
1
210
-0.0683945395744008
220
0.0693440978973894
230
0.995245488833385
100
AcDbArc
50
194.531493
51
284.531493
0
ARC
5
110
100
AcDbEntity
8
1
62
256
6
ByLayer
370
18
48
1
60
1
100
AcDbCircle
39
0
10
0
20
0
30
-50.75
40
5
210
1
220
0
230
0
100
AcDbArc
50
0
51
180
0
ARC
5
111
100
AcDbEntity
8
1
62
256
6
ByLayer
370
18
48
1
60
1
100
AcDbCircle
39
0
10
0
20
0
30
-51.25
40
4.5
210
1
220
0
230
0
100
AcDbArc
50
0
51
180
0
ARC
5
112
100
AcDbEntity
8
1
62
256
6
ByLayer
370
18
48
1
60
1
100
AcDbCircle
39
0
10
0
20
0
30
-45.25
40
5
210
1
220
0
230
0
100
AcDbArc
50
87.659065
51
92.340935
0
ARC
5
113
100
AcDbEntity
8
1
62
256
6
ByLayer
370
18
48
1
60
1
100
AcDbCircle
39
0
10
0
20
0
30
40
40
5
210
1
220
0
230
0
100
AcDbArc
50
87.659065
51
92.340935
0
CIRCLE
5
F2
100
AcDbEntity
8
1
62
256
6
ByLayer
370
18
48
1
60
1
100
AcDbCircle
10
70.850559
20
66.215891
30
6.208445
40
1.09999999999999
39
0
210
0.0683945395744008
220
-0.0693440978973894
230
-0.995245488833385
0
ELLIPSE
5
114
100
AcDbEntity
8
1
62
256
6
ByLayer
370
18
48
1
60
1
100
AcDbEllipse
10
96.363565
20
2.868054
30
0.184291
11
-0.116538132017849
21
-0.213328083120543
31
0.00685506407665215
210
-0.0683945395744008
220
0.0693440978973894
230
0.995245488833385
40
0.500075
41
-1.77832219602545
42
-1.62634561417025
0
ELLIPSE
5
115
100
AcDbEntity
8
1
62
256
6
ByLayer
370
18
48
1
60
1
100
AcDbEllipse
10
97.925344
20
1.937157
30
0.356479
11
-0.133170390293295
21
-0.203414435302816
31
0.00502133698911357
210
0.0683945395744008
220
-0.0693440978973894
230
-0.995245488833385
40
0.500075
41
-1.77832219602366
42
-1.62634561408597
0
ELLIPSE
5
116
100
AcDbEntity
8
1
62
256
6
ByLayer
370
18
48
1
60
1
100
AcDbEllipse
10
98.002799
20
2.785625
30
-0.601615
11
-0.117339425533896
21
0.211110430053077
31
-0.0227729123782749
210
-0.0683945395744008
220
0.0693440978973894
230
0.995245488833385
40
0.502473
41
-1.06738459713094
42
0.116527332060182
0
ELLIPSE
5
117
100
AcDbEntity
8
1
62
256
6
ByLayer
370
18
48
1
60
1
100
AcDbEllipse
10
96.409221
20
1.894766
30
-0.649057
11
-0.117339331995607
21
0.211110482343903
31
-0.022772909593587
210
0.0683945395744008
220
-0.0693440978973894
230
-0.995245488833385
40
0.502473
41
-2.07420878286849
42
0.116527332033966
0
ELLIPSE
5
118
100
AcDbEntity
8
1
62
256
6
ByLayer
370
18
48
1
60
1
100
AcDbEllipse
10
96.736804
20
1.557131
30
-0.60302
11
-0.20746183094751
21
0.123657503002517
31
-0.0228729239733146
210
0.0683945395744008
220
-0.0693440978973894
230
-0.995245488833385
40
0.481302
41
2.0648048469528
42
2.99577671023528
0
ELLIPSE
5
119
100
AcDbEntity
8
1
62
256
6
ByLayer
370
18
48
1
60
1
100
AcDbEllipse
10
97.221909
20
3.251074
30
-0.687709
11
-0.241995053067606
21
0.00307062173898173
31
-0.0168441554535113
210
-0.0683945395744008
220
0.0693440978973894
230
0.995245488833385
40
0.481302
41
-2.46854501776376
42
0.145815943353976
0
ELLIPSE
5
11A
100
AcDbEntity
8
1
62
256
6
ByLayer
370
18
48
1
60
1
100
AcDbEllipse
10
97.675215
20
3.123261
30
-0.647652
11
-0.20746183094751
21
0.123657503002517
31
-0.0228729239733146
210
-0.0683945395744008
220
0.0693440978973894
230
0.995245488833385
40
0.481302
41
1.07678780663453
42
3.02023555192569
0
ELLIPSE
5
11B
100
AcDbEntity
8
1
62
256
6
ByLayer
370
18
48
1
60
1
100
AcDbEllipse
10
96.42512
20
2.805644
30
-0.71143
11
-0.116538132017849
21
-0.213328083120543
31
0.00685506407665215
210
-0.0683945395744008
220
0.0693440978973894
230
0.995245488833385
40
0.500075
41
2.92571938404567
42
-0.50738993872823
0
ELLIPSE
5
11C
100
AcDbEntity
8
1
62
256
6
ByLayer
370
18
48
1
60
1
100
AcDbEllipse
10
96.295137
20
2.351753
30
-0.688738
11
0.00422406519840078
21
0.241996533142294
31
-0.0165709148905594
210
0.0683945395744008
220
-0.0693440978973895
230
-0.995245488833385
40
0.481302
41
0.442218924220636
42
3.02023555195083
0
ELLIPSE
5
11D
100
AcDbEntity
8
1
62
256
6
ByLayer
370
18
48
1
60
1
100
AcDbEllipse
10
96.764343
20
3.134818
30
-0.711054
11
-0.211685896145912
21
-0.118339030139776
31
-0.00630200908275538
210
-0.0683945395744008
220
0.0693440978973895
230
0.995245488833385
40
0.481302
41
0.145815943354032
42
2.99577671023577
0
ELLIPSE
5
11E
100
AcDbEntity
8
1
62
256
6
ByLayer
370
18
48
1
60
1
100
AcDbEllipse
10
90.686987
20
0
30
0
11
1.40003453045261
21
-0.364477575313055
31
-5.21227216260758
210
-0.965925826289069
220
-0.0180543039241735
230
-0.258188574916849
40
0.965926
41
1.86658688399158
42
-1.64060949687467
0
ELLIPSE
5
11F
100
AcDbEntity
8
1
62
256
6
ByLayer
370
18
48
1
60
1
100
AcDbEllipse
10
90.686987
20
0
30
0
11
1.40003453045261
21
-0.364477575313055
31
-5.21227216260758
210
-0.965925826289069
220
-0.0180543039241735
230
-0.258188574916849
40
0.965926
41
-1.64060949687467
42
-1.61866149175942
0
ELLIPSE
5
120
100
AcDbEntity
8
1
62
256
6
ByLayer
370
18
48
1
60
1
100
AcDbEllipse
10
122.544195
20
0
30
0
11
34.548702480597
21
5.22499999999999
31
0
210
0.149535343443709
220
-0.988756381047006
230
0
40
0.149535
41
2.77598892631333
42
3.14159265358979
0
ELLIPSE
5
121
100
AcDbEntity
8
1
62
256
6
ByLayer
370
18
48
1
60
1
100
AcDbEllipse
10
93.128222
20
3.07618
30
0.035503
11
-1.00234049910984
21
-0.00364958081370966
31
0.000255203551232912
210
7.80625564189563E-18
220
-0.0697564737441256
230
-0.997564050259824
40
0.997658
41
0.544710675608099
42
2.06294829977221
0
ELLIPSE
5
122
100
AcDbEntity
8
1
62
256
6
ByLayer
370
18
48
1
60
1
100
AcDbEllipse
10
93.076596
20
2.990672
30
0.041482
11
-1.00234049910984
21
-0.00364958081370966
31
0.000255203551232912
210
7.80625564189563E-18
220
-0.0697564737441256
230
-0.997564050259824
40
0.997658
41
0.371527133609273
42
0.544710675608109
0
ELLIPSE
5
123
100
AcDbEntity
8
1
62
256
6
ByLayer
370
18
48
1
60
1
100
AcDbEllipse
10
92.146435
20
2.47657
30
0.077432
11
0.877047936721145
21
0.00319338321198453
31
-0.000223303107328
210
7.69783542464708E-18
220
-0.0697564737441256
230
-0.997564050259824
40
0.997658
41
1.2774464249548
42
2.36912940687658
0
ELLIPSE
5
124
100
AcDbEntity
8
1
62
256
6
ByLayer
370
18
48
1
60
1
100
AcDbEllipse
10
92.146435
20
2.47657
30
0.077432
11
0.877047936721145
21
0.00319338321198453
31
-0.000223303107328
210
7.69783542464708E-18
220
-0.0697564737441256
230
-0.997564050259824
40
0.997658
41
2.36912940687658
42
-1.57299169317035
0
ELLIPSE
5
125
100
AcDbEntity
8
1
62
256
6
ByLayer
370
18
48
1
60
1
100
AcDbEllipse
10
96.432304
20
0.003207
30
-0.017593
11
0.442247255858167
21
1.12098990074052
31
-6.14928498361822
210
-0.997506401762602
220
0.0126571382480681
230
-0.0694318031884228
40
0.997502
41
-1.36344917467454
42
-1.32530708349374
0
ELLIPSE
5
126
100
AcDbEntity
8
1
62
256
6
ByLayer
370
18
48
1
60
1
100
AcDbEllipse
10
178.843747
20
0.392885
30
5.638788
11
139.786196240249
21
0.666087885889212
31
9.55987580340001
210
0.0683945395744008
220
-0.0693440978973894
230
-0.995245488833385
40
0.05523
41
-2.20035070523648
42
-2.19417843103418
0
ELLIPSE
5
127
100
AcDbEntity
8
1
62
256
6
ByLayer
370
18
48
1
60
1
100
AcDbEllipse
10
97.13406
20
0.003222
30
-0.017673
11
0.444254964271283
21
1.12607895629692
31
-6.17720142862205
210
0.997506401762602
220
-0.012657138248068
230
0.0694318031884228
40
0.997502
41
0.984971428986165
42
1.33293134685834
0
ELLIPSE
5
128
100
AcDbEntity
8
1
62
256
6
ByLayer
370
18
48
1
60
1
100
AcDbEllipse
10
227.050685
20
0.472802
30
6.785791
11
168.220529804763
21
0.801578840218554
31
11.5044790957166
210
0.0683945395744008
220
-0.0693440978973894
230
-0.995245488833385
40
0.05523
41
-2.45095401575856
42
-2.44933556659301
0
ELLIPSE
5
129
100
AcDbEntity
8
1
62
256
6
ByLayer
370
18
48
1
60
0
100
AcDbEllipse
10
97.144455
20
2.402605
30
0
11
0.783161055933849
21
0.772436897402349
31
0
210
0
220
0
230
-1
40
0.995245
41
0
42
6.28318530717959
0
ELLIPSE
5
12A
100
AcDbEntity
8
1
62
256
6
ByLayer
370
18
48
1
60
0
100
AcDbEllipse
10
90.686987
20
0
30
0
11
-0.105171461937289
21
5.22492443121707
31
0
210
0
220
0
230
-1
40
0.267196
41
-2.77061064409259
42
0.00537828222077128
0
ELLIPSE
5
12B
100
AcDbEntity
8
1
62
256
6
ByLayer
370
18
48
1
60
0
100
AcDbEllipse
10
90.686987
20
1E-06
30
0
11
-0.105171444580368
21
5.22492329337496
31
0
210
0
220
0
230
-1
40
0.267196
41
0.00537828308960991
42
0.0273262905948419
0
ELLIPSE
5
12C
100
AcDbEntity
8
1
62
256
6
ByLayer
370
18
48
1
60
0
100
AcDbEllipse
10
92.146435
20
2.47657
30
0
11
0.877052361439227
21
0.00156896848041485
31
0
210
0
220
0
230
-1
40
0.995228
41
2.36726839244237
42
-1.57485270760462
0
ELLIPSE
5
12D
100
AcDbEntity
8
1
62
256
6
ByLayer
370
18
48
1
60
0
100
AcDbEllipse
10
93.076596
20
2.990672
30
0
11
1.00234555733601
21
0.00179304255501951
31
0
210
0
220
0
230
-1
40
0.995228
41
-2.7719265984532
42
-2.59874305658028
0
ELLIPSE
5
12E
100
AcDbEntity
8
1
62
256
6
ByLayer
370
18
48
1
60
0
100
AcDbEllipse
10
93.128222
20
3.07618
30
0
11
1.00234555593009
21
0.00179310686054686
31
0
210
0
220
0
230
-1
40
0.995228
41
-2.5987429923905
42
-1.08050536822584
0
ELLIPSE
5
12F
100
AcDbEntity
8
1
62
256
6
ByLayer
370
18
48
1
60
0
100
AcDbEllipse
10
93.256162
20
2.808612
30
0
11
0.711964532773496
21
0.702215423567973
31
0
210
0
220
0
230
1
40
0.995245
41
1.82441864218789
42
1.99760218441884
0
ELLIPSE
5
130
100
AcDbEntity
8
1
62
256
6
ByLayer
370
18
48
1
60
0
100
AcDbEllipse
10
93.160497
20
3.043456
30
0
11
0.711965948422429
21
0.702213888569632
31
0
210
0
220
0
230
1
40
0.995246
41
0.25362440189218
42
0.306183106471279
0
ELLIPSE
5
131
100
AcDbEntity
8
1
62
256
6
ByLayer
370
18
48
1
60
0
100
AcDbEllipse
10
93.307545
20
2.894366
30
0
11
0.711964596303274
21
0.70221536127505
31
0
210
0
220
0
230
1
40
0.995245
41
0.253622404474902
42
1.82441873126985
0
ELLIPSE
5
132
100
AcDbEntity
8
1
62
256
6
ByLayer
370
18
48
1
60
0
100
AcDbEllipse
10
97.157079
20
2.389806
30
0
11
1.10354512425278
21
1.08843380999348
31
0
210
0
220
0
230
-1
40
0.995245
41
3.14159265358979
42
-1.82441873125403
0
ELLIPSE
5
133
100
AcDbEntity
8
1
62
256
6
ByLayer
370
18
48
1
60
0
100
AcDbEllipse
10
97.157079
20
2.389806
30
0
11
1.10354512426912
21
1.08843380997736
31
0
210
0
220
0
230
-1
40
0.995245
41
0
42
3.14159265358979
0
ELLIPSE
5
134
100
AcDbEntity
8
1
62
256
6
ByLayer
370
18
48
1
60
0
100
AcDbEllipse
10
97.144455
20
2.402605
30
0
11
0.736918955197285
21
0.726828009891845
31
0
210
0
220
0
230
-1
40
0.995245
41
-2.87161642657902
42
-1.81607581693169
0
ELLIPSE
5
135
100
AcDbEntity
8
1
62
256
6
ByLayer
370
18
48
1
60
0
100
AcDbEllipse
10
97.144455
20
2.402605
30
0
11
0.736918955402152
21
0.726828009689373
31
0
210
0
220
0
230
-1
40
0.995245
41
1.30883100828553
42
-2.87161642685592
0
ELLIPSE
5
136
100
AcDbEntity
8
1
62
256
6
ByLayer
370
18
48
1
60
0
100
AcDbEllipse
10
96.363565
20
2.868054
30
0
11
0.116724095085117
21
0.213226713392489
31
0
210
0
220
0
230
1
40
0.498092
41
1.36501971505686
42
1.51699629378098
0
ELLIPSE
5
137
100
AcDbEntity
8
1
62
256
6
ByLayer
370
18
48
1
60
0
100
AcDbEllipse
10
97.144455
20
2.402605
30
0
11
0.736918955407293
21
0.726828009684033
31
0
210
0
220
0
230
-1
40
0.995245
41
-1.7806328462641
42
0.2699765155101
0
ELLIPSE
5
138
100
AcDbEntity
8
1
62
256
6
ByLayer
370
18
48
1
60
0
100
AcDbEllipse
10
96.295137
20
2.351753
30
0
11
0.00457166388667864
21
0.241991044506647
31
0
210
0
220
0
230
-1
40
0.481255
41
0.439234376810684
42
3.01725100453935
0
ELLIPSE
5
139
100
AcDbEntity
8
1
62
256
6
ByLayer
370
18
48
1
60
0
100
AcDbEllipse
10
96.409221
20
1.894766
30
0
11
-0.117162786851319
21
0.211208796094566
31
0
210
0
220
0
230
-1
40
0.504529
41
-2.07586704826115
42
0.11486906664141
0
ELLIPSE
5
13A
100
AcDbEntity
8
1
62
256
6
ByLayer
370
18
48
1
60
0
100
AcDbEllipse
10
178.841404
20
0.393052
30
0
11
139.78350679047
21
0.668217797350372
31
0
210
0
220
0
230
-1
40
0.055224
41
-2.20007996604542
42
-2.19390760363638
0
ELLIPSE
5
13B
100
AcDbEntity
8
1
62
256
6
ByLayer
370
18
48
1
60
0
100
AcDbEllipse
10
96.432304
20
0.003209
30
0
11
0.0796991336000386
21
6.25059645831463
31
0
210
0
220
0
230
-1
40
0.069594
41
0.0261430972243168
42
0.0642851951986047
0
ELLIPSE
5
13C
100
AcDbEntity
8
1
62
256
6
ByLayer
370
18
48
1
60
0
100
AcDbEllipse
10
97.13406
20
0.003222
30
0
11
0.0800609862643557
21
6.27897507003159
31
0
210
0
220
0
230
1
40
0.069594
41
-0.40462083819123
42
-0.0566609203164645
0
ELLIPSE
5
13D
100
AcDbEntity
8
1
62
256
6
ByLayer
370
18
48
1
60
0
100
AcDbEllipse
10
98.002799
20
2.785625
30
0
11
-0.117162880692565
21
0.211208743737124
31
0
210
0
220
0
230
1
40
0.504529
41
-1.06572633417817
42
0.118185595013596
0
ELLIPSE
5
13E
100
AcDbEntity
8
1
62
256
6
ByLayer
370
18
48
1
60
0
100
AcDbEllipse
10
97.675215
20
3.123261
30
0
11
-0.2075492019925
21
0.12351118730405
31
0
210
0
220
0
230
1
40
0.483309
41
1.07532786351969
42
3.01877560881168
0
ELLIPSE
5
13F
100
AcDbEntity
8
1
62
256
6
ByLayer
370
18
48
1
60
0
100
AcDbEllipse
10
97.925344
20
1.937157
30
0
11
0.133302868315983
21
0.203327838818183
31
0
210
0
220
0
230
-1
40
0.497909
41
1.36196305652389
42
1.51393963413736
0
ELLIPSE
5
140
100
AcDbEntity
8
1
62
256
6
ByLayer
370
18
48
1
60
0
100
AcDbEllipse
10
97.144455
20
2.402605
30
0
11
0.736918955817508
21
0.726828009279277
31
0
210
0
220
0
230
-1
40
0.995245
41
0.26997651495579
42
1.27338803674527
0
ELLIPSE
5
141
100
AcDbEntity
8
1
62
256
6
ByLayer
370
18
48
1
60
0
100
AcDbEllipse
10
92.146435
20
2.47657
30
0
11
0.877052361438644
21
0.00156896846488423
31
0
210
0
220
0
230
1
40
0.995228
41
-2.3672683924251
42
-1.27558541050254
0
ELLIPSE
5
142
100
AcDbEntity
8
1
62
256
6
ByLayer
370
18
48
1
60
0
100
AcDbEllipse
10
92.35088
20
2.269286
30
0
11
0.622969021722614
21
0.614438441157996
31
0
210
0
220
0
230
-1
40
0.995245
41
-2.97164186084979
42
-1.8244187312007
0
ELLIPSE
5
143
100
AcDbEntity
8
1
62
256
6
ByLayer
370
18
48
1
60
0
100
AcDbEllipse
10
92.35088
20
2.269286
30
0
11
0.622969021783738
21
0.614438441096742
31
0
210
0
220
0
230
-1
40
0.995245
41
-1.82441873130023
42
-0.384835754630942
0
ELLIPSE
5
144
100
AcDbEntity
8
1
62
256
6
ByLayer
370
18
48
1
60
0
100
AcDbEllipse
10
92.400641
20
2.452235
30
0
11
0.282560949154694
21
0.278691721509235
31
0
210
0
220
0
230
-1
40
0.995245
41
2.88797024912614
42
-1.30081995566015
0
ELLIPSE
5
145
100
AcDbEntity
8
1
62
256
6
ByLayer
370
18
48
1
60
0
100
AcDbEllipse
10
99.604058
20
6.47917
30
0
11
0.282560949159655
21
0.278691721504119
31
0
210
0
220
0
230
-1
40
0.995245
41
-1.30081995567824
42
0.793575146715185
0
ELLIPSE
5
146
100
AcDbEntity
8
1
62
256
6
ByLayer
370
18
48
1
60
0
100
AcDbEllipse
10
99.460318
20
-1.755682
30
0
11
0.28256094916161
21
0.278691721502185
31
0
210
0
220
0
230
-1
40
0.995245
41
0.793575146707933
42
2.88797024910144
0
ELLIPSE
5
147
100
AcDbEntity
8
1
62
256
6
ByLayer
370
18
48
1
60
0
100
AcDbEllipse
10
92.330361
20
2.29009
30
0
11
0.622969021784318
21
0.61443844109618
31
0
210
0
220
0
230
1
40
0.995245
41
0.344673388108791
42
0.80052844648947
0
ELLIPSE
5
148
100
AcDbEntity
8
1
62
256
6
ByLayer
370
18
48
1
60
0
100
AcDbEllipse
10
92.183313
20
2.439179
30
0
11
0.622969021170725
21
0.614438441748813
31
0
210
0
220
0
230
-1
40
0.995245
41
1.63609845298187
42
2.04990967265229
0
ELLIPSE
5
149
100
AcDbEntity
8
1
62
256
6
ByLayer
370
18
48
1
60
0
100
AcDbEllipse
10
97.157079
20
2.389806
30
0
11
1.10354512426062
21
1.08843380998615
31
0
210
0
220
0
230
-1
40
0.995245
41
-1.82441873126098
42
-2.87878027666737E-16
0
ELLIPSE
5
14A
100
AcDbEntity
8
1
62
256
6
ByLayer
370
18
48
1
60
0
100
AcDbEllipse
10
97.20601
20
2.340196
30
0
11
1.10354512426887
21
1.0884338099776
31
0
210
0
220
0
230
-1
40
0.995245
41
0
42
3.14159265358979
0
ELLIPSE
5
14B
100
AcDbEntity
8
1
62
256
6
ByLayer
370
18
48
1
60
0
100
AcDbEllipse
10
97.205013
20
2.341206
30
0
11
1.10967640004198
21
1.09448112970638
31
0
210
0
220
0
230
1
40
0.995245
41
2.99374985807589
42
-3.0834144327348
0
ELLIPSE
5
14C
100
AcDbEntity
8
1
62
256
6
ByLayer
370
18
48
1
60
0
100
AcDbEllipse
10
97.205013
20
2.341206
30
0
11
1.10967638734455
21
1.09448114510966
31
0
210
0
220
0
230
1
40
0.995245
41
-3.08341444546348
42
-2.88797026289479
0
ELLIPSE
5
14D
100
AcDbEntity
8
1
62
256
6
ByLayer
370
18
48
1
60
0
100
AcDbEllipse
10
97.205013
20
2.341206
30
0
11
1.10967640138083
21
1.09448112889551
31
0
210
0
220
0
230
1
40
0.995245
41
-2.88797024911589
42
0.147847012305222
0
ELLIPSE
5
14E
100
AcDbEntity
8
1
62
256
6
ByLayer
370
18
48
1
60
0
100
AcDbEllipse
10
97.221909
20
3.251074
30
0
11
-0.242000043980836
21
0.00272290156352555
31
0
210
0
220
0
230
1
40
0.48133
41
-2.47153031097499
42
0.142830650142326
0
ELLIPSE
5
14F
100
AcDbEntity
8
1
62
256
6
ByLayer
370
18
48
1
60
0
100
AcDbEllipse
10
96.764343
20
3.134818
30
0
11
0.211599538243545
21
0.11849382016862
31
0
210
0
220
0
230
-1
40
0.479336
41
0.147340704745129
42
2.99730147162723
0
ELLIPSE
5
150
100
AcDbEntity
8
1
62
256
6
ByLayer
370
18
48
1
60
0
100
AcDbEllipse
10
96.42512
20
2.805644
30
0
11
0.116724093331635
21
0.213226708575688
31
0
210
0
220
0
230
1
40
0.498092
41
-0.214124009870397
42
2.63595197453595
0
ELLIPSE
5
151
100
AcDbEntity
8
1
62
256
6
ByLayer
370
18
48
1
60
0
100
AcDbEllipse
10
97.155006
20
2.391908
30
0
11
1.17474156430268
21
1.15865536705975
31
0
210
0
220
0
230
-1
40
0.995245
41
2.67914380104869
42
2.88797026647026
0
ELLIPSE
5
152
100
AcDbEntity
8
1
62
256
6
ByLayer
370
18
48
1
60
0
100
AcDbEllipse
10
97.155006
20
2.391908
30
0
11
1.17474158389916
21
1.15865534610517
31
0
210
0
220
0
230
-1
40
0.995245
41
2.88797024911598
42
0.462448869946471
0
ELLIPSE
5
153
100
AcDbEntity
8
1
62
256
6
ByLayer
370
18
48
1
60
0
100
AcDbEllipse
10
97.155006
20
2.391908
30
0
11
1.1747415838982
21
1.15865534610619
31
0
210
0
220
0
230
-1
40
0.995245
41
0.462448869947362
42
2.67914378364371
0
ELLIPSE
5
154
100
AcDbEntity
8
1
62
256
6
ByLayer
370
18
48
1
60
0
100
AcDbEllipse
10
97.189038
20
2.357403
30
0
11
1.15927410112873
21
1.1433996593909
31
0
210
0
220
0
230
-1
40
0.995245
41
2.6791437806692
42
2.88829203396686
0
ELLIPSE
5
155
100
AcDbEntity
8
1
62
256
6
ByLayer
370
18
48
1
60
0
100
AcDbEllipse
10
97.189038
20
2.357403
30
0
11
1.15927409783946
21
1.14339966293314
31
0
210
0
220
0
230
-1
40
0.995245
41
2.88829203693097
42
-0.253622404473493
0
ELLIPSE
5
156
100
AcDbEntity
8
1
62
256
6
ByLayer
370
18
48
1
60
0
100
AcDbEllipse
10
97.189038
20
2.357403
30
0
11
1.15927409794464
21
1.14339966285155
31
0
210
0
220
0
230
-1
40
0.995245
41
-0.253622404552783
42
0.462448869863616
0
ELLIPSE
5
157
100
AcDbEntity
8
1
62
256
6
ByLayer
370
18
48
1
60
0
100
AcDbEllipse
10
97.219689
20
2.326327
30
0
11
0.563306388594125
21
0.555592793841909
31
0
210
0
220
0
230
-1
40
0.995245
41
3.14159265358979
42
0
0
ELLIPSE
5
158
100
AcDbEntity
8
1
62
256
6
ByLayer
370
18
48
1
60
0
100
AcDbEllipse
10
97.20601
20
2.340196
30
0
11
0.563306390400108
21
0.555592792132981
31
0
210
0
220
0
230
1
40
0.995245
41
-0.561234625801932
42
3.12456618470614E-09
0
ELLIPSE
5
159
100
AcDbEntity
8
1
62
256
6
ByLayer
370
18
48
1
60
0
100
AcDbEllipse
10
97.20601
20
2.340196
30
0
11
0.563306388594377
21
0.555592793841656
31
0
210
0
220
0
230
1
40
0.995245
41
0
42
3.14159265358979
0
ELLIPSE
5
15A
100
AcDbEntity
8
1
62
256
6
ByLayer
370
18
48
1
60
0
100
AcDbEllipse
10
97.20601
20
2.340196
30
0
11
0.563306397060862
21
0.55559278137284
31
0
210
0
220
0
230
1
40
0.995245
41
-3.14159263494407
42
-3.00335452566105
0
ELLIPSE
5
15B
100
AcDbEntity
8
1
62
256
6
ByLayer
370
18
48
1
60
0
100
AcDbEllipse
10
97.20601
20
2.340196
30
0
11
0.563306388785737
21
0.555592793641909
31
0
210
0
220
0
230
1
40
0.995245
41
-2.88797024876826
42
-2.10261262231384
0
ELLIPSE
5
15C
100
AcDbEntity
8
1
62
256
6
ByLayer
370
18
48
1
60
0
100
AcDbEllipse
10
96.736804
20
1.557131
30
0
11
-0.207549201999894
21
0.123511187305732
31
0
210
0
220
0
230
-1
40
0.483309
41
2.06626479008894
42
2.99723665335535
0
ELLIPSE
5
15D
100
AcDbEntity
8
1
62
256
6
ByLayer
370
18
48
1
60
0
100
AcDbEllipse
10
97.20601
20
2.340196
30
0
11
0.563306388648533
21
0.555592793787861
31
0
210
0
220
0
230
1
40
0.995245
41
-1.62354011543379
42
-0.942744704406066
0
POINT
5
6C
100
AcDbEntity
8
80
62
256
6
ByLayer
370
18
48
1
60
0
100
AcDbPoint
10
0
20
0
30
0
39
0
210
0
220
0
230
1
50
360
0
POINT
5
6E
100
AcDbEntity
8
81
62
256
6
ByLayer
370
18
48
1
60
0
100
AcDbPoint
10
100
20
7
30
0
39
0
210
0
220
0
230
1
50
360
0
SPLINE
5
15E
100
AcDbEntity
8
1
62
256
6
ByLayer
370
18
48
1
60
1
100
AcDbSpline
70
4
71
3
72
10
73
6
40
0
40
0
40
0
40
0
40
0.422922094337155
40
0.938113131827878
40
1
40
1
40
1
40
1
41
1
10
96.24129930636
20
1.89771306370341
30
0.243497207292718
41
1
10
96.2493759534099
20
1.88308738161539
30
0.245101323274521
41
1
10
96.2689972463135
20
1.85190441629678
30
0.247984346539429
41
1
10
96.2938878423874
20
1.82101181367166
30
0.249744996843329
41
1
10
96.309721522903
20
1.80464867270749
30
0.250010794024599
41
1
10
96.3114361407019
20
1.80290727801921
30
0.250032212443158
0
SPLINE
5
15F
100
AcDbEntity
8
1
62
256
6
ByLayer
370
18
48
1
60
1
100
AcDbSpline
70
4
71
3
72
12
73
8
40
0
40
0
40
0
40
0
40
0.167297285154969
40
0.436375523022852
40
0.655420573932831
40
0.874113349306665
40
1
40
1
40
1
40
1
41
1
10
96.893462700933
20
1.50744885173469
30
0.253272875172615
41
1
10
96.8954364702444
20
1.51535631697188
30
0.247975734973997
41
1
10
96.897895362827
20
1.53587130061025
30
0.234542298902367
41
1
10
96.8883693798405
20
1.5673831220412
30
0.215229883906968
41
1
10
96.8706343845993
20
1.59862659075236
30
0.197464660622995
41
1
10
96.8523500637219
20
1.62202045070063
30
0.185264464870017
41
1
10
96.8398271898006
20
1.63552049736116
30
0.178826277994108
41
1
10
96.8350390771163
20
1.64034912596697
30
0.176606546505567
0
SPLINE
5
160
100
AcDbEntity
8
1
62
256
6
ByLayer
370
18
48
1
60
1
100
AcDbSpline
70
4
71
3
72
10
73
6
40
0
40
0
40
0
40
0
40
0.343124309327631
40
0.647923803804901
40
1
40
1
40
1
40
1
41
1
10
96.8936598167539
20
1.50739327328154
30
0.253290293672615
41
1
10
96.8906903946991
20
1.49946445330871
30
0.258665679152678
41
1
10
96.8884066240747
20
1.48470265173739
30
0.268410424652902
41
1
10
96.8956932178118
20
1.46112011222274
30
0.282979384891482
41
1
10
96.9053363546187
20
1.4480362706383
30
0.290755362321608
41
1
10
96.9121135371699
20
1.44144736009846
30
0.294542580769021
0
SPLINE
5
161
100
AcDbEntity
8
1
62
256
6
ByLayer
370
18
48
1
60
1
100
AcDbSpline
70
4
71
3
72
21
73
17
40
0
40
0
40
0
40
0
40
0.0487831470752571
40
0.116699103973609
40
0.171089186800387
40
0.225386725372948
40
0.27964307642278
40
0.373174905933969
40
0.466640662811549
40
0.560088852581015
40
0.653547298568189
40
0.74506116114408
40
0.819032291584786
40
0.876168914373086
40
0.964877045096352
40
1
40
1
40
1
40
1
41
1
10
97.7974028111588
20
1.72895898270657
30
0.305374375233306
41
1
10
97.7923142038248
20
1.73510769013837
30
0.299670973536591
41
1
10
97.7785742996044
20
1.74741197297476
30
0.286514925606489
41
1
10
97.7506810597066
20
1.75572370894783
30
0.268367449327837
41
1
10
97.7201338306912
20
1.75758469360162
30
0.252544740777975
41
1
10
97.6909152831291
20
1.75515128049175
30
0.239991596256269
41
1
10
97.6543203209129
20
1.74814422547127
30
0.226995829959544
41
1
10
97.6105401902981
20
1.73446310614413
30
0.215540853134287
41
1
10
97.5607606656409
20
1.71254703003512
30
0.208271708472305
41
1
10
97.5129979103217
20
1.68557949649741
30
0.207113955966047
41
1
10
97.4686192214112
20
1.65434686723781
30
0.21206626263392
41
1
10
97.4314100172434
20
1.62146745523718
30
0.222262280738451
41
1
10
97.4039655429998
20
1.59017631772196
30
0.23541891303305
41
1
10
97.3823270761441
20
1.55709396037159
30
0.251875814808655
41
1
10
97.3709130178459
20
1.52699237801719
30
0.269259651443988
41
1
10
97.3718966073195
20
1.50704949291661
30
0.282678832090029
41
1
10
97.3727126327965
20
1.50136775529563
30
0.286631244488213
0
SPLINE
5
162
100
AcDbEntity
8
1
62
256
6
ByLayer
370
18
48
1
60
1
100
AcDbSpline
70
4
71
3
72
15
73
11
40
0
40
0
40
0
40
0
40
0.0986439250061462
40
0.20550173283011
40
0.366126142908733
40
0.506179374985213
40
0.645962201325526
40
0.785641678762592
40
0.892529484103279
40
1
40
1
40
1
40
1
41
1
10
97.7974028111588
20
1.72895898270657
30
0.305374375233306
41
1
10
97.8052356671362
20
1.72468612362128
30
0.311445991704773
41
1
10
97.8223691429924
20
1.71901352829708
30
0.322948758004386
41
1
10
97.8580685401756
20
1.72255255108342
30
0.339267020289774
41
1
10
97.8962086800686
20
1.73922705766876
30
0.351049933804527
41
1
10
97.933695124258
20
1.76517830809209
30
0.359164515763666
41
1
10
97.9661706456265
20
1.79453786442463
30
0.364088878447758
41
1
10
97.9932111015648
20
1.82461714540957
30
0.366710926010509
41
1
10
98.0157098140243
20
1.85412178779569
30
0.367831935834288
41
1
10
98.0280936212252
20
1.87283531342155
30
0.367889213495894
41
1
10
98.0339942571169
20
1.88244543391636
30
0.367757268912285
0
SPLINE
5
163
100
AcDbEntity
8
1
62
256
6
ByLayer
370
18
48
1
60
1
100
AcDbSpline
70
4
71
3
72
10
73
6
40
0
40
0
40
0
40
0
40
0.193051954354241
40
0.793144339786792
40
1
40
1
40
1
40
1
41
1
10
98.0712113012474
20
2.12968266302133
30
0.31317046065402
41
1
10
98.0694531578356
20
2.13144231549742
30
0.311589071782872
41
1
10
98.061947258439
20
2.13809341533152
30
0.305047238359475
41
1
10
98.0503635572088
20
2.14351297043366
30
0.29614461572286
41
1
10
98.0405259958417
20
2.1453946063252
30
0.289228930732484
41
1
10
98.0379369491078
20
2.14571480121908
30
0.287451189121032
0
SPLINE
5
164
100
AcDbEntity
8
1
62
256
6
ByLayer
370
18
48
1
60
1
100
AcDbSpline
70
4
71
3
72
13
73
9
40
0
40
0
40
0
40
0
40
0.200603311814697
40
0.401350059789006
40
0.542615360023429
40
0.766185039161644
40
0.900791594020592
40
1
40
1
40
1
40
1
41
1
10
98.0520193761892
20
1.9143795652719
30
0.366770955663618
41
1
10
98.0593775003123
20
1.92845270869991
30
0.366159439418915
41
1
10
98.072297275896
20
1.95715733095024
30
0.364064657848532
41
1
10
98.0855510285198
20
1.99771047753657
30
0.359226408791753
41
1
10
98.0938647960661
20
2.04083173891394
30
0.351467271751926
41
1
10
98.0946752741567
20
2.07943748865219
30
0.341229585835269
41
1
10
98.0851544771427
20
2.11190992733209
30
0.326685407616283
41
1
10
98.0758769741758
20
2.12473533331799
30
0.317422853871457
41
1
10
98.0712113012473
20
2.12968266302133
30
0.31317046065402
0
SPLINE
5
165
100
AcDbEntity
8
1
62
256
6
ByLayer
370
18
48
1
60
1
100
AcDbSpline
70
4
71
2
72
6
73
3
40
0
40
0
40
0
40
1
40
1
40
1
41
1
10
98.0384610737182
20
2.14753871796566
30
0.28736012555829
41
1
10
98.0207775127057
20
2.15330649973116
30
0.274342264100966
41
1
10
98.0075521822947
20
2.16699473276881
30
0.262451340894123
0
SPLINE
5
166
100
AcDbEntity
8
1
62
256
6
ByLayer
370
18
48
1
60
1
100
AcDbSpline
70
4
71
3
72
16
73
12
40
0
40
0
40
0
40
0
40
0.157510212011872
40
0.349384438155495
40
0.445159385588038
40
0.540980849219925
40
0.636897366768802
40
0.714923676240065
40
0.838303308920321
40
0.924242351129461
40
1
40
1
40
1
40
1
41
1
10
98.0476099972571
20
2.90749717867599
30
0.297272100129533
41
1
10
98.05576553983
20
2.89291560165817
30
0.29887856487518
41
1
10
98.0719279262229
20
2.85979040204622
30
0.301660775303162
41
1
10
98.0876903941371
20
2.81508288198605
30
0.303339324513661
41
1
10
98.0966053354686
20
2.7753870343987
30
0.302778392130813
41
1
10
98.1005228080763
20
2.74515631479147
30
0.301079371960424
41
1
10
98.1009262786101
20
2.71662681111146
30
0.297870762018287
41
1
10
98.0970943412781
20
2.68581082944229
30
0.292111904311577
41
1
10
98.0871886670703
20
2.65763115177874
30
0.283165975369287
41
1
10
98.068940849269
20
2.63652174255616
30
0.269686797614497
41
1
10
98.0561585898554
20
2.62957262122103
30
0.260859546326098
41
1
10
98.049540248251
20
2.62726553199591
30
0.256400773180575
0
SPLINE
5
167
100
AcDbEntity
8
1
62
256
6
ByLayer
370
18
48
1
60
1
100
AcDbSpline
70
4
71
3
72
23
73
19
40
0
40
0
40
0
40
0
40
0.0055355214193459
40
0.051018367942762
40
0.116365543194376
40
0.181568240376376
40
0.246713694496543
40
0.377294995176356
40
0.442398181157627
40
0.507501899801073
40
0.608615759071255
40
0.685585755424572
40
0.745263675456052
40
0.840449090478546
40
0.895804276238173
40
0.942660503344628
40
0.98964921180415
40
1
40
1
40
1
40
1
41
1
10
96.9121135371699
20
1.44144736009846
30
0.294542580769021
41
1
10
96.912775395974
20
1.44077810826688
30
0.294931949109379
41
1
10
96.9189455787236
20
1.43467132232967
30
0.298482385105933
41
1
10
96.9348643032631
20
1.42209654297592
30
0.305694267013149
41
1
10
96.9624223759105
20
1.40708295393866
30
0.314272472106031
41
1
10
96.9954237365408
20
1.39453654314041
30
0.32169404933776
41
1
10
97.0412380727865
20
1.38234406099668
30
0.32952124858048
41
1
10
97.0887215423523
20
1.3759631017063
30
0.334973825754112
41
1
10
97.1365504638701
20
1.37459969656153
30
0.338586892178163
41
1
10
97.1790387503736
20
1.37635718820168
30
0.340687610519934
41
1
10
97.2234846194801
20
1.38229427277507
30
0.341317812792518
41
1
10
97.2659757666369
20
1.39303501297294
30
0.339742124132721
41
1
10
97.3057535002894
20
1.4079557683215
30
0.33587686649116
41
1
10
97.3394057021514
20
1.42717900888835
30
0.329080197261551
41
1
10
97.3634863968228
20
1.45237566951036
30
0.3171597601776
41
1
10
97.3741266130278
20
1.47490907997972
30
0.30447395480843
41
1
10
97.3746906456906
20
1.4913440923288
30
0.29370950692537
41
1
10
97.3729070284542
20
1.49979820847412
30
0.287714062645254
41
1
10
97.3725136644539
20
1.50131720265157
30
0.286621093405604
0
SPLINE
5
168
100
AcDbEntity
8
1
62
256
6
ByLayer
370
18
48
1
60
1
100
AcDbSpline
70
4
71
3
72
10
73
6
40
0
40
0
40
0
40
0
40
0.393116440641346
40
0.907875250673648
40
1
40
1
40
1
40
1
41
1
10
97.9780958471463
20
3.00167168733781
30
0.281037240171558
41
1
10
97.9887990575539
20
2.99067426554059
30
0.283876631407005
41
1
10
98.0120688529363
20
2.96411037661893
30
0.289800877607024
41
1
10
98.0340270697675
20
2.93137025762925
30
0.294587553335242
41
1
10
98.0458498094019
20
2.91066550211729
30
0.29693085042385
41
1
10
98.0476099972571
20
2.90749717867599
30
0.297272100129533
0
SPLINE
5
169
100
AcDbEntity
8
1
62
256
6
ByLayer
370
18
48
1
60
1
100
AcDbSpline
70
4
71
3
72
13
73
9
40
0
40
0
40
0
40
0
40
0.156544228459687
40
0.292767584831847
40
0.477362950423458
40
0.769384756071591
40
0.927058307185103
40
1
40
1
40
1
40
1
41
1
10
97.8164533600479
20
3.04662319857529
30
0.211164069363064
41
1
10
97.8231740759814
20
3.05329147879053
30
0.216637054702308
41
1
10
97.8370796610996
20
3.06239070208581
30
0.226446732686363
41
1
10
97.8654471634849
20
3.06670256064562
30
0.241756902687566
41
1
10
97.9027057103728
20
3.05850812995984
30
0.257729243231757
41
1
10
97.9381063274306
20
3.03744626539301
30
0.26960637449919
41
1
10
97.96397300886
20
3.01553855997328
30
0.277174168168624
41
1
10
97.9747539005067
20
3.00507167077268
30
0.280141277829379
41
1
10
97.9780958471463
20
3.00167168733781
30
0.281037240171558
0
SPLINE
5
16A
100
AcDbEntity
8
1
62
256
6
ByLayer
370
18
48
1
60
1
100
AcDbSpline
70
4
71
3
72
22
73
18
40
0
40
0
40
0
40
0
40
0.0518334963576348
40
0.0978775190552932
40
0.156540562610626
40
0.202027859180547
40
0.267381428006764
40
0.332590504627581
40
0.397742332585911
40
0.528336409354047
40
0.593445965037953
40
0.658556053436127
40
0.759679805697037
40
0.836657332802944
40
0.896341091728445
40
0.991535819702037
40
1
40
1
40
1
40
1
41
1
10
96.9248679017568
20
3.29530326566536
30
0.130861662439491
41
1
10
96.9221884869546
20
3.3039889500645
30
0.135099355844705
41
1
10
96.9204931793568
20
3.32002832216628
30
0.14273867659036
41
1
10
96.9286971549535
20
3.34594255557427
30
0.154371512595241
41
1
10
96.9453495250913
20
3.36672920914791
30
0.163294724117081
41
1
10
96.9691179749307
20
3.3854527713671
30
0.171247931592225
41
1
10
96.9972234745801
20
3.40054115743008
30
0.177769942502684
41
1
10
97.0306517304085
20
3.41282423384703
30
0.183489801540954
41
1
10
97.0768825855713
20
3.42437194106903
30
0.18969186606081
41
1
10
97.1245710163904
20
3.42978254767262
30
0.194336785090701
41
1
10
97.1724269137106
20
3.42996351879807
30
0.197844155885041
41
1
10
97.2148338162767
20
3.42703350972658
30
0.200265766572102
41
1
10
97.2590455383763
20
3.41969916625099
30
0.201805172355657
41
1
10
97.3011413361516
20
3.40736928651648
30
0.201808005991552
41
1
10
97.3403440701417
20
3.39070493636199
30
0.200109613429603
41
1
10
97.3660299959757
20
3.37422822033651
30
0.196964845706767
41
1
10
97.3793822187908
20
3.36113313819508
30
0.193348263480368
41
1
10
97.3804596162833
20
3.36004827754854
30
0.1930446797821
0
SPLINE
5
16B
100
AcDbEntity
8
1
62
256
6
ByLayer
370
18
48
1
60
1
100
AcDbSpline
70
4
71
3
72
21
73
17
40
0
40
0
40
0
40
0
40
0.0495357813220709
40
0.129208327933877
40
0.19406633045017
40
0.258820026169669
40
0.323530015284052
40
0.425352213251408
40
0.527134424974106
40
0.62892053817763
40
0.724082016298417
40
0.802876621466128
40
0.863995498570178
40
0.910814545712186
40
0.947394521285986
40
1
40
1
40
1
40
1
41
1
10
96.9246689334109
20
3.29525271303671
30
0.130851511354065
41
1
10
96.9263542270731
20
3.2866334193943
30
0.12668605478436
41
1
10
96.92806652915
20
3.26440624654652
30
0.116179358595989
41
1
10
96.9174090903872
20
3.23090710232012
30
0.101319035553462
41
1
10
96.8985463447009
20
3.19816813253978
30
0.0879337052626355
41
1
10
96.8763277236082
20
3.17000685001478
30
0.0775262567251942
41
1
10
96.8458865254285
20
3.13928438697772
30
0.0676982300857086
41
1
10
96.8057877414272
20
3.10765295582846
30
0.0601915463301682
41
1
10
96.7554664113997
20
3.07757466345762
30
0.0573302416230794
41
1
10
96.7029357049497
20
3.0545304909283
30
0.0601588273631899
41
1
10
96.6525308048848
20
3.03991967910029
30
0.0677187766511748
41
1
10
96.6089238986886
20
3.03370474466401
30
0.0777933164980762
41
1
10
96.5745266411848
20
3.03395708198161
30
0.0880995950601155
41
1
10
96.5487630059978
20
3.03828692059402
30
0.0974398517926012
41
1
10
96.5257050070602
20
3.04611974164164
30
0.107215335414653
41
1
10
96.5127842970409
20
3.05481379449108
30
0.114118192250013
41
1
10
96.5057900985408
20
3.06108635633981
30
0.118381251076991
0
SPLINE
5
16C
100
AcDbEntity
8
1
62
256
6
ByLayer
370
18
48
1
60
1
100
AcDbSpline
70
4
71
3
72
14
73
10
40
0
40
0
40
0
40
0
40
0.174302764265161
40
0.348730159217931
40
0.471474555158028
40
0.665732629651034
40
0.782691289972058
40
0.900681689988199
40
1
40
1
40
1
40
1
41
1
10
96.2834492426326
20
2.96853475903261
30
0.171783906616756
41
1
10
96.2924126920966
20
2.98165104922591
30
0.171349379480697
41
1
10
96.3117957030631
20
3.00650180004599
30
0.169967996828989
41
1
10
96.3418072999857
20
3.03707238305848
30
0.166973996647279
41
1
10
96.3767765168702
20
3.06428726069248
30
0.162163964183478
41
1
10
96.4118412454996
20
3.08256235522951
30
0.155654401581877
41
1
10
96.4493565119506
20
3.08891643035916
30
0.145343110553542
41
1
10
96.4781042571255
20
3.0828381153329
30
0.134217483815153
41
1
10
96.492585739396
20
3.0724743166571
30
0.126250814932729
41
1
10
96.4986139748051
20
3.06638221834534
30
0.12237359701134
0
SPLINE
5
16D
100
AcDbEntity
8
1
62
256
6
ByLayer
370
18
48
1
60
1
100
AcDbSpline
70
4
71
3
72
16
73
12
40
0
40
0
40
0
40
0
40
0.0698732376088234
40
0.177287938463727
40
0.264480790096108
40
0.351530167405974
40
0.482402039351593
40
0.61316010360138
40
0.743882759774564
40
0.874607821259153
40
1
40
1
40
1
40
1
41
1
10
97.8164533600483
20
3.04662319857474
30
0.211164069363081
41
1
10
97.8105299880668
20
3.04062569278438
30
0.206270594154704
41
1
10
97.7942439230363
20
3.02787126651197
30
0.19411882227375
41
1
10
97.7629280838922
20
3.0198108817231
30
0.17630591711552
41
1
10
97.7283832677099
20
3.01895232601514
30
0.159828040453291
41
1
10
97.6901358319521
20
3.02376714867574
30
0.144184692074398
41
1
10
97.6464047461227
20
3.03569947387965
30
0.129710842929167
41
1
10
97.5981996745792
20
3.05587784643731
30
0.118262550906518
41
1
10
97.5518812604206
20
3.08174847243659
30
0.11187184312819
41
1
10
97.5087910336941
20
3.11226615557584
30
0.110679373412544
41
1
10
97.4830324570678
20
3.13542594656847
30
0.113238675494809
41
1
10
97.4709972987118
20
3.14749636711299
30
0.115291623232059
0
SPLINE
5
16E
100
AcDbEntity
8
1
62
256
6
ByLayer
370
18
48
1
60
1
100
AcDbSpline
70
4
71
3
72
21
73
17
40
0
40
0
40
0
40
0
40
0.0560720788868455
40
0.125903506139485
40
0.195622628168275
40
0.265294692093226
40
0.334945150353513
40
0.448023780486631
40
0.561091227408057
40
0.667215174362569
40
0.757874223876061
40
0.829183985200111
40
0.88376220304049
40
0.926060892189929
40
0.987971330081103
40
1
40
1
40
1
40
1
41
1
10
98.0075521822947
20
2.16699473276881
30
0.262451340894123
41
1
10
98.0016750788315
20
2.17320175036096
30
0.257126675370423
41
1
10
97.9896257790474
20
2.18823007343133
30
0.245794863146577
41
1
10
97.9753178981912
20
2.21624809108437
30
0.230335473032069
41
1
10
97.9638790535656
20
2.24888671094266
30
0.216446658119734
41
1
10
97.9557684911756
20
2.28346698359664
30
0.20518437420858
41
1
10
97.9494895267631
20
2.32674281158725
30
0.194788729675936
41
1
10
97.9471087924379
20
2.37904698969227
30
0.187603947015016
41
1
10
97.9509993119803
20
2.4382469062706
30
0.186680613596304
41
1
10
97.9607568236438
20
2.49242190360973
30
0.19232763100983
41
1
10
97.9745554209111
20
2.53716129026739
30
0.202319613761802
41
1
10
97.9899793514122
20
2.57065446943949
30
0.213911624311091
41
1
10
98.005167822504
20
2.59399027029087
30
0.22520772168708
41
1
10
98.0222128496004
20
2.61286108304484
30
0.237583646717427
41
1
10
98.0373385454446
20
2.62318065366099
30
0.248177222659981
41
1
10
98.0478100482369
20
2.62674747042303
30
0.2552389431851
41
1
10
98.0495402482502
20
2.62726553199869
30
0.256400773180273
0
SPLINE
5
16F
100
AcDbEntity
8
1
62
256
6
ByLayer
370
18
48
1
60
1
100
AcDbSpline
70
4
71
3
72
14
73
10
40
0
40
0
40
0
40
0
40
0.115911910611797
40
0.268594703750442
40
0.421428956666553
40
0.545756788994119
40
0.742351019718692
40
0.879287072515801
40
1
40
1
40
1
40
1
41
1
10
96.3114361407019
20
1.80290727801921
30
0.250032212443158
41
1
10
96.3168437947456
20
1.79738462008728
30
0.25011354457023
41
1
10
96.3298063822361
20
1.78511119295181
30
0.250023486177738
41
1
10
96.3516607500533
20
1.76748269145313
30
0.24901802106352
41
1
10
96.3758832737129
20
1.75227493822056
30
0.24651457037413
41
1
10
96.4043799226113
20
1.7395301412442
30
0.241719118221911
41
1
10
96.4339525005599
20
1.73342057354963
30
0.233948137093096
41
1
10
96.4620726568736
20
1.73823219600463
30
0.221849433738762
41
1
10
96.475070513876
20
1.74569498514115
30
0.213789658381247
41
1
10
96.4806964286585
20
1.75023281779961
30
0.209695403702737
0
SPLINE
5
170
100
AcDbEntity
8
1
62
256
6
ByLayer
370
18
48
1
60
1
100
AcDbSpline
70
4
71
3
72
15
73
11
40
0
40
0
40
0
40
0
40
0.0981848441175841
40
0.183624397795325
40
0.299402969605283
40
0.482559613259821
40
0.581452770745318
40
0.773678382522223
40
0.965644443769347
40
1
40
1
40
1
40
1
41
1
10
96.2476088886453
20
2.16959012000994
30
0.164458680445599
41
1
10
96.2381709189294
20
2.16722519006322
30
0.169450612556563
41
1
10
96.2227109377234
20
2.15990818180553
30
0.178386072559227
41
1
10
96.2035170062218
20
2.1376315449222
30
0.19228026003134
41
1
10
96.190290230936
20
2.1012152262543
30
0.206749927168836
41
1
10
96.1891801623472
20
2.05973771869343
30
0.217538565713735
41
1
10
96.1960870299413
20
2.01099480708314
30
0.22758405761751
41
1
10
96.2101515576385
20
1.96216434746703
30
0.235615568643851
41
1
10
96.2281942458991
20
1.92185909831244
30
0.240828540949533
41
1
10
96.2395378321587
20
1.90088066803066
30
0.243155919292228
41
1
10
96.24129930636
20
1.8977130637034
30
0.243497207292716
0
SPLINE
5
171
100
AcDbEntity
8
1
62
256
6
ByLayer
370
18
48
1
60
1
100
AcDbSpline
70
4
71
3
72
18
73
14
40
0
40
0
40
0
40
0
40
0.0386886349178856
40
0.129821469234057
40
0.277777079606371
40
0.425718057515354
40
0.564573943267424
40
0.683195074340016
40
0.776498992593781
40
0.847910836936889
40
0.903255762531388
40
0.984261312494375
40
1
40
1
40
1
40
1
41
1
10
96.8350390771163
20
1.64034912596697
30
0.176606546505567
41
1
10
96.8315226207073
20
1.64390747218835
30
0.174971312739505
41
1
10
96.8194627715152
20
1.65565846919004
30
0.16973604623706
41
1
10
96.7916099239878
20
1.67945898931881
30
0.160316699939964
41
1
10
96.7486669398206
20
1.70907828630922
30
0.151926070137799
41
1
10
96.6962761568192
20
1.73681802655939
30
0.14932668971198
41
1
10
96.6448025179677
20
1.75676220384997
30
0.153150948712307
41
1
10
96.5990505777209
20
1.7682111290591
30
0.161370050675247
41
1
10
96.5619502463638
20
1.77234157613417
30
0.171398389443899
41
1
10
96.5336330678422
20
1.77135636462316
30
0.18139929803596
41
1
10
96.5080973256292
20
1.76642319582435
30
0.192507569627727
41
1
10
96.4909251694304
20
1.75868725830312
30
0.202139620167693
41
1
10
96.4820945939527
20
1.75146361018547
30
0.208626706900676
41
1
10
96.4806964286585
20
1.75023281779963
30
0.209695403702733
0
SPLINE
5
172
100
AcDbEntity
8
1
62
256
6
ByLayer
370
18
48
1
60
0
100
AcDbSpline
70
4
71
1
72
4
73
2
40
0
40
0
40
1
40
1
41
1
10
96.2494885908416
20
2.65159234843125
30
0.134714914084118
41
1
10
96.235743102381
20
2.6623986421228
30
0.142010781550673
0
SPLINE
5
173
100
AcDbEntity
8
1
62
256
6
ByLayer
370
18
48
1
60
1
100
AcDbSpline
70
4
71
3
72
20
73
16
40
0
40
0
40
0
40
0
40
0.0534209813813903
40
0.135543964808658
40
0.202206507761925
40
0.26875935865894
40
0.335265423235833
40
0.44317069976582
40
0.551023496595941
40
0.658872165395786
40
0.76455256124952
40
0.853816063008114
40
0.923791856205978
40
0.977336630329916
40
1
40
1
40
1
40
1
41
1
10
96.2476088886455
20
2.16959012000943
30
0.164458680445632
41
1
10
96.2560327539378
20
2.1716131681387
30
0.159992330620938
41
1
10
96.2759547904053
20
2.17910015030895
30
0.148918538557634
41
1
10
96.299995132472
20
2.20198591425446
30
0.13275335011225
41
1
10
96.3195301520808
20
2.2313586511322
30
0.117886337021881
41
1
10
96.3337523239921
20
2.26174150124479
30
0.10588811370404
41
1
10
96.3468250833784
20
2.30074422702923
30
0.0937654174784949
41
1
10
96.356598946869
20
2.34906311928721
30
0.0832598996035733
41
1
10
96.3606803471451
20
2.40627348750963
30
0.0767874806578889
41
1
10
96.3578401811777
20
2.46353331850955
30
0.0760443218449928
41
1
10
96.3484746375438
20
2.51655196005957
30
0.0806611855576438
41
1
10
96.3342914155417
20
2.56089072679526
30
0.0889129002933416
41
1
10
96.3181975144186
20
2.59393560245638
30
0.0983363949613741
41
1
10
96.3040895115113
20
2.61439564414783
30
0.106361503661125
41
1
10
96.2955560162469
20
2.6237900393912
30
0.111047162137519
41
1
10
96.2929212119395
20
2.62649144021699
30
0.112484904632883
0
SPLINE
5
174
100
AcDbEntity
8
1
62
256
6
ByLayer
370
18
48
1
60
1
100
AcDbSpline
70
4
71
3
72
11
73
7
40
0
40
0
40
0
40
0
40
0.310689247099202
40
0.62066839037651
40
0.931523969057545
40
1
40
1
40
1
40
1
41
1
10
97.3804596162833
20
3.36004827754854
30
0.1930446797821
41
1
10
97.3867218054616
20
3.35392179355995
30
0.191383468276587
41
1
10
97.3968815504982
20
3.34082174465126
30
0.187202750556982
41
1
10
97.406333778338
20
3.31773928763686
30
0.178289490172266
41
1
10
97.4062583787862
20
3.29999212239507
30
0.169860539734849
41
1
10
97.4041702395063
20
3.29086637009394
30
0.165069173133794
41
1
10
97.4037217494567
20
3.28922719503539
30
0.164192462172479
0
SPLINE
5
175
100
AcDbEntity
8
1
62
256
6
ByLayer
370
18
48
1
60
1
100
AcDbSpline
70
4
71
3
72
13
73
9
40
0
40
0
40
0
40
0
40
0.0129214260328561
40
0.292183450788323
40
0.508252197482206
40
0.674057335400759
40
0.934724932774897
40
1
40
1
40
1
40
1
41
1
10
97.4709972987118
20
3.14749636711299
30
0.115291623232059
41
1
10
97.4704865595812
20
3.14801404968963
30
0.11537996736636
41
1
10
97.4589805425313
20
3.15974989177522
30
0.117412061868247
41
1
10
97.4403147047614
20
3.18133996408448
30
0.122274646724804
41
1
10
97.4205508328955
20
3.21200780058719
30
0.131647262453961
41
1
10
97.4063128303578
20
3.24352464670385
30
0.143108560580644
41
1
10
97.4011487573991
20
3.26955039982842
30
0.154293877048924
41
1
10
97.4033098769106
20
3.2859001884227
30
0.162522110494264
41
1
10
97.4039188652777
20
3.28917161658227
30
0.164209880672425
0
SPLINE
5
176
100
AcDbEntity
8
1
62
256
6
ByLayer
370
18
48
1
60
0
100
AcDbSpline
70
4
71
2
72
6
73
3
40
0
40
0
40
0
40
1
40
1
40
1
41
1
10
96.4986139748051
20
3.06638221834534
30
0.12237359701134
41
1
10
96.5017065402563
20
3.06324567315032
30
0.120374573980171
41
1
10
96.5044278181648
20
3.05976202184711
30
0.118379906927839
0
SPLINE
5
177
100
AcDbEntity
8
1
62
256
6
ByLayer
370
18
48
1
60
1
100
AcDbSpline
70
4
71
3
72
15
73
11
40
0
40
0
40
0
40
0
40
0.0412442500583181
40
0.154906919584418
40
0.325760127341331
40
0.474732154353144
40
0.623416555795451
40
0.771991026925005
40
0.885685604253696
40
1
40
1
40
1
40
1
41
1
10
96.235743102381
20
2.6623986421228
30
0.142010781550673
41
1
10
96.2330774106139
20
2.66514662018828
30
0.143481150320637
41
1
10
96.2237931931992
20
2.67598843989404
30
0.148739001102026
41
1
10
96.210383398547
20
2.70460499196561
30
0.157601725126356
41
1
10
96.2053650284901
20
2.74706667390623
30
0.164633928044315
41
1
10
96.2093421812926
20
2.79297453427366
30
0.16905206313369
41
1
10
96.2191193367826
20
2.83586767617643
30
0.171474415464872
41
1
10
96.2324103988947
20
2.8741411942978
30
0.172580444558212
41
1
10
96.2475433121829
20
2.9080364428642
30
0.172889393218867
41
1
10
96.2581194506108
20
2.92782738264949
30
0.172747367623356
41
1
10
96.2637890222294
20
2.93757522886917
30
0.17258994791727
0
SPLINE
5
178
100
AcDbEntity
8
1
62
256
6
ByLayer
370
18
48
1
60
1
100
AcDbSpline
70
4
71
2
72
6
73
3
40
0
40
0
40
0
40
1
40
1
40
1
41
1
10
96.2929212119395
20
2.62649144021699
30
0.112484904632883
41
1
10
96.2745330836011
20
2.64614536832551
30
0.122609138490934
41
1
10
96.2494885908416
20
2.65159234843125
30
0.134714914084118
0
SPLINE
5
179
100
AcDbEntity
8
1
62
256
6
ByLayer
370
18
48
1
60
1
100
AcDbSpline
70
4
71
2
72
6
73
3
40
0
40
0
40
0
40
1
40
1
40
1
41
1
10
91.57
20
5.22374157026744
30
-0.114669119905298
41
1
10
92.014968303655
20
5.6556448684941
30
-0.144870740618176
41
1
10
92.46
20
6.08748316300432
30
-0.175067815828398
0
SPLINE
5
17A
100
AcDbEntity
8
1
62
256
6
ByLayer
370
18
48
1
60
1
100
AcDbSpline
70
4
71
1
72
4
73
2
40
0
40
0
40
1
40
1
41
1
10
92.46
20
6.08748316300432
30
-0.175067815828398
41
1
10
96.5233471091125
20
6.25152492295875
30
-0.186538733127615
0
SPLINE
5
17B
100
AcDbEntity
8
1
62
256
6
ByLayer
370
18
48
1
60
0
100
AcDbSpline
70
4
71
3
72
15
73
11
40
0
40
0
40
0
40
0
40
0.0981848441175841
40
0.183624397795325
40
0.299402969605283
40
0.482559613259821
40
0.581452770745318
40
0.773678382522223
40
0.965644443769347
40
1
40
1
40
1
40
1
41
1
10
96.2476088886453
20
2.16959012000994
30
0
41
1
10
96.2381709189294
20
2.16722519006322
30
0
41
1
10
96.2227109377234
20
2.15990818180553
30
0
41
1
10
96.2035170062218
20
2.1376315449222
30
0
41
1
10
96.190290230936
20
2.1012152262543
30
0
41
1
10
96.1891801623472
20
2.05973771869343
30
0
41
1
10
96.1960870299413
20
2.01099480708314
30
0
41
1
10
96.2101515576385
20
1.96216434746703
30
0
41
1
10
96.2281942458991
20
1.92185909831244
30
0
41
1
10
96.2395378321587
20
1.90088066803066
30
0
41
1
10
96.24129930636
20
1.8977130637034
30
0
0
SPLINE
5
17C
100
AcDbEntity
8
1
62
256
6
ByLayer
370
18
48
1
60
0
100
AcDbSpline
70
4
71
3
72
10
73
6
40
0
40
0
40
0
40
0
40
0.422922094337155
40
0.938113131827878
40
1
40
1
40
1
40
1
41
1
10
96.24129930636
20
1.89771306370341
30
0
41
1
10
96.2493759534099
20
1.88308738161539
30
0
41
1
10
96.2689972463135
20
1.85190441629678
30
0
41
1
10
96.2938878423874
20
1.82101181367166
30
0
41
1
10
96.309721522903
20
1.80464867270749
30
0
41
1
10
96.3114361407019
20
1.80290727801921
30
0
0
SPLINE
5
17D
100
AcDbEntity
8
1
62
256
6
ByLayer
370
18
48
1
60
0
100
AcDbSpline
70
4
71
3
72
14
73
10
40
0
40
0
40
0
40
0
40
0.174302764265161
40
0.348730159217931
40
0.471474555158028
40
0.665732629651034
40
0.782691289972058
40
0.900681689988199
40
1
40
1
40
1
40
1
41
1
10
96.2834492426326
20
2.96853475903261
30
0
41
1
10
96.2924126920966
20
2.98165104922591
30
0
41
1
10
96.3117957030631
20
3.00650180004599
30
0
41
1
10
96.3418072999857
20
3.03707238305848
30
0
41
1
10
96.3767765168702
20
3.06428726069248
30
0
41
1
10
96.4118412454996
20
3.08256235522951
30
0
41
1
10
96.4493565119506
20
3.08891643035916
30
0
41
1
10
96.4781042571255
20
3.0828381153329
30
0
41
1
10
96.492585739396
20
3.0724743166571
30
0
41
1
10
96.4986139748051
20
3.06638221834534
30
0
0
SPLINE
5
17E
100
AcDbEntity
8
1
62
256
6
ByLayer
370
18
48
1
60
0
100
AcDbSpline
70
4
71
2
72
6
73
3
40
0
40
0
40
0
40
1
40
1
40
1
41
1
10
96.2929212119395
20
2.62649144021699
30
0
41
1
10
96.2745330836011
20
2.64614536832551
30
0
41
1
10
96.2494885908416
20
2.65159234843125
30
0
0
SPLINE
5
17F
100
AcDbEntity
8
1
62
256
6
ByLayer
370
18
48
1
60
0
100
AcDbSpline
70
4
71
3
72
20
73
16
40
0
40
0
40
0
40
0
40
0.0534209813813903
40
0.135543964808658
40
0.202206507761925
40
0.26875935865894
40
0.335265423235833
40
0.44317069976582
40
0.551023496595941
40
0.658872165395786
40
0.76455256124952
40
0.853816063008114
40
0.923791856205978
40
0.977336630329916
40
1
40
1
40
1
40
1
41
1
10
96.2476088886455
20
2.16959012000943
30
0
41
1
10
96.2560327539378
20
2.1716131681387
30
0
41
1
10
96.2759547904053
20
2.17910015030895
30
0
41
1
10
96.299995132472
20
2.20198591425446
30
0
41
1
10
96.3195301520808
20
2.2313586511322
30
0
41
1
10
96.3337523239921
20
2.26174150124479
30
0
41
1
10
96.3468250833784
20
2.30074422702923
30
0
41
1
10
96.356598946869
20
2.34906311928721
30
0
41
1
10
96.3606803471451
20
2.40627348750963
30
0
41
1
10
96.3578401811777
20
2.46353331850955
30
0
41
1
10
96.3484746375438
20
2.51655196005957
30
0
41
1
10
96.3342914155417
20
2.56089072679526
30
0
41
1
10
96.3181975144186
20
2.59393560245638
30
0
41
1
10
96.3040895115113
20
2.61439564414783
30
0
41
1
10
96.2955560162469
20
2.6237900393912
30
0
41
1
10
96.2929212119395
20
2.62649144021699
30
0
0
SPLINE
5
180
100
AcDbEntity
8
1
62
256
6
ByLayer
370
18
48
1
60
0
100
AcDbSpline
70
4
71
3
72
21
73
17
40
0
40
0
40
0
40
0
40
0.0495357813220709
40
0.129208327933877
40
0.19406633045017
40
0.258820026169669
40
0.323530015284052
40
0.425352213251408
40
0.527134424974106
40
0.62892053817763
40
0.724082016298417
40
0.802876621466128
40
0.863995498570178
40
0.910814545712186
40
0.947394521285986
40
1
40
1
40
1
40
1
41
1
10
96.9246689334109
20
3.29525271303671
30
0
41
1
10
96.9263542270731
20
3.2866334193943
30
0
41
1
10
96.92806652915
20
3.26440624654652
30
0
41
1
10
96.9174090903872
20
3.23090710232012
30
0
41
1
10
96.8985463447009
20
3.19816813253978
30
0
41
1
10
96.8763277236082
20
3.17000685001478
30
0
41
1
10
96.8458865254285
20
3.13928438697772
30
0
41
1
10
96.8057877414272
20
3.10765295582846
30
0
41
1
10
96.7554664113997
20
3.07757466345762
30
0
41
1
10
96.7029357049497
20
3.0545304909283
30
0
41
1
10
96.6525308048848
20
3.03991967910029
30
0
41
1
10
96.6089238986886
20
3.03370474466401
30
0
41
1
10
96.5745266411848
20
3.03395708198161
30
0
41
1
10
96.5487630059978
20
3.03828692059402
30
0
41
1
10
96.5257050070602
20
3.04611974164164
30
0
41
1
10
96.5127842970409
20
3.05481379449108
30
0
41
1
10
96.5057900985408
20
3.06108635633981
30
0
0
SPLINE
5
181
100
AcDbEntity
8
1
62
256
6
ByLayer
370
18
48
1
60
0
100
AcDbSpline
70
4
71
3
72
12
73
8
40
0
40
0
40
0
40
0
40
0.167297285154969
40
0.436375523022852
40
0.655420573932831
40
0.874113349306665
40
1
40
1
40
1
40
1
41
1
10
96.893462700933
20
1.50744885173469
30
0
41
1
10
96.8954364702444
20
1.51535631697188
30
0
41
1
10
96.897895362827
20
1.53587130061025
30
0
41
1
10
96.8883693798405
20
1.5673831220412
30
0
41
1
10
96.8706343845993
20
1.59862659075236
30
0
41
1
10
96.8523500637219
20
1.62202045070063
30
0
41
1
10
96.8398271898006
20
1.63552049736116
30
0
41
1
10
96.8350390771163
20
1.64034912596697
30
0
0
SPLINE
5
182
100
AcDbEntity
8
1
62
256
6
ByLayer
370
18
48
1
60
0
100
AcDbSpline
70
4
71
3
72
18
73
14
40
0
40
0
40
0
40
0
40
0.0386886349178856
40
0.129821469234057
40
0.277777079606371
40
0.425718057515354
40
0.564573943267424
40
0.683195074340016
40
0.776498992593781
40
0.847910836936889
40
0.903255762531388
40
0.984261312494375
40
1
40
1
40
1
40
1
41
1
10
96.8350390771163
20
1.64034912596697
30
0
41
1
10
96.8315226207073
20
1.64390747218835
30
0
41
1
10
96.8194627715152
20
1.65565846919004
30
0
41
1
10
96.7916099239878
20
1.67945898931881
30
0
41
1
10
96.7486669398206
20
1.70907828630922
30
0
41
1
10
96.6962761568192
20
1.73681802655939
30
0
41
1
10
96.6448025179677
20
1.75676220384997
30
0
41
1
10
96.5990505777209
20
1.7682111290591
30
0
41
1
10
96.5619502463638
20
1.77234157613417
30
0
41
1
10
96.5336330678422
20
1.77135636462316
30
0
41
1
10
96.5080973256292
20
1.76642319582435
30
0
41
1
10
96.4909251694304
20
1.75868725830312
30
0
41
1
10
96.4820945939527
20
1.75146361018547
30
0
41
1
10
96.4806964286585
20
1.75023281779963
30
0
0
SPLINE
5
183
100
AcDbEntity
8
1
62
256
6
ByLayer
370
18
48
1
60
0
100
AcDbSpline
70
4
71
3
72
22
73
18
40
0
40
0
40
0
40
0
40
0.0518334963576348
40
0.0978775190552932
40
0.156540562610626
40
0.202027859180547
40
0.267381428006764
40
0.332590504627581
40
0.397742332585911
40
0.528336409354047
40
0.593445965037953
40
0.658556053436127
40
0.759679805697037
40
0.836657332802944
40
0.896341091728445
40
0.991535819702037
40
1
40
1
40
1
40
1
41
1
10
96.9248679017568
20
3.29530326566536
30
0
41
1
10
96.9221884869546
20
3.3039889500645
30
0
41
1
10
96.9204931793568
20
3.32002832216628
30
0
41
1
10
96.9286971549535
20
3.34594255557427
30
0
41
1
10
96.9453495250913
20
3.36672920914791
30
0
41
1
10
96.9691179749307
20
3.3854527713671
30
0
41
1
10
96.9972234745801
20
3.40054115743008
30
0
41
1
10
97.0306517304085
20
3.41282423384703
30
0
41
1
10
97.0768825855713
20
3.42437194106903
30
0
41
1
10
97.1245710163904
20
3.42978254767262
30
0
41
1
10
97.1724269137106
20
3.42996351879807
30
0
41
1
10
97.2148338162767
20
3.42703350972658
30
0
41
1
10
97.2590455383763
20
3.41969916625099
30
0
41
1
10
97.3011413361516
20
3.40736928651648
30
0
41
1
10
97.3403440701417
20
3.39070493636199
30
0
41
1
10
97.3660299959757
20
3.37422822033651
30
0
41
1
10
97.3793822187908
20
3.36113313819508
30
0
41
1
10
97.3804596162833
20
3.36004827754854
30
0
0
SPLINE
5
184
100
AcDbEntity
8
1
62
256
6
ByLayer
370
18
48
1
60
0
100
AcDbSpline
70
4
71
3
72
12
73
8
40
0
40
0
40
0
40
0
40
0.498504442521385
40
0.498504442521385
40
0.749252221260968
40
0.749252221260968
40
1
40
1
40
1
40
1
41
1
10
97.3796824396518
20
5.77298692206725
30
0
41
1
10
97.4085298554997
20
5.77505214100029
30
0
41
1
10
97.4373773842991
20
5.77711578280362
30
0
41
1
10
97.4807353915425
20
5.78021507303966
30
0
41
1
10
97.4952457860661
20
5.78125189617133
30
0
41
1
10
97.5242666318573
20
5.78332474784002
30
0
41
1
10
97.5387770831358
20
5.78436077637782
30
0
41
1
10
97.5532875627233
20
5.78539640819477
30
0
0
SPLINE
5
185
100
AcDbEntity
8
1
62
256
6
ByLayer
370
18
48
1
60
0
100
AcDbSpline
70
4
71
3
72
16
73
12
40
0
40
0
40
0
40
0
40
0.0698732376088234
40
0.177287938463727
40
0.264480790096108
40
0.351530167405974
40
0.482402039351593
40
0.61316010360138
40
0.743882759774564
40
0.874607821259153
40
1
40
1
40
1
40
1
41
1
10
97.8164533600483
20
3.04662319857474
30
0
41
1
10
97.8105299880668
20
3.04062569278438
30
0
41
1
10
97.7942439230363
20
3.02787126651197
30
0
41
1
10
97.7629280838922
20
3.0198108817231
30
0
41
1
10
97.7283832677099
20
3.01895232601514
30
0
41
1
10
97.6901358319521
20
3.02376714867574
30
0
41
1
10
97.6464047461227
20
3.03569947387965
30
0
41
1
10
97.5981996745792
20
3.05587784643731
30
0
41
1
10
97.5518812604206
20
3.08174847243659
30
0
41
1
10
97.5087910336941
20
3.11226615557584
30
0
41
1
10
97.4830324570678
20
3.13542594656847
30
0
41
1
10
97.4709972987118
20
3.14749636711299
30
0
0
SPLINE
5
186
100
AcDbEntity
8
1
62
256
6
ByLayer
370
18
48
1
60
0
100
AcDbSpline
70
4
71
3
72
13
73
9
40
0
40
0
40
0
40
0
40
0.0129214260328561
40
0.292183450788323
40
0.508252197482206
40
0.674057335400759
40
0.934724932774897
40
1
40
1
40
1
40
1
41
1
10
97.4709972987118
20
3.14749636711299
30
0
41
1
10
97.4704865595812
20
3.14801404968963
30
0
41
1
10
97.4589805425313
20
3.15974989177522
30
0
41
1
10
97.4403147047614
20
3.18133996408448
30
0
41
1
10
97.4205508328955
20
3.21200780058719
30
0
41
1
10
97.4063128303578
20
3.24352464670385
30
0
41
1
10
97.4011487573991
20
3.26955039982842
30
0
41
1
10
97.4033098769106
20
3.2859001884227
30
0
41
1
10
97.4039188652777
20
3.28917161658227
30
0
0
SPLINE
5
187
100
AcDbEntity
8
1
62
256
6
ByLayer
370
18
48
1
60
0
100
AcDbSpline
70
4
71
3
72
21
73
17
40
0
40
0
40
0
40
0
40
0.0560720788868455
40
0.125903506139485
40
0.195622628168275
40
0.265294692093226
40
0.334945150353513
40
0.448023780486631
40
0.561091227408057
40
0.667215174362569
40
0.757874223876061
40
0.829183985200111
40
0.88376220304049
40
0.926060892189929
40
0.987971330081103
40
1
40
1
40
1
40
1
41
1
10
98.0075521822947
20
2.16699473276881
30
0
41
1
10
98.0016750788315
20
2.17320175036096
30
0
41
1
10
97.9896257790474
20
2.18823007343133
30
0
41
1
10
97.9753178981912
20
2.21624809108437
30
0
41
1
10
97.9638790535656
20
2.24888671094266
30
0
41
1
10
97.9557684911756
20
2.28346698359664
30
0
41
1
10
97.9494895267631
20
2.32674281158725
30
0
41
1
10
97.9471087924379
20
2.37904698969227
30
0
41
1
10
97.9509993119803
20
2.4382469062706
30
0
41
1
10
97.9607568236438
20
2.49242190360973
30
0
41
1
10
97.9745554209111
20
2.53716129026739
30
0
41
1
10
97.9899793514122
20
2.57065446943949
30
0
41
1
10
98.005167822504
20
2.59399027029087
30
0
41
1
10
98.0222128496004
20
2.61286108304484
30
0
41
1
10
98.0373385454446
20
2.62318065366099
30
0
41
1
10
98.0478100482369
20
2.62674747042303
30
0
41
1
10
98.0495402482502
20
2.62726553199869
30
0
0
SPLINE
5
188
100
AcDbEntity
8
1
62
256
6
ByLayer
370
18
48
1
60
0
100
AcDbSpline
70
4
71
2
72
6
73
3
40
0
40
0
40
0
40
1
40
1
40
1
41
1
10
98.0384610737182
20
2.14753871796566
30
0
41
1
10
98.0207775127057
20
2.15330649973116
30
0
41
1
10
98.0075521822947
20
2.16699473276881
30
0
0
SPLINE
5
189
100
AcDbEntity
8
1
62
256
6
ByLayer
370
18
48
1
60
0
100
AcDbSpline
70
4
71
3
72
13
73
9
40
0
40
0
40
0
40
0
40
0.200603311814697
40
0.401350059789006
40
0.542615360023429
40
0.766185039161644
40
0.900791594020592
40
1
40
1
40
1
40
1
41
1
10
98.0520193761892
20
1.9143795652719
30
0
41
1
10
98.0593775003123
20
1.92845270869991
30
0
41
1
10
98.072297275896
20
1.95715733095024
30
0
41
1
10
98.0855510285198
20
1.99771047753657
30
0
41
1
10
98.0938647960661
20
2.04083173891394
30
0
41
1
10
98.0946752741567
20
2.07943748865219
30
0
41
1
10
98.0851544771427
20
2.11190992733209
30
0
41
1
10
98.0758769741758
20
2.12473533331799
30
0
41
1
10
98.0712113012473
20
2.12968266302133
30
0
0
SPLINE
5
18A
100
AcDbEntity
8
1
62
256
6
ByLayer
370
18
48
1
60
0
100
AcDbSpline
70
4
71
2
72
6
73
3
40
0
40
0
40
0
40
1
40
1
40
1
41
1
10
91.57
20
5.22374157026744
30
0
41
1
10
92.014968303655
20
5.6556448684941
30
0
41
1
10
92.46
20
6.08748316300432
30
0
0
SPLINE
5
18B
100
AcDbEntity
8
1
62
256
6
ByLayer
370
18
48
1
60
0
100
AcDbSpline
70
4
71
1
72
4
73
2
40
0
40
0
40
1
40
1
41
1
10
92.46
20
6.08748316300432
30
0
41
1
10
96.5233471091125
20
6.25152492295875
30
0
0
SPLINE
5
18C
100
AcDbEntity
8
1
62
256
6
ByLayer
370
18
48
1
60
0
100
AcDbSpline
70
4
71
3
72
15
73
11
40
0
40
0
40
0
40
0
40
0.0412442500583181
40
0.154906919584418
40
0.325760127341331
40
0.474732154353144
40
0.623416555795451
40
0.771991026925005
40
0.885685604253696
40
1
40
1
40
1
40
1
41
1
10
96.235743102381
20
2.6623986421228
30
0
41
1
10
96.2330774106139
20
2.66514662018828
30
0
41
1
10
96.2237931931992
20
2.67598843989404
30
0
41
1
10
96.210383398547
20
2.70460499196561
30
0
41
1
10
96.2053650284901
20
2.74706667390623
30
0
41
1
10
96.2093421812926
20
2.79297453427366
30
0
41
1
10
96.2191193367826
20
2.83586767617643
30
0
41
1
10
96.2324103988947
20
2.8741411942978
30
0
41
1
10
96.2475433121829
20
2.9080364428642
30
0
41
1
10
96.2581194506108
20
2.92782738264949
30
0
41
1
10
96.2637890222294
20
2.93757522886917
30
0
0
SPLINE
5
18D
100
AcDbEntity
8
1
62
256
6
ByLayer
370
18
48
1
60
0
100
AcDbSpline
70
4
71
3
72
14
73
10
40
0
40
0
40
0
40
0
40
0.115911910611797
40
0.268594703750442
40
0.421428956666553
40
0.545756788994119
40
0.742351019718692
40
0.879287072515801
40
1
40
1
40
1
40
1
41
1
10
96.3114361407019
20
1.80290727801921
30
0
41
1
10
96.3168437947456
20
1.79738462008728
30
0
41
1
10
96.3298063822361
20
1.78511119295181
30
0
41
1
10
96.3516607500533
20
1.76748269145313
30
0
41
1
10
96.3758832737129
20
1.75227493822056
30
0
41
1
10
96.4043799226113
20
1.7395301412442
30
0
41
1
10
96.4339525005599
20
1.73342057354963
30
0
41
1
10
96.4620726568736
20
1.73823219600463
30
0
41
1
10
96.475070513876
20
1.74569498514115
30
0
41
1
10
96.4806964286585
20
1.75023281779961
30
0
0
SPLINE
5
18E
100
AcDbEntity
8
1
62
256
6
ByLayer
370
18
48
1
60
0
100
AcDbSpline
70
4
71
3
72
10
73
6
40
0
40
0
40
0
40
0
40
0.343124309327631
40
0.647923803804901
40
1
40
1
40
1
40
1
41
1
10
96.8936598167539
20
1.50739327328154
30
0
41
1
10
96.8906903946991
20
1.49946445330871
30
0
41
1
10
96.8884066240747
20
1.48470265173739
30
0
41
1
10
96.8956932178118
20
1.46112011222274
30
0
41
1
10
96.9053363546187
20
1.4480362706383
30
0
41
1
10
96.9121135371699
20
1.44144736009846
30
0
0
SPLINE
5
18F
100
AcDbEntity
8
1
62
256
6
ByLayer
370
18
48
1
60
0
100
AcDbSpline
70
4
71
3
72
23
73
19
40
0
40
0
40
0
40
0
40
0.0055355214193459
40
0.051018367942762
40
0.116365543194376
40
0.181568240376376
40
0.246713694496543
40
0.377294995176356
40
0.442398181157627
40
0.507501899801073
40
0.608615759071255
40
0.685585755424572
40
0.745263675456052
40
0.840449090478546
40
0.895804276238173
40
0.942660503344628
40
0.98964921180415
40
1
40
1
40
1
40
1
41
1
10
96.9121135371699
20
1.44144736009846
30
0
41
1
10
96.912775395974
20
1.44077810826688
30
0
41
1
10
96.9189455787236
20
1.43467132232967
30
0
41
1
10
96.9348643032631
20
1.42209654297592
30
0
41
1
10
96.9624223759105
20
1.40708295393866
30
0
41
1
10
96.9954237365408
20
1.39453654314041
30
0
41
1
10
97.0412380727865
20
1.38234406099668
30
0
41
1
10
97.0887215423523
20
1.3759631017063
30
0
41
1
10
97.1365504638701
20
1.37459969656153
30
0
41
1
10
97.1790387503736
20
1.37635718820168
30
0
41
1
10
97.2234846194801
20
1.38229427277507
30
0
41
1
10
97.2659757666369
20
1.39303501297294
30
0
41
1
10
97.3057535002894
20
1.4079557683215
30
0
41
1
10
97.3394057021514
20
1.42717900888835
30
0
41
1
10
97.3634863968228
20
1.45237566951036
30
0
41
1
10
97.3741266130278
20
1.47490907997972
30
0
41
1
10
97.3746906456906
20
1.4913440923288
30
0
41
1
10
97.3729070284542
20
1.49979820847412
30
0
41
1
10
97.3725136644539
20
1.50131720265157
30
0
0
SPLINE
5
190
100
AcDbEntity
8
1
62
256
6
ByLayer
370
18
48
1
60
0
100
AcDbSpline
70
4
71
3
72
21
73
17
40
0
40
0
40
0
40
0
40
0.0351229549036481
40
0.123831085626914
40
0.180967708415214
40
0.25493883885592
40
0.346452701431811
40
0.439911147418985
40
0.533359337188451
40
0.626825094066031
40
0.72035692357722
40
0.774613274627052
40
0.828910813199613
40
0.883300896026391
40
0.951216852924743
40
1
40
1
40
1
40
1
41
1
10
97.3727126327965
20
1.50136775529563
30
0
41
1
10
97.3718966073195
20
1.50704949291661
30
0
41
1
10
97.3709130178459
20
1.52699237801719
30
0
41
1
10
97.3823270761441
20
1.55709396037159
30
0
41
1
10
97.4039655429998
20
1.59017631772196
30
0
41
1
10
97.4314100172434
20
1.62146745523718
30
0
41
1
10
97.4686192214112
20
1.65434686723781
30
0
41
1
10
97.5129979103217
20
1.68557949649741
30
0
41
1
10
97.5607606656409
20
1.71254703003512
30
0
41
1
10
97.6105401902981
20
1.73446310614413
30
0
41
1
10
97.6543203209129
20
1.74814422547127
30
0
41
1
10
97.6909152831291
20
1.75515128049175
30
0
41
1
10
97.7201338306912
20
1.75758469360162
30
0
41
1
10
97.7506810597066
20
1.75572370894783
30
0
41
1
10
97.7785742996044
20
1.74741197297476
30
0
41
1
10
97.7923142038248
20
1.73510769013837
30
0
41
1
10
97.7974028111588
20
1.72895898270657
30
0
0
SPLINE
5
191
100
AcDbEntity
8
1
62
256
6
ByLayer
370
18
48
1
60
0
100
AcDbSpline
70
4
71
3
72
15
73
11
40
0
40
0
40
0
40
0
40
0.0986439250061462
40
0.20550173283011
40
0.366126142908733
40
0.506179374985213
40
0.645962201325526
40
0.785641678762592
40
0.892529484103279
40
1
40
1
40
1
40
1
41
1
10
97.7974028111588
20
1.72895898270657
30
0
41
1
10
97.8052356671362
20
1.72468612362128
30
0
41
1
10
97.8223691429924
20
1.71901352829708
30
0
41
1
10
97.8580685401756
20
1.72255255108342
30
0
41
1
10
97.8962086800686
20
1.73922705766876
30
0
41
1
10
97.933695124258
20
1.76517830809209
30
0
41
1
10
97.9661706456265
20
1.79453786442463
30
0
41
1
10
97.9932111015648
20
1.82461714540957
30
0
41
1
10
98.0157098140243
20
1.85412178779569
30
0
41
1
10
98.0280936212252
20
1.87283531342155
30
0
41
1
10
98.0339942571169
20
1.88244543391636
30
0
0
SPLINE
5
192
100
AcDbEntity
8
1
62
256
6
ByLayer
370
18
48
1
60
0
100
AcDbSpline
70
4
71
3
72
11
73
7
40
0
40
0
40
0
40
0
40
0.310689247099202
40
0.62066839037651
40
0.931523969057545
40
1
40
1
40
1
40
1
41
1
10
97.3804596162833
20
3.36004827754854
30
0
41
1
10
97.3867218054616
20
3.35392179355995
30
0
41
1
10
97.3968815504982
20
3.34082174465126
30
0
41
1
10
97.406333778338
20
3.31773928763686
30
0
41
1
10
97.4062583787862
20
3.29999212239507
30
0
41
1
10
97.4041702395063
20
3.29086637009394
30
0
41
1
10
97.4037217494567
20
3.28922719503539
30
0
0
SPLINE
5
193
100
AcDbEntity
8
1
62
256
6
ByLayer
370
18
48
1
60
0
100
AcDbSpline
70
4
71
3
72
13
73
9
40
0
40
0
40
0
40
0
40
0.156544228459687
40
0.292767584831847
40
0.477362950423458
40
0.769384756071591
40
0.927058307185103
40
1
40
1
40
1
40
1
41
1
10
97.8164533600479
20
3.04662319857529
30
0
41
1
10
97.8231740759814
20
3.05329147879053
30
0
41
1
10
97.8370796610996
20
3.06239070208581
30
0
41
1
10
97.8654471634849
20
3.06670256064562
30
0
41
1
10
97.9027057103728
20
3.05850812995984
30
0
41
1
10
97.9381063274306
20
3.03744626539301
30
0
41
1
10
97.96397300886
20
3.01553855997328
30
0
41
1
10
97.9747539005067
20
3.00507167077268
30
0
41
1
10
97.9780958471463
20
3.00167168733781
30
0
0
SPLINE
5
194
100
AcDbEntity
8
1
62
256
6
ByLayer
370
18
48
1
60
0
100
AcDbSpline
70
4
71
3
72
10
73
6
40
0
40
0
40
0
40
0
40
0.393116440641346
40
0.907875250673648
40
1
40
1
40
1
40
1
41
1
10
97.9780958471463
20
3.00167168733781
30
0
41
1
10
97.9887990575539
20
2.99067426554059
30
0
41
1
10
98.0120688529363
20
2.96411037661893
30
0
41
1
10
98.0340270697675
20
2.93137025762925
30
0
41
1
10
98.0458498094019
20
2.91066550211729
30
0
41
1
10
98.0476099972571
20
2.90749717867599
30
0
0
SPLINE
5
195
100
AcDbEntity
8
1
62
256
6
ByLayer
370
18
48
1
60
0
100
AcDbSpline
70
4
71
3
72
16
73
12
40
0
40
0
40
0
40
0
40
0.157510212011872
40
0.349384438155495
40
0.445159385588038
40
0.540980849219925
40
0.636897366768802
40
0.714923676240065
40
0.838303308920321
40
0.924242351129461
40
1
40
1
40
1
40
1
41
1
10
98.0476099972571
20
2.90749717867599
30
0
41
1
10
98.05576553983
20
2.89291560165817
30
0
41
1
10
98.0719279262229
20
2.85979040204622
30
0
41
1
10
98.0876903941371
20
2.81508288198605
30
0
41
1
10
98.0966053354686
20
2.7753870343987
30
0
41
1
10
98.1005228080763
20
2.74515631479147
30
0
41
1
10
98.1009262786101
20
2.71662681111146
30
0
41
1
10
98.0970943412781
20
2.68581082944229
30
0
41
1
10
98.0871886670703
20
2.65763115177874
30
0
41
1
10
98.068940849269
20
2.63652174255616
30
0
41
1
10
98.0561585898554
20
2.62957262122103
30
0
41
1
10
98.049540248251
20
2.62726553199591
30
0
0
SPLINE
5
196
100
AcDbEntity
8
1
62
256
6
ByLayer
370
18
48
1
60
0
100
AcDbSpline
70
4
71
3
72
10
73
6
40
0
40
0
40
0
40
0
40
0.206855660213208
40
0.806948045645759
40
1
40
1
40
1
40
1
41
1
10
98.0379369491078
20
2.14571480121908
30
0
41
1
10
98.0405259958417
20
2.1453946063252
30
0
41
1
10
98.0503635572088
20
2.14351297043366
30
0
41
1
10
98.061947258439
20
2.13809341533152
30
0
41
1
10
98.0694531578356
20
2.13144231549742
30
0
41
1
10
98.0712113012474
20
2.12968266302133
30
0
0
LINE
5
70
100
AcDbEntity
8
1
62
256
6
ByLayer
370
18
48
1
60
1
100
AcDbLine
10
92.196714
20
2.111897
30
-0.204381
11
99.256391
21
-2.096019
31
0.573957
39
0
210
0
220
0
230
1
0
LINE
5
72
100
AcDbEntity
8
1
62
256
6
ByLayer
370
18
48
1
60
1
100
AcDbLine
10
99.4121
20
6.824531
30
-0.036885
11
92.208683
21
2.797595
31
-0.251335
39
0
210
0
220
0
230
1
0
LINE
5
73
100
AcDbEntity
8
1
62
256
6
ByLayer
370
18
48
1
60
1
100
AcDbLine
10
99.856204
20
-1.760705
30
0.591814
11
99.999943
21
6.474147
31
0.027926
39
0
210
0
220
0
230
1
0
LINE
5
74
100
AcDbEntity
8
1
62
256
6
ByLayer
370
18
48
1
60
1
100
AcDbLine
10
98.095256
20
2.0876
30
-0.546626
11
98.037937
21
2.145715
31
0.287451
39
0
210
0
220
0
230
1
0
LINE
5
75
100
AcDbEntity
8
1
62
256
6
ByLayer
370
18
48
1
60
1
100
AcDbLine
10
96.950979
20
1.449279
30
-0.580787
11
96.89366
21
1.507393
31
0.25329
39
0
210
0
220
0
230
1
0
LINE
5
76
100
AcDbEntity
8
1
62
256
6
ByLayer
370
18
48
1
60
1
100
AcDbLine
10
97.873888
20
2.988391
30
-0.624602
11
97.816453
21
3.046623
31
0.211164
39
0
210
0
220
0
230
1
0
LINE
5
77
100
AcDbEntity
8
1
62
256
6
ByLayer
370
18
48
1
60
1
100
AcDbLine
10
98.007333
20
2.167216
30
0.262825
11
98.063221
21
2.110553
31
-0.550427
39
0
210
0
220
0
230
1
0
LINE
5
78
100
AcDbEntity
8
1
62
256
6
ByLayer
370
18
48
1
60
1
100
AcDbLine
10
96.305044
20
2.111358
30
-0.671307
11
96.247609
21
2.16959
31
0.164459
39
0
210
0
220
0
230
1
0
LINE
5
79
100
AcDbEntity
8
1
62
256
6
ByLayer
370
18
48
1
60
1
100
AcDbLine
10
98.309555
20
3.428629
30
-0.625336
11
98.260624
21
3.47824
31
0.086685
39
0
210
0
220
0
230
1
0
LINE
5
7A
100
AcDbEntity
8
1
62
256
6
ByLayer
370
18
48
1
60
1
100
AcDbLine
10
96.053534
20
1.301372
30
0.086685
11
96.102465
21
1.251762
31
-0.625336
39
0
210
0
220
0
230
1
0
LINE
5
7B
100
AcDbEntity
8
1
62
256
6
ByLayer
370
18
48
1
60
1
100
AcDbLine
10
96.887997
20
1.586656
30
-0.594687
11
96.834972
21
1.640417
31
0.176907
39
0
210
0
220
0
230
1
0
LINE
5
7C
100
AcDbEntity
8
1
62
256
6
ByLayer
370
18
48
1
60
0
100
AcDbLine
10
97.403903
20
3.289044
30
0.16156
11
97.403722
21
3.289227
31
0.164192
39
0
210
0
220
0
230
1
0
LINE
5
7D
100
AcDbEntity
8
1
62
256
6
ByLayer
370
18
48
1
60
1
100
AcDbLine
10
96.982187
20
3.237189
30
-0.703216
11
96.924868
21
3.295303
31
0.130862
39
0
210
0
220
0
230
1
0
LINE
5
7E
100
AcDbEntity
8
1
62
256
6
ByLayer
370
18
48
1
60
1
100
AcDbLine
10
97.471012
20
3.147482
30
0.115396
11
97.524022
21
3.093736
31
-0.655985
39
0
210
0
220
0
230
1
0
LINE
5
7F
100
AcDbEntity
8
1
62
256
6
ByLayer
370
18
48
1
60
1
100
AcDbLine
10
96.561747
20
3.001647
30
-0.715698
11
96.504428
21
3.059762
31
0.11838
39
0
210
0
220
0
230
1
0
LINE
5
80
100
AcDbEntity
8
1
62
256
6
ByLayer
370
18
48
1
60
1
100
AcDbLine
10
96.348798
20
2.569838
30
-0.700245
11
96.292921
21
2.626492
31
0.112857
39
0
210
0
220
0
230
1
0
LINE
5
81
100
AcDbEntity
8
1
62
256
6
ByLayer
370
18
48
1
60
1
100
AcDbLine
10
96.981988
20
3.237138
30
-0.703226
11
96.924669
21
3.295253
31
0.130852
39
0
210
0
220
0
230
1
0
LINE
5
82
100
AcDbEntity
8
1
62
256
6
ByLayer
370
18
48
1
60
1
100
AcDbLine
10
96.563109
20
3.002972
30
-0.715696
11
96.50579
21
3.061086
31
0.118381
39
0
210
0
220
0
230
1
0
LINE
5
83
100
AcDbEntity
8
1
62
256
6
ByLayer
370
18
48
1
60
1
100
AcDbLine
10
90.62
20
5.223742
30
-0.114669
11
90.62
21
-4.828081
31
0.588223
39
0
210
0
220
0
230
1
0
LINE
5
84
100
AcDbEntity
8
1
62
256
6
ByLayer
370
18
48
1
60
1
100
AcDbLine
10
90.62
20
-4.828081
30
0.588223
11
90.278883
21
-4.87967
31
1.868006
39
0
210
0
220
0
230
1
0
LINE
5
85
100
AcDbEntity
8
1
62
256
6
ByLayer
370
18
48
1
60
1
100
AcDbLine
10
90.589326
20
5.225
30
0
11
45.75
21
5.225
31
0
39
0
210
0
220
0
230
1
0
LINE
5
86
100
AcDbEntity
8
1
62
256
6
ByLayer
370
18
48
1
60
1
100
AcDbLine
10
45.75
20
-5.225
30
0
11
87.995493
21
-5.225
31
0
39
0
210
0
220
0
230
1
0
LINE
5
87
100
AcDbEntity
8
1
62
256
6
ByLayer
370
18
48
1
60
1
100
AcDbLine
10
90.62
20
5.223742
30
-0.114669
11
91.57
21
5.223742
31
-0.114669
39
0
210
0
220
0
230
1
0
LINE
5
88
100
AcDbEntity
8
1
62
256
6
ByLayer
370
18
48
1
60
1
100
AcDbLine
10
96.523347
20
6.251525
30
-0.186539
11
96.510982
21
5.547199
31
-0.137287
39
0
210
0
220
0
230
1
0
LINE
5
89
100
AcDbEntity
8
1
62
256
6
ByLayer
370
18
48
1
60
1
100
AcDbLine
10
93.598634
20
3.95707
30
-0.026095
11
96.510982
21
5.547199
31
-0.137287
39
0
210
0
220
0
230
1
0
LINE
5
8A
100
AcDbEntity
8
1
62
256
6
ByLayer
370
18
48
1
60
1
100
AcDbLine
10
92.269051
20
3.589963
30
-0.000424
11
92.217425
21
3.504455
31
0.005555
39
0
210
0
220
0
230
1
0
LINE
5
8B
100
AcDbEntity
8
1
62
256
6
ByLayer
370
18
48
1
60
1
100
AcDbLine
10
92.4031
20
1.641919
30
0.135796
11
99.30087
21
-2.482946
31
0.424235
39
0
210
0
220
0
230
1
0
LINE
5
8C
100
AcDbEntity
8
1
62
256
6
ByLayer
370
18
48
1
60
1
100
AcDbLine
10
99.30087
20
-2.482946
30
0.424235
11
99.282804
21
-3.517955
31
0.49661
39
0
210
0
220
0
230
1
0
LINE
5
8D
100
AcDbEntity
8
1
62
256
6
ByLayer
370
18
48
1
60
1
100
AcDbLine
10
99.282804
20
-3.517955
30
0.49661
11
90.62
21
-4.828081
31
0.588223
39
0
210
0
220
0
230
1
0
LINE
5
8E
100
AcDbEntity
8
1
62
256
6
ByLayer
370
18
48
1
60
1
100
AcDbLine
10
99.30087
20
-2.482946
30
0.372874
11
99.307179
21
-2.121515
31
0.348125
39
0
210
0
220
0
230
1
0
LINE
5
8F
100
AcDbEntity
8
1
62
256
6
ByLayer
370
18
48
1
60
1
100
AcDbLine
10
92.325251
20
3.162934
30
-2.660149
11
92.141316
21
3.349423
31
0.016396
39
0
210
0
220
0
230
1
0
LINE
5
90
100
AcDbEntity
8
1
62
256
6
ByLayer
370
18
48
1
60
1
100
AcDbLine
10
92.401002
20
3.31833
30
-2.66577
11
92.217425
21
3.504455
31
0.005555
39
0
210
0
220
0
230
1
0
LINE
5
91
100
AcDbEntity
8
1
62
256
6
ByLayer
370
18
48
1
60
1
100
AcDbLine
10
92.401002
20
3.31833
30
-2.66577
11
92.452385
21
3.404084
31
-2.668214
39
0
210
0
220
0
230
1
0
LINE
5
92
100
AcDbEntity
8
1
62
256
6
ByLayer
370
18
48
1
60
1
100
AcDbLine
10
92.452385
20
3.404084
30
-2.668214
11
92.269051
21
3.589963
31
-0.000424
39
0
210
0
220
0
230
1
0
LINE
5
93
100
AcDbEntity
8
1
62
256
6
ByLayer
370
18
48
1
60
1
100
AcDbLine
10
93.598634
20
3.95707
30
-0.026095
11
93.628694
21
3.926592
31
-0.463512
39
0
210
0
220
0
230
1
0
LINE
5
94
100
AcDbEntity
8
1
62
256
6
ByLayer
370
18
48
1
60
1
100
AcDbLine
10
93.821378
20
3.751909
30
-2.59837
11
93.674329
21
3.900999
31
-0.458592
39
0
210
0
220
0
230
1
0
LINE
5
95
100
AcDbEntity
8
1
62
256
6
ByLayer
370
18
48
1
60
1
100
AcDbLine
10
96.510982
20
5.547199
30
-0.137287
11
96.527391
21
5.530562
31
-0.376067
39
0
210
0
220
0
230
1
0
LINE
5
96
100
AcDbEntity
8
1
62
256
6
ByLayer
370
18
48
1
60
1
100
AcDbLine
10
93.628694
20
3.926592
30
-0.463512
11
96.527391
21
5.530562
31
-0.376067
39
0
210
0
220
0
230
1
0
LINE
5
97
100
AcDbEntity
8
1
62
256
6
ByLayer
370
18
48
1
60
1
100
AcDbLine
10
96.539784
20
6.240538
30
-0.424683
11
96.527391
21
5.530562
31
-0.376067
39
0
210
0
220
0
230
1
0
LINE
5
98
100
AcDbEntity
8
1
62
256
6
ByLayer
370
18
48
1
60
1
100
AcDbLine
10
97.238739
20
6.271805
30
-0.378828
11
97.227065
21
5.603028
31
-0.333033
39
0
210
0
220
0
230
1
0
LINE
5
99
100
AcDbEntity
8
1
62
256
6
ByLayer
370
18
48
1
60
1
100
AcDbLine
10
93.920253
20
3.754416
30
-0.431479
11
93.674329
21
3.900999
31
-0.458592
39
0
210
0
220
0
230
1
0
LINE
5
9A
100
AcDbEntity
8
1
62
256
6
ByLayer
370
18
48
1
60
1
100
AcDbLine
10
97.379682
20
5.772987
30
-2.494658
11
97.37819
21
5.687512
31
-2.488805
39
0
210
0
220
0
230
1
0
LINE
5
9B
100
AcDbEntity
8
1
62
256
6
ByLayer
370
18
48
1
60
1
100
AcDbLine
10
93.86706
20
3.72468
30
-2.593334
11
93.821378
21
3.751909
31
-2.59837
39
0
210
0
220
0
230
1
0
LINE
5
9C
100
AcDbEntity
8
1
62
256
6
ByLayer
370
18
48
1
60
1
100
AcDbLine
10
-50.75
20
5
30
0
11
-51.25
21
4.5
31
0
39
0
210
0
220
0
230
1
0
LINE
5
9D
100
AcDbEntity
8
1
62
256
6
ByLayer
370
18
48
1
60
1
100
AcDbLine
10
-51.25
20
-4.5
30
0
11
-50.75
21
-5
31
0
39
0
210
0
220
0
230
1
0
LINE
5
9E
100
AcDbEntity
8
1
62
256
6
ByLayer
370
18
48
1
60
1
100
AcDbLine
10
45.75
20
5
30
0
11
-50.75
21
5
31
0
39
0
210
0
220
0
230
1
0
LINE
5
9F
100
AcDbEntity
8
1
62
256
6
ByLayer
370
18
48
1
60
1
100
AcDbLine
10
-50.75
20
-5
30
0
11
45.75
21
-5
31
0
39
0
210
0
220
0
230
1
0
LINE
5
A0
100
AcDbEntity
8
1
62
256
6
ByLayer
370
18
48
1
60
1
100
AcDbLine
10
-45.25
20
-0.204228
30
4.995827
11
40
21
-0.204228
31
4.995827
39
0
210
0
220
0
230
1
0
LINE
5
A1
100
AcDbEntity
8
1
62
256
6
ByLayer
370
18
48
1
60
1
100
AcDbLine
10
40
20
0.204228
30
4.995827
11
-45.25
21
0.204228
31
4.995827
39
0
210
0
220
0
230
1
0
LINE
5
A2
100
AcDbEntity
8
SK1
62
256
6
ByLayer
370
18
48
1
60
0
100
AcDbLine
10
-50.75
20
5
30
0
11
-50.75
21
-5
31
0
39
0
210
0
220
0
230
1
0
LINE
5
A4
100
AcDbEntity
8
SK1
62
256
6
ByLayer
370
18
48
1
60
0
100
AcDbLine
10
-50.75
20
-5
30
0
11
0
21
-5
31
0
39
0
210
0
220
0
230
1
0
LINE
5
A5
100
AcDbEntity
8
SK1
62
256
6
ByLayer
370
18
48
1
60
0
100
AcDbLine
10
-51.25
20
-4.5
30
0
11
-50.75
21
-5
31
0
39
0
210
0
220
0
230
1
0
LINE
5
A6
100
AcDbEntity
8
1
62
256
6
ByLayer
370
18
48
1
60
0
100
AcDbLine
10
90.278883
20
-4.87967
30
0
11
87.995493
21
-5.225
31
0
39
0
210
0
220
0
230
1
0
LINE
5
A7
100
AcDbEntity
8
1
62
256
6
ByLayer
370
18
48
1
60
0
100
AcDbLine
10
90.62
20
-4.828081
30
0
11
90.278883
21
-4.87967
31
0
39
0
210
0
220
0
230
1
0
LINE
5
A8
100
AcDbEntity
8
1
62
256
6
ByLayer
370
18
48
1
60
0
100
AcDbLine
10
90.62
20
5.223742
30
0
11
91.57
21
5.223742
31
0
39
0
210
0
220
0
230
1
0
LINE
5
A9
100
AcDbEntity
8
1
62
256
6
ByLayer
370
18
48
1
60
0
100
AcDbLine
10
90.62
20
5.223742
30
0
11
90.62
21
-4.828081
31
0
39
0
210
0
220
0
230
1
0
LINE
5
AA
100
AcDbEntity
8
1
62
256
6
ByLayer
370
18
48
1
60
0
100
AcDbLine
10
92.325251
20
3.162934
30
0
11
92.141316
21
3.349423
31
0
39
0
210
0
220
0
230
1
0
LINE
5
AB
100
AcDbEntity
8
1
62
256
6
ByLayer
370
18
48
1
60
0
100
AcDbLine
10
92.269051
20
3.589963
30
0
11
92.217425
21
3.504455
31
0
39
0
210
0
220
0
230
1
0
LINE
5
AC
100
AcDbEntity
8
1
62
256
6
ByLayer
370
18
48
1
60
0
100
AcDbLine
10
92.452385
20
3.404084
30
0
11
92.269051
21
3.589963
31
0
39
0
210
0
220
0
230
1
0
LINE
5
AD
100
AcDbEntity
8
1
62
256
6
ByLayer
370
18
48
1
60
0
100
AcDbLine
10
92.401002
20
3.31833
30
0
11
92.452385
21
3.404084
31
0
39
0
210
0
220
0
230
1
0
LINE
5
AE
100
AcDbEntity
8
1
62
256
6
ByLayer
370
18
48
1
60
0
100
AcDbLine
10
92.401002
20
3.31833
30
0
11
92.217425
21
3.504455
31
0
39
0
210
0
220
0
230
1
0
LINE
5
AF
100
AcDbEntity
8
1
62
256
6
ByLayer
370
18
48
1
60
0
100
AcDbLine
10
93.628694
20
3.926592
30
0
11
96.527391
21
5.530562
31
0
39
0
210
0
220
0
230
1
0
LINE
5
B0
100
AcDbEntity
8
1
62
256
6
ByLayer
370
18
48
1
60
0
100
AcDbLine
10
93.598634
20
3.95707
30
0
11
93.628694
21
3.926592
31
0
39
0
210
0
220
0
230
1
0
LINE
5
B1
100
AcDbEntity
8
1
62
256
6
ByLayer
370
18
48
1
60
0
100
AcDbLine
10
93.86706
20
3.72468
30
0
11
93.821378
21
3.751909
31
0
39
0
210
0
220
0
230
1
0
LINE
5
B2
100
AcDbEntity
8
1
62
256
6
ByLayer
370
18
48
1
60
0
100
AcDbLine
10
93.821378
20
3.751909
30
0
11
93.674329
21
3.900999
31
0
39
0
210
0
220
0
230
1
0
LINE
5
B3
100
AcDbEntity
8
1
62
256
6
ByLayer
370
18
48
1
60
0
100
AcDbLine
10
96.053534
20
1.301372
30
0
11
96.102465
21
1.251762
31
0
39
0
210
0
220
0
230
1
0
LINE
5
B4
100
AcDbEntity
8
1
62
256
6
ByLayer
370
18
48
1
60
0
100
AcDbLine
10
96.305044
20
2.111358
30
0
11
96.247609
21
2.16959
31
0
39
0
210
0
220
0
230
1
0
LINE
5
B5
100
AcDbEntity
8
1
62
256
6
ByLayer
370
18
48
1
60
0
100
AcDbLine
10
96.348798
20
2.569838
30
0
11
96.292921
21
2.626492
31
0
39
0
210
0
220
0
230
1
0
LINE
5
B6
100
AcDbEntity
8
1
62
256
6
ByLayer
370
18
48
1
60
0
100
AcDbLine
10
96.561747
20
3.001647
30
0
11
96.504428
21
3.059762
31
0
39
0
210
0
220
0
230
1
0
LINE
5
B7
100
AcDbEntity
8
1
62
256
6
ByLayer
370
18
48
1
60
0
100
AcDbLine
10
96.563109
20
3.002972
30
0
11
96.50579
21
3.061086
31
0
39
0
210
0
220
0
230
1
0
LINE
5
B8
100
AcDbEntity
8
1
62
256
6
ByLayer
370
18
48
1
60
0
100
AcDbLine
10
96.523347
20
6.251525
30
0
11
96.510982
21
5.547199
31
0
39
0
210
0
220
0
230
1
0
LINE
5
B9
100
AcDbEntity
8
1
62
256
6
ByLayer
370
18
48
1
60
0
100
AcDbLine
10
96.510982
20
5.547199
30
0
11
96.527391
21
5.530562
31
0
39
0
210
0
220
0
230
1
0
LINE
5
BA
100
AcDbEntity
8
1
62
256
6
ByLayer
370
18
48
1
60
0
100
AcDbLine
10
93.598634
20
3.95707
30
0
11
96.510982
21
5.547199
31
0
39
0
210
0
220
0
230
1
0
LINE
5
BB
100
AcDbEntity
8
1
62
256
6
ByLayer
370
18
48
1
60
0
100
AcDbLine
10
96.539784
20
6.240538
30
0
11
96.527391
21
5.530562
31
0
39
0
210
0
220
0
230
1
0
LINE
5
BC
100
AcDbEntity
8
1
62
256
6
ByLayer
370
18
48
1
60
0
100
AcDbLine
10
96.887997
20
1.586656
30
0
11
96.834972
21
1.640417
31
0
39
0
210
0
220
0
230
1
0
LINE
5
BD
100
AcDbEntity
8
1
62
256
6
ByLayer
370
18
48
1
60
0
100
AcDbLine
10
96.981988
20
3.237138
30
0
11
96.924669
21
3.295253
31
0
39
0
210
0
220
0
230
1
0
LINE
5
BE
100
AcDbEntity
8
1
62
256
6
ByLayer
370
18
48
1
60
0
100
AcDbLine
10
96.982187
20
3.237189
30
0
11
96.924868
21
3.295303
31
0
39
0
210
0
220
0
230
1
0
LINE
5
BF
100
AcDbEntity
8
1
62
256
6
ByLayer
370
18
48
1
60
0
100
AcDbLine
10
97.379682
20
5.772987
30
0
11
97.37819
21
5.687512
31
0
39
0
210
0
220
0
230
1
0
LINE
5
C0
100
AcDbEntity
8
1
62
256
6
ByLayer
370
18
48
1
60
0
100
AcDbLine
10
97.471012
20
3.147482
30
0
11
97.524022
21
3.093736
31
0
39
0
210
0
220
0
230
1
0
LINE
5
C1
100
AcDbEntity
8
1
62
256
6
ByLayer
370
18
48
1
60
0
100
AcDbLine
10
97.873888
20
2.988391
30
0
11
97.816453
21
3.046623
31
0
39
0
210
0
220
0
230
1
0
LINE
5
C2
100
AcDbEntity
8
1
62
256
6
ByLayer
370
18
48
1
60
0
100
AcDbLine
10
98.007333
20
2.167216
30
0
11
98.063221
21
2.110553
31
0
39
0
210
0
220
0
230
1
0
LINE
5
C3
100
AcDbEntity
8
1
62
256
6
ByLayer
370
18
48
1
60
0
100
AcDbLine
10
45.75
20
5
30
0
11
0
21
5
31
0
39
0
210
0
220
0
230
1
0
LINE
5
C4
100
AcDbEntity
8
SK1
62
256
6
ByLayer
370
18
48
1
60
0
100
AcDbLine
10
-50.75
20
5
30
0
11
-51.25
21
4.5
31
0
39
0
210
0
220
0
230
1
0
LINE
5
C5
100
AcDbEntity
8
SK1
62
256
6
ByLayer
370
18
48
1
60
0
100
AcDbLine
10
-51.25
20
4.5
30
0
11
-51.25
21
-4.5
31
0
39
0
210
0
220
0
230
1
0
LINE
5
C6
100
AcDbEntity
8
SK1
62
256
6
ByLayer
370
18
48
1
60
0
100
AcDbLine
10
-45.25
20
0.204228
30
0
11
-45.25
21
-0.204228
31
0
39
0
210
0
220
0
230
1
0
LINE
5
C7
100
AcDbEntity
8
SK1
62
256
6
ByLayer
370
18
48
1
60
0
100
AcDbLine
10
-45.25
20
-0.204228
30
0
11
0
21
-0.204228
31
0
39
0
210
0
220
0
230
1
0
LINE
5
C8
100
AcDbEntity
8
1
62
256
6
ByLayer
370
18
48
1
60
0
100
AcDbLine
10
40
20
-0.204228
30
0
11
40
21
0.204228
31
0
39
0
210
0
220
0
230
1
0
LINE
5
C9
100
AcDbEntity
8
1
62
256
6
ByLayer
370
18
48
1
60
0
100
AcDbLine
10
40
20
0.204228
30
0
11
0
21
0.204228
31
0
39
0
210
0
220
0
230
1
0
LINE
5
CA
100
AcDbEntity
8
1
62
256
6
ByLayer
370
18
48
1
60
0
100
AcDbLine
10
90.589326
20
5.225
30
0
11
45.75
21
5.225
31
0
39
0
210
0
220
0
230
1
0
LINE
5
CB
100
AcDbEntity
8
1
62
256
6
ByLayer
370
18
48
1
60
0
100
AcDbLine
10
45.75
20
5.225
30
0
11
45.75
21
-5.225
31
0
39
0
210
0
220
0
230
1
0
LINE
5
CC
100
AcDbEntity
8
1
62
256
6
ByLayer
370
18
48
1
60
0
100
AcDbLine
10
45.75
20
-5.225
30
0
11
87.995493
21
-5.225
31
0
39
0
210
0
220
0
230
1
0
LINE
5
CD
100
AcDbEntity
8
1
62
256
6
ByLayer
370
18
48
1
60
0
100
AcDbLine
10
92.4031
20
1.641919
30
0
11
99.30087
21
-2.482946
31
0
39
0
210
0
220
0
230
1
0
LINE
5
CE
100
AcDbEntity
8
1
62
256
6
ByLayer
370
18
48
1
60
0
100
AcDbLine
10
99.30087
20
-2.482946
30
0
11
99.282804
21
-3.517955
31
0
39
0
210
0
220
0
230
1
0
LINE
5
CF
100
AcDbEntity
8
1
62
256
6
ByLayer
370
18
48
1
60
0
100
AcDbLine
10
99.282804
20
-3.517955
30
0
11
90.62
21
-4.828081
31
0
39
0
210
0
220
0
230
1
0
LINE
5
D0
100
AcDbEntity
8
1
62
256
6
ByLayer
370
18
48
1
60
0
100
AcDbLine
10
92.208683
20
2.797595
30
0
11
99.4121
21
6.824531
31
0
39
0
210
0
220
0
230
1
0
LINE
5
D1
100
AcDbEntity
8
1
62
256
6
ByLayer
370
18
48
1
60
0
100
AcDbLine
10
99.999943
20
6.474147
30
0
11
99.856204
21
-1.760705
31
0
39
0
210
0
220
0
230
1
0
LINE
5
D2
100
AcDbEntity
8
1
62
256
6
ByLayer
370
18
48
1
60
0
100
AcDbLine
10
99.256391
20
-2.096019
30
0
11
92.196714
21
2.111897
31
0
39
0
210
0
220
0
230
1
0
LINE
5
D3
100
AcDbEntity
8
1
62
256
6
ByLayer
370
18
48
1
60
0
100
AcDbLine
10
93.920253
20
3.754416
30
0
11
93.674329
21
3.900999
31
0
39
0
210
0
220
0
230
1
0
LINE
5
D4
100
AcDbEntity
8
1
62
256
6
ByLayer
370
18
48
1
60
0
100
AcDbLine
10
98.260624
20
3.47824
30
0
11
98.309555
21
3.428629
31
0
39
0
210
0
220
0
230
1
0
LINE
5
D5
100
AcDbEntity
8
1
62
256
6
ByLayer
370
18
48
1
60
0
100
AcDbLine
10
96.950979
20
1.449279
30
0
11
96.89366
21
1.507393
31
0
39
0
210
0
220
0
230
1
0
LINE
5
D6
100
AcDbEntity
8
1
62
256
6
ByLayer
370
18
48
1
60
0
100
AcDbLine
10
97.238739
20
6.271805
30
0
11
97.227065
21
5.603028
31
0
39
0
210
0
220
0
230
1
0
LINE
5
D7
100
AcDbEntity
8
1
62
256
6
ByLayer
370
18
48
1
60
0
100
AcDbLine
10
98.095256
20
2.0876
30
0
11
98.037937
21
2.145715
31
0
39
0
210
0
220
0
230
1
0
LINE
5
D8
100
AcDbEntity
8
1
62
256
6
ByLayer
370
18
48
1
60
0
100
AcDbLine
10
99.30087
20
-2.482946
30
0
11
99.307179
21
-2.121515
31
0
39
0
210
0
220
0
230
1
0
LINE
5
D9
100
AcDbEntity
8
1
62
256
6
ByLayer
370
18
48
1
60
0
100
AcDbLine
10
0
20
-2
30
0
11
0
21
2
31
0
39
0
210
0
220
0
230
1
0
LINE
5
DA
100
AcDbEntity
8
1
62
256
6
ByLayer
370
18
48
1
60
0
100
AcDbLine
10
40
20
-2
30
0
11
40
21
2
31
0
39
0
210
0
220
0
230
1
0
LINE
5
DB
100
AcDbEntity
8
SK1
62
256
6
ByLayer
370
18
48
1
60
0
100
AcDbLine
10
0
20
5
30
0
11
-50.75
21
5
31
0
39
0
210
0
220
0
230
1
0
LINE
5
DC
100
AcDbEntity
8
SK1
62
256
6
ByLayer
370
18
48
1
60
0
100
AcDbLine
10
0
20
0.204228
30
0
11
-45.25
21
0.204228
31
0
39
0
210
0
220
0
230
1
0
LINE
5
DD
100
AcDbEntity
8
1
62
256
6
ByLayer
370
18
48
1
60
0
100
AcDbLine
10
0
20
-0.204228
30
0
11
40
21
-0.204228
31
0
39
0
210
0
220
0
230
1
0
LINE
5
DE
100
AcDbEntity
8
1
62
256
6
ByLayer
370
18
48
1
60
0
100
AcDbLine
10
0
20
-5
30
0
11
45.75
21
-5
31
0
39
0
210
0
220
0
230
1
0
LINE
5
DF
100
AcDbEntity
8
4
62
256
6
ByLayer
370
18
48
0.05
60
0
100
AcDbLine
10
0
20
0
30
0
11
100
21
0
31
0
39
0
210
0
220
0
230
1
0
LINE
5
E1
100
AcDbEntity
8
SK4
62
256
6
ByLayer
370
18
48
0.05
60
0
100
AcDbLine
10
-5
20
0
30
0
11
105
21
0
31
0
39
0
210
0
220
0
230
1
0
LINE
5
E3
100
AcDbEntity
8
80
62
256
6
ByLayer
370
18
48
1
60
0
100
AcDbLine
10
0
20
0
30
0
11
-10
21
0
31
0
39
0
210
0
220
0
230
1
0
LINE
5
E4
100
AcDbEntity
8
81
62
256
6
ByLayer
370
18
48
1
60
0
100
AcDbLine
10
100
20
7
30
0
11
110
21
7
31
0
39
0
210
0
220
0
230
1
0
MTEXT
5
197
100
AcDbEntity
8
SK6
62
256
6
ByLayer
370
13
48
1
60
0
100
AcDbMText
10
-19.049358
20
43.961878
30
0
210
0
220
0
230
1
1
\W0.7518;F10M-STFPR 09-R
40
3.5
41
0
44
1.084337
50
0
71
7
72
5
7
iso_b_vert
0
DIMENSION
5
1A6
100
AcDbEntity
8
2
62
256
6
ByLayer
370
13
48
1
60
0
100
AcDbDimension
2
DimnDraft3D1
10
0
20
34.566615
30
0
11
47.176053
21
34.566615
31
0
70
32
71
5
72
1
41
1
210
0
220
0
230
1
3
Standard
100
AcDbAlignedDimension
13
100
23
8.5875
33
0
14
0
24
1.5875
34
0
50
0
100
AcDbRotatedDimension
1001
ACAD
1000
DSTYLE
1002
{
1070
   279
1070
     0
1070
   173
1070
     1
1070
   340
1005
19D
1070
   271
1070
     1
1070
   272
1070
     2
1070
    77
1070
     1
1070
    73
1070
     0
1070
   171
1070
     3
1070
   274
1070
     4
1070
   177
1070
     7
1070
   176
1070
     7
1070
   178
1070
     7
1070
    78
1070
     8
1070
    48
1040
-0.005
1070
    41
1041
3.175
1070
   147
1041
1.75
1070
    42
1041
1.5875
1070
    44
1041
3.175
1070
   140
1041
3.5
1070
   343
1005
0
1070
   344
1005
0
1002
}
0
DIMENSION
5
1B0
100
AcDbEntity
8
2
62
256
6
ByLayer
370
13
48
1
60
0
100
AcDbDimension
2
DimnDraft3D2
10
112.715744
20
0
30
0
11
112.715744
21
16.280786
31
0
70
32
71
5
72
1
41
1
210
0
220
0
230
1
3
Standard
100
AcDbAlignedDimension
13
101.5875
23
7
33
0
14
106.5875
24
0
34
0
50
90
100
AcDbRotatedDimension
1001
ACAD
1000
DSTYLE
1002
{
1070
    74
1070
     0
1070
   279
1070
     0
1070
   173
1070
     1
1070
   340
1005
19D
1070
   271
1070
     1
1070
   272
1070
     2
1070
    77
1070
     1
1070
    73
1070
     0
1070
   171
1070
     3
1070
   274
1070
     4
1070
   177
1070
     7
1070
   176
1070
     7
1070
   178
1070
     7
1070
    78
1070
     8
1070
    48
1040
-0.005
1070
    41
1041
3.175
1070
   147
1041
1.75
1070
    42
1041
1.5875
1070
    44
1041
3.175
1070
   140
1041
3.5
1070
   343
1005
0
1070
   344
1005
0
1002
}
0
DIMENSION
5
1BB
100
AcDbEntity
8
2
62
256
6
ByLayer
370
13
48
1
60
0
100
AcDbDimension
2
DimnDraft3D3
10
105
20
0
30
0
11
108.805989
21
-15.227346
31
0
70
34
71
5
72
1
41
1
210
0
220
0
230
1
3
Standard
100
AcDb2LineAngularDimension
13
99.999943
23
6.474147
33
0
14
99.856204
24
-1.760705
34
0
15
-5
25
0
35
0
16
112.471399
26
-12.806041
36
0
40
0
0
DIMENSION
5
1C6
100
AcDbEntity
8
SK2
62
256
6
ByLayer
370
13
48
1
60
0
100
AcDbDimension
2
DimnDraft3D4
10
40
20
18.782484
30
0
11
68.016974
21
18.782484
31
0
70
32
71
5
72
1
41
1
210
0
220
0
230
1
3
Standard
100
AcDbAlignedDimension
13
100
23
8.5875
33
0
14
40
24
3.5875
34
0
50
0
100
AcDbRotatedDimension
1001
ACAD
1000
DSTYLE
1002
{
1070
   279
1070
     0
1070
   173
1070
     1
1070
   340
1005
19D
1070
   271
1070
     1
1070
   272
1070
     2
1070
    77
1070
     1
1070
    73
1070
     0
1070
   171
1070
     3
1070
   274
1070
     4
1070
   177
1070
     7
1070
   176
1070
     7
1070
   178
1070
     7
1070
    78
1070
     8
1070
    48
1040
-0.005
1070
    41
1041
3.175
1070
   147
1041
1.75
1070
    42
1041
1.5875
1070
    44
1041
3.175
1070
   140
1041
3.5
1070
   343
1005
0
1070
   344
1005
0
1002
}
0
DIMENSION
5
1D0
100
AcDbEntity
8
SK2
62
256
6
ByLayer
370
13
48
1
60
0
100
AcDbDimension
2
DimnDraft3D5
10
-51.25
20
-40.532382
30
0
11
18.936184
21
-40.532382
31
0
70
32
71
5
72
1
41
1
210
0
220
0
230
1
3
Standard
100
AcDbAlignedDimension
13
100
23
5.4125
33
0
14
-51.25
24
-6.0875
34
0
50
0
100
AcDbRotatedDimension
1001
ACAD
1000
DSTYLE
1002
{
1070
   279
1070
     0
1070
   173
1070
     1
1070
   340
1005
19D
1070
   271
1070
     2
1070
   272
1070
     2
1070
    77
1070
     1
1070
    73
1070
     0
1070
   171
1070
     3
1070
   274
1070
     4
1070
   177
1070
     7
1070
   176
1070
     7
1070
   178
1070
     7
1070
    78
1070
     8
1070
    48
1040
-0.005
1070
    41
1041
3.175
1070
   147
1041
1.75
1070
    42
1041
1.5875
1070
    44
1041
3.175
1070
   140
1041
3.5
1070
   343
1005
0
1070
   344
1005
0
1002
}
0
DIMENSION
5
1D9
100
AcDbEntity
8
SK2
62
256
6
ByLayer
370
13
48
1
60
0
100
AcDbDimension
2
DimnDraft3D6
10
24.53754
20
-27.115139
30
0
11
23.66254
21
-20.115139
31
0
70
33
71
5
72
1
41
1
210
0
220
0
230
1
3
Standard
100
AcDbAlignedDimension
13
45.75
23
5
33
0
14
45.75
24
-5
34
0
1001
ACAD
1000
DSTYLE
1002
{
1070
   279
1070
     0
1070
    74
1070
     0
1070
   173
1070
     1
1070
   340
1005
19D
1070
   271
1070
     2
1070
   272
1070
     2
1070
    77
1070
     1
1070
    73
1070
     0
1070
   171
1070
     3
1070
   274
1070
     4
1070
   177
1070
     7
1070
   176
1070
     7
1070
   178
1070
     7
1070
    78
1070
     8
1070
    48
1040
-0.005
1070
    41
1041
3.175
1070
   147
1041
1.75
1070
    42
1041
1.5875
1070
    44
1041
3.175
1070
   140
1041
3.5
1070
   343
1005
0
1070
   344
1005
0
1002
}
0
DIMENSION
5
1E2
100
AcDbEntity
8
SK2
62
256
6
ByLayer
370
13
48
1
60
0
100
AcDbDimension
2
DimnDraft3D7
10
71.229656
20
-34.374757
30
0
11
70.354656
21
-27.374757
31
0
70
33
71
5
72
1
41
1
210
0
220
0
230
1
3
Standard
100
AcDbAlignedDimension
13
90.589326
23
5.225
33
0
14
87.995493
24
-5.225
34
0
1001
ACAD
1000
DSTYLE
1002
{
1070
   279
1070
     0
1070
    74
1070
     0
1070
   173
1070
     1
1070
   340
1005
19D
1070
   271
1070
     2
1070
   272
1070
     2
1070
    77
1070
     1
1070
    73
1070
     0
1070
   171
1070
     3
1070
   274
1070
     4
1070
   177
1070
     7
1070
   176
1070
     7
1070
   178
1070
     7
1070
    78
1070
     8
1070
    48
1040
-0.005
1070
    41
1041
3.175
1070
   147
1041
1.75
1070
    42
1041
1.5875
1070
    44
1041
3.175
1070
   140
1041
3.5
1070
   343
1005
0
1070
   344
1005
0
1002
}
0
ENDSEC
0
SECTION
2
OBJECTS
0
DICTIONARY
5
24d
330
0
100
AcDbDictionary
280
0
281
1
3
ACAD_GROUP
350
24e
3
ACAD_MLINESTYLE
350
24f
0
DICTIONARY
5
24e
330
0
100
AcDbDictionary
280
0
281
1
0
DICTIONARY
5
24f
330
0
100
AcDbDictionary
280
0
281
1
3
Standard
350
18
0
MLINESTYLE
5
18
330
24f
100
AcDbMlineStyle
2
Standard
70
0
3

62
256
51
90
52
90
71
2
49
-0.5
62
256
6
ByLayer
49
0.5
62
256
6
ByLayer
0
RASTERVARIABLES
5
23b
330

100
AcDbRasterVariables
90
0
70
1
71
1
72
1
0
ENDSEC
0
EOF
