0
SECTION
2
HEADER
9
$ACADVER
1
AC1015
9
$DWGCODEPAGE
3
ANSI_1252
9
$HANDSEED
5
23e
9
$ANGBASE
50
0
9
$ANGDIR
70
0
9
$ATTMODE
70
1
9
$AUNITS
70
0
9
$AUPREC
70
0
9
$CECOLOR
62
256
9
$CELTSCALE
40
1
9
$CELTYPE
6
ByLayer
9
$CELWEIGHT
370
18
9
$CLAYER
8
0
9
$CMLJUST
70
0
9
$CMLSCALE
40
1
9
$CMLSTYLE
2
Standard
9
$DIMSTYLE
2
Standard
9
$TEXTSIZE
40
0.2
9
$TEXTSTYLE
7
Standard
9
$LUNITS
70
2
9
$LUPREC
70
4
9
$EXTNAMES
290
1
9
$INSUNITS
70
4
9
$LTSCALE
40
1
9
$LWDISPLAY
290
1
9
$PDMODE
70
0
9
$PDSIZE
40
0
9
$PLINEGEN
70
0
0
ENDSEC
0
SECTION
2
CLASSES
0
CLASS
1
RASTERVARIABLES
2
AcDbRasterVariables
3
ISM
90
0
280
0
281
0
0
ENDSEC
0
SECTION
2
TABLES
0
TABLE
2
VPORT
5
234
100
AcDbSymbolTable
0
VPORT
5
1
100
AcDbSymbolTableRecord
100
AcDbViewportTableRecord
2
*Active
70
0
10
0
20
0
11
1
21
1
12
-1
22
1
13
0
23
0
14
0.5
24
0.5
15
10
25
10
16
0
26
0
36
1
17
0
27
0
37
0
0
ENDTAB
0
TABLE
2
LTYPE
5
235
100
AcDbSymbolTable
0
LTYPE
5
14
100
AcDbSymbolTableRecord
100
AcDbLinetypeTableRecord
70
0
2
ByBlock
3

72
65
73
0
40
0
0
LTYPE
5
15
100
AcDbSymbolTableRecord
100
AcDbLinetypeTableRecord
70
0
2
ByLayer
3

72
65
73
0
40
0
0
LTYPE
5
16
100
AcDbSymbolTableRecord
100
AcDbLinetypeTableRecord
70
0
2
CONTINUOUS
3
Solid line
72
65
73
0
40
0
0
LTYPE
5
6A
100
AcDbSymbolTableRecord
100
AcDbLinetypeTableRecord
70
0
2
CENTER
3
____ _ ____ _ ____ _ ____
72
65
73
4
40
47.5
49
22
74
0
49
-8.5
74
0
49
8.5
74
0
49
-8.5
74
0
0
LTYPE
5
6B
100
AcDbSymbolTableRecord
100
AcDbLinetypeTableRecord
70
0
2
DASHED
3
__ __ __ __ __ __ __ __ __
72
65
73
2
40
25.72
49
12.86
74
0
49
-12.86
74
0
0
ENDTAB
0
TABLE
2
LAYER
5
236
100
AcDbSymbolTable
0
LAYER
5
10
100
AcDbSymbolTableRecord
100
AcDbLayerTableRecord
2
0
70
0
62
7
6
CONTINUOUS
290
1
370
-3
390
0
0
LAYER
5
6D
100
AcDbSymbolTableRecord
100
AcDbLayerTableRecord
2
80
70
0
62
-6
6
CONTINUOUS
290
1
370
-3
390
0
0
LAYER
5
6F
100
AcDbSymbolTableRecord
100
AcDbLayerTableRecord
2
81
70
0
62
-3
6
CONTINUOUS
290
1
370
-3
390
0
0
LAYER
5
71
100
AcDbSymbolTableRecord
100
AcDbLayerTableRecord
2
1
70
0
62
4
6
CONTINUOUS
290
1
370
-3
390
0
0
LAYER
5
C5
100
AcDbSymbolTableRecord
100
AcDbLayerTableRecord
2
4
70
0
62
-2
6
CENTER
290
1
370
-3
390
0
0
LAYER
5
181
100
AcDbSymbolTableRecord
100
AcDbLayerTableRecord
2
2
70
0
62
7
6
CONTINUOUS
290
1
370
-3
390
0
0
LAYER
5
220
100
AcDbSymbolTableRecord
100
AcDbLayerTableRecord
2
SK1
70
0
62
4
6
CONTINUOUS
290
1
370
-3
390
0
0
LAYER
5
221
100
AcDbSymbolTableRecord
100
AcDbLayerTableRecord
2
SK4
70
0
62
2
6
CENTER
290
1
370
-3
390
0
0
LAYER
5
222
100
AcDbSymbolTableRecord
100
AcDbLayerTableRecord
2
SK6
70
0
62
5
6
CONTINUOUS
290
1
370
-3
390
0
0
LAYER
5
223
100
AcDbSymbolTableRecord
100
AcDbLayerTableRecord
2
SK2
70
0
62
7
6
CONTINUOUS
290
1
370
-3
390
0
0
ENDTAB
0
TABLE
2
STYLE
5
237
100
AcDbSymbolTable
0
STYLE
5
11
100
AcDbSymbolTableRecord
100
AcDbTextStyleTableRecord
2
Standard
3
txt
70
0
71
0
40
0
41
1
42
0
50
0
0
STYLE
5
17C
100
AcDbSymbolTableRecord
100
AcDbTextStyleTableRecord
2
iso_b_vert
3
simplex.shx
70
0
71
0
40
0
41
1
42
0
50
0
0
STYLE
5
17D
100
AcDbSymbolTableRecord
100
AcDbTextStyleTableRecord
2
DWGDirectTextStyle
3
simplex
70
0
71
0
40
0
41
1
42
0
50
0
0
STYLE
5
1A1
100
AcDbSymbolTableRecord
100
AcDbTextStyleTableRecord
2
blockfont
3
simplex.shx
70
0
71
0
40
0
41
1
42
0
50
0
0
ENDTAB
0
TABLE
2
DIMSTYLE
5
238
100
AcDbSymbolTable
100
AcDbDimStyleTable
0
DIMSTYLE
105
27
100
AcDbSymbolTableRecord
100
AcDbDimStyleTableRecord
2
Standard
70
0
3
<>
41
0.18
42
0.0625
44
0.18
140
0.18
147
0.09
73
0
74
0
77
1
271
2
275
0
278
52
280
0
340
11
0
ENDTAB
0
TABLE
2
VIEW
5
239
100
AcDbSymbolTable
0
ENDTAB
0
TABLE
2
UCS
5
23a
100
AcDbSymbolTable
0
ENDTAB
0
TABLE
2
APPID
5
23b
100
AcDbSymbolTable
0
APPID
5
12
100
AcDbSymbolTableRecord
100
AcDbRegAppTableRecord
2
ACAD
70
0
0
ENDTAB
0
TABLE
2
BLOCK_RECORD
5
23c
100
AcDbSymbolTable
0
BLOCK_RECORD
5
1F
100
AcDbSymbolTableRecord
100
AcDbBlockTableRecord
2
*Model_Space
340
0
70
0
0
BLOCK_RECORD
5
1B
100
AcDbSymbolTableRecord
100
AcDbBlockTableRecord
2
*Paper_Space
340
0
70
0
0
BLOCK_RECORD
5
23
100
AcDbSymbolTableRecord
100
AcDbBlockTableRecord
2
*Paper_Space0
340
0
70
0
0
BLOCK_RECORD
5
17F
100
AcDbSymbolTableRecord
100
AcDbBlockTableRecord
2
DimnDraft3D1
340
0
70
0
0
BLOCK_RECORD
5
18A
100
AcDbSymbolTableRecord
100
AcDbBlockTableRecord
2
DimnDraft3D2
340
0
70
0
0
BLOCK_RECORD
5
195
100
AcDbSymbolTableRecord
100
AcDbBlockTableRecord
2
DimnDraft3D3
340
0
70
0
0
BLOCK_RECORD
5
19F
100
AcDbSymbolTableRecord
100
AcDbBlockTableRecord
2
DimnDraft3D4
340
0
70
0
0
BLOCK_RECORD
5
1A9
100
AcDbSymbolTableRecord
100
AcDbBlockTableRecord
2
DimnDraft3D5
340
0
70
0
0
BLOCK_RECORD
5
1B2
100
AcDbSymbolTableRecord
100
AcDbBlockTableRecord
2
DimnDraft3D6
340
0
70
0
0
BLOCK_RECORD
5
1BC
100
AcDbSymbolTableRecord
100
AcDbBlockTableRecord
2
DimnDraft3D7
340
0
70
0
0
ENDTAB
0
ENDSEC
0
SECTION
2
BLOCKS
0
BLOCK
5
20
100
AcDbEntity
8
0
100
AcDbBlockBegin
2
*Model_Space
70
0
10
0
20
0
30
0
3
*Model_Space
0
ENDBLK
5
21
100
AcDbEntity
8
0
100
AcDbBlockEnd
0
BLOCK
5
1C
100
AcDbEntity
8
0
100
AcDbBlockBegin
2
*Paper_Space
70
0
10
0
20
0
30
0
3
*Paper_Space
0
ENDBLK
5
1D
100
AcDbEntity
8
0
100
AcDbBlockEnd
0
BLOCK
5
24
100
AcDbEntity
8
0
100
AcDbBlockBegin
2
*Paper_Space0
70
0
10
0
20
0
30
0
3
*Paper_Space0
0
ENDBLK
5
25
100
AcDbEntity
8
0
100
AcDbBlockEnd
0
BLOCK
5
187
100
AcDbEntity
8
0
100
AcDbBlockBegin
2
DimnDraft3D1
70
0
10
0
20
0
30
0
3
DimnDraft3D1
0
MTEXT
5
180
100
AcDbEntity
8
2
62
256
6
ByLayer
370
13
48
1
60
0
100
AcDbMText
10
48.170197
20
33.333029
30
0
210
0
220
0
230
1
1
\W0.6044;100
40
3.175
41
0
44
1.084337
50
0
71
7
72
5
7
iso_b_vert
0
LINE
5
182
100
AcDbEntity
8
2
62
256
6
ByLayer
370
13
48
1
60
0
100
AcDbLine
10
0
20
1.5875
30
0
11
0
21
35.714279
31
0
39
0
210
0
220
0
230
1
0
LINE
5
183
100
AcDbEntity
8
2
62
256
6
ByLayer
370
13
48
1
60
0
100
AcDbLine
10
100
20
10.5875
30
0
11
100
21
35.714279
31
0
39
0
210
0
220
0
230
1
0
LINE
5
184
100
AcDbEntity
8
2
62
256
6
ByLayer
370
13
48
1
60
0
100
AcDbLine
10
0
20
32.539279
30
0
11
100
21
32.539279
31
0
39
0
210
0
220
0
230
1
0
SOLID
5
185
100
AcDbEntity
8
2
62
256
6
ByLayer
370
13
48
1
60
0
100
AcDbTrace
10
0
20
32.539279
30
0
11
3.174998
21
32.957276
31
0
12
3.175002
22
32.121283
32
0
13
0
23
32.539279
33
0
39
0
210
0
220
0
230
1
0
SOLID
5
186
100
AcDbEntity
8
2
62
256
6
ByLayer
370
13
48
1
60
0
100
AcDbTrace
10
100
20
32.539279
30
0
11
96.825002
21
32.121283
31
0
12
96.824998
22
32.957276
32
0
13
100
23
32.539279
33
0
39
0
210
0
220
0
230
1
0
ENDBLK
5
188
100
AcDbEntity
8
0
100
AcDbBlockEnd
0
BLOCK
5
192
100
AcDbEntity
8
0
100
AcDbBlockBegin
2
DimnDraft3D2
70
0
10
0
20
0
30
0
3
DimnDraft3D2
0
MTEXT
5
18B
100
AcDbEntity
8
SK2
62
256
6
ByLayer
370
13
48
1
60
0
100
AcDbMText
10
20.072039
20
-44.720002
30
0
210
0
220
0
230
1
1
\W0.6287;151,25
40
3.175
41
0
44
1.084337
50
0
71
7
72
5
7
iso_b_vert
0
LINE
5
18D
100
AcDbEntity
8
SK2
62
256
6
ByLayer
370
13
48
1
60
0
100
AcDbLine
10
100
20
7.4125
30
0
11
100
21
-48.688752
31
0
39
0
210
0
220
0
230
1
0
LINE
5
18E
100
AcDbEntity
8
SK2
62
256
6
ByLayer
370
13
48
1
60
0
100
AcDbLine
10
-51.25
20
-6.0875
30
0
11
-51.25
21
-48.688752
31
0
39
0
210
0
220
0
230
1
0
LINE
5
18F
100
AcDbEntity
8
SK2
62
256
6
ByLayer
370
13
48
1
60
0
100
AcDbLine
10
100
20
-45.513752
30
0
11
-51.25
21
-45.513752
31
0
39
0
210
0
220
0
230
1
0
SOLID
5
190
100
AcDbEntity
8
SK2
62
256
6
ByLayer
370
13
48
1
60
0
100
AcDbTrace
10
100
20
-45.513752
30
0
11
96.825002
21
-45.931749
31
0
12
96.824998
22
-45.095755
32
0
13
100
23
-45.513752
33
0
39
0
210
0
220
0
230
1
0
SOLID
5
191
100
AcDbEntity
8
SK2
62
256
6
ByLayer
370
13
48
1
60
0
100
AcDbTrace
10
-51.25
20
-45.513752
30
0
11
-48.075002
21
-45.095755
31
0
12
-48.074998
22
-45.931749
32
0
13
-51.25
23
-45.513752
33
0
39
0
210
0
220
0
230
1
0
ENDBLK
5
193
100
AcDbEntity
8
0
100
AcDbBlockEnd
0
BLOCK
5
19C
100
AcDbEntity
8
0
100
AcDbBlockBegin
2
DimnDraft3D3
70
0
10
0
20
0
30
0
3
DimnDraft3D3
0
MTEXT
5
196
100
AcDbEntity
8
SK2
62
256
6
ByLayer
370
13
48
1
60
0
100
AcDbMText
10
68.938882
20
17.921744
30
0
210
0
220
0
230
1
1
\W0.6562;60
40
3.175
41
0
44
1.084337
50
0
71
7
72
5
7
iso_b_vert
0
LINE
5
197
100
AcDbEntity
8
SK2
62
256
6
ByLayer
370
13
48
1
60
0
100
AcDbLine
10
40
20
1.791728
30
0
11
40
21
20.302994
31
0
39
0
210
0
220
0
230
1
0
LINE
5
198
100
AcDbEntity
8
SK2
62
256
6
ByLayer
370
13
48
1
60
0
100
AcDbLine
10
100
20
10.5875
30
0
11
100
21
20.302994
31
0
39
0
210
0
220
0
230
1
0
LINE
5
199
100
AcDbEntity
8
SK2
62
256
6
ByLayer
370
13
48
1
60
0
100
AcDbLine
10
40
20
17.127994
30
0
11
100
21
17.127994
31
0
39
0
210
0
220
0
230
1
0
SOLID
5
19A
100
AcDbEntity
8
SK2
62
256
6
ByLayer
370
13
48
1
60
0
100
AcDbTrace
10
40
20
17.127994
30
0
11
43.174998
21
17.54599
31
0
12
43.175002
22
16.709997
32
0
13
40
23
17.127994
33
0
39
0
210
0
220
0
230
1
0
SOLID
5
19B
100
AcDbEntity
8
SK2
62
256
6
ByLayer
370
13
48
1
60
0
100
AcDbTrace
10
100
20
17.127994
30
0
11
96.825002
21
16.709997
31
0
12
96.824998
22
17.54599
32
0
13
100
23
17.127994
33
0
39
0
210
0
220
0
230
1
0
ENDBLK
5
19D
100
AcDbEntity
8
0
100
AcDbBlockEnd
0
BLOCK
5
1A6
100
AcDbEntity
8
0
100
AcDbBlockBegin
2
DimnDraft3D4
70
0
10
0
20
0
30
0
3
DimnDraft3D4
0
MTEXT
5
1A0
100
AcDbEntity
8
SK2
62
256
6
ByLayer
370
13
48
1
60
0
100
AcDbMText
10
20.933933
20
-14.575903
30
0
210
0
220
0
230
1
1
\W1.1795;10
40
3.175
41
0
44
0.903614
50
90
71
7
72
5
7
blockfont
0
MTEXT
5
1A2
100
AcDbEntity
8
SK2
62
256
6
ByLayer
370
13
48
1
60
0
100
AcDbMText
10
20.933933
20
-19.313599
30
0
210
0
220
0
230
1
1
%%c
40
3.175
41
0
44
0.903614
50
90
71
7
72
5
7
blockfont
0
LINE
5
1A3
100
AcDbEntity
8
SK2
62
256
6
ByLayer
370
13
48
1
60
0
100
AcDbLine
10
22.289923
20
5
30
0
11
22.289923
21
-21.719653
31
0
39
0
210
0
220
0
230
1
0
SOLID
5
1A4
100
AcDbEntity
8
SK2
62
256
6
ByLayer
370
13
48
1
60
0
100
AcDbTrace
10
22.289923
20
5
30
0
11
22.707919
21
1.825002
31
0
12
21.871926
22
1.824998
32
0
13
22.289923
23
5
33
0
39
0
210
0
220
0
230
1
0
SOLID
5
1A5
100
AcDbEntity
8
SK2
62
256
6
ByLayer
370
13
48
1
60
0
100
AcDbTrace
10
22.289923
20
-5
30
0
11
21.871926
21
-1.825002
31
0
12
22.707919
22
-1.824998
32
0
13
22.289923
23
-5
33
0
39
0
210
0
220
0
230
1
0
ENDBLK
5
1A7
100
AcDbEntity
8
0
100
AcDbBlockEnd
0
BLOCK
5
1AF
100
AcDbEntity
8
0
100
AcDbBlockBegin
2
DimnDraft3D5
70
0
10
0
20
0
30
0
3
DimnDraft3D5
0
MTEXT
5
1AA
100
AcDbEntity
8
SK2
62
256
6
ByLayer
370
13
48
1
60
0
100
AcDbMText
10
69.321484
20
-23.613515
30
0
210
0
220
0
230
1
1
\W0.6827;10,45
40
3.175
41
0
44
1.084337
50
90
71
7
72
5
7
iso_b_vert
0
MTEXT
5
1AB
100
AcDbEntity
8
SK2
62
256
6
ByLayer
370
13
48
1
60
0
100
AcDbMText
10
69.321484
20
-28.35121
30
0
210
0
220
0
230
1
1
%%c
40
3.175
41
0
44
1.084337
50
90
71
7
72
5
7
iso_b_vert
0
LINE
5
1AC
100
AcDbEntity
8
SK2
62
256
6
ByLayer
370
13
48
1
60
0
100
AcDbLine
10
70.908984
20
5.225
30
0
11
70.908984
21
-30.757265
31
0
39
0
210
0
220
0
230
1
0
SOLID
5
1AD
100
AcDbEntity
8
SK2
62
256
6
ByLayer
370
13
48
1
60
0
100
AcDbTrace
10
70.908984
20
5.225
30
0
11
71.326981
21
2.050002
31
0
12
70.490988
22
2.049998
32
0
13
70.908984
23
5.225
33
0
39
0
210
0
220
0
230
1
0
SOLID
5
1AE
100
AcDbEntity
8
SK2
62
256
6
ByLayer
370
13
48
1
60
0
100
AcDbTrace
10
70.908984
20
-5.225
30
0
11
70.490988
21
-2.050002
31
0
12
71.326981
22
-2.049998
32
0
13
70.908984
23
-5.225
33
0
39
0
210
0
220
0
230
1
0
ENDBLK
5
1B0
100
AcDbEntity
8
0
100
AcDbBlockEnd
0
BLOCK
5
1B9
100
AcDbEntity
8
0
100
AcDbBlockBegin
2
DimnDraft3D6
70
0
10
0
20
0
30
0
3
DimnDraft3D6
0
MTEXT
5
1B3
100
AcDbEntity
8
SK2
62
256
6
ByLayer
370
13
48
1
60
0
100
AcDbMText
10
107.610791
20
16.591818
30
0
210
0
220
0
230
1
1
\W0.5537;9
40
3.175
41
0
44
1.084337
50
90
71
7
72
5
7
iso_b_vert
0
LINE
5
1B4
100
AcDbEntity
8
SK2
62
256
6
ByLayer
370
13
48
1
60
0
100
AcDbLine
10
101.5875
20
9
30
0
11
111.579541
21
9
31
0
39
0
210
0
220
0
230
1
0
LINE
5
1B5
100
AcDbEntity
8
SK2
62
256
6
ByLayer
370
13
48
1
60
0
100
AcDbLine
10
106.5875
20
0
30
0
11
111.579541
21
0
31
0
39
0
210
0
220
0
230
1
0
LINE
5
1B6
100
AcDbEntity
8
SK2
62
256
6
ByLayer
370
13
48
1
60
0
100
AcDbLine
10
108.404541
20
0
30
0
11
108.404541
21
17.176687
31
0
39
0
210
0
220
0
230
1
0
SOLID
5
1B7
100
AcDbEntity
8
SK2
62
256
6
ByLayer
370
13
48
1
60
0
100
AcDbTrace
10
108.404541
20
9
30
0
11
108.822538
21
5.825002
31
0
12
107.986545
22
5.824998
32
0
13
108.404541
23
9
33
0
39
0
210
0
220
0
230
1
0
SOLID
5
1B8
100
AcDbEntity
8
SK2
62
256
6
ByLayer
370
13
48
1
60
0
100
AcDbTrace
10
108.404541
20
0
30
0
11
107.986545
21
3.174998
31
0
12
108.822538
22
3.175002
32
0
13
108.404541
23
0
33
0
39
0
210
0
220
0
230
1
0
ENDBLK
5
1BA
100
AcDbEntity
8
0
100
AcDbBlockEnd
0
BLOCK
5
1C4
100
AcDbEntity
8
0
100
AcDbBlockBegin
2
DimnDraft3D7
70
0
10
0
20
0
30
0
3
DimnDraft3D7
0
MTEXT
5
1BD
100
AcDbEntity
8
SK2
62
256
6
ByLayer
370
13
48
1
60
0
100
AcDbMText
10
108.314483
20
-14.003063
30
0
210
0
220
0
230
1
1
\W0.8385;93%%d
40
3.175
41
0
44
1.084337
50
0
71
7
72
5
7
iso_b_vert
0
LINE
5
1BE
100
AcDbEntity
8
SK2
62
256
6
ByLayer
370
13
48
1
60
0
100
AcDbLine
10
99.141087
20
-4.097169
30
0
11
98.351127
21
-19.170505
31
0
39
0
210
0
220
0
230
1
0
LINE
5
1BF
100
AcDbEntity
8
SK2
62
256
6
ByLayer
370
13
48
1
60
0
100
AcDbLine
10
106.5875
20
0
30
0
11
118.552624
21
0
31
0
39
0
210
0
220
0
230
1
0
ARC
5
1C0
100
AcDbEntity
8
SK2
62
256
6
ByLayer
370
13
48
1
60
0
100
AcDbCircle
39
0
10
99.355811
20
0
30
0
40
16.0218134917069
210
0
220
0
230
1
100
AcDbArc
50
267
51
294.238082
0
ARC
5
1C1
100
AcDbEntity
8
SK2
62
256
6
ByLayer
370
13
48
1
60
0
100
AcDbCircle
39
0
10
99.355811
20
0
30
0
40
16.0218134917069
210
0
220
0
230
1
100
AcDbArc
50
328.183061
51
0
0
SOLID
5
1C2
100
AcDbEntity
8
SK2
62
256
6
ByLayer
370
13
48
1
60
0
100
AcDbTrace
10
98.517294
20
-15.999856
30
0
11
101.693523
21
-15.59132
31
0
12
101.691036
22
-16.42731
32
0
13
98.517294
23
-15.999856
33
0
39
0
210
0
220
0
230
1
0
SOLID
5
1C3
100
AcDbEntity
8
SK2
62
256
6
ByLayer
370
13
48
1
60
0
100
AcDbTrace
10
115.377624
20
0
30
0
11
115.638391
21
-3.191761
31
0
12
114.803417
22
-3.150499
32
0
13
115.377624
23
0
33
0
39
0
210
0
220
0
230
1
0
ENDBLK
5
1C5
100
AcDbEntity
8
0
100
AcDbBlockEnd
0
ENDSEC
0
SECTION
2
ENTITIES
0
ARC
5
CA
100
AcDbEntity
8
1
62
256
6
ByLayer
370
18
48
1
60
1
100
AcDbCircle
39
0
10
0
20
0
30
-50.75
40
5
210
1
220
0
230
0
100
AcDbArc
50
0
51
180
0
ARC
5
CB
100
AcDbEntity
8
1
62
256
6
ByLayer
370
18
48
1
60
1
100
AcDbCircle
39
0
10
0
20
0
30
-51.25
40
4.5
210
1
220
0
230
0
100
AcDbArc
50
0
51
180
0
ARC
5
CC
100
AcDbEntity
8
1
62
256
6
ByLayer
370
18
48
1
60
1
100
AcDbCircle
39
0
10
0
20
0
30
-45.25
40
5
210
1
220
0
230
0
100
AcDbArc
50
87.659065
51
92.340935
0
ARC
5
CD
100
AcDbEntity
8
1
62
256
6
ByLayer
370
18
48
1
60
1
100
AcDbCircle
39
0
10
0
20
0
30
40
40
5
210
1
220
0
230
0
100
AcDbArc
50
87.659065
51
92.340935
0
ARC
5
CE
100
AcDbEntity
8
1
62
256
6
ByLayer
370
18
48
1
60
1
100
AcDbCircle
39
0
10
0
20
0
30
45.75
40
5.22500000000001
210
1
220
0
230
0
100
AcDbArc
50
0
51
90
0
ARC
5
CF
100
AcDbEntity
8
1
62
256
6
ByLayer
370
18
48
1
60
1
100
AcDbCircle
39
0
10
0
20
0
30
45.75
40
5.22500000000001
210
1
220
0
230
0
100
AcDbArc
50
90
51
180
0
ARC
5
D0
100
AcDbEntity
8
1
62
256
6
ByLayer
370
18
48
1
60
1
100
AcDbCircle
39
0
10
92.330221
20
-12.790693
30
-1.487923
40
3.40000000000001
210
-0.00637814862380787
220
-0.121702325705528
230
-0.992546151641322
100
AcDbArc
50
77.439048
51
119.347521
0
ARC
5
D1
100
AcDbEntity
8
1
62
256
6
ByLayer
370
18
48
1
60
1
100
AcDbCircle
39
0
10
93.223669
20
-3.921817
30
-1.487923
40
1.25
210
-0.00637814862380787
220
-0.121702325705528
230
-0.992546151641322
100
AcDbArc
50
130.622835
51
180
0
ARC
5
D2
100
AcDbEntity
8
1
62
256
6
ByLayer
370
18
48
1
60
1
100
AcDbCircle
39
0
10
-93.455685
20
-2.879929
30
1.487923
40
1.05
210
0.00637814862380787
220
0.121702325705528
230
0.992546151641322
100
AcDbArc
50
354.911848
51
360
0
ARC
5
D3
100
AcDbEntity
8
1
62
256
6
ByLayer
370
18
48
1
60
1
100
AcDbCircle
39
0
10
106.919647
20
-8.705563
30
-1.487923
40
8.1000000000032
210
-0.00637814862380787
220
-0.121702325705528
230
-0.992546151641322
100
AcDbArc
50
161.918738
51
163.668398
0
ARC
5
D4
100
AcDbEntity
8
1
62
256
6
ByLayer
370
18
48
1
60
1
100
AcDbCircle
39
0
10
-93.455685
20
-2.879929
30
1.487923
40
1.05
210
0.00637814862380787
220
0.121702325705528
230
0.992546151641322
100
AcDbArc
50
180
51
195.07682
0
ARC
5
D5
100
AcDbEntity
8
1
62
256
6
ByLayer
370
18
48
1
60
1
100
AcDbCircle
39
0
10
-93.455685
20
-2.879929
30
1.487923
40
1.05
210
0.00637814862380787
220
0.121702325705528
230
0.992546151641322
100
AcDbArc
50
360
51
180
0
ARC
5
D6
100
AcDbEntity
8
1
62
256
6
ByLayer
370
18
48
1
60
1
100
AcDbCircle
39
0
10
-93.455685
20
-2.879929
30
-1.112077
40
1.05
210
0.00637814862380787
220
0.121702325705528
230
0.992546151641322
100
AcDbArc
50
188.743956
51
209.458273
0
ARC
5
D7
100
AcDbEntity
8
1
62
256
6
ByLayer
370
18
48
1
60
1
100
AcDbCircle
39
0
10
-93.455685
20
-2.879929
30
-1.112077
40
1.05
210
0.00637814862380787
220
0.121702325705528
230
0.992546151641322
100
AcDbArc
50
291.571104
51
351.256044
0
ARC
5
D8
100
AcDbEntity
8
1
62
256
6
ByLayer
370
18
48
1
60
1
100
AcDbCircle
39
0
10
-93.455685
20
-2.879929
30
-0.662077
40
1.05
210
0.00637814862380787
220
0.121702325705528
230
0.992546151641322
100
AcDbArc
50
200.468577
51
206.970901
0
ARC
5
D9
100
AcDbEntity
8
1
62
256
6
ByLayer
370
18
48
1
60
1
100
AcDbCircle
39
0
10
-93.455685
20
-2.879929
30
-0.662077
40
1.05
210
0.00637814862380787
220
0.121702325705528
230
0.992546151641322
100
AcDbArc
50
291.571104
51
352.778371
0
ARC
5
DA
100
AcDbEntity
8
1
62
256
6
ByLayer
370
18
48
1
60
1
100
AcDbCircle
39
0
10
93.223669
20
-3.921817
30
-1.487923
40
1.25
210
-0.00637814862380787
220
-0.121702325705528
230
-0.992546151641322
100
AcDbArc
50
180
51
235
0
ARC
5
DB
100
AcDbEntity
8
1
62
256
6
ByLayer
370
18
48
1
60
1
100
AcDbCircle
39
0
10
-93.223669
20
-3.921817
30
-0.662077
40
1.25
210
0.00637814862380787
220
0.121702325705528
230
0.992546151641322
100
AcDbArc
50
305
51
353.938568
0
ARC
5
DC
100
AcDbEntity
8
1
62
256
6
ByLayer
370
18
48
1
60
1
100
AcDbCircle
39
0
10
96.244647
20
-8.237475
30
-1.506376
40
1.725
210
-0.00637814862380787
220
-0.121702325705528
230
-0.992546151641322
100
AcDbArc
50
117.5
51
180
0
ARC
5
DE
100
AcDbEntity
8
1
62
256
6
ByLayer
370
18
48
1
60
1
100
AcDbCircle
39
0
10
96.244647
20
-8.237475
30
-1.680303
40
1.035
210
-0.00637814862380787
220
-0.121702325705528
230
-0.992546151641322
100
AcDbArc
50
357.450841
51
57.549159
0
ARC
5
DF
100
AcDbEntity
8
1
62
256
6
ByLayer
370
18
48
1
60
1
100
AcDbCircle
39
0
10
96.244647
20
-8.237475
30
-1.680303
40
1.035
210
-0.00637814862380787
220
-0.121702325705528
230
-0.992546151641322
100
AcDbArc
50
297.5
51
357.450841
0
ARC
5
E0
100
AcDbEntity
8
1
62
256
6
ByLayer
370
18
48
1
60
1
100
AcDbCircle
39
0
10
96.244647
20
-8.237475
30
-1.680303
40
1.035
210
-0.00637814862380787
220
-0.121702325705528
230
-0.992546151641322
100
AcDbArc
50
237.549159
51
297.5
0
ARC
5
E1
100
AcDbEntity
8
1
62
256
6
ByLayer
370
18
48
1
60
1
100
AcDbCircle
39
0
10
96.244647
20
-8.237475
30
-1.680303
40
1.035
210
-0.00637814862380787
220
-0.121702325705528
230
-0.992546151641322
100
AcDbArc
50
177.450841
51
237.549159
0
ARC
5
E2
100
AcDbEntity
8
1
62
256
6
ByLayer
370
18
48
1
60
1
100
AcDbCircle
39
0
10
96.244647
20
-8.237475
30
-1.680303
40
1.035
210
-0.00637814862380787
220
-0.121702325705528
230
-0.992546151641322
100
AcDbArc
50
117.5
51
177.450841
0
ARC
5
E3
100
AcDbEntity
8
1
62
256
6
ByLayer
370
18
48
1
60
1
100
AcDbCircle
39
0
10
96.244647
20
-8.237475
30
-1.680303
40
1.035
210
-0.00637814862380787
220
-0.121702325705528
230
-0.992546151641322
100
AcDbArc
50
57.549159
51
117.5
0
ARC
5
E4
100
AcDbEntity
8
1
62
256
6
ByLayer
370
18
48
1
60
1
100
AcDbCircle
39
0
10
96.244647
20
-8.237475
30
-1.514603
40
0.747999999999999
210
-0.00637814862380787
220
-0.121702325705528
230
-0.992546151641322
100
AcDbArc
50
25.338153
51
29.661847
0
ARC
5
E5
100
AcDbEntity
8
1
62
256
6
ByLayer
370
18
48
1
60
1
100
AcDbCircle
39
0
10
96.244647
20
-8.237475
30
-0.780303
40
1.725
210
-0.00637814862380787
220
-0.121702325705528
230
-0.992546151641322
100
AcDbArc
50
0
51
117.5
0
ARC
5
E6
100
AcDbEntity
8
1
62
256
6
ByLayer
370
18
48
1
60
1
100
AcDbCircle
39
0
10
96.244647
20
-8.237475
30
-1.506376
40
1.725
210
-0.00637814862380787
220
-0.121702325705528
230
-0.992546151641322
100
AcDbArc
50
0
51
117.5
0
ARC
5
E7
100
AcDbEntity
8
1
62
256
6
ByLayer
370
18
48
1
60
1
100
AcDbCircle
39
0
10
96.244647
20
-8.237475
30
-1.506376
40
1.725
210
-0.00637814862380787
220
-0.121702325705528
230
-0.992546151641322
100
AcDbArc
50
180
51
0
0
ARC
5
E8
100
AcDbEntity
8
1
62
256
6
ByLayer
370
18
48
1
60
1
100
AcDbCircle
39
0
10
96.244647
20
-8.237475
30
-0.780303
40
1.725
210
-0.00637814862380787
220
-0.121702325705528
230
-0.992546151641322
100
AcDbArc
50
117.5
51
180
0
ARC
5
E9
100
AcDbEntity
8
1
62
256
6
ByLayer
370
18
48
1
60
1
100
AcDbCircle
39
0
10
-95.395488
20
-8.19967
30
0.680303
40
0.185
210
0.00637814862380787
220
0.121702325705528
230
0.992546151641322
100
AcDbArc
50
287.97624
51
341.155824
0
ARC
5
EA
100
AcDbEntity
8
1
62
256
6
ByLayer
370
18
48
1
60
1
100
AcDbCircle
39
0
10
-97.093806
20
-8.27528
30
0.680303
40
0.185
210
0.00637814862380787
220
0.121702325705528
230
0.992546151641322
100
AcDbArc
50
200.422814
51
256.923063
0
ARC
5
EB
100
AcDbEntity
8
1
62
256
6
ByLayer
370
18
48
1
60
1
100
AcDbCircle
39
0
10
-97.28114
20
-7.697911
30
0.680303
40
0.422
210
0.00637814862380787
220
0.121702325705528
230
0.992546151641322
100
AcDbArc
50
360
51
17.02376
0
ARC
5
EC
100
AcDbEntity
8
1
62
256
6
ByLayer
370
18
48
1
60
1
100
AcDbCircle
39
0
10
96.244647
20
-8.237475
30
-1.514603
40
0.747999999999999
210
-0.00637814862380787
220
-0.121702325705528
230
-0.992546151641322
100
AcDbArc
50
205.338153
51
209.661847
0
ARC
5
ED
100
AcDbEntity
8
1
62
256
6
ByLayer
370
18
48
1
60
1
100
AcDbCircle
39
0
10
-97.231145
20
-8.866538
30
0.680303
40
0.422
210
0.00637814862380787
220
0.121702325705528
230
0.992546151641322
100
AcDbArc
50
360
51
32.524579
0
ARC
5
EE
100
AcDbEntity
8
1
62
256
6
ByLayer
370
18
48
1
60
1
100
AcDbCircle
39
0
10
-97.231145
20
-8.866538
30
0.680303
40
0.422
210
0.00637814862380787
220
0.121702325705528
230
0.992546151641322
100
AcDbArc
50
32.524579
51
76.923063
0
ARC
5
EF
100
AcDbEntity
8
1
62
256
6
ByLayer
370
18
48
1
60
1
100
AcDbCircle
39
0
10
-95.788558
20
-8.95474900000001
30
0.680303
40
0.185
210
0.00637814862380787
220
0.121702325705528
230
0.992546151641322
100
AcDbArc
50
228.076937
51
340.591356
0
ARC
5
F0
100
AcDbEntity
8
1
62
256
6
ByLayer
370
18
48
1
60
1
100
AcDbCircle
39
0
10
-95.208154
20
-8.777039
30
0.680303
40
0.422
210
0.00637814862380787
220
0.121702325705528
230
0.992546151641322
100
AcDbArc
50
107.97624
51
148.666149
0
ARC
5
F1
100
AcDbEntity
8
1
62
256
6
ByLayer
370
18
48
1
60
1
100
AcDbCircle
39
0
10
-96.637133
20
-8.991434
30
0.680303
40
0.185
210
0.00637814862380787
220
0.121702325705528
230
0.992546151641322
100
AcDbArc
50
201.998712
51
316.873905
0
ARC
5
F2
100
AcDbEntity
8
1
62
256
6
ByLayer
370
18
48
1
60
1
100
AcDbCircle
39
0
10
-95.208154
20
-8.777039
30
0.680303
40
0.422
210
0.00637814862380787
220
0.121702325705528
230
0.992546151641322
100
AcDbArc
50
156.333851
51
180
0
ARC
5
F3
100
AcDbEntity
8
1
62
256
6
ByLayer
370
18
48
1
60
1
100
AcDbCircle
39
0
10
-96.194114
20
-9.406383
30
0.680303
40
0.422
210
0.00637814862380787
220
0.121702325705528
230
0.992546151641322
100
AcDbArc
50
92.475421
51
136.873905
0
ARC
5
F4
100
AcDbEntity
8
1
62
256
6
ByLayer
370
18
48
1
60
1
100
AcDbCircle
39
0
10
-96.194114
20
-9.406383
30
0.680303
40
0.422
210
0.00637814862380787
220
0.121702325705528
230
0.992546151641322
100
AcDbArc
50
48.076937
51
92.475421
0
ARC
5
F5
100
AcDbEntity
8
1
62
256
6
ByLayer
370
18
48
1
60
1
100
AcDbCircle
39
0
10
96.244647
20
-8.237475
30
-0.680303
40
0.747999999999999
210
-0.00637814862380787
220
-0.121702325705528
230
-0.992546151641322
100
AcDbArc
50
205.338153
51
209.661847
0
ARC
5
F6
100
AcDbEntity
8
1
62
256
6
ByLayer
370
18
48
1
60
1
100
AcDbCircle
39
0
10
-96.244647
20
-8.237475
30
0.680303
40
0.747999999999999
210
0.00637814862380787
220
0.121702325705528
230
0.992546151641322
100
AcDbArc
50
39.284371
51
75.257684
0
ARC
5
F7
100
AcDbEntity
8
1
62
256
6
ByLayer
370
18
48
1
60
1
100
AcDbCircle
39
0
10
-96.244647
20
-8.237475
30
0.680303
40
0.747999999999999
210
0.00637814862380787
220
0.121702325705528
230
0.992546151641322
100
AcDbArc
50
272.475421
51
330.338153
0
ARC
5
F8
100
AcDbEntity
8
1
62
256
6
ByLayer
370
18
48
1
60
1
100
AcDbCircle
39
0
10
-96.244647
20
-8.237475
30
0.680303
40
0.747999999999999
210
0.00637814862380787
220
0.121702325705528
230
0.992546151641322
100
AcDbArc
50
212.524579
51
272.475421
0
ARC
5
F9
100
AcDbEntity
8
1
62
256
6
ByLayer
370
18
48
1
60
1
100
AcDbCircle
39
0
10
-96.244647
20
-8.237475
30
0.680303
40
0.747999999999999
210
0.00637814862380787
220
0.121702325705528
230
0.992546151641322
100
AcDbArc
50
166.857484
51
212.524579
0
ARC
5
FA
100
AcDbEntity
8
1
62
256
6
ByLayer
370
18
48
1
60
1
100
AcDbCircle
39
0
10
-96.244647
20
-8.237475
30
0.680303
40
0.747999999999999
210
0.00637814862380787
220
0.121702325705528
230
0.992546151641322
100
AcDbArc
50
109.822031
51
146.170037
0
ARC
5
FB
100
AcDbEntity
8
1
62
256
6
ByLayer
370
18
48
1
60
1
100
AcDbCircle
39
0
10
96.244647
20
-8.237475
30
-0.680303
40
0.747999999999999
210
-0.00637814862380787
220
-0.121702325705528
230
-0.992546151641322
100
AcDbArc
50
162.718914
51
205.338153
0
ARC
5
FC
100
AcDbEntity
8
1
62
256
6
ByLayer
370
18
48
1
60
1
100
AcDbCircle
39
0
10
93.466522
20
-9.683675
30
-1.717923
40
0.396875000000004
210
-0.00637814862380787
220
-0.121702325705528
230
-0.992546151641322
100
AcDbArc
50
180
51
235
0
ARC
5
FD
100
AcDbEntity
8
1
62
256
6
ByLayer
370
18
48
1
60
1
100
AcDbCircle
39
0
10
99.022772
20
-13.574203
30
-1.717923
40
0.396875000000049
210
-0.00637814862380787
220
-0.121702325705528
230
-0.992546151641322
100
AcDbArc
50
235
51
360
0
ARC
5
FE
100
AcDbEntity
8
1
62
256
6
ByLayer
370
18
48
1
60
1
100
AcDbCircle
39
0
10
99.022772
20
-6.791274
30
-1.717923
40
0.396875000000004
210
-0.00637814862380787
220
-0.121702325705528
230
-0.992546151641322
100
AcDbArc
50
0
51
55
0
ARC
5
FF
100
AcDbEntity
8
1
62
256
6
ByLayer
370
18
48
1
60
1
100
AcDbCircle
39
0
10
96.244647
20
-8.237475
30
-1.717923
40
1.91905389152441
210
-0.00637814862380787
220
-0.121702325705528
230
-0.992546151641322
100
AcDbArc
50
145
51
34.715937
0
ARC
5
100
100
AcDbEntity
8
1
62
256
6
ByLayer
370
18
48
1
60
1
100
AcDbCircle
39
0
10
93.466522
20
-2.900746
30
-1.717923
40
0.396875000000049
210
-0.00637814862380787
220
-0.121702325705528
230
-0.992546151641322
100
AcDbArc
50
55
51
180
0
ARC
5
101
100
AcDbEntity
8
1
62
256
6
ByLayer
370
18
48
1
60
1
100
AcDbCircle
39
0
10
96.244647
20
-8.237475
30
-1.717923
40
1.91905389152441
210
-0.00637814862380787
220
-0.121702325705528
230
-0.992546151641322
100
AcDbArc
50
34.715937
51
145
0
ARC
5
102
100
AcDbEntity
8
1
62
256
6
ByLayer
370
18
48
1
60
1
100
AcDbCircle
39
0
10
96.244647
20
-8.237475
30
-1.087923
40
1.875
210
-0.00637814862380787
220
-0.121702325705528
230
-0.992546151641322
100
AcDbArc
50
146.250022
51
33.749974
0
ARC
5
103
100
AcDbEntity
8
1
62
256
6
ByLayer
370
18
48
1
60
1
100
AcDbCircle
39
0
10
96.244647
20
-8.237475
30
-0.941564
40
1.82475962939469
210
-0.00637814862380787
220
-0.121702325705528
230
-0.992546151641322
100
AcDbArc
50
145
51
81.348735
0
ARC
5
104
100
AcDbEntity
8
1
62
256
6
ByLayer
370
18
48
1
60
1
100
AcDbCircle
39
0
10
96.244647
20
-8.237475
30
-0.941564
40
1.82475962939469
210
-0.00637814862380787
220
-0.121702325705528
230
-0.992546151641322
100
AcDbArc
50
98.651248
51
145
0
CIRCLE
5
DD
100
AcDbEntity
8
1
62
256
6
ByLayer
370
18
48
1
60
1
100
AcDbCircle
10
96.244647
20
-8.237475
30
-1.680303
40
1.3
39
0
210
-0.00637814862380787
220
-0.121702325705528
230
-0.992546151641322
0
ELLIPSE
5
105
100
AcDbEntity
8
1
62
256
6
ByLayer
370
18
48
1
60
1
100
AcDbEllipse
10
92.83427
20
7.200065
30
-6.824806
11
3.31899764817336
21
-1.54427749396991
31
-12.6162391771488
210
-0.967556669731326
220
-0.0314988797258606
230
-0.250682890190859
40
0.258819
41
2.13575955821982
42
2.1465775582406
0
ELLIPSE
5
106
100
AcDbEntity
8
1
62
256
6
ByLayer
370
18
48
1
60
1
100
AcDbEllipse
10
91.300439
20
0
30
0
11
1.36438275789048
21
-0.651410964380588
31
-5.18423463545824
210
0.967556669731326
220
0.0314988797258606
230
0.250682890190859
40
0.967557
41
1.77082609129952
42
-1.74229794854714
0
ELLIPSE
5
107
100
AcDbEntity
8
1
62
256
6
ByLayer
370
18
48
1
60
1
100
AcDbEllipse
10
103.574814
20
0
30
0
11
-9.04996546954738
21
-5.225
31
0
210
-0.5
220
0.866025403784439
230
0
40
0.5
41
0
42
0.291741353714463
0
ELLIPSE
5
108
100
AcDbEntity
8
1
62
256
6
ByLayer
370
18
48
1
60
1
100
AcDbEllipse
10
233.284467
20
0
30
0
11
819.186574122563
21
-0.635907586551738
31
-5.18615913189771
210
0.00637814862380787
220
0.121702325705528
230
0.992546151641322
40
0.006378
41
-1.74528787672684
42
-1.74053040901752
0
ELLIPSE
5
109
100
AcDbEntity
8
1
62
256
6
ByLayer
370
18
48
1
60
0
100
AcDbEllipse
10
96.551367
20
3.33231
30
0
11
-1.29821839518094
21
0.0680367431159197
31
0
210
0
220
0
230
1
40
0.992546
41
0
42
6.28318530717959
0
ELLIPSE
5
10A
100
AcDbEntity
8
1
62
256
6
ByLayer
370
18
48
1
60
0
100
AcDbEllipse
10
92.834307
20
7.200106
30
0
11
-2.5610046370266
21
3.33955868866806
31
0
210
0
220
0
230
1
40
0.632189
41
1.68524054254598
42
1.69605843108325
0
ELLIPSE
5
10B
100
AcDbEntity
8
1
62
256
6
ByLayer
370
18
48
1
60
0
100
AcDbEllipse
10
91.300439
20
0
30
0
11
-0.182317876080048
21
5.22478695984274
31
0
210
0
220
0
230
1
40
0.258795
41
0.0660022256455341
42
2.83606349297844
0
ELLIPSE
5
10C
100
AcDbEntity
8
1
62
256
6
ByLayer
370
18
48
1
60
0
100
AcDbEllipse
10
93.309121
20
-0.810617
30
0
11
-1.2482869184643
21
0.0654199450639764
31
0
210
0
220
0
230
1
40
0.992546
41
0
42
0.861794109118643
0
ELLIPSE
5
10D
100
AcDbEntity
8
1
62
256
6
ByLayer
370
18
48
1
60
0
100
AcDbEllipse
10
93.486698
20
-1.855464
30
0
11
-1.0485610356519
21
0.0549528530671511
31
0
210
0
220
0
230
1
40
0.992546
41
-0.0888049049771206
42
9.22702729704557E-08
0
ELLIPSE
5
10E
100
AcDbEntity
8
1
62
256
6
ByLayer
370
18
48
1
60
0
100
AcDbEllipse
10
93.295408
20
-1.072277
30
0
11
-1.24828691843572
21
0.065419945612542
31
0
210
0
220
0
230
1
40
0.992546
41
-0.959931088348092
42
-0.105791947852812
0
ELLIPSE
5
10F
100
AcDbEntity
8
1
62
256
6
ByLayer
370
18
48
1
60
0
100
AcDbEllipse
10
96.550258
20
3.311143
30
0
11
-1.72263594746214
21
0.0902795243835907
31
0
210
0
220
0
230
1
40
0.992546
41
0
42
1.09083078241708
0
ELLIPSE
5
110
100
AcDbEntity
8
1
62
256
6
ByLayer
370
18
48
1
60
0
100
AcDbEllipse
10
96.550258
20
3.311143
30
0
11
-1.72263594745165
21
0.0902795245188784
31
0
210
0
220
0
230
1
40
0.992546
41
3.14159265358979
42
-2.59376411977818E-16
0
ELLIPSE
5
111
100
AcDbEntity
8
1
62
256
6
ByLayer
370
18
48
1
60
0
100
AcDbEllipse
10
233.294047
20
0.000341
30
0
11
-819.215355091922
21
0.635895659778069
31
0
210
0
220
0
230
1
40
0.006331
41
1.39630400971968
42
1.40106131505323
0
ELLIPSE
5
112
100
AcDbEntity
8
1
62
256
6
ByLayer
370
18
48
1
60
0
100
AcDbEllipse
10
96.551367
20
3.33231
30
0
11
-1.03358156846798
21
0.0541677148675225
31
0
210
0
220
0
230
1
40
0.992546
41
-1.00442229940425
42
0.0444912111092494
0
ELLIPSE
5
113
100
AcDbEntity
8
1
62
256
6
ByLayer
370
18
48
1
60
0
100
AcDbEllipse
10
96.551367
20
3.33231
30
0
11
-1.03358156845327
21
0.054167714940326
31
0
210
0
220
0
230
1
40
0.992546
41
0.0444912111795891
42
1.09083078271986
0
ELLIPSE
5
114
100
AcDbEntity
8
1
62
256
6
ByLayer
370
18
48
1
60
0
100
AcDbEllipse
10
95.537945
20
3.799662
30
0
11
-0.421421663664612
21
0.0220857735857665
31
0
210
0
220
0
230
1
40
0.992546
41
1.88454090952062
42
2.59471378709491
0
ELLIPSE
5
115
100
AcDbEntity
8
1
62
256
6
ByLayer
370
18
48
1
60
0
100
AcDbEllipse
10
95.69503
20
3.217577
30
0
11
-0.184746463924565
21
0.00968215206639159
31
0
210
0
220
0
230
1
40
0.992546
41
-1.25705174331096
42
-0.328892911137513
0
ELLIPSE
5
116
100
AcDbEntity
8
1
62
256
6
ByLayer
370
18
48
1
60
0
100
AcDbEllipse
10
96.544988
20
3.210608
30
0
11
-0.746975059555213
21
0.0391388115413117
31
0
210
0
220
0
230
1
40
0.992546
41
-0.517708242387643
42
-0.442245522931832
0
ELLIPSE
5
117
100
AcDbEntity
8
1
62
256
6
ByLayer
370
18
48
1
60
0
100
AcDbEllipse
10
96.544989
20
3.210608
30
0
11
-0.746974891999958
21
0.0391472951887794
31
0
210
0
220
0
230
1
40
0.992546
41
-0.442234192489094
42
0.301611844354319
0
ELLIPSE
5
118
100
AcDbEntity
8
1
62
256
6
ByLayer
370
18
48
1
60
0
100
AcDbEllipse
10
95.537945
20
3.799662
30
0
11
-0.421421663574566
21
0.0220857690187778
31
0
210
0
220
0
230
1
40
0.992546
41
2.72854042084943
42
3.141592642996
0
ELLIPSE
5
119
100
AcDbEntity
8
1
62
256
6
ByLayer
370
18
48
1
60
0
100
AcDbEllipse
10
96.544989
20
3.210608
30
0
11
-0.746974891998067
21
0.0391472952193855
31
0
210
0
220
0
230
1
40
0.992546
41
-1.52759208539287
42
-0.517696896282283
0
ELLIPSE
5
11A
100
AcDbEntity
8
1
62
256
6
ByLayer
370
18
48
1
60
0
100
AcDbEllipse
10
96.551367
20
3.33231
30
0
11
-1.03358156847087
21
0.0541677147070302
31
0
210
0
220
0
230
1
40
0.992546
41
1.090830782492
42
2.13717035402906
0
ELLIPSE
5
11B
100
AcDbEntity
8
1
62
256
6
ByLayer
370
18
48
1
60
0
100
AcDbEllipse
10
96.551367
20
3.33231
30
0
11
-1.03358156847127
21
0.0541677147107852
31
0
210
0
220
0
230
1
40
0.992546
41
-2.05076187109387
42
-1.00442229955744
0
ELLIPSE
5
11C
100
AcDbEntity
8
1
62
256
6
ByLayer
370
18
48
1
60
0
100
AcDbEllipse
10
96.126784
20
3.94543
30
0
11
-0.184746463929667
21
0.00968215190369651
31
0
210
0
220
0
230
1
40
0.992546
41
-2.30249181318415
42
-0.338744745430502
0
ELLIPSE
5
11D
100
AcDbEntity
8
1
62
256
6
ByLayer
370
18
48
1
60
0
100
AcDbEllipse
10
96.555245
20
4.371858
30
0
11
-0.421421663678239
21
0.0220857733895807
31
0
210
0
220
0
230
1
40
0.992546
41
0.839100840072408
42
1.61400056791731
0
ELLIPSE
5
11E
100
AcDbEntity
8
1
62
256
6
ByLayer
370
18
48
1
60
0
100
AcDbEllipse
10
96.555245
20
4.371858
30
0
11
-0.421421663669299
21
0.0220857734438757
31
0
210
0
220
0
230
1
40
0.992546
41
1.61400056804827
42
2.38890029590365
0
ELLIPSE
5
11F
100
AcDbEntity
8
1
62
256
6
ByLayer
370
18
48
1
60
0
100
AcDbEllipse
10
96.976102
20
3.93738
30
0
11
-0.184746463929748
21
0.00968215190362325
31
0
210
0
220
0
230
1
40
0.992546
41
-2.75764269088035
42
-0.752692357480236
0
ELLIPSE
5
120
100
AcDbEntity
8
1
62
256
6
ByLayer
370
18
48
1
60
0
100
AcDbEllipse
10
96.551367
20
3.33231
30
0
11
-1.033581568475
21
0.0541677145391912
31
0
210
0
220
0
230
1
40
0.992546
41
2.13717035386529
42
-3.0971014427949
0
ELLIPSE
5
121
100
AcDbEntity
8
1
62
256
6
ByLayer
370
18
48
1
60
0
100
AcDbEllipse
10
96.551367
20
3.33231
30
0
11
-1.03358156847312
21
0.0541677146852032
31
0
210
0
220
0
230
1
40
0.992546
41
-3.09710144265524
42
-2.05076187111901
0
ELLIPSE
5
122
100
AcDbEntity
8
1
62
256
6
ByLayer
370
18
48
1
60
0
100
AcDbEllipse
10
96.544989
20
3.210608
30
0
11
-0.746974891997648
21
0.0391472952532473
31
0
210
0
220
0
230
1
40
0.992546
41
-2.57393165688351
42
-1.52759208534727
0
ELLIPSE
5
123
100
AcDbEntity
8
1
62
256
6
ByLayer
370
18
48
1
60
0
100
AcDbEllipse
10
96.544989
20
3.210608
30
0
11
-0.74697489200991
21
0.0391472951977356
31
0
210
0
220
0
230
1
40
0.992546
41
2.91221246909064
42
-2.57393165696181
0
ELLIPSE
5
124
100
AcDbEntity
8
1
62
256
6
ByLayer
370
18
48
1
60
0
100
AcDbEllipse
10
97.562812
20
3.782497
30
0
11
-0.4214216636884
21
0.0220857732294179
31
0
210
0
220
0
230
1
40
0.992546
41
0.567660996007347
42
1.34256072385152
0
ELLIPSE
5
125
100
AcDbEntity
8
1
62
256
6
ByLayer
370
18
48
1
60
0
100
AcDbEllipse
10
97.562812
20
3.782497
30
0
11
-0.42142166361876
21
0.0220857739779221
31
0
210
0
220
0
230
1
40
0.992546
41
1.04724537053471E-09
42
0.567660997792362
0
ELLIPSE
5
126
100
AcDbEntity
8
1
62
256
6
ByLayer
370
18
48
1
60
0
100
AcDbEllipse
10
92.8776
20
8.026847
30
0
11
-3.39534041816075
21
0.177942251263366
31
0
210
0
220
0
230
1
40
0.992546
41
1.05858546010426
42
1.79002630341777
0
ELLIPSE
5
127
100
AcDbEntity
8
1
62
256
6
ByLayer
370
18
48
1
60
0
100
AcDbEllipse
10
93.309121
20
-0.810617
30
0
11
-1.24828691844412
21
0.0654199452744348
31
0
210
0
220
0
230
1
40
0.992546
41
-0.959931088620369
42
-2.68454586397175E-16
0
ELLIPSE
5
128
100
AcDbEntity
8
1
62
256
6
ByLayer
370
18
48
1
60
0
100
AcDbEllipse
10
93.470115
20
-2.17189
30
0
11
-1.04856101149025
21
0.0549527541261142
31
0
210
0
220
0
230
1
40
0.992546
41
-1.19430953341981
42
-0.152610821695433
0
ELLIPSE
5
129
100
AcDbEntity
8
1
62
256
6
ByLayer
370
18
48
1
60
0
100
AcDbEllipse
10
93.472985
20
-2.117124
30
0
11
-1.04856101149637
21
0.0549527539198318
31
0
210
0
220
0
230
1
40
0.992546
41
-1.19430953361786
42
-0.126041204513897
0
ELLIPSE
5
12A
100
AcDbEntity
8
1
62
256
6
ByLayer
370
18
48
1
60
0
100
AcDbEllipse
10
93.486698
20
-1.855464
30
0
11
-1.04856101149228
21
0.0549527540555185
31
0
210
0
220
0
230
1
40
0.992546
41
0
42
3.14159265358979
0
ELLIPSE
5
12B
100
AcDbEntity
8
1
62
256
6
ByLayer
370
18
48
1
60
0
100
AcDbEllipse
10
93.486698
20
-1.855464
30
0
11
-1.04856100863239
21
0.0549527714513412
31
0
210
0
220
0
230
1
40
0.992546
41
-3.14159263702766
42
-2.87845248527589
0
ELLIPSE
5
12C
100
AcDbEntity
8
1
62
256
6
ByLayer
370
18
48
1
60
0
100
AcDbEllipse
10
93.500068
20
-1.807406
30
0
11
-0.39633109660564
21
0.020770832635856
31
0
210
0
220
0
230
1
40
0.992546
41
0
42
2.18166156499787
0
ELLIPSE
5
12D
100
AcDbEntity
8
1
62
256
6
ByLayer
370
18
48
1
60
0
100
AcDbEllipse
10
99.2508
20
1.758039
30
0
11
-0.396331096605417
21
0.0207708326340144
31
0
210
0
220
0
230
1
40
0.992546
41
2.18166156499279
42
3.14159265358979
0
ELLIPSE
5
12E
100
AcDbEntity
8
1
62
256
6
ByLayer
370
18
48
1
60
0
100
AcDbEllipse
10
99.603145
20
8.481183
30
0
11
-0.396331096605995
21
0.0207708326306182
31
0
210
0
220
0
230
1
40
0.992546
41
3.14159265358979
42
-0.959931088605401
0
ELLIPSE
5
12F
100
AcDbEntity
8
1
62
256
6
ByLayer
370
18
48
1
60
0
100
AcDbEllipse
10
93.852413
20
4.915738
30
0
11
-0.396331096601639
21
0.0207708327727653
31
0
210
0
220
0
230
1
40
0.992546
41
-0.959931088245463
42
3.46591358797792E-10
0
ELLIPSE
5
130
100
AcDbEntity
8
1
62
256
6
ByLayer
370
18
48
1
60
0
100
AcDbEllipse
10
93.470115
20
-2.17189
30
0
11
-1.04856101091593
21
0.0549527600931736
31
0
210
0
220
0
230
1
40
0.992546
41
-2.98898181942459
42
-2.6274487841534
0
ELLIPSE
5
131
100
AcDbEntity
8
1
62
256
6
ByLayer
370
18
48
1
60
0
100
AcDbEllipse
10
93.472985
20
-2.117124
30
0
11
-1.04856099556315
21
0.0549529323145559
31
0
210
0
220
0
230
1
40
0.992546
41
-2.78434842665275
42
-2.67086146640699
0
ELLIPSE
5
132
100
AcDbEntity
8
1
62
256
6
ByLayer
370
18
48
1
60
0
100
AcDbEllipse
10
96.550258
20
3.311143
30
0
11
-1.7226359474515
21
0.0902795245229768
31
0
210
0
220
0
230
1
40
0.992546
41
1.09083078249875
42
3.14159265358979
0
ELLIPSE
5
133
100
AcDbEntity
8
1
62
256
6
ByLayer
370
18
48
1
60
0
100
AcDbEllipse
10
96.545627
20
3.222778
30
0
11
-1.72263594745161
21
0.0902795245199901
31
0
210
0
220
0
230
1
40
0.992546
41
1.09083078249699
42
3.14159265358979
0
ELLIPSE
5
134
100
AcDbEntity
8
1
62
256
6
ByLayer
370
18
48
1
60
0
100
AcDbEllipse
10
96.545627
20
3.222778
30
0
11
-1.72263594745366
21
0.0902795244942454
31
0
210
0
220
0
230
1
40
0.992546
41
0
42
1.09083078248186
0
ELLIPSE
5
135
100
AcDbEntity
8
1
62
256
6
ByLayer
370
18
48
1
60
0
100
AcDbEllipse
10
96.547589
20
3.260216
30
0
11
-1.87243037766481
21
0.0981299179558565
31
0
210
0
220
0
230
1
40
0.992546
41
2.55254447665225
42
0.589048246556776
0
ELLIPSE
5
136
100
AcDbEntity
8
1
62
256
6
ByLayer
370
18
48
1
60
0
100
AcDbEllipse
10
96.551607
20
3.336888
30
0
11
-1.91642389486205
21
0.100435520492881
31
0
210
0
220
0
230
1
40
0.992546
41
0.610865238197064
42
2.53568525278101
0
ELLIPSE
5
137
100
AcDbEntity
8
1
62
256
6
ByLayer
370
18
48
1
60
0
100
AcDbEllipse
10
96.551607
20
3.336888
30
0
11
-1.91642389486197
21
0.100435520494792
31
0
210
0
220
0
230
1
40
0.992546
41
2.535685252782
42
0.610865238198084
0
ELLIPSE
5
138
100
AcDbEntity
8
1
62
256
6
ByLayer
370
18
48
1
60
0
100
AcDbEllipse
10
96.546655
20
3.242404
30
0
11
-1.82225885974883
21
0.0955005400144921
31
0
210
0
220
0
230
1
40
0.992546
41
0.610865238141567
42
1.41980356733517
0
ELLIPSE
5
139
100
AcDbEntity
8
1
62
256
6
ByLayer
370
18
48
1
60
0
100
AcDbEllipse
10
96.546655
20
3.242404
30
0
11
-1.82225885974135
21
0.0955005401178228
31
0
210
0
220
0
230
1
40
0.992546
41
1.72178938920107
42
0.610865238197984
0
ELLIPSE
5
13A
100
AcDbEntity
8
1
62
256
6
ByLayer
370
18
48
1
60
0
100
AcDbEllipse
10
96.55031
20
3.312144
30
0
11
-0.746974986674043
21
0.0391424525336541
31
0
210
0
220
0
230
1
40
0.992546
41
-0.517703373258809
42
-0.442240660466105
0
ELLIPSE
5
13B
100
AcDbEntity
8
1
62
256
6
ByLayer
370
18
48
1
60
0
100
AcDbEllipse
10
96.544989
20
3.210608
30
0
11
-0.74697489195596
21
0.0391472958252913
31
0
210
0
220
0
230
1
40
0.992546
41
0.685641625533318
42
1.31349437071447
0
ELLIPSE
5
13C
100
AcDbEntity
8
1
62
256
6
ByLayer
370
18
48
1
60
0
100
AcDbEllipse
10
96.544989
20
3.210608
30
0
11
-0.746974891993594
21
0.0391472953581131
31
0
210
0
220
0
230
1
40
0.992546
41
1.91675603053635
42
2.55114840952743
0
ELLIPSE
5
13D
100
AcDbEntity
8
1
62
256
6
ByLayer
370
18
48
1
60
0
100
AcDbEllipse
10
97.394948
20
3.203638
30
0
11
-0.184746463937061
21
0.0096821518005099
31
0
210
0
220
0
230
1
40
0.992546
41
-2.78514730094946
42
-1.79903192957831
0
ELLIPSE
5
13E
100
AcDbEntity
8
1
62
256
6
ByLayer
370
18
48
1
60
0
100
AcDbEllipse
10
96.55031
20
3.312144
30
0
11
-0.746975023779133
21
0.03914062332472
31
0
210
0
220
0
230
1
40
0.992546
41
2.62388683428139
42
2.69934955039989
0
ELLIPSE
5
13F
100
AcDbEntity
8
1
62
256
6
ByLayer
370
18
48
1
60
0
100
AcDbEllipse
10
97.552033
20
2.621553
30
0
11
-0.421421664733241
21
0.0220857669130995
31
0
210
0
220
0
230
1
40
0.992546
41
0
42
0.29712063965494
0
ELLIPSE
5
140
100
AcDbEntity
8
1
62
256
6
ByLayer
370
18
48
1
60
0
100
AcDbEllipse
10
107.234826
20
3.214173
30
0
11
-8.08889975866299
21
0.423916438636458
31
0
210
0
220
0
230
1
40
0.992546
41
0.285039623642027
42
0.315576959169847
0
POINT
5
6C
100
AcDbEntity
8
80
62
256
6
ByLayer
370
18
48
1
60
0
100
AcDbPoint
10
0
20
0
30
0
39
0
210
0
220
0
230
1
50
360
0
POINT
5
6E
100
AcDbEntity
8
81
62
256
6
ByLayer
370
18
48
1
60
0
100
AcDbPoint
10
100
20
9
30
0
39
0
210
0
220
0
230
1
50
360
0
SPLINE
5
141
100
AcDbEntity
8
1
62
256
6
ByLayer
370
18
48
1
60
1
100
AcDbSpline
70
4
71
1
72
4
73
2
40
0
40
0
40
1
40
1
41
1
10
91.0293382905777
20
5.21029882249004
30
0.391677393219192
41
1
10
90.934275273914
20
5.22499996473166
30
0.0006070869855041
0
SPLINE
5
142
100
AcDbEntity
8
1
62
256
6
ByLayer
370
18
48
1
60
1
100
AcDbSpline
70
4
71
3
72
11
73
7
40
0
40
0
40
0
40
0
40
0.284741728902655
40
0.571429304116661
40
0.831501419361934
40
1
40
1
40
1
40
1
41
1
10
96.838553088882
20
2.45925185863302
30
0.700623160575232
41
1
10
96.8542521923638
20
2.44503106588133
30
0.713647838280135
41
1
10
96.8895277312851
20
2.42324006190974
30
0.736347004852017
41
1
10
96.9550198496393
20
2.40864748352945
30
0.761149799460695
41
1
10
97.0152457637965
20
2.41656013735253
30
0.771240184693771
41
1
10
97.047952322917
20
2.43058676500907
30
0.771220805592913
41
1
10
97.0605928711691
20
2.43755590854074
30
0.770321383402519
0
SPLINE
5
143
100
AcDbEntity
8
1
62
256
6
ByLayer
370
18
48
1
60
1
100
AcDbSpline
70
4
71
3
72
12
73
8
40
0
40
0
40
0
40
0
40
0.0673878972017364
40
0.291724902681268
40
0.519221564719025
40
0.761288514760382
40
1
40
1
40
1
40
1
41
1
10
96.0264227776057
20
2.44735731928245
30
0.775765196838951
41
1
10
96.031319485141
20
2.44449923586726
30
0.776082379853616
41
1
10
96.0528282596566
20
2.43311039516125
30
0.776816181763054
41
1
10
96.0951715647516
20
2.42006831729161
30
0.773020538860216
41
1
10
96.1522286252048
20
2.41928044657707
30
0.7582256719895
41
1
10
96.2057352374188
20
2.43470635192128
30
0.734504595089164
41
1
10
96.2349915974294
20
2.45333193434066
30
0.714679655325358
41
1
10
96.2480878841269
20
2.46484802896972
30
0.703731336334011
0
SPLINE
5
144
100
AcDbEntity
8
1
62
256
6
ByLayer
370
18
48
1
60
1
100
AcDbSpline
70
4
71
3
72
13
73
9
40
0
40
0
40
0
40
0
40
0.21320196567938
40
0.38880376293971
40
0.565403937511307
40
0.720674843085522
40
0.926680516908967
40
1
40
1
40
1
40
1
41
1
10
96.838553088882
20
2.45925185863302
30
0.700623160575232
41
1
10
96.8070205334399
20
2.48806333559159
30
0.673015116535303
41
1
10
96.7414649615365
20
2.53028460508765
30
0.632202416266593
41
1
10
96.6213708912983
20
2.56798049704514
30
0.591321907728236
41
1
10
96.5023595698574
20
2.57296049699687
30
0.58745636110299
41
1
10
96.3833833612736
20
2.54880927063951
30
0.617095426585756
41
1
10
96.3018374365589
20
2.50775651417388
30
0.661833260712622
41
1
10
96.2588007728074
20
2.47424115738175
30
0.694653145559775
41
1
10
96.2480878841269
20
2.46484802896972
30
0.703731336334011
0
SPLINE
5
145
100
AcDbEntity
8
1
62
256
6
ByLayer
370
18
48
1
60
1
100
AcDbSpline
70
4
71
3
72
11
73
7
40
0
40
0
40
0
40
0
40
0.14047058633136
40
0.484983032735379
40
0.797511606841091
40
1
40
1
40
1
40
1
41
1
10
95.93520484005
20
2.60945279252131
30
0.70675069784554
41
1
10
95.9347230399108
20
2.60104431019162
30
0.711932627939008
41
1
10
95.9354349679503
20
2.57213261000346
30
0.728992191062113
41
1
10
95.9496670992595
20
2.52275857555428
30
0.753604743485645
41
1
10
95.9855699053697
20
2.47568606707771
30
0.770609367594314
41
1
10
96.0140104948932
20
2.45473055364555
30
0.774904540627574
41
1
10
96.0264227776057
20
2.44735731928245
30
0.775765196838953
0
SPLINE
5
146
100
AcDbEntity
8
1
62
256
6
ByLayer
370
18
48
1
60
1
100
AcDbSpline
70
4
71
1
72
4
73
2
40
0
40
0
40
1
40
1
41
1
10
95.9410038650475
20
2.64447181286148
30
0.683679871014272
41
1
10
95.93520484005
20
2.60945279252131
30
0.70675069784554
0
SPLINE
5
147
100
AcDbEntity
8
1
62
256
6
ByLayer
370
18
48
1
60
1
100
AcDbSpline
70
4
71
2
72
6
73
3
40
0
40
0
40
0
40
1
40
1
40
1
41
1
10
97.1540495565585
20
2.58267848625598
30
0.709473213560463
41
1
10
97.1554206047328
20
2.60884377733831
30
0.694168334749748
41
1
10
97.1486012628873
20
2.63360404967884
30
0.676918533014904
0
SPLINE
5
148
100
AcDbEntity
8
1
62
256
6
ByLayer
370
18
48
1
60
1
100
AcDbSpline
70
4
71
3
72
11
73
7
40
0
40
0
40
0
40
0
40
0.0885337572373412
40
0.383252406994792
40
0.682122226415843
40
1
40
1
40
1
40
1
41
1
10
97.0605928711691
20
2.43755590854074
30
0.77032138340252
41
1
10
97.0655340075117
20
2.44032999198935
30
0.769947685260795
41
1
10
97.0861639757037
20
2.45307753763321
30
0.767725047040748
41
1
10
97.1181681909898
20
2.48254549741294
30
0.758817968202034
41
1
10
97.1457542078329
20
2.53077738006532
30
0.738051439649527
41
1
10
97.1531675343842
20
2.56453732585787
30
0.720019597475245
41
1
10
97.1540495565585
20
2.58267848625598
30
0.709473213560463
0
SPLINE
5
149
100
AcDbEntity
8
1
62
256
6
ByLayer
370
18
48
1
60
1
100
AcDbSpline
70
4
71
3
72
11
73
7
40
0
40
0
40
0
40
0
40
0.283958795909498
40
0.570187249862844
40
0.82980283022418
40
1
40
1
40
1
40
1
41
1
10
97.4487663099064
20
3.1396233138109
30
0.612943453898201
41
1
10
97.4702521634905
20
3.14658578719029
30
0.623348375016402
41
1
10
97.5091215467699
20
3.16705209998048
30
0.640894275704243
41
1
10
97.5572014698949
20
3.21727699389227
30
0.657962099522049
41
1
10
97.5817857886708
20
3.2738258058574
30
0.662447671188886
41
1
10
97.5861007434172
20
3.30927181048371
30
0.660019954564147
41
1
10
97.5863168465372
20
3.32382318647396
30
0.65827225159412
0
SPLINE
5
14A
100
AcDbEntity
8
1
62
256
6
ByLayer
370
18
48
1
60
1
100
AcDbSpline
70
4
71
2
72
6
73
3
40
0
40
0
40
0
40
1
40
1
40
1
41
1
10
97.1801734064056
20
2.91121869650848
30
0.544530278163818
41
1
10
97.1398221711083
20
2.82947116909839
30
0.562285893162748
41
1
10
97.1361515727945
20
2.7493417953719
30
0.605539221683419
0
SPLINE
5
14B
100
AcDbEntity
8
1
62
256
6
ByLayer
370
18
48
1
60
1
100
AcDbSpline
70
4
71
3
72
10
73
6
40
0
40
0
40
0
40
0
40
0.463356466661085
40
0.844849939507185
40
1
40
1
40
1
40
1
41
1
10
97.4487663099064
20
3.1396233138109
30
0.612943453898201
41
1
10
97.4051798660553
20
3.12566694654036
30
0.590592126809511
41
1
10
97.3317075240948
20
3.08869570326922
30
0.559477776482398
41
1
10
97.2522835752922
20
3.01793453290557
30
0.538159794300445
41
1
10
97.2181575285412
20
2.97309043980417
30
0.537806727279849
41
1
10
97.2087956444946
20
2.95947016349117
30
0.538429934488149
0
SPLINE
5
14C
100
AcDbEntity
8
1
62
256
6
ByLayer
370
18
48
1
60
1
100
AcDbSpline
70
4
71
3
72
12
73
8
40
0
40
0
40
0
40
0
40
0.0653589438502423
40
0.289730938852738
40
0.517150356856029
40
0.759049137700698
40
1
40
1
40
1
40
1
41
1
10
95.5164168446846
20
3.34079646695116
30
0.669492326470129
41
1
10
95.5163807328165
20
3.33533127268909
30
0.670161042337549
41
1
10
95.5172488328098
20
3.31128622913777
30
0.6725985705322
41
1
10
95.5274739882454
20
3.26819311139267
30
0.672770020033149
41
1
10
95.5567472434364
20
3.21775131138183
30
0.66430995091541
41
1
10
95.5992567503167
20
3.17784490777661
30
0.64743487146335
41
1
10
95.6320642665372
20
3.16076163569089
30
0.63190387984493
41
1
10
95.6498131223615
20
3.15458589617128
30
0.623002780704951
0
SPLINE
5
14D
100
AcDbEntity
8
1
62
256
6
ByLayer
370
18
48
1
60
1
100
AcDbSpline
70
4
71
1
72
4
73
2
40
0
40
0
40
1
40
1
41
1
10
95.9410038650475
20
2.64447181286149
30
0.683679871014271
41
1
10
95.9542340997217
20
2.72439718320102
30
0.632138741950306
0
SPLINE
5
14E
100
AcDbEntity
8
1
62
256
6
ByLayer
370
18
48
1
60
1
100
AcDbSpline
70
4
71
3
72
13
73
9
40
0
40
0
40
0
40
0
40
0.0858715385502332
40
0.289891539276096
40
0.495071496647831
40
0.675470194998938
40
0.914813818726452
40
1
40
1
40
1
40
1
41
1
10
95.9542340997217
20
2.72439718320102
30
0.632138741950306
41
1
10
95.9550868697986
20
2.73905595335882
30
0.623449181946678
41
1
10
95.9547671380702
20
2.78892452314001
30
0.596182099910472
41
1
10
95.9368219952489
20
2.87902270220925
30
0.557668102068357
41
1
10
95.8819625207548
20
2.98351170431729
30
0.541082866893859
41
1
10
95.7985806781625
20
3.07535958993715
30
0.556296633686634
41
1
10
95.7178922663794
20
3.12747332353813
30
0.589597390105048
41
1
10
95.6641793021516
20
3.14956145268391
30
0.615668821700914
41
1
10
95.6498131223612
20
3.15458589617118
30
0.623002780705185
0
SPLINE
5
14F
100
AcDbEntity
8
1
62
256
6
ByLayer
370
18
48
1
60
1
100
AcDbSpline
70
4
71
3
72
11
73
7
40
0
40
0
40
0
40
0
40
0.283958795909491
40
0.570187249862828
40
0.829802830224174
40
1
40
1
40
1
40
1
41
1
10
95.6530963074245
20
3.50837525963797
30
0.57926751932813
41
1
10
95.6317547499315
20
3.50416611969665
30
0.59131747318696
41
1
10
95.5931424548827
20
3.48860534257365
30
0.613778782878975
41
1
10
95.5453605156741
20
3.44406632050177
30
0.643082219270979
41
1
10
95.5209227802914
20
3.39031448629864
30
0.661407464881496
41
1
10
95.5166324676732
20
3.35533868148705
30
0.667669907045766
41
1
10
95.5164168446846
20
3.34079646695116
30
0.669492326470129
0
SPLINE
5
150
100
AcDbEntity
8
1
62
256
6
ByLayer
370
18
48
1
60
1
100
AcDbSpline
70
4
71
3
72
12
73
8
40
0
40
0
40
0
40
0
40
0.065358943850253
40
0.289730938852756
40
0.517150356856034
40
0.759049137700752
40
1
40
1
40
1
40
1
41
1
10
97.5863168465372
20
3.32382318647396
30
0.65827225159412
41
1
10
97.5863529376658
20
3.32928798500431
30
0.657600308327428
41
1
10
97.5854784411342
20
3.35321097533242
30
0.654167372228415
41
1
10
97.5751893875745
20
3.39508484423834
30
0.644052310424212
41
1
10
97.545733089924
20
3.44203398605946
30
0.624027924334415
41
1
10
97.5029514291596
20
3.47674738420239
30
0.598551326798013
41
1
10
97.4699234197201
20
3.48962339503684
30
0.579769901297865
41
1
10
97.4520537215948
20
3.49349332609477
30
0.569865925828097
0
SPLINE
5
151
100
AcDbEntity
8
1
62
256
6
ByLayer
370
18
48
1
60
1
100
AcDbSpline
70
4
71
2
72
6
73
3
40
0
40
0
40
0
40
1
40
1
40
1
41
1
10
97.1361515727945
20
2.7493417953719
30
0.605539221683419
41
1
10
97.1333398057707
20
2.68866489468227
30
0.638096563057568
41
1
10
97.1486012628873
20
2.63360404967884
30
0.676918533014904
0
SPLINE
5
152
100
AcDbEntity
8
1
62
256
6
ByLayer
370
18
48
1
60
1
100
AcDbSpline
70
4
71
3
72
11
73
7
40
0
40
0
40
0
40
0
40
0.0885337572373009
40
0.383252406994799
40
0.682122226415852
40
1
40
1
40
1
40
1
41
1
10
96.0421408200527
20
4.22706374488437
30
0.557443194661731
41
1
10
96.0371996609408
20
4.22428922697232
30
0.557813349526677
41
1
10
96.0165630201331
20
4.21141436023598
30
0.558997617611857
41
1
10
95.9844943824851
20
4.18071714856338
30
0.557879504009878
41
1
10
95.9567225592278
20
4.12893986832433
30
0.549731459974881
41
1
10
95.9491339421667
20
4.09183518035253
30
0.54048517940998
41
1
10
95.9481466253603
20
4.07168487868761
30
0.534645964931961
0
SPLINE
5
153
100
AcDbEntity
8
1
62
256
6
ByLayer
370
18
48
1
60
1
100
AcDbSpline
70
4
71
2
72
6
73
3
40
0
40
0
40
0
40
1
40
1
40
1
41
1
10
95.9204465723927
20
3.71306892124557
30
0.454305443684149
41
1
10
95.9608924216178
20
3.7966217899518
30
0.451273331658596
41
1
10
95.9649859623914
20
3.88482138655687
30
0.473836893790459
0
SPLINE
5
154
100
AcDbEntity
8
1
62
256
6
ByLayer
370
18
48
1
60
1
100
AcDbSpline
70
4
71
3
72
10
73
6
40
0
40
0
40
0
40
0
40
0.463356466661116
40
0.844849939507203
40
1
40
1
40
1
40
1
41
1
10
95.6530963074245
20
3.50837525963797
30
0.57926751932813
41
1
10
95.6963745432288
20
3.51645066703937
30
0.5536565412412
41
1
10
95.7693895651405
20
3.54469572394808
30
0.513604275463594
41
1
10
95.8484272856898
20
3.60808722021913
30
0.474818708949489
41
1
10
95.8824764664795
20
3.65146462340503
30
0.463210152206195
41
1
10
95.8918243343037
20
3.66481745426288
30
0.460405787359819
0
SPLINE
5
155
100
AcDbEntity
8
1
62
256
6
ByLayer
370
18
48
1
60
1
100
AcDbSpline
70
4
71
1
72
4
73
2
40
0
40
0
40
1
40
1
41
1
10
97.1608629789088
20
4.00360740940458
30
0.509188835518959
41
1
10
97.1471053292386
20
3.91361836143401
30
0.478655407288
0
SPLINE
5
156
100
AcDbEntity
8
1
62
256
6
ByLayer
370
18
48
1
60
1
100
AcDbSpline
70
4
71
1
72
4
73
2
40
0
40
0
40
1
40
1
41
1
10
97.1608629789088
20
4.00360740940458
30
0.50918883551896
41
1
10
97.1668992707433
20
4.04315375069286
30
0.523040680117624
0
SPLINE
5
157
100
AcDbEntity
8
1
62
256
6
ByLayer
370
18
48
1
60
1
100
AcDbSpline
70
4
71
3
72
12
73
8
40
0
40
0
40
0
40
0
40
0.0673878972017069
40
0.291724902681215
40
0.519221564718973
40
0.761288514760362
40
1
40
1
40
1
40
1
41
1
10
97.0763109136161
20
4.21726233414267
30
0.551999381225298
41
1
10
97.0714141833147
20
4.22011998315609
30
0.551678655436866
41
1
10
97.0498987687641
20
4.23138212444397
30
0.549911553472176
41
1
10
97.007490603892
20
4.24318660404387
30
0.543613934863549
41
1
10
96.9502496415721
20
4.24046541810133
30
0.529790608444256
41
1
10
96.8964709933859
20
4.21984875719032
30
0.511178357431004
41
1
10
96.8669949215961
20
4.19703082427743
30
0.496812485108497
41
1
10
96.8537789598294
20
4.18323119329633
30
0.489137370199034
0
SPLINE
5
158
100
AcDbEntity
8
1
62
256
6
ByLayer
370
18
48
1
60
1
100
AcDbSpline
70
4
71
3
72
13
73
9
40
0
40
0
40
0
40
0
40
0.213201965679379
40
0.3888037629397
40
0.565403937511318
40
0.720674843085511
40
0.926680516908972
40
1
40
1
40
1
40
1
41
1
10
96.2633137550743
20
4.18882736363305
30
0.492245545958001
41
1
10
96.2945389226156
20
4.15415057612274
30
0.472018913194791
41
1
10
96.3596379697923
20
4.10321829591298
30
0.441788762715505
41
1
10
96.4792631939137
20
4.0565762871175
30
0.409709007033719
41
1
10
96.5982236212016
20
4.05062516887434
30
0.405654575816588
41
1
10
96.7175279221591
20
4.08103677066122
30
0.427072147948402
41
1
10
96.7995699142348
20
4.13155505624837
30
0.459530657016879
41
1
10
96.8429665844123
20
4.17193974486469
30
0.482733767842979
41
1
10
96.8537789598294
20
4.18323119329633
30
0.489137370199034
0
SPLINE
5
159
100
AcDbEntity
8
1
62
256
6
ByLayer
370
18
48
1
60
1
100
AcDbSpline
70
4
71
3
72
11
73
7
40
0
40
0
40
0
40
0
40
0.284741728902647
40
0.571429304116665
40
0.831501419361885
40
1
40
1
40
1
40
1
41
1
10
96.2633137550743
20
4.18882736363305
30
0.492245545958001
41
1
10
96.2477587597556
20
4.20579790393971
30
0.50164649847707
41
1
10
96.2127396600041
20
4.2324820587653
30
0.518853537652525
41
1
10
96.1475442491195
20
4.25273615292695
30
0.540223366850921
41
1
10
96.0874632757267
20
4.24758913364137
30
0.552688178497966
41
1
10
96.0547809082331
20
4.23402410972604
30
0.556472177660586
41
1
10
96.0421408200527
20
4.22706374488437
30
0.557443194661731
0
SPLINE
5
15A
100
AcDbEntity
8
1
62
256
6
ByLayer
370
18
48
1
60
1
100
AcDbSpline
70
4
71
3
72
13
73
9
40
0
40
0
40
0
40
0
40
0.0858715385502323
40
0.289891539276092
40
0.49507149664784
40
0.675470194998938
40
0.914813818726464
40
1
40
1
40
1
40
1
41
1
10
97.1471053292386
20
3.91361836143401
30
0.478655407288
41
1
10
97.1461653654841
20
3.89729583679483
30
0.473776178871197
41
1
10
97.1462172563553
20
3.84231655900782
30
0.459362762741611
41
1
10
97.1638131799871
20
3.74555488084823
30
0.443532438564877
41
1
10
97.2186204179713
20
3.64006914675476
30
0.451988802819038
41
1
10
97.3023306924227
20
3.55448811433204
30
0.487884503225565
41
1
10
97.3835150723279
20
3.51183801626137
30
0.531764646775039
41
1
10
97.437588053534
20
3.49661942028911
30
0.561717852961864
41
1
10
97.4520537215951
20
3.49349332609492
30
0.569865925828301
0
SPLINE
5
15B
100
AcDbEntity
8
1
62
256
6
ByLayer
370
18
48
1
60
1
100
AcDbSpline
70
4
71
2
72
6
73
3
40
0
40
0
40
0
40
1
40
1
40
1
41
1
10
95.9481466253603
20
4.07168487868761
30
0.534645964931961
41
1
10
95.9466225312354
20
4.04259929720931
30
0.526134347397707
41
1
10
95.9532613544437
20
4.0143945237698
30
0.515292440211339
0
SPLINE
5
15C
100
AcDbEntity
8
1
62
256
6
ByLayer
370
18
48
1
60
1
100
AcDbSpline
70
4
71
3
72
11
73
7
40
0
40
0
40
0
40
0
40
0.140470586331347
40
0.484983032735352
40
0.797511606841049
40
1
40
1
40
1
40
1
41
1
10
97.1668992707433
20
4.04315375069286
30
0.523040680117624
41
1
10
97.1674335872817
20
4.05256430561351
30
0.526031176377217
41
1
10
97.1668928273635
20
4.08474208812076
30
0.535608223671789
41
1
10
97.152896827031
20
4.13862177001159
30
0.547741583891662
41
1
10
97.1171391625032
20
4.18846374486191
30
0.553323407292774
41
1
10
97.0887227362265
20
4.20988032050861
30
0.552788437887932
41
1
10
97.0763109136161
20
4.21726233414267
30
0.551999381225297
0
SPLINE
5
15D
100
AcDbEntity
8
1
62
256
6
ByLayer
370
18
48
1
60
1
100
AcDbSpline
70
4
71
2
72
6
73
3
40
0
40
0
40
0
40
1
40
1
40
1
41
1
10
95.9649859623914
20
3.88482138655687
30
0.473836893790459
41
1
10
95.9681155169719
20
3.95156203506021
30
0.490732588924479
41
1
10
95.9532613544437
20
4.0143945237698
30
0.515292440211339
0
SPLINE
5
15E
100
AcDbEntity
8
1
62
256
6
ByLayer
370
18
48
1
60
0
100
AcDbSpline
70
4
71
1
72
4
73
2
40
0
40
0
40
1
40
1
41
1
10
91.0293382905777
20
5.21029882249004
30
0
41
1
10
90.934275273914
20
5.22499996473166
30
0
0
SPLINE
5
15F
100
AcDbEntity
8
1
62
256
6
ByLayer
370
18
48
1
60
0
100
AcDbSpline
70
4
71
3
72
11
73
7
40
0
40
0
40
0
40
0
40
0.283958795909491
40
0.570187249862828
40
0.829802830224174
40
1
40
1
40
1
40
1
41
1
10
95.6530963074245
20
3.50837525963797
30
0
41
1
10
95.6317547499315
20
3.50416611969665
30
0
41
1
10
95.5931424548827
20
3.48860534257365
30
0
41
1
10
95.5453605156741
20
3.44406632050177
30
0
41
1
10
95.5209227802914
20
3.39031448629864
30
0
41
1
10
95.5166324676732
20
3.35533868148705
30
0
41
1
10
95.5164168446846
20
3.34079646695116
30
0
0
SPLINE
5
160
100
AcDbEntity
8
1
62
256
6
ByLayer
370
18
48
1
60
0
100
AcDbSpline
70
4
71
3
72
12
73
8
40
0
40
0
40
0
40
0
40
0.0653589438502423
40
0.289730938852738
40
0.517150356856029
40
0.759049137700698
40
1
40
1
40
1
40
1
41
1
10
95.5164168446846
20
3.34079646695116
30
0
41
1
10
95.5163807328165
20
3.33533127268909
30
0
41
1
10
95.5172488328098
20
3.31128622913777
30
0
41
1
10
95.5274739882454
20
3.26819311139267
30
0
41
1
10
95.5567472434364
20
3.21775131138183
30
0
41
1
10
95.5992567503167
20
3.17784490777661
30
0
41
1
10
95.6320642665372
20
3.16076163569089
30
0
41
1
10
95.6498131223615
20
3.15458589617128
30
0
0
SPLINE
5
161
100
AcDbEntity
8
1
62
256
6
ByLayer
370
18
48
1
60
0
100
AcDbSpline
70
4
71
1
72
4
73
2
40
0
40
0
40
1
40
1
41
1
10
95.9410038650475
20
2.64447181286148
30
0
41
1
10
95.93520484005
20
2.60945279252131
30
0
0
SPLINE
5
162
100
AcDbEntity
8
1
62
256
6
ByLayer
370
18
48
1
60
0
100
AcDbSpline
70
4
71
1
72
4
73
2
40
0
40
0
40
1
40
1
41
1
10
95.9410038650475
20
2.64447181286149
30
0
41
1
10
95.9542340997217
20
2.72439718320102
30
0
0
SPLINE
5
163
100
AcDbEntity
8
1
62
256
6
ByLayer
370
18
48
1
60
0
100
AcDbSpline
70
4
71
2
72
6
73
3
40
0
40
0
40
0
40
1
40
1
40
1
41
1
10
95.9649859623914
20
3.88482138655687
30
0
41
1
10
95.9681155169719
20
3.95156203506021
30
0
41
1
10
95.9532613544437
20
4.0143945237698
30
0
0
SPLINE
5
164
100
AcDbEntity
8
1
62
256
6
ByLayer
370
18
48
1
60
0
100
AcDbSpline
70
4
71
2
72
6
73
3
40
0
40
0
40
0
40
1
40
1
40
1
41
1
10
95.9204465723927
20
3.71306892124557
30
0
41
1
10
95.9608924216178
20
3.7966217899518
30
0
41
1
10
95.9649859623914
20
3.88482138655687
30
0
0
SPLINE
5
165
100
AcDbEntity
8
1
62
256
6
ByLayer
370
18
48
1
60
0
100
AcDbSpline
70
4
71
3
72
11
73
7
40
0
40
0
40
0
40
0
40
0.14047058633136
40
0.484983032735379
40
0.797511606841091
40
1
40
1
40
1
40
1
41
1
10
95.93520484005
20
2.60945279252131
30
0
41
1
10
95.9347230399108
20
2.60104431019162
30
0
41
1
10
95.9354349679503
20
2.57213261000346
30
0
41
1
10
95.9496670992595
20
2.52275857555428
30
0
41
1
10
95.9855699053697
20
2.47568606707771
30
0
41
1
10
96.0140104948932
20
2.45473055364555
30
0
41
1
10
96.0264227776057
20
2.44735731928245
30
0
0
SPLINE
5
166
100
AcDbEntity
8
1
62
256
6
ByLayer
370
18
48
1
60
0
100
AcDbSpline
70
4
71
3
72
12
73
8
40
0
40
0
40
0
40
0
40
0.0673878972017364
40
0.291724902681268
40
0.519221564719025
40
0.761288514760382
40
1
40
1
40
1
40
1
41
1
10
96.0264227776057
20
2.44735731928245
30
0
41
1
10
96.031319485141
20
2.44449923586726
30
0
41
1
10
96.0528282596566
20
2.43311039516125
30
0
41
1
10
96.0951715647516
20
2.42006831729161
30
0
41
1
10
96.1522286252048
20
2.41928044657707
30
0
41
1
10
96.2057352374188
20
2.43470635192128
30
0
41
1
10
96.2349915974294
20
2.45333193434066
30
0
41
1
10
96.2480878841269
20
2.46484802896972
30
0
0
SPLINE
5
167
100
AcDbEntity
8
1
62
256
6
ByLayer
370
18
48
1
60
0
100
AcDbSpline
70
4
71
3
72
11
73
7
40
0
40
0
40
0
40
0
40
0.0885337572373009
40
0.383252406994799
40
0.682122226415852
40
1
40
1
40
1
40
1
41
1
10
96.0421408200527
20
4.22706374488437
30
0
41
1
10
96.0371996609408
20
4.22428922697232
30
0
41
1
10
96.0165630201331
20
4.21141436023598
30
0
41
1
10
95.9844943824851
20
4.18071714856338
30
0
41
1
10
95.9567225592278
20
4.12893986832433
30
0
41
1
10
95.9491339421667
20
4.09183518035253
30
0
41
1
10
95.9481466253603
20
4.07168487868761
30
0
0
SPLINE
5
168
100
AcDbEntity
8
1
62
256
6
ByLayer
370
18
48
1
60
0
100
AcDbSpline
70
4
71
3
72
11
73
7
40
0
40
0
40
0
40
0
40
0.284741728902647
40
0.571429304116665
40
0.831501419361885
40
1
40
1
40
1
40
1
41
1
10
96.2633137550743
20
4.18882736363305
30
0
41
1
10
96.2477587597556
20
4.20579790393971
30
0
41
1
10
96.2127396600041
20
4.2324820587653
30
0
41
1
10
96.1475442491195
20
4.25273615292695
30
0
41
1
10
96.0874632757267
20
4.24758913364137
30
0
41
1
10
96.0547809082331
20
4.23402410972604
30
0
41
1
10
96.0421408200527
20
4.22706374488437
30
0
0
SPLINE
5
169
100
AcDbEntity
8
1
62
256
6
ByLayer
370
18
48
1
60
0
100
AcDbSpline
70
4
71
3
72
11
73
7
40
0
40
0
40
0
40
0
40
0.0885337572373412
40
0.383252406994792
40
0.682122226415843
40
1
40
1
40
1
40
1
41
1
10
97.0605928711691
20
2.43755590854074
30
0
41
1
10
97.0655340075117
20
2.44032999198935
30
0
41
1
10
97.0861639757037
20
2.45307753763321
30
0
41
1
10
97.1181681909898
20
2.48254549741294
30
0
41
1
10
97.1457542078329
20
2.53077738006532
30
0
41
1
10
97.1531675343842
20
2.56453732585787
30
0
41
1
10
97.1540495565585
20
2.58267848625598
30
0
0
SPLINE
5
16A
100
AcDbEntity
8
1
62
256
6
ByLayer
370
18
48
1
60
0
100
AcDbSpline
70
4
71
3
72
11
73
7
40
0
40
0
40
0
40
0
40
0.284741728902655
40
0.571429304116661
40
0.831501419361934
40
1
40
1
40
1
40
1
41
1
10
96.838553088882
20
2.45925185863302
30
0
41
1
10
96.8542521923638
20
2.44503106588133
30
0
41
1
10
96.8895277312851
20
2.42324006190974
30
0
41
1
10
96.9550198496393
20
2.40864748352945
30
0
41
1
10
97.0152457637965
20
2.41656013735253
30
0
41
1
10
97.047952322917
20
2.43058676500907
30
0
41
1
10
97.0605928711691
20
2.43755590854074
30
0
0
SPLINE
5
16B
100
AcDbEntity
8
1
62
256
6
ByLayer
370
18
48
1
60
0
100
AcDbSpline
70
4
71
3
72
11
73
7
40
0
40
0
40
0
40
0
40
0.140470586331347
40
0.484983032735352
40
0.797511606841049
40
1
40
1
40
1
40
1
41
1
10
97.1668992707433
20
4.04315375069286
30
0
41
1
10
97.1674335872817
20
4.05256430561351
30
0
41
1
10
97.1668928273635
20
4.08474208812076
30
0
41
1
10
97.152896827031
20
4.13862177001159
30
0
41
1
10
97.1171391625032
20
4.18846374486191
30
0
41
1
10
97.0887227362265
20
4.20988032050861
30
0
41
1
10
97.0763109136161
20
4.21726233414267
30
0
0
SPLINE
5
16C
100
AcDbEntity
8
1
62
256
6
ByLayer
370
18
48
1
60
0
100
AcDbSpline
70
4
71
3
72
12
73
8
40
0
40
0
40
0
40
0
40
0.0673878972017069
40
0.291724902681215
40
0.519221564718973
40
0.761288514760362
40
1
40
1
40
1
40
1
41
1
10
97.0763109136161
20
4.21726233414267
30
0
41
1
10
97.0714141833147
20
4.22011998315609
30
0
41
1
10
97.0498987687641
20
4.23138212444397
30
0
41
1
10
97.007490603892
20
4.24318660404387
30
0
41
1
10
96.9502496415721
20
4.24046541810133
30
0
41
1
10
96.8964709933859
20
4.21984875719032
30
0
41
1
10
96.8669949215961
20
4.19703082427743
30
0
41
1
10
96.8537789598294
20
4.18323119329633
30
0
0
SPLINE
5
16D
100
AcDbEntity
8
1
62
256
6
ByLayer
370
18
48
1
60
0
100
AcDbSpline
70
4
71
2
72
6
73
3
40
0
40
0
40
0
40
1
40
1
40
1
41
1
10
97.1540495565585
20
2.58267848625598
30
0
41
1
10
97.1554206047328
20
2.60884377733831
30
0
41
1
10
97.1486012628873
20
2.63360404967884
30
0
0
SPLINE
5
16E
100
AcDbEntity
8
1
62
256
6
ByLayer
370
18
48
1
60
0
100
AcDbSpline
70
4
71
2
72
6
73
3
40
0
40
0
40
0
40
1
40
1
40
1
41
1
10
97.1361515727945
20
2.7493417953719
30
0
41
1
10
97.1333398057707
20
2.68866489468227
30
0
41
1
10
97.1486012628873
20
2.63360404967884
30
0
0
SPLINE
5
16F
100
AcDbEntity
8
1
62
256
6
ByLayer
370
18
48
1
60
0
100
AcDbSpline
70
4
71
3
72
13
73
9
40
0
40
0
40
0
40
0
40
0.0858715385502323
40
0.289891539276092
40
0.49507149664784
40
0.675470194998938
40
0.914813818726464
40
1
40
1
40
1
40
1
41
1
10
97.1471053292386
20
3.91361836143401
30
0
41
1
10
97.1461653654841
20
3.89729583679483
30
0
41
1
10
97.1462172563553
20
3.84231655900782
30
0
41
1
10
97.1638131799871
20
3.74555488084823
30
0
41
1
10
97.2186204179713
20
3.64006914675476
30
0
41
1
10
97.3023306924227
20
3.55448811433204
30
0
41
1
10
97.3835150723279
20
3.51183801626137
30
0
41
1
10
97.437588053534
20
3.49661942028911
30
0
41
1
10
97.4520537215951
20
3.49349332609492
30
0
0
SPLINE
5
170
100
AcDbEntity
8
1
62
256
6
ByLayer
370
18
48
1
60
0
100
AcDbSpline
70
4
71
1
72
4
73
2
40
0
40
0
40
1
40
1
41
1
10
97.1608629789088
20
4.00360740940458
30
0
41
1
10
97.1471053292386
20
3.91361836143401
30
0
0
SPLINE
5
171
100
AcDbEntity
8
1
62
256
6
ByLayer
370
18
48
1
60
0
100
AcDbSpline
70
4
71
3
72
13
73
9
40
0
40
0
40
0
40
0
40
0.0858715385502332
40
0.289891539276096
40
0.495071496647831
40
0.675470194998938
40
0.914813818726452
40
1
40
1
40
1
40
1
41
1
10
95.9542340997217
20
2.72439718320102
30
0
41
1
10
95.9550868697986
20
2.73905595335882
30
0
41
1
10
95.9547671380702
20
2.78892452314001
30
0
41
1
10
95.9368219952489
20
2.87902270220925
30
0
41
1
10
95.8819625207548
20
2.98351170431729
30
0
41
1
10
95.7985806781625
20
3.07535958993715
30
0
41
1
10
95.7178922663794
20
3.12747332353813
30
0
41
1
10
95.6641793021516
20
3.14956145268391
30
0
41
1
10
95.6498131223612
20
3.15458589617118
30
0
0
SPLINE
5
172
100
AcDbEntity
8
1
62
256
6
ByLayer
370
18
48
1
60
0
100
AcDbSpline
70
4
71
3
72
10
73
6
40
0
40
0
40
0
40
0
40
0.463356466661116
40
0.844849939507203
40
1
40
1
40
1
40
1
41
1
10
95.6530963074245
20
3.50837525963797
30
0
41
1
10
95.6963745432288
20
3.51645066703937
30
0
41
1
10
95.7693895651405
20
3.54469572394808
30
0
41
1
10
95.8484272856898
20
3.60808722021913
30
0
41
1
10
95.8824764664795
20
3.65146462340503
30
0
41
1
10
95.8918243343037
20
3.66481745426288
30
0
0
SPLINE
5
173
100
AcDbEntity
8
1
62
256
6
ByLayer
370
18
48
1
60
0
100
AcDbSpline
70
4
71
2
72
6
73
3
40
0
40
0
40
0
40
1
40
1
40
1
41
1
10
95.9481466253603
20
4.07168487868761
30
0
41
1
10
95.9466225312354
20
4.04259929720931
30
0
41
1
10
95.9532613544437
20
4.0143945237698
30
0
0
SPLINE
5
174
100
AcDbEntity
8
1
62
256
6
ByLayer
370
18
48
1
60
0
100
AcDbSpline
70
4
71
3
72
13
73
9
40
0
40
0
40
0
40
0
40
0.21320196567938
40
0.38880376293971
40
0.565403937511307
40
0.720674843085522
40
0.926680516908967
40
1
40
1
40
1
40
1
41
1
10
96.838553088882
20
2.45925185863302
30
0
41
1
10
96.8070205334399
20
2.48806333559159
30
0
41
1
10
96.7414649615365
20
2.53028460508765
30
0
41
1
10
96.6213708912983
20
2.56798049704514
30
0
41
1
10
96.5023595698574
20
2.57296049699687
30
0
41
1
10
96.3833833612736
20
2.54880927063951
30
0
41
1
10
96.3018374365589
20
2.50775651417388
30
0
41
1
10
96.2588007728074
20
2.47424115738175
30
0
41
1
10
96.2480878841269
20
2.46484802896972
30
0
0
SPLINE
5
175
100
AcDbEntity
8
1
62
256
6
ByLayer
370
18
48
1
60
0
100
AcDbSpline
70
4
71
3
72
13
73
9
40
0
40
0
40
0
40
0
40
0.213201965679379
40
0.3888037629397
40
0.565403937511318
40
0.720674843085511
40
0.926680516908972
40
1
40
1
40
1
40
1
41
1
10
96.2633137550743
20
4.18882736363305
30
0
41
1
10
96.2945389226156
20
4.15415057612274
30
0
41
1
10
96.3596379697923
20
4.10321829591298
30
0
41
1
10
96.4792631939137
20
4.0565762871175
30
0
41
1
10
96.5982236212016
20
4.05062516887434
30
0
41
1
10
96.7175279221591
20
4.08103677066122
30
0
41
1
10
96.7995699142348
20
4.13155505624837
30
0
41
1
10
96.8429665844123
20
4.17193974486469
30
0
41
1
10
96.8537789598294
20
4.18323119329633
30
0
0
SPLINE
5
176
100
AcDbEntity
8
1
62
256
6
ByLayer
370
18
48
1
60
0
100
AcDbSpline
70
4
71
3
72
12
73
8
40
0
40
0
40
0
40
0
40
0.240950862299248
40
0.482849643143966
40
0.710269061147244
40
0.934641056149747
40
1
40
1
40
1
40
1
41
1
10
97.4520537215948
20
3.49349332609477
30
0
41
1
10
97.4699234197201
20
3.48962339503684
30
0
41
1
10
97.5029514291596
20
3.47674738420239
30
0
41
1
10
97.545733089924
20
3.44203398605946
30
0
41
1
10
97.5751893875745
20
3.39508484423834
30
0
41
1
10
97.5854784411342
20
3.35321097533242
30
0
41
1
10
97.5863529376658
20
3.32928798500431
30
0
41
1
10
97.5863168465372
20
3.32382318647396
30
0
0
SPLINE
5
177
100
AcDbEntity
8
1
62
256
6
ByLayer
370
18
48
1
60
0
100
AcDbSpline
70
4
71
3
72
11
73
7
40
0
40
0
40
0
40
0
40
0.17019716977582
40
0.429812750137156
40
0.716041204090502
40
1
40
1
40
1
40
1
41
1
10
97.5863168465372
20
3.32382318647396
30
0
41
1
10
97.5861007434172
20
3.30927181048371
30
0
41
1
10
97.5817857886708
20
3.2738258058574
30
0
41
1
10
97.5572014698949
20
3.21727699389227
30
0
41
1
10
97.5091215467699
20
3.16705209998048
30
0
41
1
10
97.4702521634905
20
3.14658578719029
30
0
41
1
10
97.4487663099064
20
3.1396233138109
30
0
0
SPLINE
5
178
100
AcDbEntity
8
1
62
256
6
ByLayer
370
18
48
1
60
0
100
AcDbSpline
70
4
71
3
72
10
73
6
40
0
40
0
40
0
40
0
40
0.463356466661085
40
0.844849939507185
40
1
40
1
40
1
40
1
41
1
10
97.4487663099064
20
3.1396233138109
30
0
41
1
10
97.4051798660553
20
3.12566694654036
30
0
41
1
10
97.3317075240948
20
3.08869570326922
30
0
41
1
10
97.2522835752922
20
3.01793453290557
30
0
41
1
10
97.2181575285412
20
2.97309043980417
30
0
41
1
10
97.2087956444946
20
2.95947016349117
30
0
0
SPLINE
5
179
100
AcDbEntity
8
1
62
256
6
ByLayer
370
18
48
1
60
0
100
AcDbSpline
70
4
71
2
72
6
73
3
40
0
40
0
40
0
40
1
40
1
40
1
41
1
10
97.1801734064056
20
2.91121869650848
30
0
41
1
10
97.1398221711083
20
2.82947116909839
30
0
41
1
10
97.1361515727945
20
2.7493417953719
30
0
0
SPLINE
5
17A
100
AcDbEntity
8
1
62
256
6
ByLayer
370
18
48
1
60
0
100
AcDbSpline
70
4
71
1
72
4
73
2
40
0
40
0
40
1
40
1
41
1
10
97.1608629789088
20
4.00360740940458
30
0
41
1
10
97.1668992707433
20
4.04315375069286
30
0
0
LINE
5
70
100
AcDbEntity
8
1
62
256
6
ByLayer
370
18
48
1
60
1
100
AcDbLine
10
-50.75
20
5
30
0
11
-51.25
21
4.5
31
0
39
0
210
0
220
0
230
1
0
LINE
5
72
100
AcDbEntity
8
1
62
256
6
ByLayer
370
18
48
1
60
1
100
AcDbLine
10
-51.25
20
-4.5
30
0
11
-50.75
21
-5
31
0
39
0
210
0
220
0
230
1
0
LINE
5
73
100
AcDbEntity
8
1
62
256
6
ByLayer
370
18
48
1
60
1
100
AcDbLine
10
45.75
20
5
30
0
11
-50.75
21
5
31
0
39
0
210
0
220
0
230
1
0
LINE
5
74
100
AcDbEntity
8
1
62
256
6
ByLayer
370
18
48
1
60
1
100
AcDbLine
10
-50.75
20
-5
30
0
11
45.75
21
-5
31
0
39
0
210
0
220
0
230
1
0
LINE
5
75
100
AcDbEntity
8
1
62
256
6
ByLayer
370
18
48
1
60
1
100
AcDbLine
10
-45.25
20
-0.204228
30
4.995827
11
40
21
-0.204228
31
4.995827
39
0
210
0
220
0
230
1
0
LINE
5
76
100
AcDbEntity
8
1
62
256
6
ByLayer
370
18
48
1
60
1
100
AcDbLine
10
40
20
0.204228
30
4.995827
11
-45.25
21
0.204228
31
4.995827
39
0
210
0
220
0
230
1
0
LINE
5
77
100
AcDbEntity
8
1
62
256
6
ByLayer
370
18
48
1
60
1
100
AcDbLine
10
91.059575
20
5.176525
30
0.279218
11
91.067591
21
-4.997009
31
1.526607
39
0
210
0
220
0
230
1
0
LINE
5
78
100
AcDbEntity
8
1
62
256
6
ByLayer
370
18
48
1
60
1
100
AcDbLine
10
90.938032
20
5.225
30
0
11
45.75
21
5.225
31
0
39
0
210
0
220
0
230
1
0
LINE
5
79
100
AcDbEntity
8
1
62
256
6
ByLayer
370
18
48
1
60
1
100
AcDbLine
10
45.75
20
-5.225
30
0
11
94.524848
21
-5.225
31
0
39
0
210
0
220
0
230
1
0
LINE
5
7A
100
AcDbEntity
8
1
62
256
6
ByLayer
370
18
48
1
60
1
100
AcDbLine
10
92.646323
20
0.241822
30
0.874096
11
93.228976
21
0.603066
31
0.826058
39
0
210
0
220
0
230
1
0
LINE
5
7B
100
AcDbEntity
8
1
62
256
6
ByLayer
370
18
48
1
60
1
100
AcDbLine
10
99.22417
20
-2.511845
30
1.169471
11
99.414788
21
1.125358
31
0.722266
39
0
210
0
220
0
230
1
0
LINE
5
7C
100
AcDbEntity
8
1
62
256
6
ByLayer
370
18
48
1
60
1
100
AcDbLine
10
99.22417
20
-2.511845
30
1.169471
11
94.907259
21
-5.004215
31
1.502817
39
0
210
0
220
0
230
1
0
LINE
5
7D
100
AcDbEntity
8
1
62
256
6
ByLayer
370
18
48
1
60
1
100
AcDbLine
10
94.481824
20
-1.663339
30
0.09972
11
94.474418
21
-1.804665
31
-1.052865
39
0
210
0
220
0
230
1
0
LINE
5
7E
100
AcDbEntity
8
1
62
256
6
ByLayer
370
18
48
1
60
1
100
AcDbLine
10
92.437432
20
-1.893029
30
-0.391033
11
92.447106
21
-1.708426
31
1.114508
39
0
210
0
220
0
230
1
0
LINE
5
7F
100
AcDbEntity
8
1
62
256
6
ByLayer
370
18
48
1
60
1
100
AcDbLine
10
92.63261
20
-0.019838
30
-1.259878
11
92.646323
21
0.241822
31
0.874096
39
0
210
0
220
0
230
1
0
LINE
5
80
100
AcDbEntity
8
1
62
256
6
ByLayer
370
18
48
1
60
1
100
AcDbLine
10
93.215263
20
0.341406
30
-1.307917
11
92.63261
21
-0.019838
31
-1.259878
39
0
210
0
220
0
230
1
0
LINE
5
81
100
AcDbEntity
8
1
62
256
6
ByLayer
370
18
48
1
60
1
100
AcDbLine
10
95.937543
20
2.578435
30
0.145117
11
95.941004
21
2.644472
31
0.68368
39
0
210
0
220
0
230
1
0
LINE
5
82
100
AcDbEntity
8
1
62
256
6
ByLayer
370
18
48
1
60
1
100
AcDbLine
10
97.143374
20
2.533868
30
-0.136483
11
97.148601
21
2.633604
31
0.676919
39
0
210
0
220
0
230
1
0
LINE
5
83
100
AcDbEntity
8
1
62
256
6
ByLayer
370
18
48
1
60
1
100
AcDbLine
10
98.268262
20
3.132498
30
-0.229409
11
98.272893
21
3.220863
31
0.491253
39
0
210
0
220
0
230
1
0
LINE
5
84
100
AcDbEntity
8
1
62
256
6
ByLayer
370
18
48
1
60
1
100
AcDbLine
10
94.827622
20
3.401422
30
0.491253
11
94.822991
21
3.313057
31
-0.229409
39
0
210
0
220
0
230
1
0
LINE
5
85
100
AcDbEntity
8
1
62
256
6
ByLayer
370
18
48
1
60
1
100
AcDbLine
10
95.948587
20
2.616632
30
-0.252
11
95.954281
21
2.725277
31
0.634059
39
0
210
0
220
0
230
1
0
LINE
5
86
100
AcDbEntity
8
1
62
256
6
ByLayer
370
18
48
1
60
1
100
AcDbLine
10
95.647154
20
3.394983
30
-0.345502
11
95.653096
21
3.508375
31
0.579268
39
0
210
0
220
0
230
1
0
LINE
5
87
100
AcDbEntity
8
1
62
256
6
ByLayer
370
18
48
1
60
1
100
AcDbLine
10
97.446109
20
3.380061
30
-0.355232
11
97.452054
21
3.493493
31
0.569866
39
0
210
0
220
0
230
1
0
LINE
5
88
100
AcDbEntity
8
1
62
256
6
ByLayer
370
18
48
1
60
1
100
AcDbLine
10
97.136204
20
2.750359
30
0.607446
11
97.130611
21
2.643639
31
-0.262908
39
0
210
0
220
0
230
1
0
LINE
5
89
100
AcDbEntity
8
1
62
256
6
ByLayer
370
18
48
1
60
1
100
AcDbLine
10
97.147084
20
3.913228
30
0.480731
11
97.141391
21
3.804583
31
-0.405327
39
0
210
0
220
0
230
1
0
LINE
5
8A
100
AcDbEntity
8
1
62
256
6
ByLayer
370
18
48
1
60
1
100
AcDbLine
10
96.257369
20
4.075395
30
-0.432853
11
96.263314
21
4.188827
31
0.492246
39
0
210
0
220
0
230
1
0
LINE
5
8B
100
AcDbEntity
8
1
62
256
6
ByLayer
370
18
48
1
60
1
100
AcDbLine
10
95.891824
20
3.664817
30
0.460406
11
95.886503
21
3.563281
31
-0.367676
39
0
210
0
220
0
230
1
0
LINE
5
8C
100
AcDbEntity
8
1
62
256
6
ByLayer
370
18
48
1
60
1
100
AcDbLine
10
96.847834
20
4.069799
30
-0.435961
11
96.853779
21
4.183231
31
0.489137
39
0
210
0
220
0
230
1
0
LINE
5
8D
100
AcDbEntity
8
1
62
256
6
ByLayer
370
18
48
1
60
1
100
AcDbLine
10
95.959366
20
3.777576
30
-0.39442
11
95.964959
21
3.884295
31
0.475934
39
0
210
0
220
0
230
1
0
LINE
5
8E
100
AcDbEntity
8
1
62
256
6
ByLayer
370
18
48
1
60
1
100
AcDbLine
10
95.915125
20
3.611533
30
-0.373776
11
95.920447
21
3.713069
31
0.454305
39
0
210
0
220
0
230
1
0
LINE
5
8F
100
AcDbEntity
8
1
62
256
6
ByLayer
370
18
48
1
60
1
100
AcDbLine
10
93.456082
20
4.936508
30
0.524975
11
93.103737
21
-1.786635
31
1.351606
39
0
210
0
220
0
230
1
0
LINE
5
90
100
AcDbEntity
8
1
62
256
6
ByLayer
370
18
48
1
60
1
100
AcDbLine
10
99.392707
20
8.815332
30
0.011219
11
93.641975
21
5.249887
31
0.485355
39
0
210
0
220
0
230
1
0
LINE
5
91
100
AcDbEntity
8
1
62
256
6
ByLayer
370
18
48
1
60
1
100
AcDbLine
10
99.647131
20
1.737268
30
0.87747
11
99.999476
21
8.460412
31
0.050839
39
0
210
0
220
0
230
1
0
LINE
5
92
100
AcDbEntity
8
1
62
256
6
ByLayer
370
18
48
1
60
1
100
AcDbLine
10
93.710507
20
-2.141555
30
1.391226
11
99.461239
21
1.42389
31
0.91709
39
0
210
0
220
0
230
1
0
LINE
5
93
100
AcDbEntity
8
SK1
62
256
6
ByLayer
370
18
48
1
60
0
100
AcDbLine
10
-50.75
20
-5
30
0
11
0
21
-5
31
0
39
0
210
0
220
0
230
1
0
LINE
5
95
100
AcDbEntity
8
SK1
62
256
6
ByLayer
370
18
48
1
60
0
100
AcDbLine
10
-51.25
20
-4.5
30
0
11
-50.75
21
-5
31
0
39
0
210
0
220
0
230
1
0
LINE
5
96
100
AcDbEntity
8
SK1
62
256
6
ByLayer
370
18
48
1
60
0
100
AcDbLine
10
-50.75
20
5
30
0
11
-50.75
21
-5
31
0
39
0
210
0
220
0
230
1
0
LINE
5
97
100
AcDbEntity
8
1
62
256
6
ByLayer
370
18
48
1
60
0
100
AcDbLine
10
92.437432
20
-1.893029
30
0
11
92.447106
21
-1.708426
31
0
39
0
210
0
220
0
230
1
0
LINE
5
98
100
AcDbEntity
8
1
62
256
6
ByLayer
370
18
48
1
60
0
100
AcDbLine
10
92.63261
20
-0.019838
30
0
11
92.646323
21
0.241822
31
0
39
0
210
0
220
0
230
1
0
LINE
5
99
100
AcDbEntity
8
1
62
256
6
ByLayer
370
18
48
1
60
0
100
AcDbLine
10
93.215263
20
0.341406
30
0
11
92.63261
21
-0.019838
31
0
39
0
210
0
220
0
230
1
0
LINE
5
9A
100
AcDbEntity
8
1
62
256
6
ByLayer
370
18
48
1
60
0
100
AcDbLine
10
94.827622
20
3.401422
30
0
11
94.822991
21
3.313057
31
0
39
0
210
0
220
0
230
1
0
LINE
5
9B
100
AcDbEntity
8
1
62
256
6
ByLayer
370
18
48
1
60
0
100
AcDbLine
10
94.524848
20
-5.225
30
0
11
94.907259
21
-5.004215
31
0
39
0
210
0
220
0
230
1
0
LINE
5
9C
100
AcDbEntity
8
1
62
256
6
ByLayer
370
18
48
1
60
0
100
AcDbLine
10
99.22417
20
-2.511845
30
0
11
94.907259
21
-5.004215
31
0
39
0
210
0
220
0
230
1
0
LINE
5
9D
100
AcDbEntity
8
1
62
256
6
ByLayer
370
18
48
1
60
0
100
AcDbLine
10
95.647154
20
3.394983
30
0
11
95.653096
21
3.508375
31
0
39
0
210
0
220
0
230
1
0
LINE
5
9E
100
AcDbEntity
8
1
62
256
6
ByLayer
370
18
48
1
60
0
100
AcDbLine
10
95.891824
20
3.664817
30
0
11
95.886503
21
3.563281
31
0
39
0
210
0
220
0
230
1
0
LINE
5
9F
100
AcDbEntity
8
1
62
256
6
ByLayer
370
18
48
1
60
0
100
AcDbLine
10
95.915125
20
3.611533
30
0
11
95.920447
21
3.713069
31
0
39
0
210
0
220
0
230
1
0
LINE
5
A0
100
AcDbEntity
8
1
62
256
6
ByLayer
370
18
48
1
60
0
100
AcDbLine
10
95.937543
20
2.578435
30
0
11
95.941004
21
2.644472
31
0
39
0
210
0
220
0
230
1
0
LINE
5
A1
100
AcDbEntity
8
1
62
256
6
ByLayer
370
18
48
1
60
0
100
AcDbLine
10
95.959366
20
3.777576
30
0
11
95.964959
21
3.884295
31
0
39
0
210
0
220
0
230
1
0
LINE
5
A2
100
AcDbEntity
8
1
62
256
6
ByLayer
370
18
48
1
60
0
100
AcDbLine
10
96.257369
20
4.075395
30
0
11
96.263314
21
4.188827
31
0
39
0
210
0
220
0
230
1
0
LINE
5
A3
100
AcDbEntity
8
1
62
256
6
ByLayer
370
18
48
1
60
0
100
AcDbLine
10
96.847834
20
4.069799
30
0
11
96.853779
21
4.183231
31
0
39
0
210
0
220
0
230
1
0
LINE
5
A4
100
AcDbEntity
8
1
62
256
6
ByLayer
370
18
48
1
60
0
100
AcDbLine
10
97.143374
20
2.533868
30
0
11
97.148601
21
2.633604
31
0
39
0
210
0
220
0
230
1
0
LINE
5
A5
100
AcDbEntity
8
1
62
256
6
ByLayer
370
18
48
1
60
0
100
AcDbLine
10
97.147084
20
3.913228
30
0
11
97.141391
21
3.804583
31
0
39
0
210
0
220
0
230
1
0
LINE
5
A6
100
AcDbEntity
8
1
62
256
6
ByLayer
370
18
48
1
60
0
100
AcDbLine
10
45.75
20
5
30
0
11
0
21
5
31
0
39
0
210
0
220
0
230
1
0
LINE
5
A7
100
AcDbEntity
8
SK1
62
256
6
ByLayer
370
18
48
1
60
0
100
AcDbLine
10
-50.75
20
5
30
0
11
-51.25
21
4.5
31
0
39
0
210
0
220
0
230
1
0
LINE
5
A8
100
AcDbEntity
8
SK1
62
256
6
ByLayer
370
18
48
1
60
0
100
AcDbLine
10
-51.25
20
4.5
30
0
11
-51.25
21
-4.5
31
0
39
0
210
0
220
0
230
1
0
LINE
5
A9
100
AcDbEntity
8
SK1
62
256
6
ByLayer
370
18
48
1
60
0
100
AcDbLine
10
-45.25
20
0.204228
30
0
11
-45.25
21
-0.204228
31
0
39
0
210
0
220
0
230
1
0
LINE
5
AA
100
AcDbEntity
8
SK1
62
256
6
ByLayer
370
18
48
1
60
0
100
AcDbLine
10
-45.25
20
-0.204228
30
0
11
0
21
-0.204228
31
0
39
0
210
0
220
0
230
1
0
LINE
5
AB
100
AcDbEntity
8
1
62
256
6
ByLayer
370
18
48
1
60
0
100
AcDbLine
10
40
20
-0.204228
30
0
11
40
21
0.204228
31
0
39
0
210
0
220
0
230
1
0
LINE
5
AC
100
AcDbEntity
8
1
62
256
6
ByLayer
370
18
48
1
60
0
100
AcDbLine
10
40
20
0.204228
30
0
11
0
21
0.204228
31
0
39
0
210
0
220
0
230
1
0
LINE
5
AD
100
AcDbEntity
8
1
62
256
6
ByLayer
370
18
48
1
60
0
100
AcDbLine
10
90.938032
20
5.225
30
0
11
45.75
21
5.225
31
0
39
0
210
0
220
0
230
1
0
LINE
5
AE
100
AcDbEntity
8
1
62
256
6
ByLayer
370
18
48
1
60
0
100
AcDbLine
10
45.75
20
5.225
30
0
11
45.75
21
0
31
0
39
0
210
0
220
0
230
1
0
LINE
5
AF
100
AcDbEntity
8
1
62
256
6
ByLayer
370
18
48
1
60
0
100
AcDbLine
10
45.75
20
0
30
0
11
45.75
21
-5.225
31
0
39
0
210
0
220
0
230
1
0
LINE
5
B0
100
AcDbEntity
8
1
62
256
6
ByLayer
370
18
48
1
60
0
100
AcDbLine
10
45.75
20
-5.225
30
0
11
94.524848
21
-5.225
31
0
39
0
210
0
220
0
230
1
0
LINE
5
B1
100
AcDbEntity
8
1
62
256
6
ByLayer
370
18
48
1
60
0
100
AcDbLine
10
91.059575
20
5.176525
30
0
11
91.067591
21
-4.997009
31
0
39
0
210
0
220
0
230
1
0
LINE
5
B2
100
AcDbEntity
8
1
62
256
6
ByLayer
370
18
48
1
60
0
100
AcDbLine
10
92.646323
20
0.241822
30
0
11
93.228976
21
0.603066
31
0
39
0
210
0
220
0
230
1
0
LINE
5
B3
100
AcDbEntity
8
1
62
256
6
ByLayer
370
18
48
1
60
0
100
AcDbLine
10
93.456082
20
4.936508
30
0
11
93.103737
21
-1.786635
31
0
39
0
210
0
220
0
230
1
0
LINE
5
B4
100
AcDbEntity
8
1
62
256
6
ByLayer
370
18
48
1
60
0
100
AcDbLine
10
93.710507
20
-2.141555
30
0
11
99.461239
21
1.42389
31
0
39
0
210
0
220
0
230
1
0
LINE
5
B5
100
AcDbEntity
8
1
62
256
6
ByLayer
370
18
48
1
60
0
100
AcDbLine
10
99.647131
20
1.737268
30
0
11
99.999476
21
8.460412
31
0
39
0
210
0
220
0
230
1
0
LINE
5
B6
100
AcDbEntity
8
1
62
256
6
ByLayer
370
18
48
1
60
0
100
AcDbLine
10
99.392707
20
8.815332
30
0
11
93.641975
21
5.249887
31
0
39
0
210
0
220
0
230
1
0
LINE
5
B7
100
AcDbEntity
8
1
62
256
6
ByLayer
370
18
48
1
60
0
100
AcDbLine
10
94.481824
20
-1.663339
30
0
11
94.474418
21
-1.804665
31
0
39
0
210
0
220
0
230
1
0
LINE
5
B8
100
AcDbEntity
8
1
62
256
6
ByLayer
370
18
48
1
60
0
100
AcDbLine
10
98.272893
20
3.220863
30
0
11
98.268262
21
3.132498
31
0
39
0
210
0
220
0
230
1
0
LINE
5
B9
100
AcDbEntity
8
1
62
256
6
ByLayer
370
18
48
1
60
0
100
AcDbLine
10
95.948587
20
2.616632
30
0
11
95.954281
21
2.725277
31
0
39
0
210
0
220
0
230
1
0
LINE
5
BA
100
AcDbEntity
8
1
62
256
6
ByLayer
370
18
48
1
60
0
100
AcDbLine
10
97.446109
20
3.380061
30
0
11
97.452054
21
3.493493
31
0
39
0
210
0
220
0
230
1
0
LINE
5
BB
100
AcDbEntity
8
1
62
256
6
ByLayer
370
18
48
1
60
0
100
AcDbLine
10
97.136204
20
2.750359
30
0
11
97.130611
21
2.643639
31
0
39
0
210
0
220
0
230
1
0
LINE
5
BC
100
AcDbEntity
8
1
62
256
6
ByLayer
370
18
48
1
60
0
100
AcDbLine
10
99.22417
20
-2.511845
30
0
11
99.414788
21
1.125358
31
0
39
0
210
0
220
0
230
1
0
LINE
5
BD
100
AcDbEntity
8
1
62
256
6
ByLayer
370
18
48
1
60
0
100
AcDbLine
10
0
20
-2
30
0
11
0
21
2
31
0
39
0
210
0
220
0
230
1
0
LINE
5
BE
100
AcDbEntity
8
1
62
256
6
ByLayer
370
18
48
1
60
0
100
AcDbLine
10
40
20
0
30
0
11
40
21
-2
31
0
39
0
210
0
220
0
230
1
0
LINE
5
BF
100
AcDbEntity
8
1
62
256
6
ByLayer
370
18
48
1
60
0
100
AcDbLine
10
40
20
0
30
0
11
40
21
2
31
0
39
0
210
0
220
0
230
1
0
LINE
5
C0
100
AcDbEntity
8
SK1
62
256
6
ByLayer
370
18
48
1
60
0
100
AcDbLine
10
0
20
5
30
0
11
-50.75
21
5
31
0
39
0
210
0
220
0
230
1
0
LINE
5
C1
100
AcDbEntity
8
SK1
62
256
6
ByLayer
370
18
48
1
60
0
100
AcDbLine
10
0
20
0.204228
30
0
11
-45.25
21
0.204228
31
0
39
0
210
0
220
0
230
1
0
LINE
5
C2
100
AcDbEntity
8
1
62
256
6
ByLayer
370
18
48
1
60
0
100
AcDbLine
10
0
20
-0.204228
30
0
11
40
21
-0.204228
31
0
39
0
210
0
220
0
230
1
0
LINE
5
C3
100
AcDbEntity
8
1
62
256
6
ByLayer
370
18
48
1
60
0
100
AcDbLine
10
0
20
-5
30
0
11
45.75
21
-5
31
0
39
0
210
0
220
0
230
1
0
LINE
5
C4
100
AcDbEntity
8
4
62
256
6
ByLayer
370
18
48
0.05
60
0
100
AcDbLine
10
0
20
0
30
0
11
100
21
0
31
0
39
0
210
0
220
0
230
1
0
LINE
5
C6
100
AcDbEntity
8
SK4
62
256
6
ByLayer
370
18
48
0.05
60
0
100
AcDbLine
10
-5
20
0
30
0
11
105
21
0
31
0
39
0
210
0
220
0
230
1
0
LINE
5
C8
100
AcDbEntity
8
80
62
256
6
ByLayer
370
18
48
1
60
0
100
AcDbLine
10
0
20
0
30
0
11
-10
21
0
31
0
39
0
210
0
220
0
230
1
0
LINE
5
C9
100
AcDbEntity
8
81
62
256
6
ByLayer
370
18
48
1
60
0
100
AcDbLine
10
100
20
9
30
0
11
110
21
9
31
0
39
0
210
0
220
0
230
1
0
MTEXT
5
17B
100
AcDbEntity
8
SK6
62
256
6
ByLayer
370
13
48
1
60
0
100
AcDbMText
10
26.65337
20
53.812679
30
0
210
0
220
0
230
1
1
\W0.7351;F10M-SDUCR 07-ER
40
3.5
41
0
44
1.084337
50
0
71
7
72
5
7
iso_b_vert
0
DIMENSION
5
189
100
AcDbEntity
8
2
62
256
6
ByLayer
370
13
48
1
60
0
100
AcDbDimension
2
DimnDraft3D1
10
100
20
32.539279
30
0
11
47.376447
21
32.539279
31
0
70
32
71
5
72
1
41
1
210
0
220
0
230
1
3
Standard
100
AcDbAlignedDimension
13
0
23
1.5875
33
0
14
100
24
10.5875
34
0
50
0
100
AcDbRotatedDimension
1001
ACAD
1000
DSTYLE
1002
{
1070
   279
1070
     0
1070
   173
1070
     1
1070
   340
1005
17C
1070
   271
1070
     1
1070
   272
1070
     2
1070
    77
1070
     1
1070
    73
1070
     0
1070
   171
1070
     3
1070
   274
1070
     4
1070
   177
1070
     7
1070
   176
1070
     7
1070
   178
1070
     7
1070
    78
1070
     8
1070
    48
1040
-0.005
1070
    41
1041
3.175
1070
   147
1041
1.5875
1070
    42
1041
1.5875
1070
    44
1041
3.175
1070
   140
1041
3.175
1070
   343
1005
0
1070
   344
1005
0
1002
}
0
DIMENSION
5
194
100
AcDbEntity
8
SK2
62
256
6
ByLayer
370
13
48
1
60
0
100
AcDbDimension
2
DimnDraft3D2
10
-51.25
20
-45.513752
30
0
11
19.278289
21
-45.513752
31
0
70
32
71
5
72
1
41
1
210
0
220
0
230
1
3
Standard
100
AcDbAlignedDimension
13
100
23
7.4125
33
0
14
-51.25
24
-6.0875
34
0
50
0
100
AcDbRotatedDimension
1001
ACAD
1000
DSTYLE
1002
{
1070
   279
1070
     0
1070
   173
1070
     1
1070
   340
1005
17C
1070
   271
1070
     2
1070
   272
1070
     2
1070
    77
1070
     1
1070
    73
1070
     0
1070
   171
1070
     3
1070
   274
1070
     4
1070
   177
1070
     7
1070
   176
1070
     7
1070
   178
1070
     7
1070
    78
1070
     8
1070
    48
1040
-0.005
1070
    41
1041
3.175
1070
   147
1041
1.5875
1070
    42
1041
1.5875
1070
    44
1041
3.175
1070
   140
1041
3.175
1070
   343
1005
0
1070
   344
1005
0
1002
}
0
DIMENSION
5
19E
100
AcDbEntity
8
SK2
62
256
6
ByLayer
370
13
48
1
60
0
100
AcDbDimension
2
DimnDraft3D3
10
100
20
17.127994
30
0
11
68.145132
21
17.127994
31
0
70
32
71
5
72
1
41
1
210
0
220
0
230
1
3
Standard
100
AcDbAlignedDimension
13
40
23
1.791728
33
0
14
100
24
10.5875
34
0
50
0
100
AcDbRotatedDimension
1001
ACAD
1000
DSTYLE
1002
{
1070
   279
1070
     0
1070
   173
1070
     1
1070
   340
1005
17C
1070
   271
1070
     2
1070
   272
1070
     2
1070
    77
1070
     1
1070
    73
1070
     0
1070
   171
1070
     3
1070
   274
1070
     4
1070
   177
1070
     7
1070
   176
1070
     7
1070
   178
1070
     7
1070
    78
1070
     8
1070
    48
1040
-0.005
1070
    41
1041
3.175
1070
   147
1041
1.5875
1070
    42
1041
1.5875
1070
    44
1041
3.175
1070
   140
1041
3.175
1070
   343
1005
0
1070
   344
1005
0
1002
}
0
DIMENSION
5
1A8
100
AcDbEntity
8
SK2
62
256
6
ByLayer
370
13
48
1
60
0
100
AcDbDimension
2
DimnDraft3D4
10
20.702423
20
-21.719653
30
0
11
19.908673
21
-15.369653
31
0
70
33
71
5
72
1
41
1
210
0
220
0
230
1
3
Standard
100
AcDbAlignedDimension
13
45.75
23
5
33
0
14
45.75
24
-5
34
0
1001
ACAD
1000
DSTYLE
1002
{
1070
   279
1070
     0
1070
    74
1070
     0
1070
   173
1070
     1
1070
   340
1005
1A1
1070
   271
1070
     1
1070
   272
1070
     2
1070
    77
1070
     1
1070
    73
1070
     0
1070
   171
1070
     3
1070
   274
1070
     4
1070
   177
1070
     7
1070
   176
1070
     7
1070
   178
1070
     7
1070
    78
1070
     8
1070
    48
1040
-0.005
1070
    41
1041
3.175
1070
   147
1041
1.5875
1070
    42
1041
1.5875
1070
    44
1041
3.175
1070
   140
1041
3.175
1070
   343
1005
0
1070
   344
1005
0
1002
}
0
DIMENSION
5
1B1
100
AcDbEntity
8
SK2
62
256
6
ByLayer
370
13
48
1
60
0
100
AcDbDimension
2
DimnDraft3D5
10
69.321484
20
-30.757265
30
0
11
68.527734
21
-24.407265
31
0
70
33
71
5
72
1
41
1
210
0
220
0
230
1
3
Standard
100
AcDbAlignedDimension
13
90.938032
23
5.225
33
0
14
94.524848
24
-5.225
34
0
1001
ACAD
1000
DSTYLE
1002
{
1070
   279
1070
     0
1070
    74
1070
     0
1070
   173
1070
     1
1070
   340
1005
17C
1070
   271
1070
     2
1070
   272
1070
     2
1070
    77
1070
     1
1070
    73
1070
     0
1070
   171
1070
     3
1070
   274
1070
     4
1070
   177
1070
     7
1070
   176
1070
     7
1070
   178
1070
     7
1070
    78
1070
     8
1070
    48
1040
-0.005
1070
    41
1041
3.175
1070
   147
1041
1.5875
1070
    42
1041
1.5875
1070
    44
1041
3.175
1070
   140
1041
3.175
1070
   343
1005
0
1070
   344
1005
0
1002
}
0
DIMENSION
5
1BB
100
AcDbEntity
8
SK2
62
256
6
ByLayer
370
13
48
1
60
0
100
AcDbDimension
2
DimnDraft3D6
10
108.404541
20
0
30
0
11
108.404541
21
15.798068
31
0
70
32
71
5
72
1
41
1
210
0
220
0
230
1
3
Standard
100
AcDbAlignedDimension
13
101.5875
23
9
33
0
14
106.5875
24
0
34
0
50
90
100
AcDbRotatedDimension
1001
ACAD
1000
DSTYLE
1002
{
1070
    74
1070
     0
1070
   279
1070
     0
1070
   173
1070
     1
1070
   340
1005
17C
1070
   271
1070
     1
1070
   272
1070
     2
1070
    77
1070
     1
1070
    73
1070
     0
1070
   171
1070
     3
1070
   274
1070
     4
1070
   177
1070
     7
1070
   176
1070
     7
1070
   178
1070
     7
1070
    78
1070
     8
1070
    48
1040
-0.005
1070
    41
1041
3.175
1070
   147
1041
1.5875
1070
    42
1041
1.5875
1070
    44
1041
3.175
1070
   140
1041
3.175
1070
   343
1005
0
1070
   344
1005
0
1002
}
0
DIMENSION
5
1C6
100
AcDbEntity
8
SK2
62
256
6
ByLayer
370
13
48
1
60
0
100
AcDbDimension
2
DimnDraft3D7
10
105
20
0
30
0
11
110.384499
21
-11.621813
31
0
70
34
71
5
72
1
41
1
210
0
220
0
230
1
3
Standard
100
AcDb2LineAngularDimension
13
99.22417
23
-2.511845
33
0
14
99.414788
24
1.125358
34
0
15
-5
25
0
35
0
16
110.384499
26
-11.621813
36
0
40
0
0
ENDSEC
0
SECTION
2
OBJECTS
0
DICTIONARY
5
231
330
0
100
AcDbDictionary
280
0
281
1
3
ACAD_GROUP
350
232
3
ACAD_MLINESTYLE
350
233
0
DICTIONARY
5
232
330
0
100
AcDbDictionary
280
0
281
1
0
DICTIONARY
5
233
330
0
100
AcDbDictionary
280
0
281
1
3
Standard
350
18
0
MLINESTYLE
5
18
330
233
100
AcDbMlineStyle
2
Standard
70
0
3

62
256
51
90
52
90
71
2
49
-0.5
62
256
6
ByLayer
49
0.5
62
256
6
ByLayer
0
RASTERVARIABLES
5
21f
330

100
AcDbRasterVariables
90
0
70
1
71
1
72
1
0
ENDSEC
0
EOF
