  0
SECTION
  2
HEADER
  9
$ACADVER
  1
AC1015
  9
$ACADMAINTVER
 70
     6
  9
$DWGCODEPAGE
  3
ANSI_1252
  9
$INSBASE
 10
0.0
 20
0.0
 30
0.0
  9
$EXTMIN
 10
1.000000000000000E+20
 20
1.000000000000000E+20
 30
1.000000000000000E+20
  9
$EXTMAX
 10
-1.000000000000000E+20
 20
-1.000000000000000E+20
 30
-1.000000000000000E+20
  9
$LIMMIN
 10
-170.0
 20
-170.0
  9
$LIMMAX
 10
519.0
 20
260.0
  9
$ORTHOMODE
 70
     0
  9
$REGENMODE
 70
     1
  9
$FILLMODE
 70
     1
  9
$QTEXTMODE
 70
     0
  9
$MIRRTEXT
 70
     0
  9
$LTSCALE
 40
1.0
  9
$ATTMODE
 70
     1
  9
$TEXTSIZE
 40
3.5
  9
$TRACEWID
 40
1.0
  9
$TEXTSTYLE
  7
SIMPLEX
  9
$CLAYER
  8
1
  9
$CELTYPE
  6
BYLAYER
  9
$CECOLOR
 62
   256
  9
$CELTSCALE
 40
1.0
  9
$DISPSILH
 70
     0
  9
$DIMSCALE
 40
1.0
  9
$DIMASZ
 40
2.5
  9
$DIMEXO
 40
0.0
  9
$DIMDLI
 40
3.75
  9
$DIMRND
 40
0.0
  9
$DIMDLE
 40
0.0
  9
$DIMEXE
 40
1.25
  9
$DIMTP
 40
0.0
  9
$DIMTM
 40
0.0
  9
$DIMTXT
 40
3.5
  9
$DIMCEN
 40
0.0
  9
$DIMTSZ
 40
0.0
  9
$DIMTOL
 70
     0
  9
$DIMLIM
 70
     0
  9
$DIMTIH
 70
     0
  9
$DIMTOH
 70
     0
  9
$DIMSE1
 70
     0
  9
$DIMSE2
 70
     0
  9
$DIMTAD
 70
     1
  9
$DIMZIN
 70
     8
  9
$DIMBLK
  1

  9
$DIMASO
 70
     1
  9
$DIMSHO
 70
     1
  9
$DIMPOST
  1

  9
$DIMAPOST
  1

  9
$DIMALT
 70
     0
  9
$DIMALTD
 70
     3
  9
$DIMALTF
 40
0.039370078
  9
$DIMLFAC
 40
1.0
  9
$DIMTOFL
 70
     0
  9
$DIMTVP
 40
0.0
  9
$DIMTIX
 70
     0
  9
$DIMSOXD
 70
     0
  9
$DIMSAH
 70
     0
  9
$DIMBLK1
  1

  9
$DIMBLK2
  1

  9
$DIMSTYLE
  2
STANDARD
  9
$DIMCLRD
 70
     0
  9
$DIMCLRE
 70
     0
  9
$DIMCLRT
 70
     0
  9
$DIMTFAC
 40
1.0
  9
$DIMGAP
 40
0.625
  9
$DIMJUST
 70
     0
  9
$DIMSD1
 70
     0
  9
$DIMSD2
 70
     0
  9
$DIMTOLJ
 70
     0
  9
$DIMTZIN
 70
     8
  9
$DIMALTZ
 70
     0
  9
$DIMALTTZ
 70
     0
  9
$DIMUPT
 70
     0
  9
$DIMDEC
 70
     2
  9
$DIMTDEC
 70
     2
  9
$DIMALTU
 70
     2
  9
$DIMALTTD
 70
     3
  9
$DIMTXSTY
  7
SIMPLEX
  9
$DIMAUNIT
 70
     0
  9
$DIMADEC
 70
     2
  9
$DIMALTRND
 40
0.0
  9
$DIMAZIN
 70
     2
  9
$DIMDSEP
 70
    46
  9
$DIMATFIT
 70
     3
  9
$DIMFRAC
 70
     0
  9
$DIMLDRBLK
  1

  9
$DIMLUNIT
 70
     2
  9
$DIMLWD
 70
    -2
  9
$DIMLWE
 70
    -2
  9
$DIMTMOVE
 70
     0
  9
$LUNITS
 70
     2
  9
$LUPREC
 70
     4
  9
$SKETCHINC
 40
1.0
  9
$FILLETRAD
 40
0.0
  9
$AUNITS
 70
     0
  9
$AUPREC
 70
     0
  9
$MENU
  1
c:\tdm21\cad\caduti13\tdm13
  9
$ELEVATION
 40
0.0
  9
$PELEVATION
 40
0.0
  9
$THICKNESS
 40
0.0
  9
$LIMCHECK
 70
     0
  9
$CHAMFERA
 40
0.0
  9
$CHAMFERB
 40
0.0
  9
$CHAMFERC
 40
0.0
  9
$CHAMFERD
 40
0.0
  9
$SKPOLY
 70
     0
  9
$TDCREATE
 40
2454957.593642639
  9
$TDUCREATE
 40
2454957.510309306
  9
$TDUPDATE
 40
2456861.344676401
  9
$TDUUPDATE
 40
2456861.261343067
  9
$TDINDWG
 40
0.0009643519
  9
$TDUSRTIMER
 40
0.0009475231
  9
$USRTIMER
 70
     1
  9
$ANGBASE
 50
0.0
  9
$ANGDIR
 70
     0
  9
$PDMODE
 70
     1
  9
$PDSIZE
 40
0.0
  9
$PLINEWID
 40
0.0
  9
$SPLFRAME
 70
     0
  9
$SPLINETYPE
 70
     6
  9
$SPLINESEGS
 70
     8
  9
$HANDSEED
  5
64C
  9
$SURFTAB1
 70
     6
  9
$SURFTAB2
 70
     6
  9
$SURFTYPE
 70
     6
  9
$SURFU
 70
     6
  9
$SURFV
 70
     6
  9
$UCSBASE
  2

  9
$UCSNAME
  2

  9
$UCSORG
 10
0.0
 20
0.0
 30
0.0
  9
$UCSXDIR
 10
1.0
 20
0.0
 30
0.0
  9
$UCSYDIR
 10
0.0
 20
1.0
 30
0.0
  9
$UCSORTHOREF
  2

  9
$UCSORTHOVIEW
 70
     0
  9
$UCSORGTOP
 10
0.0
 20
0.0
 30
0.0
  9
$UCSORGBOTTOM
 10
0.0
 20
0.0
 30
0.0
  9
$UCSORGLEFT
 10
0.0
 20
0.0
 30
0.0
  9
$UCSORGRIGHT
 10
0.0
 20
0.0
 30
0.0
  9
$UCSORGFRONT
 10
0.0
 20
0.0
 30
0.0
  9
$UCSORGBACK
 10
0.0
 20
0.0
 30
0.0
  9
$PUCSBASE
  2

  9
$PUCSNAME
  2

  9
$PUCSORG
 10
0.0
 20
0.0
 30
0.0
  9
$PUCSXDIR
 10
1.0
 20
0.0
 30
0.0
  9
$PUCSYDIR
 10
0.0
 20
1.0
 30
0.0
  9
$PUCSORTHOREF
  2

  9
$PUCSORTHOVIEW
 70
     0
  9
$PUCSORGTOP
 10
0.0
 20
0.0
 30
0.0
  9
$PUCSORGBOTTOM
 10
0.0
 20
0.0
 30
0.0
  9
$PUCSORGLEFT
 10
0.0
 20
0.0
 30
0.0
  9
$PUCSORGRIGHT
 10
0.0
 20
0.0
 30
0.0
  9
$PUCSORGFRONT
 10
0.0
 20
0.0
 30
0.0
  9
$PUCSORGBACK
 10
0.0
 20
0.0
 30
0.0
  9
$USERI1
 70
     0
  9
$USERI2
 70
     0
  9
$USERI3
 70
     0
  9
$USERI4
 70
     0
  9
$USERI5
 70
     0
  9
$USERR1
 40
0.0
  9
$USERR2
 40
0.0
  9
$USERR3
 40
0.0
  9
$USERR4
 40
0.0
  9
$USERR5
 40
0.0
  9
$WORLDVIEW
 70
     1
  9
$SHADEDGE
 70
     3
  9
$SHADEDIF
 70
    70
  9
$TILEMODE
 70
     1
  9
$MAXACTVP
 70
    64
  9
$PINSBASE
 10
0.0
 20
0.0
 30
0.0
  9
$PLIMCHECK
 70
     0
  9
$PEXTMIN
 10
0.0
 20
0.0
 30
0.0
  9
$PEXTMAX
 10
0.0
 20
0.0
 30
0.0
  9
$PLIMMIN
 10
0.0
 20
0.0
  9
$PLIMMAX
 10
12.0
 20
9.0
  9
$UNITMODE
 70
     0
  9
$VISRETAIN
 70
     0
  9
$PLINEGEN
 70
     0
  9
$PSLTSCALE
 70
     1
  9
$TREEDEPTH
 70
  3020
  9
$CMLSTYLE
  2
STANDARD
  9
$CMLJUST
 70
     0
  9
$CMLSCALE
 40
20.0
  9
$PROXYGRAPHICS
 70
     1
  9
$MEASUREMENT
 70
     1
  9
$CELWEIGHT
370
    -1
  9
$ENDCAPS
280
     0
  9
$JOINSTYLE
280
     0
  9
$LWDISPLAY
290
     0
  9
$INSUNITS
 70
     4
  9
$HYPERLINKBASE
  1

  9
$STYLESHEET
  1
MONOCHROME.CTB
  9
$XEDIT
290
     1
  9
$CEPSNTYPE
380
     0
  9
$PSTYLEMODE
290
     1
  9
$FINGERPRINTGUID
  2
{46B44192-1510-48B1-B61B-CBE2ADA013A7}
  9
$VERSIONGUID
  2
{6160D478-9A74-4C97-9D8A-D4A65CE74B12}
  9
$EXTNAMES
290
     1
  9
$PSVPSCALE
 40
0.0
  9
$OLESTARTUP
290
     0
  0
ENDSEC
  0
SECTION
  2
CLASSES
  0
CLASS
  1
ACDBDICTIONARYWDFLT
  2
AcDbDictionaryWithDefault
  3
ObjectDBX Classes
 90
        0
280
     0
281
     0
  0
CLASS
  1
ACDBPLACEHOLDER
  2
AcDbPlaceHolder
  3
ObjectDBX Classes
 90
        0
280
     0
281
     0
  0
CLASS
  1
LAYOUT
  2
AcDbLayout
  3
ObjectDBX Classes
 90
        0
280
     0
281
     0
  0
CLASS
  1
DICTIONARYVAR
  2
AcDbDictionaryVar
  3
ObjectDBX Classes
 90
        0
280
     0
281
     0
  0
CLASS
  1
TABLESTYLE
  2
AcDbTableStyle
  3
ObjectDBX Classes
 90
     4095
280
     0
281
     0
  0
CLASS
  1
SCALE
  2
AcDbScale
  3
ObjectDBX Classes
 90
     1153
280
     0
281
     0
  0
CLASS
  1
MATERIAL
  2
AcDbMaterial
  3
ObjectDBX Classes
 90
     1153
280
     0
281
     0
  0
CLASS
  1
VISUALSTYLE
  2
AcDbVisualStyle
  3
ObjectDBX Classes
 90
     4095
280
     0
281
     0
  0
ENDSEC
  0
SECTION
  2
TABLES
  0
TABLE
  2
VPORT
  5
8
330
0
100
AcDbSymbolTable
 70
     1
  0
VPORT
  5
39A
330
8
100
AcDbSymbolTableRecord
100
AcDbViewportTableRecord
  2
*Active
 70
     0
 10
0.0
 20
0.0
 11
1.0
 21
1.0
 12
218.9201881351169
 22
109.7549380673833
 13
0.0
 23
0.0
 14
5.0
 24
5.0
 15
5.0
 25
5.0
 16
0.0
 26
0.0
 36
1.0
 17
0.0
 27
0.0
 37
0.0
 40
564.6711112651689
 41
1.066073697585768
 42
50.0
 43
0.0
 44
0.0
 50
0.0
 51
0.0
 71
     0
 72
  2000
 73
     1
 74
     1
 75
     0
 76
     0
 77
     0
 78
     0
281
     0
 65
     1
110
0.0
120
0.0
130
0.0
111
1.0
121
0.0
131
0.0
112
0.0
122
1.0
132
0.0
 79
     0
146
0.0
  0
ENDTAB
  0
TABLE
  2
LTYPE
  5
5
330
0
100
AcDbSymbolTable
 70
     3
  0
LTYPE
  5
12
330
5
100
AcDbSymbolTableRecord
100
AcDbLinetypeTableRecord
  2
BYBLOCK
 70
     0
  3

 72
    65
 73
     0
 40
0.0
  0
LTYPE
  5
13
330
5
100
AcDbSymbolTableRecord
100
AcDbLinetypeTableRecord
  2
BYLAYER
 70
     0
  3

 72
    65
 73
     0
 40
0.0
  0
LTYPE
  5
14
330
5
100
AcDbSymbolTableRecord
100
AcDbLinetypeTableRecord
  2
CONTINUOUS
 70
     0
  3
Solid line
 72
    65
 73
     0
 40
0.0
  0
LTYPE
  5
20
330
5
100
AcDbSymbolTableRecord
100
AcDbLinetypeTableRecord
  2
HIDDEN
 70
     0
  3
Hidden __ __ __ __ __ __ __ __ __ __ __ __ __ _
 72
    65
 73
     2
 40
9.524999999999997
 49
6.349999999999998
 74
     0
 49
-3.174999999999998
 74
     0
  0
LTYPE
  5
351
330
5
100
AcDbSymbolTableRecord
100
AcDbLinetypeTableRecord
  2
CENTER
 70
     0
  3
Dash dot __ . __ . __ . __ . __ . __ . __ . __
 72
    65
 73
     4
 40
25.4
 49
12.7
 74
     0
 49
-6.349999999999998
 74
     0
 49
0.0
 74
     0
 49
-6.349999999999998
 74
     0
  0
ENDTAB
  0
TABLE
  2
LAYER
  5
2
330
0
100
AcDbSymbolTable
 70
    16
  0
LAYER
  5
F
330
2
100
AcDbSymbolTableRecord
100
AcDbLayerTableRecord
  2
0
 70
     0
 62
     7
  6
CONTINUOUS
370
    -3
390
300
  0
LAYER
  5
23
330
2
100
AcDbSymbolTableRecord
100
AcDbLayerTableRecord
  2
1
 70
     0
 62
     4
  6
CONTINUOUS
370
    -3
390
300
  0
LAYER
  5
24
330
2
100
AcDbSymbolTableRecord
100
AcDbLayerTableRecord
  2
SK1
 70
     0
 62
     4
  6
CONTINUOUS
370
    -3
390
300
  0
LAYER
  5
25
330
2
100
AcDbSymbolTableRecord
100
AcDbLayerTableRecord
  2
2
 70
     0
 62
     7
  6
CONTINUOUS
370
    -3
390
300
  0
LAYER
  5
26
330
2
100
AcDbSymbolTableRecord
100
AcDbLayerTableRecord
  2
2L
 70
     0
 62
     7
  6
CONTINUOUS
370
    -3
390
300
  0
LAYER
  5
27
330
2
100
AcDbSymbolTableRecord
100
AcDbLayerTableRecord
  2
SK2
 70
     0
 62
     7
  6
CONTINUOUS
370
    -3
390
300
  0
LAYER
  5
28
330
2
100
AcDbSymbolTableRecord
100
AcDbLayerTableRecord
  2
3
 70
     0
 62
     1
  6
HIDDEN
370
    -3
390
300
  0
LAYER
  5
29
330
2
100
AcDbSymbolTableRecord
100
AcDbLayerTableRecord
  2
SK3
 70
     0
 62
     1
  6
HIDDEN
370
    -3
390
300
  0
LAYER
  5
2A
330
2
100
AcDbSymbolTableRecord
100
AcDbLayerTableRecord
  2
4
 70
     0
 62
     2
  6
CENTER
370
    -3
390
300
  0
LAYER
  5
2B
330
2
100
AcDbSymbolTableRecord
100
AcDbLayerTableRecord
  2
SK4
 70
     0
 62
     2
  6
CENTER
370
    -3
390
300
  0
LAYER
  5
2C
330
2
100
AcDbSymbolTableRecord
100
AcDbLayerTableRecord
  2
5
 70
     0
 62
    -7
  6
CONTINUOUS
370
    -3
390
300
  0
LAYER
  5
2D
330
2
100
AcDbSymbolTableRecord
100
AcDbLayerTableRecord
  2
6
 70
     0
 62
     5
  6
CONTINUOUS
370
    -3
390
300
  0
LAYER
  5
2E
330
2
100
AcDbSymbolTableRecord
100
AcDbLayerTableRecord
  2
SK6
 70
     0
 62
     5
  6
CONTINUOUS
370
    -3
390
300
  0
LAYER
  5
2F
330
2
100
AcDbSymbolTableRecord
100
AcDbLayerTableRecord
  2
DEFPOINTS
 70
     0
 62
     7
  6
CONTINUOUS
290
     0
370
    -3
390
300
  0
LAYER
  5
375
330
2
100
AcDbSymbolTableRecord
100
AcDbLayerTableRecord
  2
CUT
 70
     0
 62
     1
  6
CONTINUOUS
370
    -3
390
300
  0
LAYER
  5
376
330
2
100
AcDbSymbolTableRecord
100
AcDbLayerTableRecord
  2
NOCUT
 70
     0
 62
     7
  6
CONTINUOUS
370
    -3
390
300
  0
ENDTAB
  0
TABLE
  2
STYLE
  5
3
330
0
100
AcDbSymbolTable
 70
     4
  0
STYLE
  5
10
330
3
100
AcDbSymbolTableRecord
100
AcDbTextStyleTableRecord
  2
STANDARD
 70
     0
 40
0.0
 41
1.0
 50
0.0
 71
     0
 42
5.0
  3
txt
  4

  0
STYLE
  5
1D
330
3
100
AcDbSymbolTableRecord
100
AcDbTextStyleTableRecord
  2
TXT
 70
     0
 40
8.0
 41
1.0
 50
0.0
 71
     0
 42
8.0
  3
txt
  4

  0
STYLE
  5
1E
330
3
100
AcDbSymbolTableRecord
100
AcDbTextStyleTableRecord
  2
SIMPLEX
 70
     0
 40
0.0
 41
1.0
 50
0.0
 71
     0
 42
3.5
  3
simplex
  4

  0
STYLE
  5
34C
330
3
100
AcDbSymbolTableRecord
100
AcDbTextStyleTableRecord
  2

 70
     1
 40
0.0
 41
1.0
 50
0.0
 71
     0
 42
2.5
  3
ltypeshp.shx
  4

  0
ENDTAB
  0
TABLE
  2
VIEW
  5
6
330
0
100
AcDbSymbolTable
 70
     0
  0
ENDTAB
  0
TABLE
  2
UCS
  5
7
330
0
100
AcDbSymbolTable
 70
     0
  0
ENDTAB
  0
TABLE
  2
APPID
  5
9
330
0
100
AcDbSymbolTable
 70
     1
  0
APPID
  5
11
330
9
100
AcDbSymbolTableRecord
100
AcDbRegAppTableRecord
  2
ACAD
 70
     0
  0
ENDTAB
  0
TABLE
  2
DIMSTYLE
  5
A
330
0
100
AcDbSymbolTable
 70
     1
100
AcDbDimStyleTable
  0
DIMSTYLE
105
3F
102
{ACAD_REACTORS
330
5DE
330
5EC
330
5F9
330
607
330
614
102
}
330
A
100
AcDbSymbolTableRecord
100
AcDbDimStyleTableRecord
  2
STANDARD
 70
     0
 41
2.5
 42
0.0
 43
3.75
 44
1.25
 73
     0
 74
     0
 77
     1
 78
     8
 79
     2
140
3.5
141
0.0
143
0.039370078
147
0.625
171
     3
178
     0
179
     2
271
     2
272
     2
274
     3
283
     0
284
     8
340
1E
  0
ENDTAB
  0
TABLE
  2
BLOCK_RECORD
  5
1
330
0
100
AcDbSymbolTable
 70
     5
  0
BLOCK_RECORD
  5
18
330
1
100
AcDbSymbolTableRecord
100
AcDbBlockTableRecord
  2
*MODEL_SPACE
340
303
  0
BLOCK_RECORD
  5
338
330
1
100
AcDbSymbolTableRecord
100
AcDbBlockTableRecord
  2
*Paper_Space
340
33B
  0
BLOCK_RECORD
  5
5DF
330
1
100
AcDbSymbolTableRecord
100
AcDbBlockTableRecord
  2
*D0
340
0
  0
BLOCK_RECORD
  5
5ED
330
1
100
AcDbSymbolTableRecord
100
AcDbBlockTableRecord
  2
*D1
340
0
  0
BLOCK_RECORD
  5
5FA
330
1
100
AcDbSymbolTableRecord
100
AcDbBlockTableRecord
  2
*D2
340
0
  0
BLOCK_RECORD
  5
608
330
1
100
AcDbSymbolTableRecord
100
AcDbBlockTableRecord
  2
*D3
340
0
  0
BLOCK_RECORD
  5
615
330
1
100
AcDbSymbolTableRecord
100
AcDbBlockTableRecord
  2
*D4
340
0
  0
ENDTAB
  0
ENDSEC
  0
SECTION
  2
BLOCKS
  0
BLOCK
  5
32
330
18
100
AcDbEntity
  8
0
100
AcDbBlockBegin
  2
*MODEL_SPACE
 70
     0
 10
0.0
 20
0.0
 30
0.0
  3
*MODEL_SPACE
  1

  0
ENDBLK
  5
33
330
18
100
AcDbEntity
  8
0
100
AcDbBlockEnd
  0
BLOCK
  5
339
330
338
100
AcDbEntity
 67
     1
  8
0
100
AcDbBlockBegin
  2
*Paper_Space
 70
     0
 10
0.0
 20
0.0
 30
0.0
  3
*Paper_Space
  1

  0
ENDBLK
  5
33A
330
338
100
AcDbEntity
 67
     1
  8
0
100
AcDbBlockEnd
  0
BLOCK
  5
5E0
330
5DF
100
AcDbEntity
  8
0
100
AcDbBlockBegin
  2
*D0
 70
     1
 10
0.0
 20
0.0
 30
0.0
  3
*D0
  1

  0
LINE
  5
5E2
330
5DF
100
AcDbEntity
  8
2
 62
     0
370
    -2
100
AcDbLine
 10
36.2
 20
1.7526
 30
0.0
 11
52.45
 21
1.752600000000057
 31
0.0
  0
LINE
  5
5E3
330
5DF
100
AcDbEntity
  8
2
 62
     0
370
    -2
100
AcDbLine
 10
36.2
 20
-1.7526
 30
0.0
 11
52.45000000000002
 21
-1.752599999999943
 31
0.0
  0
LINE
  5
5E4
330
5DF
100
AcDbEntity
  8
2
 62
     0
370
    -2
100
AcDbLine
 10
51.20000000000002
 20
-4.252599999999948
 30
0.0
 11
51.20000000000015
 21
-35.44259999999996
 31
0.0
  0
LINE
  5
5E5
330
5DF
100
AcDbEntity
  8
2
 62
     0
370
    -2
100
AcDbLine
 10
51.2
 20
4.252600000000053
 30
0.0
 11
51.19999999999999
 21
6.752600000000053
 31
0.0
  0
SOLID
  5
5E6
330
5DF
100
AcDbEntity
  8
2
 62
     0
100
AcDbTrace
 10
50.78333333333333
 20
4.252600000000051
 30
0.0
 11
51.61666666666666
 21
4.252600000000054
 31
0.0
 12
51.2
 22
1.752600000000052
 32
0.0
 13
51.2
 23
1.752600000000052
 33
0.0
  0
SOLID
  5
5E7
330
5DF
100
AcDbEntity
  8
2
 62
     0
100
AcDbTrace
 10
51.61666666666669
 20
-4.252599999999946
 30
0.0
 11
50.78333333333336
 21
-4.25259999999995
 31
0.0
 12
51.20000000000002
 22
-1.752599999999948
 32
0.0
 13
51.20000000000002
 23
-1.752599999999948
 33
0.0
  0
MTEXT
  5
5E8
330
5DF
100
AcDbEntity
  8
2
 62
     0
100
AcDbMText
 10
48.24750000000009
 20
-21.09759999999996
 30
0.0
 40
3.5
 41
0.0
 71
     5
 72
     1
  1
UNC#6-32
  7
SIMPLEX
 11
-4.054220790597400E-15
 21
1.0
 31
0.0
 73
     1
 44
1.0
  0
POINT
  5
5E9
330
5DF
100
AcDbEntity
  8
DEFPOINTS
 62
     0
100
AcDbPoint
 10
36.2
 20
1.7526
 30
0.0
  0
POINT
  5
5EA
330
5DF
100
AcDbEntity
  8
DEFPOINTS
 62
     0
100
AcDbPoint
 10
36.2
 20
-1.7526
 30
0.0
  0
POINT
  5
5EB
330
5DF
100
AcDbEntity
  8
DEFPOINTS
 62
     0
100
AcDbPoint
 10
51.20000000000002
 20
-1.752599999999948
 30
0.0
  0
ENDBLK
  5
5E1
330
5DF
100
AcDbEntity
  8
0
100
AcDbBlockEnd
  0
BLOCK
  5
5EE
330
5ED
100
AcDbEntity
  8
0
100
AcDbBlockBegin
  2
*D1
 70
     1
 10
0.0
 20
0.0
 30
0.0
  3
*D1
  1

  0
LINE
  5
5F0
330
5ED
100
AcDbEntity
  8
2
 62
     0
370
    -2
100
AcDbLine
 10
0.0
 20
0.0
 30
0.0
 11
0.0
 21
76.25
 31
0.0
  0
LINE
  5
5F1
330
5ED
100
AcDbEntity
  8
2
 62
     0
370
    -2
100
AcDbLine
 10
36.2
 20
0.0
 30
0.0
 11
36.2
 21
76.25
 31
0.0
  0
LINE
  5
5F2
330
5ED
100
AcDbEntity
  8
2
 62
     0
370
    -2
100
AcDbLine
 10
2.5
 20
75.0
 30
0.0
 11
33.7
 21
75.0
 31
0.0
  0
SOLID
  5
5F3
330
5ED
100
AcDbEntity
  8
2
 62
     0
100
AcDbTrace
 10
2.5
 20
75.41666666666667
 30
0.0
 11
2.5
 21
74.58333333333333
 31
0.0
 12
0.0
 22
75.0
 32
0.0
 13
0.0
 23
75.0
 33
0.0
  0
SOLID
  5
5F4
330
5ED
100
AcDbEntity
  8
2
 62
     0
100
AcDbTrace
 10
33.7
 20
74.58333333333333
 30
0.0
 11
33.7
 21
75.41666666666667
 31
0.0
 12
36.2
 22
75.0
 32
0.0
 13
36.2
 23
75.0
 33
0.0
  0
MTEXT
  5
5F5
330
5ED
100
AcDbEntity
  8
2
 62
     0
100
AcDbMText
 10
18.1
 20
77.39775
 30
0.0
 40
3.5
 41
0.0
 71
     5
 72
     1
  1
36.2
  7
SIMPLEX
 73
     1
 44
1.0
  0
POINT
  5
5F6
330
5ED
100
AcDbEntity
  8
DEFPOINTS
 62
     0
100
AcDbPoint
 10
0.0
 20
0.0
 30
0.0
  0
POINT
  5
5F7
330
5ED
100
AcDbEntity
  8
DEFPOINTS
 62
     0
100
AcDbPoint
 10
36.2
 20
0.0
 30
0.0
  0
POINT
  5
5F8
330
5ED
100
AcDbEntity
  8
DEFPOINTS
 62
     0
100
AcDbPoint
 10
36.2
 20
75.0
 30
0.0
  0
ENDBLK
  5
5EF
330
5ED
100
AcDbEntity
  8
0
100
AcDbBlockEnd
  0
BLOCK
  5
5FB
330
5FA
100
AcDbEntity
  8
0
100
AcDbBlockBegin
  2
*D2
 70
     1
 10
0.0
 20
0.0
 30
0.0
  3
*D2
  1

  0
LINE
  5
5FD
330
5FA
100
AcDbEntity
  8
SK2
 62
     0
370
    -2
100
AcDbLine
 10
-14.80399999999999
 20
1.7907
 30
0.0
 11
-35.88000000000913
 21
1.79069999989244
 31
0.0
  0
LINE
  5
5FE
330
5FA
100
AcDbEntity
  8
SK2
 62
     0
370
    -2
100
AcDbLine
 10
-14.80399999999999
 20
-1.7907
 30
0.0
 11
-35.87999999999086
 21
-1.790700000107559
 31
0.0
  0
LINE
  5
5FF
330
5FA
100
AcDbEntity
  8
SK2
 62
     0
370
    -2
100
AcDbLine
 10
-34.6299999999781
 20
-4.290700000101181
 30
0.0
 11
-34.62999999988662
 21
-22.21920000010118
 31
0.0
  0
LINE
  5
600
330
5FA
100
AcDbEntity
  8
SK2
 62
     0
370
    -2
100
AcDbLine
 10
-34.63000000002189
 20
4.29069999989882
 30
0.0
 11
-34.63000000003464
 21
6.79069999989882
 31
0.0
  0
SOLID
  5
601
330
5FA
100
AcDbEntity
  8
SK2
 62
     0
100
AcDbTrace
 10
-35.04666666668855
 20
4.290699999896693
 30
0.0
 11
-34.21333333335522
 21
4.290699999900946
 31
0.0
 12
-34.63000000000913
 22
1.79069999989882
 32
0.0
 13
-34.63000000000913
 23
1.79069999989882
 33
0.0
  0
SOLID
  5
602
330
5FA
100
AcDbEntity
  8
SK2
 62
     0
100
AcDbTrace
 10
-34.21333333331144
 20
-4.290700000099054
 30
0.0
 11
-35.04666666664477
 21
-4.290700000103307
 31
0.0
 12
-34.62999999999086
 22
-1.79070000010118
 32
0.0
 13
-34.62999999999086
 23
-1.79070000010118
 33
0.0
  0
MTEXT
  5
603
330
5FA
100
AcDbEntity
  8
SK2
 62
     0
100
AcDbMText
 10
-37.02774999992598
 20
-14.50495000011342
 30
0.0
 40
3.5
 41
0.0
 71
     5
 72
     1
  1
%%c3.58
  7
SIMPLEX
 11
-5.102797555076165E-12
 21
1.0
 31
0.0
 73
     1
 44
1.0
  0
POINT
  5
604
330
5FA
100
AcDbEntity
  8
DEFPOINTS
 62
     0
100
AcDbPoint
 10
-14.80399999999999
 20
1.7907
 30
0.0
  0
POINT
  5
605
330
5FA
100
AcDbEntity
  8
DEFPOINTS
 62
     0
100
AcDbPoint
 10
-14.80399999999999
 20
-1.7907
 30
0.0
  0
POINT
  5
606
330
5FA
100
AcDbEntity
  8
DEFPOINTS
 62
     0
100
AcDbPoint
 10
-34.62999999999086
 20
-1.79070000010118
 30
0.0
  0
ENDBLK
  5
5FC
330
5FA
100
AcDbEntity
  8
0
100
AcDbBlockEnd
  0
BLOCK
  5
609
330
608
100
AcDbEntity
  8
0
100
AcDbBlockBegin
  2
*D3
 70
     1
 10
0.0
 20
0.0
 30
0.0
  3
*D3
  1

  0
LINE
  5
60B
330
608
100
AcDbEntity
  8
2
 62
     0
370
    -2
100
AcDbLine
 10
24.3034905
 20
1.235
 30
0.0
 11
24.3034905
 21
61.25
 31
0.0
  0
LINE
  5
60C
330
608
100
AcDbEntity
  8
2
 62
     0
370
    -2
100
AcDbLine
 10
36.2
 20
1.7526
 30
0.0
 11
36.2
 21
61.25
 31
0.0
  0
LINE
  5
60D
330
608
100
AcDbEntity
  8
2
 62
     0
370
    -2
100
AcDbLine
 10
26.8034905
 20
60.0
 30
0.0
 11
33.7
 21
60.0
 31
0.0
  0
SOLID
  5
60E
330
608
100
AcDbEntity
  8
2
 62
     0
100
AcDbTrace
 10
26.8034905
 20
60.41666666666666
 30
0.0
 11
26.8034905
 21
59.58333333333334
 31
0.0
 12
24.3034905
 22
60.0
 32
0.0
 13
24.3034905
 23
60.0
 33
0.0
  0
SOLID
  5
60F
330
608
100
AcDbEntity
  8
2
 62
     0
100
AcDbTrace
 10
33.7
 20
59.58333333333334
 30
0.0
 11
33.7
 21
60.41666666666666
 31
0.0
 12
36.2
 22
60.0
 32
0.0
 13
36.2
 23
60.0
 33
0.0
  0
MTEXT
  5
610
330
608
100
AcDbEntity
  8
2
 62
     0
100
AcDbMText
 10
30.25174525
 20
62.39775
 30
0.0
 40
3.5
 41
0.0
 71
     5
 72
     1
  1
11.9
  7
SIMPLEX
 73
     1
 44
1.0
  0
POINT
  5
611
330
608
100
AcDbEntity
  8
DEFPOINTS
 62
     0
100
AcDbPoint
 10
24.3034905
 20
1.235
 30
0.0
  0
POINT
  5
612
330
608
100
AcDbEntity
  8
DEFPOINTS
 62
     0
100
AcDbPoint
 10
36.2
 20
1.7526
 30
0.0
  0
POINT
  5
613
330
608
100
AcDbEntity
  8
DEFPOINTS
 62
     0
100
AcDbPoint
 10
36.2
 20
60.0
 30
0.0
  0
ENDBLK
  5
60A
330
608
100
AcDbEntity
  8
0
100
AcDbBlockEnd
  0
BLOCK
  5
616
330
615
100
AcDbEntity
  8
0
100
AcDbBlockBegin
  2
*D4
 70
     1
 10
0.0
 20
0.0
 30
0.0
  3
*D4
  1

  0
LINE
  5
618
330
615
100
AcDbEntity
  8
SK2
 62
     0
370
    -2
100
AcDbLine
 10
-19.63
 20
1.7526
 30
0.0
 11
-19.63
 21
91.25
 31
0.0
  0
LINE
  5
619
330
615
100
AcDbEntity
  8
SK2
 62
     0
370
    -2
100
AcDbLine
 10
37.47000000000001
 20
1.7526
 30
0.0
 11
37.47000000000001
 21
91.25
 31
0.0
  0
LINE
  5
61A
330
615
100
AcDbEntity
  8
SK2
 62
     0
370
    -2
100
AcDbLine
 10
-17.13
 20
90.0
 30
0.0
 11
34.97000000000001
 21
90.0
 31
0.0
  0
SOLID
  5
61B
330
615
100
AcDbEntity
  8
SK2
 62
     0
100
AcDbTrace
 10
-17.13
 20
90.41666666666667
 30
0.0
 11
-17.13
 21
89.58333333333333
 31
0.0
 12
-19.63
 22
90.0
 32
0.0
 13
-19.63
 23
90.0
 33
0.0
  0
SOLID
  5
61C
330
615
100
AcDbEntity
  8
SK2
 62
     0
100
AcDbTrace
 10
34.97000000000001
 20
89.58333333333333
 30
0.0
 11
34.97000000000001
 21
90.41666666666667
 31
0.0
 12
37.47000000000001
 22
90.0
 32
0.0
 13
37.47000000000001
 23
90.0
 33
0.0
  0
MTEXT
  5
61D
330
615
100
AcDbEntity
  8
SK2
 62
     0
100
AcDbMText
 10
8.920000000000005
 20
92.39775
 30
0.0
 40
3.5
 41
0.0
 71
     5
 72
     1
  1
57.1
  7
SIMPLEX
 73
     1
 44
1.0
  0
POINT
  5
61E
330
615
100
AcDbEntity
  8
DEFPOINTS
 62
     0
100
AcDbPoint
 10
-19.63
 20
1.7526
 30
0.0
  0
POINT
  5
61F
330
615
100
AcDbEntity
  8
DEFPOINTS
 62
     0
100
AcDbPoint
 10
37.47000000000001
 20
1.7526
 30
0.0
  0
POINT
  5
620
330
615
100
AcDbEntity
  8
DEFPOINTS
 62
     0
100
AcDbPoint
 10
37.47000000000001
 20
90.0
 30
0.0
  0
ENDBLK
  5
617
330
615
100
AcDbEntity
  8
0
100
AcDbBlockEnd
  0
ENDSEC
  0
SECTION
  2
ENTITIES
  0
LINE
  5
3D6
330
18
100
AcDbEntity
  8
SK4
100
AcDbLine
 10
-21.62999999999999
 20
0.0
 30
0.0
 11
12.9
 21
0.0
 31
0.0
  0
LINE
  5
3D7
330
18
100
AcDbEntity
  8
4
100
AcDbLine
 10
10.9
 20
0.0
 30
0.0
 11
39.47
 21
0.0
 31
0.0
  0
LINE
  5
3D8
330
18
100
AcDbEntity
  8
SK4
100
AcDbLine
 10
10.9
 20
0.0
 30
0.0
 11
39.47
 21
0.0
 31
0.0
  0
LINE
  5
3D9
330
18
100
AcDbEntity
  8
1
100
AcDbLine
 10
12.9
 20
1.7907
 30
0.0
 11
0.0
 21
1.7907
 31
0.0
  0
LINE
  5
3DA
330
18
100
AcDbEntity
  8
1
100
AcDbLine
 10
12.9
 20
1.7907
 30
0.0
 11
12.9
 21
1.788919698067843
 31
0.0
  0
LINE
  5
3DB
330
18
100
AcDbEntity
  8
1
100
AcDbLine
 10
12.9
 20
1.788919698067843
 30
0.0
 11
12.9
 21
1.630026555456018
 31
0.0
  0
LINE
  5
3DC
330
18
100
AcDbEntity
  8
1
100
AcDbLine
 10
12.9
 20
1.630026555456018
 30
0.0
 11
12.9
 21
-1.7907
 31
0.0
  0
LINE
  5
3DD
330
18
100
AcDbEntity
  8
1
100
AcDbLine
 10
16.05153131
 20
-1.183169961486918
 30
0.0
 11
16.05153131
 21
-1.235
 31
0.0
  0
LINE
  5
3DE
330
18
100
AcDbEntity
  8
1
100
AcDbLine
 10
15.2
 20
-1.339141884406108
 30
0.0
 11
16.05153131
 21
-1.183169961486918
 31
0.0
  0
ARC
  5
3DF
330
18
100
AcDbEntity
  8
1
100
AcDbCircle
 10
15.05628441297713
 20
-33.78172512702549
 30
0.0
 40
33.84535707538272
100
AcDbArc
 50
88.31493351036698
 51
89.75670751160713
  0
LINE
  5
3E0
330
18
100
AcDbEntity
  8
1
100
AcDbLine
 10
12.9
 20
1.7907
 30
0.0
 11
16.05153131
 21
1.235
 31
0.0
  0
LINE
  5
3E1
330
18
100
AcDbEntity
  8
1
100
AcDbLine
 10
24.3034905
 20
0.0489904252086478
 30
0.0
 11
16.05153131
 21
0.0489904252086478
 31
0.0
  0
LINE
  5
3E2
330
18
100
AcDbEntity
  8
1
100
AcDbLine
 10
16.05153131
 20
1.235
 30
0.0
 11
24.3034905
 21
1.235
 31
0.0
  0
LINE
  5
3E3
330
18
100
AcDbEntity
  8
1
100
AcDbLine
 10
16.05153131
 20
1.235
 30
0.0
 11
16.05153131
 21
1.234712517049318
 31
0.0
  0
LINE
  5
3E4
330
18
100
AcDbEntity
  8
1
100
AcDbLine
 10
16.05153131
 20
1.234712517049318
 30
0.0
 11
16.05153131
 21
1.21020363547314
 31
0.0
  0
LINE
  5
3E5
330
18
100
AcDbEntity
  8
1
100
AcDbLine
 10
16.05153131
 20
1.21020363547314
 30
0.0
 11
16.05153131
 21
0.0489904252093733
 31
0.0
  0
LINE
  5
3E6
330
18
100
AcDbEntity
  8
1
100
AcDbLine
 10
15.20000000000001
 20
0.0633275953021726
 30
0.0
 11
15.20000000000001
 21
-1.339141884406108
 31
0.0
  0
LINE
  5
3E7
330
18
100
AcDbEntity
  8
1
100
AcDbLine
 10
24.3034905
 20
-0.9915644550247862
 30
0.0
 11
24.3034905
 21
-1.183169961486918
 31
0.0
  0
LINE
  5
3E8
330
18
100
AcDbEntity
  8
1
100
AcDbLine
 10
24.3034905
 20
-1.183169961486918
 30
0.0
 11
16.05153131
 21
-1.183169961486918
 31
0.0
  0
LINE
  5
3E9
330
18
100
AcDbEntity
  8
1
100
AcDbLine
 10
24.3034905
 20
1.235
 30
0.0
 11
24.3034905
 21
1.234995542493078
 31
0.0
  0
LINE
  5
3EA
330
18
100
AcDbEntity
  8
1
100
AcDbLine
 10
24.3034905
 20
1.234995542493078
 30
0.0
 11
24.30349050000001
 21
1.233689225743747
 31
0.0
  0
LINE
  5
3EB
330
18
100
AcDbEntity
  8
1
100
AcDbLine
 10
24.30349050000001
 20
1.233689225743747
 30
0.0
 11
24.3034905
 21
1.215545752735419
 31
0.0
  0
LINE
  5
3EC
330
18
100
AcDbEntity
  8
1
100
AcDbLine
 10
24.3034905
 20
1.215545752735419
 30
0.0
 11
24.30349050000001
 21
0.0489904252093733
 31
0.0
  0
LINE
  5
3ED
330
18
100
AcDbEntity
  8
1
100
AcDbLine
 10
24.30349050000001
 20
0.0489904252086631
 30
0.0
 11
24.3034905
 21
-0.991564455024798
 31
0.0
  0
LINE
  5
3EE
330
18
100
AcDbEntity
  8
1
100
AcDbLine
 10
24.3034905
 20
-1.183169961486918
 30
0.0
 11
24.3034905
 21
-1.222594907076966
 31
0.0
  0
LINE
  5
3EF
330
18
100
AcDbEntity
  8
1
100
AcDbLine
 10
24.3034905
 20
-1.222594907076966
 30
0.0
 11
24.3034905
 21
-1.235
 31
0.0
  0
LINE
  5
3F0
330
18
100
AcDbEntity
  8
1
100
AcDbLine
 10
0.0000000000000013
 20
-1.7907
 30
0.0
 11
12.9
 21
-1.7907
 31
0.0
  0
LINE
  5
3F1
330
18
100
AcDbEntity
  8
1
100
AcDbLine
 10
12.9
 20
-1.7907
 30
0.0
 11
16.05153131
 21
-1.235
 31
0.0
  0
LINE
  5
3F2
330
18
100
AcDbEntity
  8
1
100
AcDbLine
 10
16.05153131
 20
-1.235
 30
0.0
 11
24.3034905
 21
-1.235
 31
0.0
  0
LINE
  5
3F3
330
18
100
AcDbEntity
  8
1
 62
     1
100
AcDbLine
 10
31.02907798923242
 20
1.7526
 30
0.0
 11
31.05217201076761
 21
1.7526
 31
0.0
  0
LINE
  5
3F4
330
18
100
AcDbEntity
  8
1
 62
     1
100
AcDbLine
 10
32.61657798923243
 20
1.7526
 30
0.0
 11
32.6396720107676
 21
1.7526
 31
0.0
  0
LINE
  5
3F5
330
18
100
AcDbEntity
  8
1
 62
     1
100
AcDbLine
 10
30.23532798923243
 20
1.7526
 30
0.0
 11
30.25842201076759
 21
1.752599999999999
 31
0.0
  0
LINE
  5
3F6
330
18
100
AcDbEntity
  8
1
 62
     1
100
AcDbLine
 10
29.44157798923242
 20
1.7526
 30
0.0
 11
29.46467201076759
 21
1.7526
 31
0.0
  0
LINE
  5
3F7
330
18
100
AcDbEntity
  8
1
 62
     1
100
AcDbLine
 10
28.64782798923241
 20
1.7526
 30
0.0
 11
28.6709220107676
 21
1.7526
 31
0.0
  0
LINE
  5
3F8
330
18
100
AcDbEntity
  8
1
 62
     1
100
AcDbLine
 10
27.85407798923242
 20
1.7526
 30
0.0
 11
27.87717201076759
 21
1.7526
 31
0.0
  0
LINE
  5
3F9
330
18
100
AcDbEntity
  8
1
 62
     1
100
AcDbLine
 10
33.81875000000001
 20
-1.08519265625
 30
0.0
 11
33.47984719496237
 21
-1.672189259715432
 31
0.0
  0
LINE
  5
3FA
330
18
100
AcDbEntity
  8
1
 62
     1
100
AcDbLine
 10
34.10434309344155
 20
-1.579854173745428
 30
0.0
 11
33.81875000000001
 21
-1.08519265625
 31
0.0
  0
LINE
  5
3FB
330
18
100
AcDbEntity
  8
1
 62
     1
100
AcDbLine
 10
32.23125
 20
-1.08519265625
 30
0.0
 11
31.84592201076759
 21
-1.752600000000002
 31
0.0
  0
LINE
  5
3FC
330
18
100
AcDbEntity
  8
1
 62
     1
100
AcDbLine
 10
25.88125
 20
-1.08519265625
 30
0.0
 11
25.49592201076759
 21
-1.752600000000002
 31
0.0
  0
LINE
  5
3FD
330
18
100
AcDbEntity
  8
1
 62
     1
100
AcDbLine
 10
27.06032798923242
 20
-1.752600000000002
 30
0.0
 11
26.675
 21
-1.08519265625
 31
0.0
  0
LINE
  5
3FE
330
18
100
AcDbEntity
  8
1
 62
     1
100
AcDbLine
 10
31.02907798923242
 20
-1.752600000000002
 30
0.0
 11
30.64375
 21
-1.08519265625
 31
0.0
  0
LINE
  5
3FF
330
18
100
AcDbEntity
  8
1
 62
     1
100
AcDbLine
 10
30.23532798923242
 20
-1.752600000000015
 30
0.0
 11
29.85
 21
-1.08519265625
 31
0.0
  0
LINE
  5
400
330
18
100
AcDbEntity
  8
1
 62
     1
100
AcDbLine
 10
29.85
 20
-1.08519265625
 30
0.0
 11
29.46467201076759
 21
-1.752600000000002
 31
0.0
  0
LINE
  5
401
330
18
100
AcDbEntity
  8
1
 62
     1
100
AcDbLine
 10
36.08334302942643
 20
0.0564178892706529
 30
0.0
 11
35.56698551495474
 21
0.0625861022718613
 31
0.0
  0
LINE
  5
402
330
18
100
AcDbEntity
  8
1
 62
     1
100
AcDbLine
 10
35.56698551495474
 20
1.363594604927342
 30
0.0
 11
36.08334302942643
 21
1.287248362131987
 31
0.0
  0
LINE
  5
403
330
18
100
AcDbEntity
  8
1
 62
     1
100
AcDbLine
 10
35.21551108460507
 20
0.0636249960973414
 30
0.0
 11
34.83566430419813
 21
0.0618602850355793
 31
0.0
  0
LINE
  5
404
330
18
100
AcDbEntity
  8
1
 62
     1
100
AcDbLine
 10
34.83566430419815
 20
1.47172438933639
 30
0.0
 11
35.21551108460507
 21
1.415561994659803
 31
0.0
  0
LINE
  5
405
330
18
100
AcDbEntity
  8
1
 62
     1
100
AcDbLine
 10
34.34767913978371
 20
0.0551363537390467
 30
0.0
 11
34.1043430934897
 21
0.0498783065521762
 31
0.0
  0
LINE
  5
406
330
18
100
AcDbEntity
  8
1
 62
     1
100
AcDbLine
 10
34.10434309344155
 20
1.579854173745438
 30
0.0
 11
34.34767913978372
 21
1.543875627187616
 31
0.0
  0
LINE
  5
407
330
18
100
AcDbEntity
  8
1
 62
     1
100
AcDbLine
 10
33.37302188268497
 20
1.687983958154485
 30
0.0
 11
33.47984719496237
 21
1.672189259715429
 31
0.0
  0
LINE
  5
408
330
18
100
AcDbEntity
  8
1
 62
     1
100
AcDbLine
 10
36.08334302942642
 20
-1.23760838053741
 30
0.0
 11
36.2
 21
-1.025821260719374
 31
0.0
  0
LINE
  5
409
330
18
100
AcDbEntity
  8
1
 62
     1
100
AcDbLine
 10
36.08334302942643
 20
-1.237608380537413
 30
0.0
 11
36.08334302942643
 21
-1.287248362131987
 31
0.0
  0
LINE
  5
40A
330
18
100
AcDbEntity
  8
1
 62
     1
100
AcDbLine
 10
36.2
 20
-1.08519265625
 30
0.0
 11
36.08334302942643
 21
-1.287248362131959
 31
0.0
  0
LINE
  5
40B
330
18
100
AcDbEntity
  8
1
 62
     1
100
AcDbLine
 10
31.82282798923241
 20
1.7526
 30
0.0
 11
31.84592201076759
 21
1.7526
 31
0.0
  0
LINE
  5
40C
330
18
100
AcDbEntity
  8
1
 62
     1
100
AcDbLine
 10
29.46467201076759
 20
0.0062084271427871
 30
0.0
 11
29.44157798923241
 21
0.0062084271427871
 31
0.0
  0
LINE
  5
40D
330
18
100
AcDbEntity
  8
1
 62
     1
100
AcDbLine
 10
27.06032798923242
 20
1.7526
 30
0.0
 11
27.08342201076761
 21
1.7526
 31
0.0
  0
LINE
  5
40E
330
18
100
AcDbEntity
  8
1
 62
     1
100
AcDbLine
 10
26.28967201076761
 20
0.0062084271427871
 30
0.0
 11
26.26657798923242
 21
0.0062084271427871
 31
0.0
  0
LINE
  5
40F
330
18
100
AcDbEntity
  8
1
 62
     1
100
AcDbLine
 10
26.26657798923241
 20
1.7526
 30
0.0
 11
26.28967201076761
 21
1.7526
 31
0.0
  0
LINE
  5
410
330
18
100
AcDbEntity
  8
1
 62
     1
100
AcDbLine
 10
25.4959220107676
 20
0.0062084271427871
 30
0.0
 11
25.47282798923241
 21
0.0062084271427871
 31
0.0
  0
LINE
  5
411
330
18
100
AcDbEntity
  8
1
 62
     1
100
AcDbLine
 10
25.47282798923241
 20
1.7526
 30
0.0
 11
25.49592201076759
 21
1.7526
 31
0.0
  0
LINE
  5
412
330
18
100
AcDbEntity
  8
1
 62
     1
100
AcDbLine
 10
35.40625000000001
 20
-1.025821260719374
 30
0.0
 11
35.56698551495474
 21
-1.316835754508476
 31
0.0
  0
LINE
  5
413
330
18
100
AcDbEntity
  8
1
 62
     1
100
AcDbLine
 10
35.56698551495474
 20
-1.36359460492734
 30
0.0
 11
35.40625000000001
 21
-1.08519265625
 31
0.0
  0
LINE
  5
414
330
18
100
AcDbEntity
  8
1
 62
     1
100
AcDbLine
 10
35.56698551495474
 20
-1.316835754508477
 30
0.0
 11
35.56698551495474
 21
-1.363594604927342
 31
0.0
  0
LINE
  5
415
330
18
100
AcDbEntity
  8
1
 62
     1
100
AcDbLine
 10
33.81875000000001
 20
-1.025821260719374
 30
0.0
 11
34.10434309344156
 21
-1.539677033687854
 31
0.0
  0
LINE
  5
416
330
18
100
AcDbEntity
  8
1
 62
     1
100
AcDbLine
 10
34.10434309344155
 20
-1.539677033687856
 30
0.0
 11
34.10434309344155
 21
-1.579854173745438
 31
0.0
  0
LINE
  5
417
330
18
100
AcDbEntity
  8
1
 62
     1
100
AcDbLine
 10
33.47984719496237
 20
-1.634283658999439
 30
0.0
 11
33.81875000000001
 21
-1.025821260719374
 31
0.0
  0
LINE
  5
418
330
18
100
AcDbEntity
  8
1
 62
     1
100
AcDbLine
 10
33.81875000000001
 20
-1.08519265625
 30
0.0
 11
33.81875000000001
 21
-1.08517960028169
 31
0.0
  0
LINE
  5
419
330
18
100
AcDbEntity
  8
1
 62
     1
100
AcDbLine
 10
33.81875000000001
 20
-1.08517960028169
 30
0.0
 11
33.81875000000001
 21
-1.081300728060101
 31
0.0
  0
LINE
  5
41A
330
18
100
AcDbEntity
  8
1
 62
     1
100
AcDbLine
 10
33.81875000000001
 20
-1.081300728060101
 30
0.0
 11
33.81875
 21
-1.025821260719346
 31
0.0
  0
ARC
  5
41B
330
18
100
AcDbEntity
  8
1
 62
     1
100
AcDbCircle
 10
-20.12866303879016
 20
28.19254293151354
 30
0.0
 40
60.65511631632499
100
AcDbArc
 50
330.4554998399595
 51
331.2025738381601
  0
LINE
  5
41C
330
18
100
AcDbEntity
  8
1
 62
     1
100
AcDbLine
 10
32.63967201076759
 20
-1.716471065228002
 30
0.0
 11
32.6396720107676
 21
-1.7526
 31
0.0
  0
LINE
  5
41D
330
18
100
AcDbEntity
  8
1
 62
     1
100
AcDbLine
 10
33.02500000000001
 20
-1.08519265625
 30
0.0
 11
32.6396720107676
 21
-1.75259999999999
 31
0.0
  0
ARC
  5
41E
330
18
100
AcDbEntity
  8
1
 62
     1
100
AcDbCircle
 10
76.36140712199237
 20
22.7189970086411
 30
0.0
 40
49.41520454452809
100
AcDbArc
 50
208.7191490650435
 51
209.5482174685002
  0
LINE
  5
41F
330
18
100
AcDbEntity
  8
1
 62
     1
100
AcDbLine
 10
33.02500000000001
 20
-1.08519265625
 30
0.0
 11
33.02500000000001
 21
-1.08517960028169
 31
0.0
  0
LINE
  5
420
330
18
100
AcDbEntity
  8
1
 62
     1
100
AcDbLine
 10
33.02500000000001
 20
-1.08517960028169
 30
0.0
 11
33.02500000000001
 21
-1.081300728060101
 31
0.0
  0
LINE
  5
421
330
18
100
AcDbEntity
  8
1
 62
     1
100
AcDbLine
 10
33.02500000000001
 20
-1.081300728060101
 30
0.0
 11
33.02500000000001
 21
-1.025821260719346
 31
0.0
  0
LINE
  5
422
330
18
100
AcDbEntity
  8
1
 62
     1
100
AcDbLine
 10
33.37302188268497
 20
-1.687983958154484
 30
0.0
 11
33.02500000000001
 21
-1.08519265625
 31
0.0
  0
LINE
  5
423
330
18
100
AcDbEntity
  8
1
 62
     1
100
AcDbLine
 10
33.37302188268497
 20
-1.650441153374404
 30
0.0
 11
33.37302188268497
 21
-1.687983958154485
 31
0.0
  0
LINE
  5
424
330
18
100
AcDbEntity
  8
1
 62
     1
100
AcDbLine
 10
34.34767913978372
 20
-1.502736873171382
 30
0.0
 11
34.6125
 21
-1.025821260719374
 31
0.0
  0
LINE
  5
425
330
18
100
AcDbEntity
  8
1
 62
     1
100
AcDbLine
 10
34.34767913978372
 20
-1.502736873171383
 30
0.0
 11
34.34767913978372
 21
-1.543875627187616
 31
0.0
  0
LINE
  5
426
330
18
100
AcDbEntity
  8
1
 62
     1
100
AcDbLine
 10
34.6125
 20
-1.08519265625
 30
0.0
 11
34.34767913978372
 21
-1.54387562718761
 31
0.0
  0
LINE
  5
427
330
18
100
AcDbEntity
  8
1
 62
     1
100
AcDbLine
 10
34.6125
 20
-1.025821260719374
 30
0.0
 11
34.83566430419815
 21
-1.428509305511353
 31
0.0
  0
LINE
  5
428
330
18
100
AcDbEntity
  8
1
 62
     1
100
AcDbLine
 10
34.6125
 20
-1.08519265625
 30
0.0
 11
34.6125
 21
-1.08517960028169
 31
0.0
  0
LINE
  5
429
330
18
100
AcDbEntity
  8
1
 62
     1
100
AcDbLine
 10
34.6125
 20
-1.08517960028169
 30
0.0
 11
34.6125
 21
-1.081300728060101
 31
0.0
  0
LINE
  5
42A
330
18
100
AcDbEntity
  8
1
 62
     1
100
AcDbLine
 10
34.6125
 20
-1.081300728060101
 30
0.0
 11
34.6125
 21
-1.025821260719346
 31
0.0
  0
LINE
  5
42B
330
18
100
AcDbEntity
  8
1
 62
     1
100
AcDbLine
 10
34.83566430419815
 20
-1.471724389336392
 30
0.0
 11
34.6125
 21
-1.08519265625
 31
0.0
  0
LINE
  5
42C
330
18
100
AcDbEntity
  8
1
 62
     1
100
AcDbLine
 10
34.83566430419814
 20
-1.428509306053133
 30
0.0
 11
34.83566430419815
 21
-1.47172438933639
 31
0.0
  0
LINE
  5
42D
330
18
100
AcDbEntity
  8
1
 62
     1
100
AcDbLine
 10
35.21551108460507
 20
-1.370577220914674
 30
0.0
 11
35.40625000000001
 21
-1.025821260719374
 31
0.0
  0
LINE
  5
42E
330
18
100
AcDbEntity
  8
1
 62
     1
100
AcDbLine
 10
35.21551108460507
 20
-1.370577220914674
 30
0.0
 11
35.21551108460507
 21
-1.415561994659803
 31
0.0
  0
LINE
  5
42F
330
18
100
AcDbEntity
  8
1
 62
     1
100
AcDbLine
 10
35.40625000000001
 20
-1.08519265625
 30
0.0
 11
35.21551108460507
 21
-1.415561994659801
 31
0.0
  0
LINE
  5
430
330
18
100
AcDbEntity
  8
1
 62
     1
100
AcDbLine
 10
35.40625000000001
 20
-1.08519265625
 30
0.0
 11
35.40625
 21
-1.08517960028169
 31
0.0
  0
LINE
  5
431
330
18
100
AcDbEntity
  8
1
 62
     1
100
AcDbLine
 10
35.40625
 20
-1.08517960028169
 30
0.0
 11
35.40625000000001
 21
-1.081300728060101
 31
0.0
  0
LINE
  5
432
330
18
100
AcDbEntity
  8
1
 62
     1
100
AcDbLine
 10
35.40625000000001
 20
-1.081300728060101
 30
0.0
 11
35.40625000000001
 21
-1.025821260719346
 31
0.0
  0
ARC
  5
433
330
18
100
AcDbEntity
  8
1
 62
     1
100
AcDbCircle
 10
-22.50991303965156
 20
28.19254293199425
 30
0.0
 40
60.65511631731145
100
AcDbArc
 50
330.4554998399657
 51
331.2025738381541
  0
LINE
  5
434
330
18
100
AcDbEntity
  8
1
 62
     1
100
AcDbLine
 10
30.25842201076759
 20
-1.716471065228002
 30
0.0
 11
30.25842201076759
 21
-1.7526
 31
0.0
  0
LINE
  5
435
330
18
100
AcDbEntity
  8
1
 62
     1
100
AcDbLine
 10
30.64375
 20
-1.08519265625
 30
0.0
 11
30.25842201076759
 21
-1.752600000000002
 31
0.0
  0
ARC
  5
436
330
18
100
AcDbEntity
  8
1
 62
     1
100
AcDbCircle
 10
76.50250527068481
 20
24.11655155783123
 30
0.0
 40
52.298822250345
100
AcDbArc
 50
208.7340539991735
 51
209.6004958795874
  0
LINE
  5
437
330
18
100
AcDbEntity
  8
1
 62
     1
100
AcDbLine
 10
30.64375
 20
-1.08519265625
 30
0.0
 11
30.64375
 21
-1.08517960028169
 31
0.0
  0
LINE
  5
438
330
18
100
AcDbEntity
  8
1
 62
     1
100
AcDbLine
 10
30.64375
 20
-1.08517960028169
 30
0.0
 11
30.64375000000001
 21
-1.081300728060101
 31
0.0
  0
LINE
  5
439
330
18
100
AcDbEntity
  8
1
 62
     1
100
AcDbLine
 10
30.64375000000001
 20
-1.081300728060101
 30
0.0
 11
30.64375
 21
-1.025821260719346
 31
0.0
  0
LINE
  5
43A
330
18
100
AcDbEntity
  8
1
 62
     1
100
AcDbLine
 10
31.02907798923242
 20
-1.716471065228002
 30
0.0
 11
31.02907798923242
 21
-1.7526
 31
0.0
  0
ARC
  5
43B
330
18
100
AcDbEntity
  8
1
 62
     1
100
AcDbCircle
 10
-20.9224130391467
 20
28.19254293171144
 30
0.0
 40
60.65511631673278
100
AcDbArc
 50
330.4554998399629
 51
331.2025738381585
  0
LINE
  5
43C
330
18
100
AcDbEntity
  8
1
 62
     1
100
AcDbLine
 10
31.84592201076759
 20
-1.716471065228002
 30
0.0
 11
31.84592201076759
 21
-1.7526
 31
0.0
  0
ARC
  5
43D
330
18
100
AcDbEntity
  8
1
 62
     1
100
AcDbCircle
 10
77.29625527038418
 20
24.11655155766421
 30
0.0
 40
52.2988222500011
100
AcDbArc
 50
208.7340539991714
 51
209.600495879591
  0
LINE
  5
43E
330
18
100
AcDbEntity
  8
1
 62
     1
100
AcDbLine
 10
31.82282798923242
 20
-1.752599999999996
 30
0.0
 11
31.43750000000001
 21
-1.08519265625
 31
0.0
  0
LINE
  5
43F
330
18
100
AcDbEntity
  8
1
 62
     1
100
AcDbLine
 10
31.82282798923242
 20
-1.716471065228002
 30
0.0
 11
31.82282798923242
 21
-1.7526
 31
0.0
  0
ARC
  5
440
330
18
100
AcDbEntity
  8
1
 62
     1
100
AcDbCircle
 10
-21.71616303954833
 20
28.19254293193704
 30
0.0
 40
60.65511631719342
100
AcDbArc
 50
330.4554998399646
 51
331.2025738381545
  0
LINE
  5
441
330
18
100
AcDbEntity
  8
1
 62
     1
100
AcDbLine
 10
31.05217201076761
 20
-1.716471065228002
 30
0.0
 11
31.05217201076761
 21
-1.7526
 31
0.0
  0
LINE
  5
442
330
18
100
AcDbEntity
  8
1
 62
     1
100
AcDbLine
 10
31.43750000000001
 20
-1.08519265625
 30
0.0
 11
31.05217201076761
 21
-1.752599999999978
 31
0.0
  0
LINE
  5
443
330
18
100
AcDbEntity
  8
1
 62
     1
100
AcDbLine
 10
31.43750000000001
 20
-1.08519265625
 30
0.0
 11
31.4375
 21
-1.08517960028169
 31
0.0
  0
LINE
  5
444
330
18
100
AcDbEntity
  8
1
 62
     1
100
AcDbLine
 10
31.4375
 20
-1.08517960028169
 30
0.0
 11
31.43750000000001
 21
-1.081300728060101
 31
0.0
  0
LINE
  5
445
330
18
100
AcDbEntity
  8
1
 62
     1
100
AcDbLine
 10
31.43750000000001
 20
-1.081300728060101
 30
0.0
 11
31.43750000000001
 21
-1.025821260719346
 31
0.0
  0
ARC
  5
446
330
18
100
AcDbEntity
  8
1
 62
     1
100
AcDbCircle
 10
78.09000527035508
 20
24.11655155764816
 30
0.0
 40
52.29882224996787
100
AcDbArc
 50
208.7340539991712
 51
209.6004958795914
  0
LINE
  5
447
330
18
100
AcDbEntity
  8
1
 62
     1
100
AcDbLine
 10
32.23125
 20
-1.08519265625
 30
0.0
 11
32.23125
 21
-1.08517960028169
 31
0.0
  0
LINE
  5
448
330
18
100
AcDbEntity
  8
1
 62
     1
100
AcDbLine
 10
32.23125
 20
-1.08517960028169
 30
0.0
 11
32.23125
 21
-1.081300728060101
 31
0.0
  0
LINE
  5
449
330
18
100
AcDbEntity
  8
1
 62
     1
100
AcDbLine
 10
32.23125
 20
-1.081300728060101
 30
0.0
 11
32.23125
 21
-1.025821260719346
 31
0.0
  0
LINE
  5
44A
330
18
100
AcDbEntity
  8
1
 62
     1
100
AcDbLine
 10
32.61657798923243
 20
-1.752600000000027
 30
0.0
 11
32.23125
 21
-1.08519265625
 31
0.0
  0
LINE
  5
44B
330
18
100
AcDbEntity
  8
1
 62
     1
100
AcDbLine
 10
32.61657798923243
 20
-1.716471065228002
 30
0.0
 11
32.61657798923243
 21
-1.7526
 31
0.0
  0
ARC
  5
44C
330
18
100
AcDbEntity
  8
1
 62
     1
100
AcDbCircle
 10
73.32750527031754
 20
24.11655155762636
 30
0.0
 40
52.29882224992447
100
AcDbArc
 50
208.7340539991701
 51
209.600495879591
  0
LINE
  5
44D
330
18
100
AcDbEntity
  8
1
 62
     1
100
AcDbLine
 10
27.46875000000001
 20
-1.08519265625
 30
0.0
 11
27.46875000000001
 21
-1.08517960028169
 31
0.0
  0
LINE
  5
44E
330
18
100
AcDbEntity
  8
1
 62
     1
100
AcDbLine
 10
27.46875000000001
 20
-1.08517960028169
 30
0.0
 11
27.46875000000001
 21
-1.081300728060101
 31
0.0
  0
LINE
  5
44F
330
18
100
AcDbEntity
  8
1
 62
     1
100
AcDbLine
 10
27.46875000000001
 20
-1.081300728060101
 30
0.0
 11
27.46875000000001
 21
-1.025821260719346
 31
0.0
  0
LINE
  5
450
330
18
100
AcDbEntity
  8
1
 62
     1
100
AcDbLine
 10
27.85407798923242
 20
-1.752600000000008
 30
0.0
 11
27.46875000000001
 21
-1.08519265625
 31
0.0
  0
LINE
  5
451
330
18
100
AcDbEntity
  8
1
 62
     1
100
AcDbLine
 10
27.85407798923242
 20
-1.716471065228002
 30
0.0
 11
27.85407798923242
 21
-1.7526
 31
0.0
  0
ARC
  5
452
330
18
100
AcDbEntity
  8
1
 62
     1
100
AcDbCircle
 10
-24.89116303881894
 20
28.1925429315287
 30
0.0
 40
60.65511631635752
100
AcDbArc
 50
330.4554998399605
 51
331.2025738381606
  0
LINE
  5
453
330
18
100
AcDbEntity
  8
1
 62
     1
100
AcDbLine
 10
27.87717201076759
 20
-1.716471065228002
 30
0.0
 11
27.87717201076759
 21
-1.7526
 31
0.0
  0
LINE
  5
454
330
18
100
AcDbEntity
  8
1
 62
     1
100
AcDbLine
 10
28.26250000000001
 20
-1.08519265625
 30
0.0
 11
27.87717201076759
 21
-1.752600000000002
 31
0.0
  0
ARC
  5
455
330
18
100
AcDbEntity
  8
1
 62
     1
100
AcDbCircle
 10
74.1212552708066
 20
24.11655155789865
 30
0.0
 40
52.29882225048421
100
AcDbArc
 50
208.7340539991741
 51
209.6004958795857
  0
LINE
  5
456
330
18
100
AcDbEntity
  8
1
 62
     1
100
AcDbLine
 10
28.26250000000001
 20
-1.08519265625
 30
0.0
 11
28.2625
 21
-1.08517960028169
 31
0.0
  0
LINE
  5
457
330
18
100
AcDbEntity
  8
1
 62
     1
100
AcDbLine
 10
28.2625
 20
-1.08517960028169
 30
0.0
 11
28.26250000000001
 21
-1.081300728060101
 31
0.0
  0
LINE
  5
458
330
18
100
AcDbEntity
  8
1
 62
     1
100
AcDbLine
 10
28.26250000000001
 20
-1.081300728060101
 30
0.0
 11
28.26250000000001
 21
-1.025821260719346
 31
0.0
  0
LINE
  5
459
330
18
100
AcDbEntity
  8
1
 62
     1
100
AcDbLine
 10
28.64782798923241
 20
-1.752600000000002
 30
0.0
 11
28.26250000000001
 21
-1.08519265625
 31
0.0
  0
LINE
  5
45A
330
18
100
AcDbEntity
  8
1
 62
     1
100
AcDbLine
 10
28.64782798923242
 20
-1.716471065228002
 30
0.0
 11
28.64782798923242
 21
-1.7526
 31
0.0
  0
ARC
  5
45B
330
18
100
AcDbEntity
  8
1
 62
     1
100
AcDbCircle
 10
-24.09741303940432
 20
28.19254293185588
 30
0.0
 40
60.65511631702814
100
AcDbArc
 50
330.4554998399642
 51
331.2025738381562
  0
LINE
  5
45C
330
18
100
AcDbEntity
  8
1
 62
     1
100
AcDbLine
 10
28.67092201076761
 20
-1.716471065228002
 30
0.0
 11
28.67092201076761
 21
-1.7526
 31
0.0
  0
LINE
  5
45D
330
18
100
AcDbEntity
  8
1
 62
     1
100
AcDbLine
 10
29.05625000000001
 20
-1.08519265625
 30
0.0
 11
28.67092201076761
 21
-1.752599999999972
 31
0.0
  0
ARC
  5
45E
330
18
100
AcDbEntity
  8
1
 62
     1
100
AcDbCircle
 10
74.91500527017966
 20
24.11655155754979
 30
0.0
 40
52.29882224976676
100
AcDbArc
 50
208.7340539991692
 51
209.6004958795927
  0
LINE
  5
45F
330
18
100
AcDbEntity
  8
1
 62
     1
100
AcDbLine
 10
29.05625000000001
 20
-1.08519265625
 30
0.0
 11
29.05625000000001
 21
-1.08517960028169
 31
0.0
  0
LINE
  5
460
330
18
100
AcDbEntity
  8
1
 62
     1
100
AcDbLine
 10
29.05625000000001
 20
-1.08517960028169
 30
0.0
 11
29.05625000000001
 21
-1.081300728060101
 31
0.0
  0
LINE
  5
461
330
18
100
AcDbEntity
  8
1
 62
     1
100
AcDbLine
 10
29.05625000000001
 20
-1.081300728060101
 30
0.0
 11
29.05625000000001
 21
-1.025821260719346
 31
0.0
  0
LINE
  5
462
330
18
100
AcDbEntity
  8
1
 62
     1
100
AcDbLine
 10
29.44157798923242
 20
-1.752600000000002
 30
0.0
 11
29.05625000000001
 21
-1.08519265625
 31
0.0
  0
LINE
  5
463
330
18
100
AcDbEntity
  8
1
 62
     1
100
AcDbLine
 10
29.44157798923242
 20
-1.716471065228002
 30
0.0
 11
29.44157798923242
 21
-1.7526
 31
0.0
  0
ARC
  5
464
330
18
100
AcDbEntity
  8
1
 62
     1
100
AcDbCircle
 10
-23.30366303944487
 20
28.19254293187863
 30
0.0
 40
60.65511631707462
100
AcDbArc
 50
330.4554998399644
 51
331.2025738381558
  0
LINE
  5
465
330
18
100
AcDbEntity
  8
1
 62
     1
100
AcDbLine
 10
29.46467201076759
 20
-1.716471065228002
 30
0.0
 11
29.46467201076759
 21
-1.7526
 31
0.0
  0
ARC
  5
466
330
18
100
AcDbEntity
  8
1
 62
     1
100
AcDbCircle
 10
75.70875527069869
 20
24.11655155783856
 30
0.0
 40
52.29882225036069
100
AcDbArc
 50
208.7340539991732
 51
209.6004958795868
  0
LINE
  5
467
330
18
100
AcDbEntity
  8
1
 62
     1
100
AcDbLine
 10
29.85
 20
-1.08519265625
 30
0.0
 11
29.85
 21
-1.08517960028169
 31
0.0
  0
LINE
  5
468
330
18
100
AcDbEntity
  8
1
 62
     1
100
AcDbLine
 10
29.85
 20
-1.08517960028169
 30
0.0
 11
29.85
 21
-1.081300728060101
 31
0.0
  0
LINE
  5
469
330
18
100
AcDbEntity
  8
1
 62
     1
100
AcDbLine
 10
29.85
 20
-1.081300728060101
 30
0.0
 11
29.85
 21
-1.025821260719346
 31
0.0
  0
LINE
  5
46A
330
18
100
AcDbEntity
  8
1
 62
     1
100
AcDbLine
 10
30.23532798923242
 20
-1.716471065228002
 30
0.0
 11
30.23532798923243
 21
-1.7526
 31
0.0
  0
ARC
  5
46B
330
18
100
AcDbEntity
  8
1
 62
     1
100
AcDbCircle
 10
24.60836535755486
 20
-3.057365136767095
 30
0.0
 40
3.12099864812209
100
AcDbArc
 50
85.98980703464969
 51
89.9917616991227
  0
LINE
  5
46C
330
18
100
AcDbEntity
  8
1
 62
     1
100
AcDbLine
 10
24.60881411224635
 20
0.0636363979897804
 30
0.0
 11
24.6077457581681
 21
0.0636365836166353
 31
0.0
  0
LINE
  5
46D
330
18
100
AcDbEntity
  8
1
 62
     1
100
AcDbLine
 10
24.3034905
 20
1.235
 30
0.0
 11
24.82662905138831
 21
1.537034182792916
 31
0.0
  0
ARC
  5
46E
330
18
100
AcDbEntity
  8
1
 62
     1
100
AcDbCircle
 10
70.94625527080564
 20
24.11655155789868
 30
0.0
 40
52.29882225048338
100
AcDbArc
 50
208.7340539991746
 51
209.6004958795862
  0
LINE
  5
46F
330
18
100
AcDbEntity
  8
1
 62
     1
100
AcDbLine
 10
25.47282798923242
 20
-1.752599999999996
 30
0.0
 11
25.08750000000001
 21
-1.08519265625
 31
0.0
  0
LINE
  5
470
330
18
100
AcDbEntity
  8
1
 62
     1
100
AcDbLine
 10
25.47282798923242
 20
-1.716471065228002
 30
0.0
 11
25.47282798923242
 21
-1.7526
 31
0.0
  0
LINE
  5
471
330
18
100
AcDbEntity
  8
1
 62
     1
100
AcDbLine
 10
24.8266290513883
 20
-1.495707269768663
 30
0.0
 11
25.08750000000001
 21
-1.025821260719374
 31
0.0
  0
LINE
  5
472
330
18
100
AcDbEntity
  8
1
 62
     1
100
AcDbLine
 10
24.8266290513883
 20
-1.495707269768656
 30
0.0
 11
24.82662905138831
 21
-1.537034182792916
 31
0.0
  0
LINE
  5
473
330
18
100
AcDbEntity
  8
1
 62
     1
100
AcDbLine
 10
25.08750000000001
 20
-1.08519265625
 30
0.0
 11
24.8266290513883
 21
-1.537034182792893
 31
0.0
  0
LINE
  5
474
330
18
100
AcDbEntity
  8
1
 62
     1
100
AcDbLine
 10
25.08750000000001
 20
-1.08519265625
 30
0.0
 11
25.08750000000001
 21
-1.08517960028169
 31
0.0
  0
LINE
  5
475
330
18
100
AcDbEntity
  8
1
 62
     1
100
AcDbLine
 10
25.08750000000001
 20
-1.08517960028169
 30
0.0
 11
25.08750000000001
 21
-1.081300728060101
 31
0.0
  0
LINE
  5
476
330
18
100
AcDbEntity
  8
1
 62
     1
100
AcDbLine
 10
25.08750000000001
 20
-1.081300728060101
 30
0.0
 11
25.0875
 21
-1.025821260719346
 31
0.0
  0
ARC
  5
477
330
18
100
AcDbEntity
  8
1
 62
     1
100
AcDbCircle
 10
-27.27241303922703
 20
28.1925429317567
 30
0.0
 40
60.65511631682498
100
AcDbArc
 50
330.4554998399631
 51
331.2025738381576
  0
LINE
  5
478
330
18
100
AcDbEntity
  8
1
 62
     1
100
AcDbLine
 10
25.49592201076759
 20
-1.716471065228002
 30
0.0
 11
25.49592201076759
 21
-1.7526
 31
0.0
  0
ARC
  5
479
330
18
100
AcDbEntity
  8
1
 62
     1
100
AcDbCircle
 10
71.74000527034818
 20
24.11655155764432
 30
0.0
 40
52.29882224995997
100
AcDbArc
 50
208.7340539991712
 51
209.6004958795915
  0
LINE
  5
47A
330
18
100
AcDbEntity
  8
1
 62
     1
100
AcDbLine
 10
25.88125
 20
-1.08519265625
 30
0.0
 11
25.88125
 21
-1.08517960028169
 31
0.0
  0
LINE
  5
47B
330
18
100
AcDbEntity
  8
1
 62
     1
100
AcDbLine
 10
25.88125
 20
-1.08517960028169
 30
0.0
 11
25.88125000000001
 21
-1.081300728060101
 31
0.0
  0
LINE
  5
47C
330
18
100
AcDbEntity
  8
1
 62
     1
100
AcDbLine
 10
25.88125000000001
 20
-1.081300728060101
 30
0.0
 11
25.88125
 21
-1.025821260719346
 31
0.0
  0
LINE
  5
47D
330
18
100
AcDbEntity
  8
1
 62
     1
100
AcDbLine
 10
26.26657798923241
 20
-1.752599999999996
 30
0.0
 11
25.88125
 21
-1.08519265625
 31
0.0
  0
LINE
  5
47E
330
18
100
AcDbEntity
  8
1
 62
     1
100
AcDbLine
 10
26.26657798923241
 20
-1.716471065228002
 30
0.0
 11
26.26657798923241
 21
-1.7526
 31
0.0
  0
ARC
  5
47F
330
18
100
AcDbEntity
  8
1
 62
     1
100
AcDbCircle
 10
-26.47866303948883
 20
28.1925429319028
 30
0.0
 40
60.65511631712477
100
AcDbArc
 50
330.455499839965
 51
331.2025738381558
  0
LINE
  5
480
330
18
100
AcDbEntity
  8
1
 62
     1
100
AcDbLine
 10
26.28967201076761
 20
-1.716471065228002
 30
0.0
 11
26.28967201076761
 21
-1.7526
 31
0.0
  0
LINE
  5
481
330
18
100
AcDbEntity
  8
1
 62
     1
100
AcDbLine
 10
26.675
 20
-1.08519265625
 30
0.0
 11
26.28967201076761
 21
-1.752599999999972
 31
0.0
  0
ARC
  5
482
330
18
100
AcDbEntity
  8
1
 62
     1
100
AcDbCircle
 10
72.53375527050606
 20
24.11655155773195
 30
0.0
 40
52.29882225014054
100
AcDbArc
 50
208.7340539991723
 51
209.6004958795895
  0
LINE
  5
483
330
18
100
AcDbEntity
  8
1
 62
     1
100
AcDbLine
 10
26.675
 20
-1.08519265625
 30
0.0
 11
26.675
 21
-1.08517960028169
 31
0.0
  0
LINE
  5
484
330
18
100
AcDbEntity
  8
1
 62
     1
100
AcDbLine
 10
26.675
 20
-1.08517960028169
 30
0.0
 11
26.675
 21
-1.081300728060101
 31
0.0
  0
LINE
  5
485
330
18
100
AcDbEntity
  8
1
 62
     1
100
AcDbLine
 10
26.675
 20
-1.081300728060101
 30
0.0
 11
26.675
 21
-1.025821260719346
 31
0.0
  0
LINE
  5
486
330
18
100
AcDbEntity
  8
1
 62
     1
100
AcDbLine
 10
27.06032798923242
 20
-1.716471065228002
 30
0.0
 11
27.06032798923242
 21
-1.7526
 31
0.0
  0
ARC
  5
487
330
18
100
AcDbEntity
  8
1
 62
     1
100
AcDbCircle
 10
-25.68491303929017
 20
28.19254293179247
 30
0.0
 40
60.65511631689755
100
AcDbArc
 50
330.4554998399631
 51
331.2025738381567
  0
LINE
  5
488
330
18
100
AcDbEntity
  8
1
 62
     1
100
AcDbLine
 10
27.08342201076762
 20
-1.716471065228002
 30
0.0
 11
27.08342201076761
 21
-1.7526
 31
0.0
  0
LINE
  5
489
330
18
100
AcDbEntity
  8
1
 62
     1
100
AcDbLine
 10
27.46875000000001
 20
-1.08519265625
 30
0.0
 11
27.08342201076761
 21
-1.752599999999972
 31
0.0
  0
LINE
  5
48A
330
18
100
AcDbEntity
  8
1
 62
     1
100
AcDbLine
 10
24.3034905
 20
-0.9915644550247862
 30
0.0
 11
24.3034905
 21
-1.183169961486918
 31
0.0
  0
LINE
  5
48B
330
18
100
AcDbEntity
  8
1
 62
     1
100
AcDbLine
 10
30.2584220107676
 20
-1.716471065228002
 30
0.0
 11
30.23532798923243
 21
-1.716471065228002
 31
0.0
  0
LINE
  5
48C
330
18
100
AcDbEntity
  8
1
 62
     1
100
AcDbLine
 10
33.47984719496237
 20
0.0304162755988251
 30
0.0
 11
33.37302188268497
 21
0.0262057775912487
 31
0.0
  0
LINE
  5
48D
330
18
100
AcDbEntity
  8
1
 62
     1
100
AcDbLine
 10
32.6396720107676
 20
0.0062084271427871
 30
0.0
 11
32.61657798923243
 21
0.0062084271427871
 31
0.0
  0
LINE
  5
48E
330
18
100
AcDbEntity
  8
1
 62
     1
100
AcDbLine
 10
31.84592201076759
 20
0.0062084271427871
 30
0.0
 11
31.8228279892324
 21
0.0062084271427871
 31
0.0
  0
LINE
  5
48F
330
18
100
AcDbEntity
  8
1
 62
     1
100
AcDbLine
 10
31.05217201076761
 20
0.0062084271427871
 30
0.0
 11
31.02907798923241
 21
0.0062084271427871
 31
0.0
  0
LINE
  5
490
330
18
100
AcDbEntity
  8
1
 62
     1
100
AcDbLine
 10
30.25842201076759
 20
0.0062084271427871
 30
0.0
 11
30.23532798923243
 21
0.0062084271427871
 31
0.0
  0
LINE
  5
491
330
18
100
AcDbEntity
  8
1
 62
     1
100
AcDbLine
 10
28.67092201076761
 20
0.0062084271427871
 30
0.0
 11
28.64782798923243
 21
0.0062084271427871
 31
0.0
  0
LINE
  5
492
330
18
100
AcDbEntity
  8
1
 62
     1
100
AcDbLine
 10
27.87717201076759
 20
0.0062084271427871
 30
0.0
 11
27.85407798923243
 21
0.0062084271427871
 31
0.0
  0
LINE
  5
493
330
18
100
AcDbEntity
  8
1
 62
     1
100
AcDbLine
 10
27.08342201076761
 20
0.0062084271427871
 30
0.0
 11
27.06032798923242
 21
0.0062084271427871
 31
0.0
  0
LINE
  5
494
330
18
100
AcDbEntity
  8
1
 62
     1
100
AcDbLine
 10
36.08334302942643
 20
-1.237608380537413
 30
0.0
 11
35.56698551495473
 21
-1.316835754508477
 31
0.0
  0
LINE
  5
495
330
18
100
AcDbEntity
  8
1
 62
     1
100
AcDbLine
 10
35.21551108460507
 20
-1.370577220914675
 30
0.0
 11
34.83566430554184
 21
-1.428509314874221
 31
0.0
  0
LINE
  5
496
330
18
100
AcDbEntity
  8
1
 62
     1
100
AcDbLine
 10
34.34767913978372
 20
-1.502736873171384
 30
0.0
 11
34.10434309344156
 21
-1.539677033687854
 31
0.0
  0
LINE
  5
497
330
18
100
AcDbEntity
  8
1
 62
     1
100
AcDbLine
 10
33.47984719496237
 20
-1.634283659128372
 30
0.0
 11
33.47984719496237
 21
-1.672189259715429
 31
0.0
  0
LINE
  5
498
330
18
100
AcDbEntity
  8
1
 62
     1
100
AcDbLine
 10
33.47984719537804
 20
-1.634283661876017
 30
0.0
 11
33.37302188268497
 21
-1.650441153374404
 31
0.0
  0
LINE
  5
499
330
18
100
AcDbEntity
  8
1
 62
     1
100
AcDbLine
 10
36.08334302942643
 20
1.287248362131987
 30
0.0
 11
36.08334302942643
 21
1.286950506541143
 31
0.0
  0
LINE
  5
49A
330
18
100
AcDbEntity
  8
1
 62
     1
100
AcDbLine
 10
36.08334302942643
 20
1.286950506541143
 30
0.0
 11
36.08334302942643
 21
1.26156144101609
 31
0.0
  0
LINE
  5
49B
330
18
100
AcDbEntity
  8
1
 62
     1
100
AcDbLine
 10
36.08334302942643
 20
1.26156144101609
 30
0.0
 11
36.08334302942642
 21
0.0564178892710312
 31
0.0
  0
ARC
  5
49C
330
18
100
AcDbEntity
  8
1
 62
     1
100
AcDbCircle
 10
36.00193214852112
 20
-0.3370835868523646
 30
0.0
 40
0.4018458904917858
100
AcDbArc
 50
60.47391267601342
 51
78.31108009290838
  0
LINE
  5
49D
330
18
100
AcDbEntity
  8
1
 62
     1
100
AcDbLine
 10
36.2
 20
1.27
 30
0.0
 11
37.47
 21
0.0
 31
0.0
  0
LINE
  5
49E
330
18
100
AcDbEntity
  8
1
 62
     1
100
AcDbLine
 10
36.41713062980079
 20
-0.9915644550247976
 30
0.0
 11
36.57124938200175
 21
-0.8199220478521959
 31
0.0
  0
LINE
  5
49F
330
18
100
AcDbEntity
  8
1
 62
     1
100
AcDbLine
 10
36.57124938200175
 20
-0.8199220478521959
 30
0.0
 11
36.6429190099951
 21
-0.7311291718511108
 31
0.0
  0
LINE
  5
4A0
330
18
100
AcDbEntity
  8
1
 62
     1
100
AcDbLine
 10
36.6429190099951
 20
-0.7311291718511108
 30
0.0
 11
36.67646165251807
 21
-0.6857523255357213
 31
0.0
  0
LINE
  5
4A1
330
18
100
AcDbEntity
  8
1
 62
     1
100
AcDbLine
 10
36.67646165251807
 20
-0.6857523255357213
 30
0.0
 11
36.70784808715506
 21
-0.639615425867451
 31
0.0
  0
LINE
  5
4A2
330
18
100
AcDbEntity
  8
1
 62
     1
100
AcDbLine
 10
36.70784808715506
 20
-0.639615425867451
 30
0.0
 11
36.73641843043015
 21
-0.5926436954604587
 31
0.0
  0
LINE
  5
4A3
330
18
100
AcDbEntity
  8
1
 62
     1
100
AcDbLine
 10
36.73641843043015
 20
-0.5926436954604587
 30
0.0
 11
36.74937975666931
 21
-0.5688359869972788
 31
0.0
  0
LINE
  5
4A4
330
18
100
AcDbEntity
  8
1
 62
     1
100
AcDbLine
 10
36.74937975666931
 20
-0.5688359869972788
 30
0.0
 11
36.76128389042479
 21
-0.544825306456638
 31
0.0
  0
LINE
  5
4A5
330
18
100
AcDbEntity
  8
1
 62
     1
100
AcDbLine
 10
36.76128389042479
 20
-0.544825306456638
 30
0.0
 11
36.77198223373797
 21
-0.5206312861800426
 31
0.0
  0
LINE
  5
4A6
330
18
100
AcDbEntity
  8
1
 62
     1
100
AcDbLine
 10
36.77198223373797
 20
-0.5206312861800426
 30
0.0
 11
36.78130944315146
 21
-0.4962962774514387
 31
0.0
  0
LINE
  5
4A7
330
18
100
AcDbEntity
  8
1
 62
     1
100
AcDbLine
 10
36.78130944315146
 20
-0.4962962774514387
 30
0.0
 11
36.78910160111882
 21
-0.4718744742701699
 31
0.0
  0
LINE
  5
4A8
330
18
100
AcDbEntity
  8
1
 62
     1
100
AcDbLine
 10
36.78910160111882
 20
-0.4718744742701699
 30
0.0
 11
36.79518649881096
 21
-0.4474643260637208
 31
0.0
  0
LINE
  5
4A9
330
18
100
AcDbEntity
  8
1
 62
     1
100
AcDbLine
 10
36.79518649881096
 20
-0.4474643260637208
 30
0.0
 11
36.7975439367568
 21
-0.4352926393483433
 31
0.0
  0
LINE
  5
4AA
330
18
100
AcDbEntity
  8
1
 62
     1
100
AcDbLine
 10
36.7975439367568
 20
-0.4352926393483433
 30
0.0
 11
36.79942196282822
 21
-0.4231630559328442
 31
0.0
  0
LINE
  5
4AB
330
18
100
AcDbEntity
  8
1
 62
     1
100
AcDbLine
 10
36.79942196282822
 20
-0.4231630559328442
 30
0.0
 11
36.80080947150325
 21
-0.4110884835932503
 31
0.0
  0
LINE
  5
4AC
330
18
100
AcDbEntity
  8
1
 62
     1
100
AcDbLine
 10
36.80080947150325
 20
-0.4110884835932503
 30
0.0
 11
36.80169535211956
 21
-0.3990933984657157
 31
0.0
  0
LINE
  5
4AD
330
18
100
AcDbEntity
  8
1
 62
     1
100
AcDbLine
 10
36.80169535211956
 20
-0.3990933984657157
 30
0.0
 11
36.80207253425763
 21
-0.3871879772514673
 31
0.0
  0
LINE
  5
4AE
330
18
100
AcDbEntity
  8
1
 62
     1
100
AcDbLine
 10
36.80207253425763
 20
-0.3871879772514673
 30
0.0
 11
36.80193997997664
 21
-0.3753914843581053
 31
0.0
  0
LINE
  5
4AF
330
18
100
AcDbEntity
  8
1
 62
     1
100
AcDbLine
 10
36.80193997997664
 20
-0.3753914843581053
 30
0.0
 11
36.80129726311092
 21
-0.3637259154407456
 31
0.0
  0
LINE
  5
4B0
330
18
100
AcDbEntity
  8
1
 62
     1
100
AcDbLine
 10
36.80129726311092
 20
-0.3637259154407456
 30
0.0
 11
36.80014897424098
 21
-0.3521987957624466
 31
0.0
  0
LINE
  5
4B1
330
18
100
AcDbEntity
  8
1
 62
     1
100
AcDbLine
 10
36.80014897424098
 20
-0.3521987957624466
 30
0.0
 11
36.79850502204189
 21
-0.3408302297748869
 31
0.0
  0
LINE
  5
4B2
330
18
100
AcDbEntity
  8
1
 62
     1
100
AcDbLine
 10
36.79850502204189
 20
-0.3408302297748869
 30
0.0
 11
36.79637541153951
 21
-0.329634303787785
 31
0.0
  0
LINE
  5
4B3
330
18
100
AcDbEntity
  8
1
 62
     1
100
AcDbLine
 10
36.79637541153951
 20
-0.329634303787785
 30
0.0
 11
36.79377478828078
 21
-0.3186167003939324
 31
0.0
  0
LINE
  5
4B4
330
18
100
AcDbEntity
  8
1
 62
     1
100
AcDbLine
 10
36.79377478828078
 20
-0.3186167003939324
 30
0.0
 11
36.79072133198724
 21
-0.3077933290589029
 31
0.0
  0
LINE
  5
4B5
330
18
100
AcDbEntity
  8
1
 62
     1
100
AcDbLine
 10
36.79072133198724
 20
-0.3077933290589029
 30
0.0
 11
36.78723179039655
 21
-0.2971681401140798
 31
0.0
  0
LINE
  5
4B6
330
18
100
AcDbEntity
  8
1
 62
     1
100
AcDbLine
 10
36.78723179039655
 20
-0.2971681401140798
 30
0.0
 11
36.78332682209492
 21
-0.2867461103091649
 31
0.0
  0
LINE
  5
4B7
330
18
100
AcDbEntity
  8
1
 62
     1
100
AcDbLine
 10
36.78332682209492
 20
-0.2867461103091649
 30
0.0
 11
36.77902818174626
 21
-0.276535441376806
 31
0.0
  0
LINE
  5
4B8
330
18
100
AcDbEntity
  8
1
 62
     1
100
AcDbLine
 10
36.77902818174626
 20
-0.276535441376806
 30
0.0
 11
36.77435406637071
 21
-0.2665322471708567
 31
0.0
  0
LINE
  5
4B9
330
18
100
AcDbEntity
  8
1
 62
     1
100
AcDbLine
 10
36.77435406637071
 20
-0.2665322471708567
 30
0.0
 11
36.76932642441581
 21
-0.256738323952721
 31
0.0
  0
LINE
  5
4BA
330
18
100
AcDbEntity
  8
1
 62
     1
100
AcDbLine
 10
36.76932642441581
 20
-0.256738323952721
 30
0.0
 11
36.76396799368336
 21
-0.2471572382027248
 31
0.0
  0
LINE
  5
4BB
330
18
100
AcDbEntity
  8
1
 62
     1
100
AcDbLine
 10
36.76396799368336
 20
-0.2471572382027248
 30
0.0
 11
36.75234115203391
 21
-0.2286318668829826
 31
0.0
  0
LINE
  5
4BC
330
18
100
AcDbEntity
  8
1
 62
     1
100
AcDbLine
 10
36.75234115203391
 20
-0.2286318668829826
 30
0.0
 11
36.73961883273352
 21
-0.2109232891516227
 31
0.0
  0
LINE
  5
4BD
330
18
100
AcDbEntity
  8
1
 62
     1
100
AcDbLine
 10
36.73961883273352
 20
-0.2109232891516227
 30
0.0
 11
36.72594719569298
 21
-0.1940128655610718
 31
0.0
  0
LINE
  5
4BE
330
18
100
AcDbEntity
  8
1
 62
     1
100
AcDbLine
 10
36.72594719569298
 20
-0.1940128655610718
 30
0.0
 11
36.71144162211113
 21
-0.1778599058339144
 31
0.0
  0
LINE
  5
4BF
330
18
100
AcDbEntity
  8
1
 62
     1
100
AcDbLine
 10
36.71144162211113
 20
-0.1778599058339144
 30
0.0
 11
36.69621515167938
 21
-0.1624357080187781
 31
0.0
  0
LINE
  5
4C0
330
18
100
AcDbEntity
  8
1
 62
     1
100
AcDbLine
 10
36.69621515167938
 20
-0.1624357080187781
 30
0.0
 11
36.6803547511273
 21
-0.147701468845721
 31
0.0
  0
LINE
  5
4C1
330
18
100
AcDbEntity
  8
1
 62
     1
100
AcDbLine
 10
36.6803547511273
 20
-0.147701468845721
 30
0.0
 11
36.66394516360533
 21
-0.1336287293798849
 31
0.0
  0
LINE
  5
4C2
330
18
100
AcDbEntity
  8
1
 62
     1
100
AcDbLine
 10
36.66394516360533
 20
-0.1336287293798849
 30
0.0
 11
36.64705272344781
 21
-0.1201848429107737
 31
0.0
  0
LINE
  5
4C3
330
18
100
AcDbEntity
  8
1
 62
     1
100
AcDbLine
 10
36.64705272344781
 20
-0.1201848429107737
 30
0.0
 11
36.6120372204109
 21
-0.0950678098926801
 31
0.0
  0
LINE
  5
4C4
330
18
100
AcDbEntity
  8
1
 62
     1
100
AcDbLine
 10
36.6120372204109
 20
-0.0950678098926801
 30
0.0
 11
36.57569881376804
 21
-0.0721677471645025
 31
0.0
  0
LINE
  5
4C5
330
18
100
AcDbEntity
  8
1
 62
     1
100
AcDbLine
 10
36.57569881376804
 20
-0.0721677471645025
 30
0.0
 11
36.53831935229894
 21
-0.0513273257437877
 31
0.0
  0
LINE
  5
4C6
330
18
100
AcDbEntity
  8
1
 62
     1
100
AcDbLine
 10
36.53831935229894
 20
-0.0513273257437877
 30
0.0
 11
36.50012038734877
 21
-0.0324255017197776
 31
0.0
  0
LINE
  5
4C7
330
18
100
AcDbEntity
  8
1
 62
     1
100
AcDbLine
 10
36.50012038734877
 20
-0.0324255017197776
 30
0.0
 11
36.46127029901864
 21
-0.015368676800451
 31
0.0
  0
LINE
  5
4C8
330
18
100
AcDbEntity
  8
1
 62
     1
100
AcDbLine
 10
36.46127029901864
 20
-0.015368676800451
 30
0.0
 11
36.42189949402231
 21
-0.0000821418731191
 31
0.0
  0
LINE
  5
4C9
330
18
100
AcDbEntity
  8
1
 62
     1
100
AcDbLine
 10
36.42189949402231
 20
-0.0000821418731191
 30
0.0
 11
36.38211666133937
 21
0.0134898889102506
 31
0.0
  0
LINE
  5
4CA
330
18
100
AcDbEntity
  8
1
 62
     1
100
AcDbLine
 10
36.38211666133937
 20
0.0134898889102506
 30
0.0
 11
36.34200856832211
 21
0.0253894672312731
 31
0.0
  0
LINE
  5
4CB
330
18
100
AcDbEntity
  8
1
 62
     1
100
AcDbLine
 10
36.34200856832211
 20
0.0253894672312731
 30
0.0
 11
36.30164481279682
 21
0.0356491100279577
 31
0.0
  0
LINE
  5
4CC
330
18
100
AcDbEntity
  8
1
 62
     1
100
AcDbLine
 10
36.30164481279682
 20
0.0356491100279577
 30
0.0
 11
36.26108749697045
 21
0.044291525518207
 31
0.0
  0
LINE
  5
4CD
330
18
100
AcDbEntity
  8
1
 62
     1
100
AcDbLine
 10
36.26108749697045
 20
0.044291525518207
 30
0.0
 11
36.2
 21
0.054256152367773
 31
0.0
  0
LINE
  5
4CE
330
18
100
AcDbEntity
  8
1
 62
     1
100
AcDbLine
 10
36.4171306298008
 20
-0.9915644550247977
 30
0.0
 11
36.2
 21
-1.21965821350286
 31
0.0
  0
LINE
  5
4CF
330
18
100
AcDbEntity
  8
1
 62
     1
100
AcDbLine
 10
36.20000000000001
 20
0.0542561523678673
 30
0.0
 11
36.2
 21
0.0126285398681929
 31
0.0
  0
LINE
  5
4D0
330
18
100
AcDbEntity
  8
1
 62
     1
100
AcDbLine
 10
36.2
 20
1.27
 30
0.0
 11
36.2
 21
1.269705666425511
 31
0.0
  0
LINE
  5
4D1
330
18
100
AcDbEntity
  8
1
 62
     1
100
AcDbLine
 10
36.2
 20
1.269705666425511
 30
0.0
 11
36.2
 21
1.244615733208981
 31
0.0
  0
LINE
  5
4D2
330
18
100
AcDbEntity
  8
1
 62
     1
100
AcDbLine
 10
36.2
 20
1.244615733208981
 30
0.0
 11
36.2
 21
0.0542561523677712
 31
0.0
  0
LINE
  5
4D3
330
18
100
AcDbEntity
  8
1
 62
     1
100
AcDbLine
 10
36.2
 20
-1.219658213502845
 30
0.0
 11
36.2
 21
-1.27
 31
0.0
  0
LINE
  5
4D4
330
18
100
AcDbEntity
  8
1
 62
     1
100
AcDbLine
 10
36.2
 20
-1.025821260719346
 30
0.0
 11
36.2
 21
-1.219658213502833
 31
0.0
  0
LINE
  5
4D5
330
18
100
AcDbEntity
  8
1
 62
     1
100
AcDbLine
 10
32.6396720107676
 20
-1.716471065228002
 30
0.0
 11
32.61657798923243
 21
-1.716471065228002
 31
0.0
  0
LINE
  5
4D6
330
18
100
AcDbEntity
  8
1
 62
     1
100
AcDbLine
 10
31.84592201076759
 20
-1.716471065228002
 30
0.0
 11
31.8228279892324
 21
-1.716471065228001
 31
0.0
  0
LINE
  5
4D7
330
18
100
AcDbEntity
  8
1
 62
     1
100
AcDbLine
 10
31.05217201076761
 20
-1.716471065228002
 30
0.0
 11
31.02907798923241
 21
-1.716471065228002
 31
0.0
  0
LINE
  5
4D8
330
18
100
AcDbEntity
  8
1
 62
     1
100
AcDbLine
 10
29.46467201076759
 20
-1.716471065228002
 30
0.0
 11
29.44157798923241
 21
-1.716471065228002
 31
0.0
  0
LINE
  5
4D9
330
18
100
AcDbEntity
  8
1
 62
     1
100
AcDbLine
 10
28.67092201076762
 20
-1.716471065228002
 30
0.0
 11
28.64782798923242
 21
-1.716471065228002
 31
0.0
  0
LINE
  5
4DA
330
18
100
AcDbEntity
  8
1
 62
     1
100
AcDbLine
 10
27.8771720107676
 20
-1.716471065228002
 30
0.0
 11
27.85407798923243
 21
-1.716471065228002
 31
0.0
  0
LINE
  5
4DB
330
18
100
AcDbEntity
  8
1
 62
     1
100
AcDbLine
 10
27.08342201076761
 20
-1.716471065228002
 30
0.0
 11
27.06032798923242
 21
-1.716471065228002
 31
0.0
  0
LINE
  5
4DC
330
18
100
AcDbEntity
  8
1
 62
     1
100
AcDbLine
 10
26.28967201076761
 20
-1.716471065228002
 30
0.0
 11
26.26657798923242
 21
-1.716471065228002
 31
0.0
  0
LINE
  5
4DD
330
18
100
AcDbEntity
  8
1
 62
     1
100
AcDbLine
 10
25.4959220107676
 20
-1.716471065228002
 30
0.0
 11
25.47282798923241
 21
-1.716471065228002
 31
0.0
  0
LINE
  5
4DE
330
18
100
AcDbEntity
  8
1
 62
     1
100
AcDbLine
 10
35.21551108460507
 20
1.415561994659803
 30
0.0
 11
35.21551108460507
 21
1.415234976350176
 31
0.0
  0
LINE
  5
4DF
330
18
100
AcDbEntity
  8
1
 62
     1
100
AcDbLine
 10
35.21551108460507
 20
1.415234976350176
 30
0.0
 11
35.21551108460507
 21
1.387361310206811
 31
0.0
  0
LINE
  5
4E0
330
18
100
AcDbEntity
  8
1
 62
     1
100
AcDbLine
 10
35.21551108460507
 20
1.387361310206811
 30
0.0
 11
35.21551108460507
 21
0.0636249960973498
 31
0.0
  0
LINE
  5
4E1
330
18
100
AcDbEntity
  8
1
 62
     1
100
AcDbLine
 10
35.21551108460507
 20
0.0636249960972952
 30
0.0
 11
35.2183385036773
 21
0.0636363914008806
 31
0.0
  0
LINE
  5
4E2
330
18
100
AcDbEntity
  8
1
 62
     1
100
AcDbLine
 10
35.2183385036773
 20
0.0636363914008806
 30
0.0
 11
35.21834002661788
 21
0.0636363913975785
 31
0.0
  0
LINE
  5
4E3
330
18
100
AcDbEntity
  8
1
 62
     1
100
AcDbLine
 10
34.6125
 20
0.0126285398681891
 30
0.0
 11
34.6125
 21
1.08519265625
 31
0.0
  0
ARC
  5
4E4
330
18
100
AcDbEntity
  8
1
 62
     1
100
AcDbCircle
 10
34.8058342879621
 20
-0.3263432425530741
 30
0.0
 40
0.3901939317694902
100
AcDbArc
 50
90.7971576562011
 51
119.6984946566044
  0
LINE
  5
4E5
330
18
100
AcDbEntity
  8
1
 62
     1
100
AcDbLine
 10
34.80040814233733
 20
0.0636363059227656
 30
0.0
 11
34.80040991515298
 21
0.0636363059154319
 31
0.0
  0
LINE
  5
4E6
330
18
100
AcDbEntity
  8
1
 62
     1
100
AcDbLine
 10
34.83566430419815
 20
1.47172438933639
 30
0.0
 11
34.83566430419815
 21
1.471382965765353
 31
0.0
  0
LINE
  5
4E7
330
18
100
AcDbEntity
  8
1
 62
     1
100
AcDbLine
 10
34.83566430419815
 20
1.471382965765353
 30
0.0
 11
34.83566430419815
 21
1.442278149312787
 31
0.0
  0
LINE
  5
4E8
330
18
100
AcDbEntity
  8
1
 62
     1
100
AcDbLine
 10
34.83566430419815
 20
1.442278149312787
 30
0.0
 11
34.83566430419815
 21
0.0618602850355798
 31
0.0
  0
LINE
  5
4E9
330
18
100
AcDbEntity
  8
1
 62
     1
100
AcDbLine
 10
34.34767913978372
 20
1.543875627187616
 30
0.0
 11
34.34767913978372
 21
1.543514194325257
 31
0.0
  0
LINE
  5
4EA
330
18
100
AcDbEntity
  8
1
 62
     1
100
AcDbLine
 10
34.34767913978372
 20
1.543514194325257
 30
0.0
 11
34.34767913978372
 21
1.512696081665757
 31
0.0
  0
LINE
  5
4EB
330
18
100
AcDbEntity
  8
1
 62
     1
100
AcDbLine
 10
34.34767913978372
 20
1.512696081665757
 30
0.0
 11
34.34767913978372
 21
0.0551363537390514
 31
0.0
  0
ARC
  5
4EC
330
18
100
AcDbEntity
  8
1
 62
     1
100
AcDbCircle
 10
34.42484026400724
 20
-0.290641351315875
 30
0.0
 40
0.354281595642881
100
AcDbArc
 50
90.04090324801005
 51
102.5795848593814
  0
LINE
  5
4ED
330
18
100
AcDbEntity
  8
1
 62
     1
100
AcDbLine
 10
34.42458734642
 20
0.0636363297162661
 30
0.0
 11
34.42459007474587
 21
0.0636363297056609
 31
0.0
  0
LINE
  5
4EE
330
18
100
AcDbEntity
  8
1
 62
     1
100
AcDbLine
 10
35.40625000000001
 20
0.0126285398681891
 30
0.0
 11
35.40625000000001
 21
1.08519265625
 31
0.0
  0
ARC
  5
4EF
330
18
100
AcDbEntity
  8
1
 62
     1
100
AcDbCircle
 10
35.60213041027091
 20
-0.3328534997753548
 30
0.0
 40
0.3971233523761108
100
AcDbArc
 50
95.07884717217712
 51
119.5522444394551
  0
LINE
  5
4F0
330
18
100
AcDbEntity
  8
1
 62
     1
100
AcDbLine
 10
35.56698551495474
 20
1.363594604927342
 30
0.0
 11
35.56698551495474
 21
1.363280023687977
 31
0.0
  0
LINE
  5
4F1
330
18
100
AcDbEntity
  8
1
 62
     1
100
AcDbLine
 10
35.56698551495474
 20
1.363280023687977
 30
0.0
 11
35.56698551495474
 21
1.336467435090587
 31
0.0
  0
LINE
  5
4F2
330
18
100
AcDbEntity
  8
1
 62
     1
100
AcDbLine
 10
35.56698551495474
 20
1.336467435090587
 30
0.0
 11
35.56698551495474
 21
0.06258610227187
 31
0.0
  0
LINE
  5
4F3
330
18
100
AcDbEntity
  8
1
 62
     1
100
AcDbLine
 10
33.81875
 20
0.0126285398681891
 30
0.0
 11
33.81875000000001
 21
1.08519265625
 31
0.0
  0
ARC
  5
4F4
330
18
100
AcDbEntity
  8
1
 62
     1
100
AcDbCircle
 10
34.01208428796225
 20
-0.3263432425535343
 30
0.0
 40
0.3901939317699716
100
AcDbArc
 50
90.7971576564517
 51
119.6984946565908
  0
LINE
  5
4F5
330
18
100
AcDbEntity
  8
1
 62
     1
100
AcDbLine
 10
34.00665814233577
 20
0.0636363059227656
 30
0.0
 11
34.00665991515299
 21
0.0636363059154319
 31
0.0
  0
LINE
  5
4F6
330
18
100
AcDbEntity
  8
1
 62
     1
100
AcDbLine
 10
34.10434309344155
 20
1.579854173745438
 30
0.0
 11
34.10434309344155
 21
1.579482112000849
 31
0.0
  0
LINE
  5
4F7
330
18
100
AcDbEntity
  8
1
 62
     1
100
AcDbLine
 10
34.10434309344155
 20
1.579482112000849
 30
0.0
 11
34.10434309344155
 21
1.547752584777956
 31
0.0
  0
LINE
  5
4F8
330
18
100
AcDbEntity
  8
1
 62
     1
100
AcDbLine
 10
34.10434309344155
 20
1.547752584777956
 30
0.0
 11
34.10434309344156
 21
0.0498783065418944
 31
0.0
  0
LINE
  5
4F9
330
18
100
AcDbEntity
  8
1
 62
     1
100
AcDbLine
 10
33.47984719496237
 20
1.672189259715429
 30
0.0
 11
33.47984719496238
 21
1.671787835356832
 31
0.0
  0
LINE
  5
4FA
330
18
100
AcDbEntity
  8
1
 62
     1
100
AcDbLine
 10
33.47984719496238
 20
1.671787835356832
 30
0.0
 11
33.47984719496237
 21
1.637536359415638
 31
0.0
  0
LINE
  5
4FB
330
18
100
AcDbEntity
  8
1
 62
     1
100
AcDbLine
 10
33.47984719496237
 20
1.637536359415638
 30
0.0
 11
33.47984719496237
 21
0.0304162755988252
 31
0.0
  0
ARC
  5
4FC
330
18
100
AcDbEntity
  8
1
 62
     1
100
AcDbCircle
 10
33.63330745546821
 20
-0.3063966855592258
 30
0.0
 40
0.3701092174840456
100
AcDbArc
 50
90.38321615899466
 51
114.4951755762073
  0
LINE
  5
4FD
330
18
100
AcDbEntity
  8
1
 62
     1
100
AcDbLine
 10
33.63083249824348
 20
0.0636359594632314
 30
0.0
 11
33.63084036987625
 21
0.0636359593750472
 31
0.0
  0
LINE
  5
4FE
330
18
100
AcDbEntity
  8
1
 62
     1
100
AcDbLine
 10
32.6396720107676
 20
1.7526
 30
0.0
 11
32.6396720107676
 21
1.752170397318349
 31
0.0
  0
LINE
  5
4FF
330
18
100
AcDbEntity
  8
1
 62
     1
100
AcDbLine
 10
32.6396720107676
 20
1.752170397318349
 30
0.0
 11
32.6396720107676
 21
1.71549359841117
 31
0.0
  0
LINE
  5
500
330
18
100
AcDbEntity
  8
1
 62
     1
100
AcDbLine
 10
32.6396720107676
 20
1.71549359841117
 30
0.0
 11
32.6396720107676
 21
0.0062084271427872
 31
0.0
  0
ARC
  5
501
330
18
100
AcDbEntity
  8
1
 62
     1
100
AcDbCircle
 10
32.84312777453872
 20
-0.323419214697126
 30
0.0
 40
0.387312114514251
100
AcDbArc
 50
90.89393558541789
 51
121.6840908960236
  0
LINE
  5
502
330
18
100
AcDbEntity
  8
1
 62
     1
100
AcDbLine
 10
32.83708839677256
 20
0.0636363902302434
 30
0.0
 11
32.83709002758401
 21
0.0636363902264572
 31
0.0
  0
LINE
  5
503
330
18
100
AcDbEntity
  8
1
 62
     1
100
AcDbLine
 10
33.02500000000001
 20
0.0126285398681891
 30
0.0
 11
33.02500000000001
 21
1.08519265625
 31
0.0
  0
ARC
  5
504
330
18
100
AcDbEntity
  8
1
 62
     1
100
AcDbCircle
 10
33.21833428796204
 20
-0.3263432425529598
 30
0.0
 40
0.3901939317693667
100
AcDbArc
 50
90.79715765611579
 51
119.6984946566064
  0
LINE
  5
505
330
18
100
AcDbEntity
  8
1
 62
     1
100
AcDbLine
 10
33.21290814233786
 20
0.0636363059227656
 30
0.0
 11
33.21290991515299
 21
0.0636363059154318
 31
0.0
  0
LINE
  5
506
330
18
100
AcDbEntity
  8
1
 62
     1
100
AcDbLine
 10
33.37302188268497
 20
1.687983958154485
 30
0.0
 11
33.37302188268497
 21
1.687577197480604
 31
0.0
  0
LINE
  5
507
330
18
100
AcDbEntity
  8
1
 62
     1
100
AcDbLine
 10
33.37302188268497
 20
1.687577197480604
 30
0.0
 11
33.37302188268497
 21
1.652866785681091
 31
0.0
  0
LINE
  5
508
330
18
100
AcDbEntity
  8
1
 62
     1
100
AcDbLine
 10
33.37302188268497
 20
1.652866785681091
 30
0.0
 11
33.37302188268496
 21
0.0262057775912486
 31
0.0
  0
LINE
  5
509
330
18
100
AcDbEntity
  8
1
 62
     1
100
AcDbLine
 10
32.23125
 20
0.0126285398681891
 30
0.0
 11
32.23125
 21
1.08519265625
 31
0.0
  0
ARC
  5
50A
330
18
100
AcDbEntity
  8
1
 62
     1
100
AcDbCircle
 10
32.42458428796211
 20
-0.3263432425531314
 30
0.0
 40
0.3901939317695468
100
AcDbArc
 50
90.79715765620728
 51
119.698494656602
  0
LINE
  5
50B
330
18
100
AcDbEntity
  8
1
 62
     1
100
AcDbLine
 10
32.4191581423373
 20
0.0636363059227657
 30
0.0
 11
32.41915991515299
 21
0.063636305915432
 31
0.0
  0
LINE
  5
50C
330
18
100
AcDbEntity
  8
1
 62
     1
100
AcDbLine
 10
32.61657798923243
 20
1.7526
 30
0.0
 11
32.61657798923243
 21
1.752170397318349
 31
0.0
  0
LINE
  5
50D
330
18
100
AcDbEntity
  8
1
 62
     1
100
AcDbLine
 10
32.61657798923243
 20
1.752170397318349
 30
0.0
 11
32.61657798923243
 21
1.71549359841117
 31
0.0
  0
LINE
  5
50E
330
18
100
AcDbEntity
  8
1
 62
     1
100
AcDbLine
 10
32.61657798923243
 20
1.71549359841117
 30
0.0
 11
32.61657798923243
 21
0.0062084271427872
 31
0.0
  0
LINE
  5
50F
330
18
100
AcDbEntity
  8
1
 62
     1
100
AcDbLine
 10
31.05217201076761
 20
1.7526
 30
0.0
 11
31.05217201076761
 21
1.752170397318349
 31
0.0
  0
LINE
  5
510
330
18
100
AcDbEntity
  8
1
 62
     1
100
AcDbLine
 10
31.05217201076761
 20
1.752170397318349
 30
0.0
 11
31.05217201076761
 21
1.71549359841117
 31
0.0
  0
LINE
  5
511
330
18
100
AcDbEntity
  8
1
 62
     1
100
AcDbLine
 10
31.05217201076761
 20
1.71549359841117
 30
0.0
 11
31.05217201076761
 21
0.0062084271427872
 31
0.0
  0
ARC
  5
512
330
18
100
AcDbEntity
  8
1
 62
     1
100
AcDbCircle
 10
31.25562777442304
 20
-0.3234192144095056
 30
0.0
 40
0.3873121142081975
100
AcDbArc
 50
90.89393539505211
 51
121.6840909038091
  0
LINE
  5
513
330
18
100
AcDbEntity
  8
1
 62
     1
100
AcDbLine
 10
31.24958839794768
 20
0.0636363902302434
 30
0.0
 11
31.24959002758399
 21
0.0636363902264572
 31
0.0
  0
LINE
  5
514
330
18
100
AcDbEntity
  8
1
 62
     1
100
AcDbLine
 10
31.4375
 20
0.0126285398681891
 30
0.0
 11
31.43750000000001
 21
1.08519265625
 31
0.0
  0
ARC
  5
515
330
18
100
AcDbEntity
  8
1
 62
     1
100
AcDbCircle
 10
31.63083428796318
 20
-0.3263432425559719
 30
0.0
 40
0.3901939317725505
100
AcDbArc
 50
90.7971576581736
 51
119.6984946565318
  0
LINE
  5
516
330
18
100
AcDbEntity
  8
1
 62
     1
100
AcDbLine
 10
31.62540814232494
 20
0.0636363059227656
 30
0.0
 11
31.62540991515298
 21
0.0636363059154319
 31
0.0
  0
LINE
  5
517
330
18
100
AcDbEntity
  8
1
 62
     1
100
AcDbLine
 10
31.82282798923242
 20
1.7526
 30
0.0
 11
31.82282798923242
 21
1.752170397318349
 31
0.0
  0
LINE
  5
518
330
18
100
AcDbEntity
  8
1
 62
     1
100
AcDbLine
 10
31.82282798923242
 20
1.752170397318349
 30
0.0
 11
31.82282798923242
 21
1.71549359841117
 31
0.0
  0
LINE
  5
519
330
18
100
AcDbEntity
  8
1
 62
     1
100
AcDbLine
 10
31.82282798923242
 20
1.71549359841117
 30
0.0
 11
31.82282798923241
 21
0.0062084271427872
 31
0.0
  0
LINE
  5
51A
330
18
100
AcDbEntity
  8
1
 62
     1
100
AcDbLine
 10
31.84592201076759
 20
1.7526
 30
0.0
 11
31.84592201076759
 21
1.752170397318349
 31
0.0
  0
LINE
  5
51B
330
18
100
AcDbEntity
  8
1
 62
     1
100
AcDbLine
 10
31.84592201076759
 20
1.752170397318349
 30
0.0
 11
31.84592201076759
 21
1.71549359841117
 31
0.0
  0
LINE
  5
51C
330
18
100
AcDbEntity
  8
1
 62
     1
100
AcDbLine
 10
31.84592201076759
 20
1.71549359841117
 30
0.0
 11
31.84592201076759
 21
0.0062084271427872
 31
0.0
  0
ARC
  5
51D
330
18
100
AcDbEntity
  8
1
 62
     1
100
AcDbCircle
 10
32.04937777442325
 20
-0.3234192144099846
 30
0.0
 40
0.3873121142087098
100
AcDbArc
 50
90.8939353953933
 51
121.6840909037971
  0
LINE
  5
51E
330
18
100
AcDbEntity
  8
1
 62
     1
100
AcDbLine
 10
32.04333839794558
 20
0.0636363902302433
 30
0.0
 11
32.04334002758399
 21
0.0636363902264571
 31
0.0
  0
LINE
  5
51F
330
18
100
AcDbEntity
  8
1
 62
     1
100
AcDbLine
 10
30.25842201076759
 20
1.7526
 30
0.0
 11
30.25842201076759
 21
1.752170397318349
 31
0.0
  0
LINE
  5
520
330
18
100
AcDbEntity
  8
1
 62
     1
100
AcDbLine
 10
30.25842201076759
 20
1.752170397318349
 30
0.0
 11
30.25842201076759
 21
1.71549359841117
 31
0.0
  0
LINE
  5
521
330
18
100
AcDbEntity
  8
1
 62
     1
100
AcDbLine
 10
30.25842201076759
 20
1.71549359841117
 30
0.0
 11
30.25842201076759
 21
0.0062084271427872
 31
0.0
  0
ARC
  5
522
330
18
100
AcDbEntity
  8
1
 62
     1
100
AcDbCircle
 10
30.46187777442305
 20
-0.3234192144094921
 30
0.0
 40
0.3873121142081878
100
AcDbArc
 50
90.8939353951021
 51
121.6840909038112
  0
LINE
  5
523
330
18
100
AcDbEntity
  8
1
 62
     1
100
AcDbLine
 10
30.45583839794736
 20
0.0636363902302433
 30
0.0
 11
30.45584002758399
 21
0.0636363902264572
 31
0.0
  0
LINE
  5
524
330
18
100
AcDbEntity
  8
1
 62
     1
100
AcDbLine
 10
30.64375
 20
0.0126285398681891
 30
0.0
 11
30.64375
 21
1.08519265625
 31
0.0
  0
ARC
  5
525
330
18
100
AcDbEntity
  8
1
 62
     1
100
AcDbCircle
 10
30.83708428796205
 20
-0.326343242552982
 30
0.0
 40
0.3901939317693899
100
AcDbArc
 50
90.79715765611049
 51
119.6984946566061
  0
LINE
  5
526
330
18
100
AcDbEntity
  8
1
 62
     1
100
AcDbLine
 10
30.8316581423379
 20
0.0636363059227657
 30
0.0
 11
30.83165991515298
 21
0.063636305915432
 31
0.0
  0
LINE
  5
527
330
18
100
AcDbEntity
  8
1
 62
     1
100
AcDbLine
 10
31.02907798923242
 20
1.7526
 30
0.0
 11
31.02907798923242
 21
1.752170397318349
 31
0.0
  0
LINE
  5
528
330
18
100
AcDbEntity
  8
1
 62
     1
100
AcDbLine
 10
31.02907798923242
 20
1.752170397318349
 30
0.0
 11
31.02907798923242
 21
1.71549359841117
 31
0.0
  0
LINE
  5
529
330
18
100
AcDbEntity
  8
1
 62
     1
100
AcDbLine
 10
31.02907798923242
 20
1.71549359841117
 30
0.0
 11
31.02907798923242
 21
0.0062084271427872
 31
0.0
  0
LINE
  5
52A
330
18
100
AcDbEntity
  8
1
 62
     1
100
AcDbLine
 10
29.85
 20
0.0126285398681891
 30
0.0
 11
29.85
 21
1.08519265625
 31
0.0
  0
ARC
  5
52B
330
18
100
AcDbEntity
  8
1
 62
     1
100
AcDbCircle
 10
30.04333428796185
 20
-0.3263432425524806
 30
0.0
 40
0.390193931768855
100
AcDbArc
 50
90.79715765567472
 51
119.6984946566167
  0
LINE
  5
52C
330
18
100
AcDbEntity
  8
1
 62
     1
100
AcDbLine
 10
30.03790814234068
 20
0.0636363059227656
 30
0.0
 11
30.03790991515299
 21
0.0636363059154319
 31
0.0
  0
LINE
  5
52D
330
18
100
AcDbEntity
  8
1
 62
     1
100
AcDbLine
 10
30.23532798923243
 20
1.7526
 30
0.0
 11
30.23532798923242
 21
1.752170397318349
 31
0.0
  0
LINE
  5
52E
330
18
100
AcDbEntity
  8
1
 62
     1
100
AcDbLine
 10
30.23532798923242
 20
1.752170397318349
 30
0.0
 11
30.23532798923243
 21
1.71549359841117
 31
0.0
  0
LINE
  5
52F
330
18
100
AcDbEntity
  8
1
 62
     1
100
AcDbLine
 10
30.23532798923243
 20
1.71549359841117
 30
0.0
 11
30.23532798923242
 21
0.0062084271427872
 31
0.0
  0
LINE
  5
530
330
18
100
AcDbEntity
  8
1
 62
     1
100
AcDbLine
 10
29.46467201076759
 20
1.7526
 30
0.0
 11
29.46467201076759
 21
1.752170397318349
 31
0.0
  0
LINE
  5
531
330
18
100
AcDbEntity
  8
1
 62
     1
100
AcDbLine
 10
29.46467201076759
 20
1.752170397318349
 30
0.0
 11
29.46467201076759
 21
1.71549359841117
 31
0.0
  0
LINE
  5
532
330
18
100
AcDbEntity
  8
1
 62
     1
100
AcDbLine
 10
29.46467201076759
 20
1.71549359841117
 30
0.0
 11
29.46467201076759
 21
0.0062084271427872
 31
0.0
  0
ARC
  5
533
330
18
100
AcDbEntity
  8
1
 62
     1
100
AcDbCircle
 10
29.66812777442297
 20
-0.323419214409329
 30
0.0
 40
0.3873121142080085
100
AcDbArc
 50
90.89393539493318
 51
121.684090903814
  0
LINE
  5
534
330
18
100
AcDbEntity
  8
1
 62
     1
100
AcDbLine
 10
29.66208839794842
 20
0.0636363902302432
 30
0.0
 11
29.662090027584
 21
0.063636390226457
 31
0.0
  0
LINE
  5
535
330
18
100
AcDbEntity
  8
1
 62
     1
100
AcDbLine
 10
29.05625
 20
0.0126285398681891
 30
0.0
 11
29.05625000000001
 21
1.08519265625
 31
0.0
  0
ARC
  5
536
330
18
100
AcDbEntity
  8
1
 62
     1
100
AcDbCircle
 10
29.24958428796256
 20
-0.326343242554333
 30
0.0
 40
0.3901939317708163
100
AcDbArc
 50
90.79715765698501
 51
119.6984946565722
  0
LINE
  5
537
330
18
100
AcDbEntity
  8
1
 62
     1
100
AcDbLine
 10
29.24415814233244
 20
0.0636363059227656
 30
0.0
 11
29.244159915153
 21
0.0636363059154319
 31
0.0
  0
LINE
  5
538
330
18
100
AcDbEntity
  8
1
 62
     1
100
AcDbLine
 10
29.44157798923242
 20
1.7526
 30
0.0
 11
29.44157798923242
 21
1.752170397318349
 31
0.0
  0
LINE
  5
539
330
18
100
AcDbEntity
  8
1
 62
     1
100
AcDbLine
 10
29.44157798923242
 20
1.752170397318349
 30
0.0
 11
29.44157798923242
 21
1.71549359841117
 31
0.0
  0
LINE
  5
53A
330
18
100
AcDbEntity
  8
1
 62
     1
100
AcDbLine
 10
29.44157798923242
 20
1.71549359841117
 30
0.0
 11
29.44157798923242
 21
0.0062084271427872
 31
0.0
  0
LINE
  5
53B
330
18
100
AcDbEntity
  8
1
 62
     1
100
AcDbLine
 10
28.67092201076761
 20
1.7526
 30
0.0
 11
28.6709220107676
 21
1.752170397318349
 31
0.0
  0
LINE
  5
53C
330
18
100
AcDbEntity
  8
1
 62
     1
100
AcDbLine
 10
28.6709220107676
 20
1.752170397318349
 30
0.0
 11
28.67092201076761
 21
1.71549359841117
 31
0.0
  0
LINE
  5
53D
330
18
100
AcDbEntity
  8
1
 62
     1
100
AcDbLine
 10
28.67092201076761
 20
1.71549359841117
 30
0.0
 11
28.67092201076761
 21
0.0062084271427872
 31
0.0
  0
ARC
  5
53E
330
18
100
AcDbEntity
  8
1
 62
     1
100
AcDbCircle
 10
28.87437777453878
 20
-0.3234192146972537
 30
0.0
 40
0.3873121145143861
100
AcDbArc
 50
90.89393558549699
 51
121.6840908960204
  0
LINE
  5
53F
330
18
100
AcDbEntity
  8
1
 62
     1
100
AcDbLine
 10
28.86833839677208
 20
0.0636363902302432
 30
0.0
 11
28.86834002758398
 21
0.0636363902264571
 31
0.0
  0
ARC
  5
540
330
18
100
AcDbEntity
  8
1
 62
     1
100
AcDbCircle
 10
28.45583428796254
 20
-0.3263432425542682
 30
0.0
 40
0.3901939317707478
100
AcDbArc
 50
90.7971576569726
 51
119.6984946565737
  0
LINE
  5
541
330
18
100
AcDbEntity
  8
1
 62
     1
100
AcDbLine
 10
28.4504081423325
 20
0.0636363059227656
 30
0.0
 11
28.450409915153
 21
0.0636363059154319
 31
0.0
  0
LINE
  5
542
330
18
100
AcDbEntity
  8
1
 62
     1
100
AcDbLine
 10
28.64782798923242
 20
1.7526
 30
0.0
 11
28.64782798923242
 21
1.752170397318349
 31
0.0
  0
LINE
  5
543
330
18
100
AcDbEntity
  8
1
 62
     1
100
AcDbLine
 10
28.64782798923242
 20
1.752170397318349
 30
0.0
 11
28.64782798923242
 21
1.71549359841117
 31
0.0
  0
LINE
  5
544
330
18
100
AcDbEntity
  8
1
 62
     1
100
AcDbLine
 10
28.64782798923242
 20
1.71549359841117
 30
0.0
 11
28.64782798923241
 21
0.0062084271427872
 31
0.0
  0
LINE
  5
545
330
18
100
AcDbEntity
  8
1
 62
     1
100
AcDbLine
 10
27.87717201076759
 20
1.7526
 30
0.0
 11
27.87717201076759
 21
1.752170397318349
 31
0.0
  0
LINE
  5
546
330
18
100
AcDbEntity
  8
1
 62
     1
100
AcDbLine
 10
27.87717201076759
 20
1.752170397318349
 30
0.0
 11
27.87717201076759
 21
1.71549359841117
 31
0.0
  0
LINE
  5
547
330
18
100
AcDbEntity
  8
1
 62
     1
100
AcDbLine
 10
27.87717201076759
 20
1.71549359841117
 30
0.0
 11
27.87717201076759
 21
0.0062084271427872
 31
0.0
  0
ARC
  5
548
330
18
100
AcDbEntity
  8
1
 62
     1
100
AcDbCircle
 10
28.08062777453868
 20
-0.3234192146970249
 30
0.0
 40
0.3873121145141424
100
AcDbArc
 50
90.89393558533455
 51
121.6840908960271
  0
LINE
  5
549
330
18
100
AcDbEntity
  8
1
 62
     1
100
AcDbLine
 10
28.07458839677309
 20
0.0636363902302433
 30
0.0
 11
28.07459002758398
 21
0.0636363902264571
 31
0.0
  0
LINE
  5
54A
330
18
100
AcDbEntity
  8
1
 62
     1
100
AcDbLine
 10
28.2625
 20
0.0126285398681891
 30
0.0
 11
28.26250000000001
 21
1.08519265625
 31
0.0
  0
LINE
  5
54B
330
18
100
AcDbEntity
  8
1
 62
     1
100
AcDbLine
 10
27.46875
 20
0.0126285398681891
 30
0.0
 11
27.46875000000001
 21
1.08519265625
 31
0.0
  0
ARC
  5
54C
330
18
100
AcDbEntity
  8
1
 62
     1
100
AcDbCircle
 10
27.66208428796318
 20
-0.3263432425559799
 30
0.0
 40
0.3901939317725603
100
AcDbArc
 50
90.79715765816577
 51
119.6984946565317
  0
LINE
  5
54D
330
18
100
AcDbEntity
  8
1
 62
     1
100
AcDbLine
 10
27.656658142325
 20
0.0636363059227657
 30
0.0
 11
27.65665991515299
 21
0.063636305915432
 31
0.0
  0
LINE
  5
54E
330
18
100
AcDbEntity
  8
1
 62
     1
100
AcDbLine
 10
27.85407798923242
 20
1.7526
 30
0.0
 11
27.85407798923242
 21
1.752170397318349
 31
0.0
  0
LINE
  5
54F
330
18
100
AcDbEntity
  8
1
 62
     1
100
AcDbLine
 10
27.85407798923242
 20
1.752170397318349
 30
0.0
 11
27.85407798923243
 21
1.71549359841117
 31
0.0
  0
LINE
  5
550
330
18
100
AcDbEntity
  8
1
 62
     1
100
AcDbLine
 10
27.85407798923243
 20
1.71549359841117
 30
0.0
 11
27.85407798923242
 21
0.0062084271427872
 31
0.0
  0
LINE
  5
551
330
18
100
AcDbEntity
  8
1
 62
     1
100
AcDbLine
 10
27.08342201076761
 20
1.7526
 30
0.0
 11
27.08342201076761
 21
1.752170397318349
 31
0.0
  0
LINE
  5
552
330
18
100
AcDbEntity
  8
1
 62
     1
100
AcDbLine
 10
27.08342201076761
 20
1.752170397318349
 30
0.0
 11
27.08342201076761
 21
1.71549359841117
 31
0.0
  0
LINE
  5
553
330
18
100
AcDbEntity
  8
1
 62
     1
100
AcDbLine
 10
27.08342201076761
 20
1.71549359841117
 30
0.0
 11
27.08342201076761
 21
0.0062084271427872
 31
0.0
  0
ARC
  5
554
330
18
100
AcDbEntity
  8
1
 62
     1
100
AcDbCircle
 10
27.28687777453872
 20
-0.3234192146971085
 30
0.0
 40
0.3873121145142329
100
AcDbArc
 50
90.89393558542217
 51
121.6840908960245
  0
LINE
  5
555
330
18
100
AcDbEntity
  8
1
 62
     1
100
AcDbLine
 10
27.28083839677253
 20
0.0636363902302433
 30
0.0
 11
27.28084002758398
 21
0.0636363902264572
 31
0.0
  0
LINE
  5
556
330
18
100
AcDbEntity
  8
1
 62
     1
100
AcDbLine
 10
24.82662905138831
 20
-1.495707269768667
 30
0.0
 11
24.3034905
 21
-1.183169961486918
 31
0.0
  0
ARC
  5
557
330
18
100
AcDbEntity
  8
1
 62
     1
100
AcDbCircle
 10
25.28083428796171
 20
-0.3263432425520987
 30
0.0
 40
0.390193931768453
100
AcDbArc
 50
90.79715765546209
 51
119.6984946566269
  0
LINE
  5
558
330
18
100
AcDbEntity
  8
1
 62
     1
100
AcDbLine
 10
25.27540814234199
 20
0.0636363059227655
 30
0.0
 11
25.27540991515299
 21
0.0636363059154318
 31
0.0
  0
LINE
  5
559
330
18
100
AcDbEntity
  8
1
 62
     1
100
AcDbLine
 10
25.47282798923242
 20
1.7526
 30
0.0
 11
25.47282798923242
 21
1.752170397318349
 31
0.0
  0
LINE
  5
55A
330
18
100
AcDbEntity
  8
1
 62
     1
100
AcDbLine
 10
25.47282798923242
 20
1.752170397318349
 30
0.0
 11
25.47282798923242
 21
1.71549359841117
 31
0.0
  0
LINE
  5
55B
330
18
100
AcDbEntity
  8
1
 62
     1
100
AcDbLine
 10
25.47282798923242
 20
1.71549359841117
 30
0.0
 11
25.47282798923241
 21
0.0062084271427872
 31
0.0
  0
LINE
  5
55C
330
18
100
AcDbEntity
  8
1
 62
     1
100
AcDbLine
 10
24.82662905138831
 20
1.537034182792916
 30
0.0
 11
24.82662905138831
 21
1.536674721318668
 31
0.0
  0
LINE
  5
55D
330
18
100
AcDbEntity
  8
1
 62
     1
100
AcDbLine
 10
24.82662905138831
 20
1.536674721318668
 30
0.0
 11
24.8266290513883
 21
1.506025557346496
 31
0.0
  0
LINE
  5
55E
330
18
100
AcDbEntity
  8
1
 62
     1
100
AcDbLine
 10
24.8266290513883
 20
1.506025557346496
 30
0.0
 11
24.8266290513883
 21
0.0559915843349285
 31
0.0
  0
ARC
  5
55F
330
18
100
AcDbEntity
  8
1
 62
     1
100
AcDbCircle
 10
24.89979942544844
 20
-0.2901778572450792
 30
0.0
 40
0.3538173210545013
100
AcDbArc
 50
90.03434647868124
 51
101.9350235843081
  0
LINE
  5
560
330
18
100
AcDbEntity
  8
1
 62
     1
100
AcDbLine
 10
24.89958732825569
 20
0.0636363619049275
 30
0.0
 11
24.89959005028169
 21
0.0636363618943726
 31
0.0
  0
LINE
  5
561
330
18
100
AcDbEntity
  8
1
 62
     1
100
AcDbLine
 10
25.08750000000001
 20
0.0126285398681891
 30
0.0
 11
25.08750000000001
 21
1.08519265625
 31
0.0
  0
LINE
  5
562
330
18
100
AcDbEntity
  8
1
 62
     1
100
AcDbLine
 10
25.49592201076759
 20
1.7526
 30
0.0
 11
25.49592201076759
 21
1.752170397318349
 31
0.0
  0
LINE
  5
563
330
18
100
AcDbEntity
  8
1
 62
     1
100
AcDbLine
 10
25.49592201076759
 20
1.752170397318349
 30
0.0
 11
25.49592201076759
 21
1.71549359841117
 31
0.0
  0
LINE
  5
564
330
18
100
AcDbEntity
  8
1
 62
     1
100
AcDbLine
 10
25.49592201076759
 20
1.71549359841117
 30
0.0
 11
25.49592201076759
 21
0.0062084271427872
 31
0.0
  0
ARC
  5
565
330
18
100
AcDbEntity
  8
1
 62
     1
100
AcDbCircle
 10
25.6993777745388
 20
-0.3234192146973087
 30
0.0
 40
0.3873121145144443
100
AcDbArc
 50
90.8939355855063
 51
121.6840908960194
  0
LINE
  5
566
330
18
100
AcDbEntity
  8
1
 62
     1
100
AcDbLine
 10
25.69333839677204
 20
0.0636363902302432
 30
0.0
 11
25.69334002758401
 21
0.0636363902264571
 31
0.0
  0
LINE
  5
567
330
18
100
AcDbEntity
  8
1
 62
     1
100
AcDbLine
 10
25.88125
 20
0.0126285398681891
 30
0.0
 11
25.88125
 21
1.08519265625
 31
0.0
  0
ARC
  5
568
330
18
100
AcDbEntity
  8
1
 62
     1
100
AcDbCircle
 10
26.07458428796215
 20
-0.3263432425532165
 30
0.0
 40
0.3901939317696412
100
AcDbArc
 50
90.79715765631614
 51
119.6984946566008
  0
LINE
  5
569
330
18
100
AcDbEntity
  8
1
 62
     1
100
AcDbLine
 10
26.0691581423366
 20
0.0636363059227655
 30
0.0
 11
26.06915991515299
 21
0.0636363059154318
 31
0.0
  0
LINE
  5
56A
330
18
100
AcDbEntity
  8
1
 62
     1
100
AcDbLine
 10
26.26657798923241
 20
1.7526
 30
0.0
 11
26.26657798923241
 21
1.752170397318349
 31
0.0
  0
LINE
  5
56B
330
18
100
AcDbEntity
  8
1
 62
     1
100
AcDbLine
 10
26.26657798923241
 20
1.752170397318349
 30
0.0
 11
26.26657798923241
 21
1.71549359841117
 31
0.0
  0
LINE
  5
56C
330
18
100
AcDbEntity
  8
1
 62
     1
100
AcDbLine
 10
26.26657798923241
 20
1.71549359841117
 30
0.0
 11
26.26657798923241
 21
0.0062084271427872
 31
0.0
  0
LINE
  5
56D
330
18
100
AcDbEntity
  8
1
 62
     1
100
AcDbLine
 10
26.28967201076761
 20
1.7526
 30
0.0
 11
26.28967201076761
 21
1.752170397318349
 31
0.0
  0
LINE
  5
56E
330
18
100
AcDbEntity
  8
1
 62
     1
100
AcDbLine
 10
26.28967201076761
 20
1.752170397318349
 30
0.0
 11
26.28967201076761
 21
1.71549359841117
 31
0.0
  0
LINE
  5
56F
330
18
100
AcDbEntity
  8
1
 62
     1
100
AcDbLine
 10
26.28967201076761
 20
1.71549359841117
 30
0.0
 11
26.28967201076761
 21
0.0062084271427872
 31
0.0
  0
ARC
  5
570
330
18
100
AcDbEntity
  8
1
 62
     1
100
AcDbCircle
 10
26.49312777442298
 20
-0.3234192144093317
 30
0.0
 40
0.3873121142080175
100
AcDbArc
 50
90.8939353949931
 51
121.6840909038146
  0
LINE
  5
571
330
18
100
AcDbEntity
  8
1
 62
     1
100
AcDbLine
 10
26.48708839794802
 20
0.0636363902302434
 30
0.0
 11
26.48709002758399
 21
0.0636363902264572
 31
0.0
  0
LINE
  5
572
330
18
100
AcDbEntity
  8
1
 62
     1
100
AcDbLine
 10
26.675
 20
0.0126285398681891
 30
0.0
 11
26.675
 21
1.08519265625
 31
0.0
  0
ARC
  5
573
330
18
100
AcDbEntity
  8
1
 62
     1
100
AcDbCircle
 10
26.86833428796243
 20
-0.3263432425539777
 30
0.0
 40
0.3901939317704444
100
AcDbArc
 50
90.79715765682604
 51
119.6984946565817
  0
LINE
  5
574
330
18
100
AcDbEntity
  8
1
 62
     1
100
AcDbLine
 10
26.8629081423334
 20
0.0636363059227657
 30
0.0
 11
26.86290991515298
 21
0.0636363059154319
 31
0.0
  0
LINE
  5
575
330
18
100
AcDbEntity
  8
1
 62
     1
100
AcDbLine
 10
27.06032798923242
 20
1.7526
 30
0.0
 11
27.06032798923242
 21
1.752170397318349
 31
0.0
  0
LINE
  5
576
330
18
100
AcDbEntity
  8
1
 62
     1
100
AcDbLine
 10
27.06032798923242
 20
1.752170397318349
 30
0.0
 11
27.06032798923242
 21
1.71549359841117
 31
0.0
  0
LINE
  5
577
330
18
100
AcDbEntity
  8
1
 62
     1
100
AcDbLine
 10
27.06032798923242
 20
1.71549359841117
 30
0.0
 11
27.06032798923242
 21
0.0062084271427872
 31
0.0
  0
LINE
  5
578
330
18
100
AcDbEntity
  8
1
 62
     1
100
AcDbLine
 10
24.3034905
 20
-1.183169961486918
 30
0.0
 11
24.3034905
 21
-1.222594907076966
 31
0.0
  0
LINE
  5
579
330
18
100
AcDbEntity
  8
1
 62
     1
100
AcDbLine
 10
24.3034905
 20
-1.222594907076966
 30
0.0
 11
24.3034905
 21
-1.235
 31
0.0
  0
LINE
  5
57A
330
18
100
AcDbEntity
  8
1
 62
     1
100
AcDbLine
 10
24.30349050000001
 20
0.0489904252086631
 30
0.0
 11
24.3034905
 21
-0.991564455024798
 31
0.0
  0
LINE
  5
57B
330
18
100
AcDbEntity
  8
1
 62
     1
100
AcDbLine
 10
24.3034905
 20
1.235
 30
0.0
 11
24.3034905
 21
1.234995542493078
 31
0.0
  0
LINE
  5
57C
330
18
100
AcDbEntity
  8
1
 62
     1
100
AcDbLine
 10
24.3034905
 20
1.234995542493078
 30
0.0
 11
24.30349050000001
 21
1.233689225743747
 31
0.0
  0
LINE
  5
57D
330
18
100
AcDbEntity
  8
1
 62
     1
100
AcDbLine
 10
24.30349050000001
 20
1.233689225743747
 30
0.0
 11
24.3034905
 21
1.215545752735419
 31
0.0
  0
LINE
  5
57E
330
18
100
AcDbEntity
  8
1
 62
     1
100
AcDbLine
 10
24.3034905
 20
1.215545752735419
 30
0.0
 11
24.30349050000001
 21
0.0489904252093733
 31
0.0
  0
ARC
  5
57F
330
18
100
AcDbEntity
  8
1
 62
     1
100
AcDbCircle
 10
35.21551223460265
 20
-0.3163393476327541
 30
0.0
 40
0.3800266860740216
100
AcDbArc
 50
59.89455752768392
 51
89.57361078573474
  0
ARC
  5
580
330
18
100
AcDbEntity
  8
1
 62
     1
100
AcDbCircle
 10
34.80040946873162
 20
-0.2871353839236631
 30
0.0
 40
0.3507717085750904
100
AcDbArc
 50
84.23166456064801
 51
89.99992708060611
  0
ARC
  5
581
330
18
100
AcDbEntity
  8
1
 62
     1
100
AcDbCircle
 10
34.42176247195457
 20
-0.3163389014025933
 30
0.0
 40
0.3800261741331246
100
AcDbArc
 50
59.89455474144539
 51
89.57363874694529
  0
ARC
  5
582
330
18
100
AcDbEntity
  8
1
 62
     1
100
AcDbCircle
 10
34.00640786184329
 20
-0.2912733185549043
 30
0.0
 40
0.3549126093252021
100
AcDbArc
 50
73.98268601794553
 51
89.95930911016752
  0
ARC
  5
583
330
18
100
AcDbEntity
  8
1
 62
     1
100
AcDbCircle
 10
33.62801474672286
 20
-0.31633317313625
 30
0.0
 40
0.3800200934334586
100
AcDbArc
 50
59.89441832706292
 51
89.573930398298
  0
ARC
  5
584
330
18
100
AcDbEntity
  8
1
 62
     1
100
AcDbCircle
 10
33.21149469133533
 20
-0.3019062180389673
 30
0.0
 40
0.3655690934209753
100
AcDbArc
 50
63.78930622008518
 51
89.77817643263765
  0
LINE
  5
585
330
18
100
AcDbEntity
  8
1
 62
     1
100
AcDbLine
 10
33.63084036987624
 20
0.0636363979897931
 30
0.0
 11
33.63083249824361
 21
0.0636363979897931
 31
0.0
  0
ARC
  5
586
330
18
100
AcDbEntity
  8
1
 62
     1
100
AcDbCircle
 10
32.83426224270214
 20
-0.3163393214485741
 30
0.0
 40
0.3800266584752822
100
AcDbArc
 50
59.89455660452157
 51
89.57361183060456
  0
ARC
  5
587
330
18
100
AcDbEntity
  8
1
 62
     1
100
AcDbCircle
 10
32.41628785432779
 20
-0.3116103743736023
 30
0.0
 40
0.3753145016637229
100
AcDbArc
 50
57.78077603854909
 51
89.56147846399459
  0
ARC
  5
588
330
18
100
AcDbEntity
  8
1
 62
     1
100
AcDbCircle
 10
32.04051224270214
 20
-0.3163393214486162
 30
0.0
 40
0.3800266584753217
100
AcDbArc
 50
59.89455660452473
 51
89.57361183060782
  0
ARC
  5
589
330
18
100
AcDbEntity
  8
1
 62
     1
100
AcDbCircle
 10
31.62253785432778
 20
-0.3116103743736841
 30
0.0
 40
0.3753145016638039
100
AcDbArc
 50
57.78077603855608
 51
89.56147846399308
  0
ARC
  5
58A
330
18
100
AcDbEntity
  8
1
 62
     1
100
AcDbCircle
 10
31.24676224270216
 20
-0.3163393214484993
 30
0.0
 40
0.3800266584752058
100
AcDbArc
 50
59.89455660451866
 51
89.57361183060928
  0
ARC
  5
58B
330
18
100
AcDbEntity
  8
1
 62
     1
100
AcDbCircle
 10
30.82878785432779
 20
-0.3116103743736543
 30
0.0
 40
0.3753145016637743
100
AcDbArc
 50
57.78077603855352
 51
89.5614784639941
  0
ARC
  5
58C
330
18
100
AcDbEntity
  8
1
 62
     1
100
AcDbCircle
 10
30.45301224270217
 20
-0.3163393214484355
 30
0.0
 40
0.3800266584751419
100
AcDbArc
 50
59.8945566045157
 51
89.57361183061244
  0
ARC
  5
58D
330
18
100
AcDbEntity
  8
1
 62
     1
100
AcDbCircle
 10
30.03503785432778
 20
-0.3116103743736857
 30
0.0
 40
0.3753145016638074
100
AcDbArc
 50
57.78077603855352
 51
89.56147846399145
  0
ARC
  5
58E
330
18
100
AcDbEntity
  8
1
 62
     1
100
AcDbCircle
 10
29.65926224270213
 20
-0.3163393214486341
 30
0.0
 40
0.3800266584753402
100
AcDbArc
 50
59.89455660452561
 51
89.57361183060677
  0
ARC
  5
58F
330
18
100
AcDbEntity
  8
1
 62
     1
100
AcDbCircle
 10
29.2412878543278
 20
-0.3116103743735611
 30
0.0
 40
0.3753145016636824
100
AcDbArc
 50
57.78077603854874
 51
89.56147846399564
  0
ARC
  5
590
330
18
100
AcDbEntity
  8
1
 62
     1
100
AcDbCircle
 10
28.86551224270219
 20
-0.3163393214483581
 30
0.0
 40
0.3800266584750643
100
AcDbArc
 50
59.89455660451218
 51
89.57361183061663
  0
ARC
  5
591
330
18
100
AcDbEntity
  8
1
 62
     1
100
AcDbCircle
 10
28.44753785432779
 20
-0.3116103743735888
 30
0.0
 40
0.3753145016637097
100
AcDbArc
 50
57.78077603855012
 51
89.56147846399348
  0
ARC
  5
592
330
18
100
AcDbEntity
  8
1
 62
     1
100
AcDbCircle
 10
28.07176224270216
 20
-0.3163393214485243
 30
0.0
 40
0.3800266584752304
100
AcDbArc
 50
59.8945566045201
 51
89.57361183060986
  0
ARC
  5
593
330
18
100
AcDbEntity
  8
1
 62
     1
100
AcDbCircle
 10
27.65378785432779
 20
-0.3116103743736099
 30
0.0
 40
0.375314501663732
100
AcDbArc
 50
57.78077603855021
 51
89.56147846399405
  0
ARC
  5
594
330
18
100
AcDbEntity
  8
1
 62
     1
100
AcDbCircle
 10
27.27801224270217
 20
-0.3163393214484928
 30
0.0
 40
0.3800266584751971
100
AcDbArc
 50
59.89455660451956
 51
89.57361183061141
  0
ARC
  5
595
330
18
100
AcDbEntity
  8
1
 62
     1
100
AcDbCircle
 10
26.86003785432776
 20
-0.3116103743737647
 30
0.0
 40
0.3753145016638864
100
AcDbArc
 50
57.78077603855883
 51
89.56147846398936
  0
ARC
  5
596
330
18
100
AcDbEntity
  8
1
 62
     1
100
AcDbCircle
 10
26.48426224270217
 20
-0.3163393214484317
 30
0.0
 40
0.3800266584751378
100
AcDbArc
 50
59.89455660451496
 51
89.57361183061244
  0
ARC
  5
597
330
18
100
AcDbEntity
  8
1
 62
     1
100
AcDbCircle
 10
26.06628785432777
 20
-0.3116103743737386
 30
0.0
 40
0.3753145016638584
100
AcDbArc
 50
57.78077603855913
 51
89.56147846399095
  0
ARC
  5
598
330
18
100
AcDbEntity
  8
1
 62
     1
100
AcDbCircle
 10
25.69051224270216
 20
-0.3163393214484914
 30
0.0
 40
0.3800266584751986
100
AcDbArc
 50
59.89455660451807
 51
89.57361183060713
  0
ARC
  5
599
330
18
100
AcDbEntity
  8
1
 62
     1
100
AcDbCircle
 10
25.27253785432777
 20
-0.3116103743737132
 30
0.0
 40
0.3753145016638346
100
AcDbArc
 50
57.78077603855706
 51
89.56147846399146
  0
ARC
  5
59A
330
18
100
AcDbEntity
  8
1
 62
     1
100
AcDbCircle
 10
24.89676237554505
 20
-0.3163390003494747
 30
0.0
 40
0.3800263060690659
100
AcDbArc
 50
59.89454965271401
 51
89.57362804618036
  0
ARC
  5
59B
330
18
100
AcDbEntity
  8
1
 62
     1
100
AcDbCircle
 10
24.60781561932789
 20
-3.10632186874393
 30
0.0
 40
3.16995809539875
100
AcDbArc
 50
90.00126271358675
 51
95.50905151925897
  0
LINE
  5
59C
330
18
100
AcDbEntity
  8
1
 62
     1
100
AcDbLine
 10
24.60881411224643
 20
0.0636363979897931
 30
0.0
 11
24.60774575816809
 21
0.0636363979897931
 31
0.0
  0
LINE
  5
59D
330
18
100
AcDbEntity
  8
1
 62
     1
100
AcDbLine
 10
35.56698551495474
 20
-1.363594604927342
 30
0.0
 11
36.08334302942643
 21
-1.287248362131987
 31
0.0
  0
LINE
  5
59E
330
18
100
AcDbEntity
  8
1
 62
     1
100
AcDbLine
 10
34.83566430419815
 20
-1.47172438933639
 30
0.0
 11
35.21551108460507
 21
-1.415561994659802
 31
0.0
  0
LINE
  5
59F
330
18
100
AcDbEntity
  8
1
 62
     1
100
AcDbLine
 10
34.10434309344154
 20
-1.579854173745438
 30
0.0
 11
34.34767913978371
 21
-1.543875627187616
 31
0.0
  0
LINE
  5
5A0
330
18
100
AcDbEntity
  8
1
 62
     1
100
AcDbLine
 10
33.37302188268497
 20
-1.687983958154485
 30
0.0
 11
33.47984719496237
 21
-1.672189259715429
 31
0.0
  0
LINE
  5
5A1
330
18
100
AcDbEntity
  8
1
 62
     1
100
AcDbLine
 10
36.2
 20
1.08519265625
 30
0.0
 11
36.08334302942642
 21
1.287248362131985
 31
0.0
  0
LINE
  5
5A2
330
18
100
AcDbEntity
  8
1
 62
     1
100
AcDbLine
 10
36.2
 20
-1.27
 30
0.0
 11
37.47
 21
0.0
 31
0.0
  0
LINE
  5
5A3
330
18
100
AcDbEntity
  8
1
 62
     1
100
AcDbLine
 10
32.61657798923243
 20
-1.7526
 30
0.0
 11
32.6396720107676
 21
-1.7526
 31
0.0
  0
LINE
  5
5A4
330
18
100
AcDbEntity
  8
1
 62
     1
100
AcDbLine
 10
31.82282798923241
 20
-1.7526
 30
0.0
 11
31.84592201076759
 21
-1.7526
 31
0.0
  0
LINE
  5
5A5
330
18
100
AcDbEntity
  8
1
 62
     1
100
AcDbLine
 10
31.02907798923242
 20
-1.7526
 30
0.0
 11
31.05217201076761
 21
-1.7526
 31
0.0
  0
LINE
  5
5A6
330
18
100
AcDbEntity
  8
1
 62
     1
100
AcDbLine
 10
30.23532798923243
 20
-1.7526
 30
0.0
 11
30.2584220107676
 21
-1.7526
 31
0.0
  0
LINE
  5
5A7
330
18
100
AcDbEntity
  8
1
 62
     1
100
AcDbLine
 10
29.44157798923241
 20
-1.7526
 30
0.0
 11
29.46467201076759
 21
-1.7526
 31
0.0
  0
LINE
  5
5A8
330
18
100
AcDbEntity
  8
1
 62
     1
100
AcDbLine
 10
28.64782798923241
 20
-1.7526
 30
0.0
 11
28.67092201076761
 21
-1.7526
 31
0.0
  0
LINE
  5
5A9
330
18
100
AcDbEntity
  8
1
 62
     1
100
AcDbLine
 10
27.85407798923242
 20
-1.7526
 30
0.0
 11
27.8771720107676
 21
-1.7526
 31
0.0
  0
LINE
  5
5AA
330
18
100
AcDbEntity
  8
1
 62
     1
100
AcDbLine
 10
27.06032798923242
 20
-1.7526
 30
0.0
 11
27.08342201076761
 21
-1.7526
 31
0.0
  0
LINE
  5
5AB
330
18
100
AcDbEntity
  8
1
 62
     1
100
AcDbLine
 10
26.26657798923241
 20
-1.7526
 30
0.0
 11
26.28967201076761
 21
-1.7526
 31
0.0
  0
LINE
  5
5AC
330
18
100
AcDbEntity
  8
1
 62
     1
100
AcDbLine
 10
25.47282798923241
 20
-1.7526
 30
0.0
 11
25.4959220107676
 21
-1.7526
 31
0.0
  0
LINE
  5
5AD
330
18
100
AcDbEntity
  8
1
 62
     1
100
AcDbLine
 10
35.40625000000001
 20
1.08519265625
 30
0.0
 11
35.21551108460507
 21
1.415561994659802
 31
0.0
  0
LINE
  5
5AE
330
18
100
AcDbEntity
  8
1
 62
     1
100
AcDbLine
 10
34.83566430419815
 20
1.471724389336392
 30
0.0
 11
34.6125
 21
1.08519265625
 31
0.0
  0
LINE
  5
5AF
330
18
100
AcDbEntity
  8
1
 62
     1
100
AcDbLine
 10
34.61250000000001
 20
1.08519265625
 30
0.0
 11
34.34767913978372
 21
1.543875627187614
 31
0.0
  0
LINE
  5
5B0
330
18
100
AcDbEntity
  8
1
 62
     1
100
AcDbLine
 10
35.56698551495474
 20
1.363594604927342
 30
0.0
 11
35.40625000000001
 21
1.08519265625
 31
0.0
  0
LINE
  5
5B1
330
18
100
AcDbEntity
  8
1
 62
     1
100
AcDbLine
 10
34.10434309344156
 20
1.579854173745436
 30
0.0
 11
33.81875000000001
 21
1.08519265625
 31
0.0
  0
LINE
  5
5B2
330
18
100
AcDbEntity
  8
1
 62
     1
100
AcDbLine
 10
33.81875000000002
 20
1.08519265625
 30
0.0
 11
33.47984719496237
 21
1.672189259715431
 31
0.0
  0
LINE
  5
5B3
330
18
100
AcDbEntity
  8
1
 62
     1
100
AcDbLine
 10
33.02500000000001
 20
1.08519265625
 30
0.0
 11
32.63967201076759
 21
1.752599999999997
 31
0.0
  0
LINE
  5
5B4
330
18
100
AcDbEntity
  8
1
 62
     1
100
AcDbLine
 10
33.37302188268497
 20
1.687983958154485
 30
0.0
 11
33.02500000000001
 21
1.08519265625
 31
0.0
  0
LINE
  5
5B5
330
18
100
AcDbEntity
  8
1
 62
     1
100
AcDbLine
 10
32.61657798923244
 20
1.752600000000027
 30
0.0
 11
32.23125
 21
1.08519265625
 31
0.0
  0
LINE
  5
5B6
330
18
100
AcDbEntity
  8
1
 62
     1
100
AcDbLine
 10
31.4375
 20
1.08519265625
 30
0.0
 11
31.0521720107676
 21
1.752599999999998
 31
0.0
  0
LINE
  5
5B7
330
18
100
AcDbEntity
  8
1
 62
     1
100
AcDbLine
 10
31.82282798923242
 20
1.752599999999999
 30
0.0
 11
31.43750000000001
 21
1.08519265625
 31
0.0
  0
LINE
  5
5B8
330
18
100
AcDbEntity
  8
1
 62
     1
100
AcDbLine
 10
32.23125
 20
1.08519265625
 30
0.0
 11
31.84592201076759
 21
1.752600000000002
 31
0.0
  0
LINE
  5
5B9
330
18
100
AcDbEntity
  8
1
 62
     1
100
AcDbLine
 10
30.64375000000001
 20
1.08519265625
 30
0.0
 11
30.25842201076759
 21
1.752600000000002
 31
0.0
  0
LINE
  5
5BA
330
18
100
AcDbEntity
  8
1
 62
     1
100
AcDbLine
 10
31.02907798923242
 20
1.752600000000003
 30
0.0
 11
30.64375
 21
1.08519265625
 31
0.0
  0
LINE
  5
5BB
330
18
100
AcDbEntity
  8
1
 62
     1
100
AcDbLine
 10
30.23532798923242
 20
1.752600000000013
 30
0.0
 11
29.85
 21
1.08519265625
 31
0.0
  0
LINE
  5
5BC
330
18
100
AcDbEntity
  8
1
 62
     1
100
AcDbLine
 10
29.85
 20
1.08519265625
 30
0.0
 11
29.46467201076759
 21
1.752600000000002
 31
0.0
  0
LINE
  5
5BD
330
18
100
AcDbEntity
  8
1
 62
     1
100
AcDbLine
 10
29.44157798923242
 20
1.752600000000003
 30
0.0
 11
29.05625000000001
 21
1.08519265625
 31
0.0
  0
LINE
  5
5BE
330
18
100
AcDbEntity
  8
1
 62
     1
100
AcDbLine
 10
29.05625000000001
 20
1.08519265625
 30
0.0
 11
28.67092201076759
 21
1.752599999999997
 31
0.0
  0
LINE
  5
5BF
330
18
100
AcDbEntity
  8
1
 62
     1
100
AcDbLine
 10
28.64782798923242
 20
1.752600000000001
 30
0.0
 11
28.26250000000001
 21
1.08519265625
 31
0.0
  0
LINE
  5
5C0
330
18
100
AcDbEntity
  8
1
 62
     1
100
AcDbLine
 10
28.26250000000001
 20
1.08519265625
 30
0.0
 11
27.87717201076759
 21
1.752600000000002
 31
0.0
  0
LINE
  5
5C1
330
18
100
AcDbEntity
  8
1
 62
     1
100
AcDbLine
 10
27.85407798923242
 20
1.752600000000008
 30
0.0
 11
27.46875
 21
1.08519265625
 31
0.0
  0
LINE
  5
5C2
330
18
100
AcDbEntity
  8
1
 62
     1
100
AcDbLine
 10
27.46875000000001
 20
1.08519265625
 30
0.0
 11
27.0834220107676
 21
1.752599999999997
 31
0.0
  0
LINE
  5
5C3
330
18
100
AcDbEntity
  8
1
 62
     1
100
AcDbLine
 10
24.30349050000001
 20
-1.235
 30
0.0
 11
24.82662905138831
 21
-1.537034182792916
 31
0.0
  0
LINE
  5
5C4
330
18
100
AcDbEntity
  8
1
 62
     1
100
AcDbLine
 10
25.47282798923242
 20
1.752599999999999
 30
0.0
 11
25.08750000000001
 21
1.08519265625
 31
0.0
  0
LINE
  5
5C5
330
18
100
AcDbEntity
  8
1
 62
     1
100
AcDbLine
 10
25.08750000000001
 20
1.08519265625
 30
0.0
 11
24.8266290513883
 21
1.537034182792912
 31
0.0
  0
LINE
  5
5C6
330
18
100
AcDbEntity
  8
1
 62
     1
100
AcDbLine
 10
25.88125
 20
1.08519265625
 30
0.0
 11
25.49592201076759
 21
1.752600000000002
 31
0.0
  0
LINE
  5
5C7
330
18
100
AcDbEntity
  8
1
 62
     1
100
AcDbLine
 10
26.26657798923241
 20
1.752599999999999
 30
0.0
 11
25.88125
 21
1.08519265625
 31
0.0
  0
LINE
  5
5C8
330
18
100
AcDbEntity
  8
1
 62
     1
100
AcDbLine
 10
26.675
 20
1.08519265625
 30
0.0
 11
26.28967201076759
 21
1.752599999999997
 31
0.0
  0
LINE
  5
5C9
330
18
100
AcDbEntity
  8
1
 62
     1
100
AcDbLine
 10
27.06032798923242
 20
1.752600000000003
 30
0.0
 11
26.675
 21
1.08519265625
 31
0.0
  0
LINE
  5
5CA
330
18
100
AcDbEntity
  8
SK1
100
AcDbLine
 10
0.0000000000000009
 20
1.7907
 30
0.0
 11
-14.80399999999999
 21
1.7907
 31
0.0
  0
LINE
  5
5CB
330
18
100
AcDbEntity
  8
SK1
100
AcDbLine
 10
-14.80399999999999
 20
-1.397
 30
0.0
 11
-14.80399999999999
 21
-1.7907
 31
0.0
  0
LINE
  5
5CC
330
18
100
AcDbEntity
  8
SK1
100
AcDbLine
 10
-19.45092999999999
 20
1.120266704852019
 30
0.0
 11
-14.80399999999999
 21
1.120266704852019
 31
0.0
  0
LINE
  5
5CD
330
18
100
AcDbEntity
  8
SK1
100
AcDbLine
 10
-19.45092999999999
 20
1.397
 30
0.0
 11
-14.80399999999999
 21
1.397
 31
0.0
  0
ARC
  5
5CE
330
18
100
AcDbEntity
  8
SK1
100
AcDbCircle
 10
-16.32024664547805
 20
-0.8606616719928301
 30
0.0
 40
3.704639114125447
100
AcDbArc
 50
147.6765675986615
 51
153.3053878970774
  0
LINE
  5
5CF
330
18
100
AcDbEntity
  8
SK1
100
AcDbLine
 10
-19.45092999999999
 20
1.397
 30
0.0
 11
-19.45092999999998
 21
1.120266704852019
 31
0.0
  0
LINE
  5
5D0
330
18
100
AcDbEntity
  8
SK1
100
AcDbLine
 10
-19.62999999999999
 20
1.397
 30
0.0
 11
-19.45092999999999
 21
1.397
 31
0.0
  0
LINE
  5
5D1
330
18
100
AcDbEntity
  8
SK1
100
AcDbLine
 10
-14.80399999999999
 20
1.7907
 30
0.0
 11
-14.80399999999999
 21
1.790617385787269
 31
0.0
  0
LINE
  5
5D2
330
18
100
AcDbEntity
  8
SK1
100
AcDbLine
 10
-14.80399999999999
 20
1.790617385787269
 30
0.0
 11
-14.80399999999999
 21
1.765408044908009
 31
0.0
  0
LINE
  5
5D3
330
18
100
AcDbEntity
  8
SK1
100
AcDbLine
 10
-14.80399999999999
 20
1.765408044908009
 30
0.0
 11
-14.80399999999999
 21
1.397
 31
0.0
  0
LINE
  5
5D4
330
18
100
AcDbEntity
  8
SK1
100
AcDbLine
 10
-19.45092999999999
 20
-1.120266704852018
 30
0.0
 11
-14.80399999999999
 21
-1.120266704852018
 31
0.0
  0
LINE
  5
5D5
330
18
100
AcDbEntity
  8
SK1
100
AcDbLine
 10
-19.45092999999999
 20
-1.120266704852018
 30
0.0
 11
-19.45092999999999
 21
-1.397
 31
0.0
  0
LINE
  5
5D6
330
18
100
AcDbEntity
  8
SK1
100
AcDbLine
 10
-19.45092999999999
 20
-1.397
 30
0.0
 11
-14.80399999999999
 21
-1.397
 31
0.0
  0
LINE
  5
5D7
330
18
100
AcDbEntity
  8
SK1
100
AcDbLine
 10
-19.62999999999999
 20
0.8035808963010509
 30
0.0
 11
-19.62999999999999
 21
-0.80358089630105
 31
0.0
  0
LINE
  5
5D8
330
18
100
AcDbEntity
  8
SK1
100
AcDbLine
 10
-19.63
 20
1.397
 30
0.0
 11
-19.62999999999999
 21
0.8035808963010512
 31
0.0
  0
LINE
  5
5D9
330
18
100
AcDbEntity
  8
SK1
100
AcDbLine
 10
-19.63
 20
-0.8035808963010501
 30
0.0
 11
-19.63
 21
-1.397
 31
0.0
  0
ARC
  5
5DA
330
18
100
AcDbEntity
  8
SK1
100
AcDbCircle
 10
-16.32024664549137
 20
0.8606616719860268
 30
0.0
 40
3.7046391141105
100
AcDbArc
 50
206.6946121029211
 51
212.3234324013584
  0
LINE
  5
5DB
330
18
100
AcDbEntity
  8
SK1
100
AcDbLine
 10
-19.62999999999999
 20
-1.397
 30
0.0
 11
-19.45092999999999
 21
-1.397
 31
0.0
  0
LINE
  5
5DC
330
18
100
AcDbEntity
  8
SK1
100
AcDbLine
 10
-14.80399999999999
 20
1.120266704852023
 30
0.0
 11
-14.80399999999999
 21
-1.120266704852023
 31
0.0
  0
LINE
  5
5DD
330
18
100
AcDbEntity
  8
SK1
100
AcDbLine
 10
-14.80399999999999
 20
-1.7907
 30
0.0
 11
0.0000000000000044
 21
-1.7907
 31
0.0
  0
DIMENSION
  5
5DE
330
18
100
AcDbEntity
  8
2
100
AcDbDimension
  2
*D0
 10
51.20000000000002
 20
-1.752599999999948
 30
0.0
 11
48.24750000000009
 21
-21.09759999999996
 31
0.0
 70
    32
  1
UNC#6-32
 71
     5
 42
3.5052
  3
STANDARD
100
AcDbAlignedDimension
 13
36.2
 23
1.7526
 33
0.0
 14
36.2
 24
-1.7526
 34
0.0
 50
90.0000000000002
100
AcDbRotatedDimension
  0
DIMENSION
  5
5EC
330
18
100
AcDbEntity
  8
2
100
AcDbDimension
  2
*D1
 10
36.2
 20
75.0
 30
0.0
 11
18.1
 21
77.39775
 31
0.0
 70
    32
  1
<>
 71
     5
 42
36.2
  3
STANDARD
100
AcDbAlignedDimension
 13
0.0
 23
0.0
 33
0.0
 14
36.2
 24
0.0
 34
0.0
100
AcDbRotatedDimension
  0
DIMENSION
  5
5F9
330
18
100
AcDbEntity
  8
SK2
100
AcDbDimension
  2
*D2
 10
-34.62999999999086
 20
-1.79070000010118
 30
0.0
 11
-37.02774999992598
 21
-14.50495000011342
 31
0.0
 70
    32
  1
%%c<>
 71
     5
 42
3.5814
  3
STANDARD
100
AcDbAlignedDimension
 13
-14.80399999999999
 23
1.7907
 33
0.0
 14
-14.80399999999999
 24
-1.7907
 34
0.0
 50
90.0000000002924
100
AcDbRotatedDimension
  0
DIMENSION
  5
607
330
18
100
AcDbEntity
  8
2
100
AcDbDimension
  2
*D3
 10
36.2
 20
60.0
 30
0.0
 11
30.25174525
 21
62.39775
 31
0.0
 70
    32
  1
<>
 71
     5
 42
11.8965095
  3
STANDARD
100
AcDbAlignedDimension
 13
24.3034905
 23
1.235
 33
0.0
 14
36.2
 24
1.7526
 34
0.0
100
AcDbRotatedDimension
  0
DIMENSION
  5
614
330
18
100
AcDbEntity
  8
SK2
100
AcDbDimension
  2
*D4
 10
37.47000000000001
 20
90.0
 30
0.0
 11
8.920000000000005
 21
92.39775
 31
0.0
 70
    32
  1
<>
 71
     5
 42
57.10000000000001
  3
STANDARD
100
AcDbAlignedDimension
 13
-19.63
 23
1.7526
 33
0.0
 14
37.47000000000001
 24
1.7526
 34
0.0
100
AcDbRotatedDimension
  0
ENDSEC
  0
SECTION
  2
OBJECTS
  0
DICTIONARY
  5
C
330
0
100
AcDbDictionary
281
     1
  3
ACAD_COLOR
350
387
  3
ACAD_GROUP
350
D
  3
ACAD_LAYOUT
350
301
  3
ACAD_MATERIAL
350
386
  3
ACAD_MLEADERSTYLE
350
621
  3
ACAD_MLINESTYLE
350
E
  3
ACAD_PLOTSETTINGS
350
302
  3
ACAD_PLOTSTYLENAME
350
2FF
  3
ACAD_SCALELIST
350
3A0
  3
ACAD_TABLESTYLE
350
388
  3
ACAD_VISUALSTYLE
350
3C5
  3
ACDBHEADERROUNDTRIPXREC
350
622
  3
AcDbVariableDictionary
350
357
  0
DICTIONARY
  5
387
102
{ACAD_REACTORS
330
C
102
}
330
C
100
AcDbDictionary
281
     1
  0
DICTIONARY
  5
D
102
{ACAD_REACTORS
330
C
102
}
330
C
100
AcDbDictionary
281
     1
  0
DICTIONARY
  5
301
102
{ACAD_REACTORS
330
C
102
}
330
C
100
AcDbDictionary
281
     1
  3
Layout1
350
33B
  3
Model
350
303
  0
DICTIONARY
  5
386
102
{ACAD_REACTORS
330
C
102
}
330
C
100
AcDbDictionary
281
     1
  3
ByBlock
350
3C3
  3
ByLayer
350
3C2
  3
Global
350
3C4
  0
DICTIONARY
  5
621
102
{ACAD_REACTORS
330
C
102
}
330
C
100
AcDbDictionary
281
     1
  0
DICTIONARY
  5
E
102
{ACAD_REACTORS
330
C
102
}
330
C
100
AcDbDictionary
281
     1
  3
STANDARD
350
1B
  0
DICTIONARY
  5
302
102
{ACAD_REACTORS
330
C
102
}
330
C
100
AcDbDictionary
281
     1
  0
ACDBDICTIONARYWDFLT
  5
2FF
102
{ACAD_REACTORS
330
C
102
}
330
C
100
AcDbDictionary
281
     1
  3
Normal
350
300
100
AcDbDictionaryWithDefault
340
300
  0
DICTIONARY
  5
3A0
102
{ACAD_REACTORS
330
C
102
}
330
C
100
AcDbDictionary
281
     1
  3
A0
350
3A1
  3
A1
350
3A2
  3
A2
350
3A3
  3
A3
350
3A4
  3
A4
350
3A5
  3
A5
350
3A6
  3
A6
350
3A7
  3
A7
350
3A8
  3
A8
350
3A9
  3
A9
350
3AA
  3
B0
350
3AB
  3
B1
350
3AC
  3
B2
350
3AD
  3
B3
350
3AE
  3
B4
350
3AF
  3
B5
350
3B0
  3
B6
350
3B1
  3
B7
350
3B2
  3
B8
350
3B3
  3
B9
350
3B4
  3
C0
350
3B5
  3
C1
350
3B6
  3
C2
350
3B7
  3
C3
350
3B8
  3
C4
350
3B9
  3
C5
350
3BA
  3
C6
350
3BB
  3
C7
350
3BC
  3
C8
350
3BD
  3
C9
350
3BE
  3
D0
350
3BF
  3
D1
350
3C0
  3
D2
350
3C1
  0
DICTIONARY
  5
388
102
{ACAD_REACTORS
330
C
102
}
330
C
100
AcDbDictionary
281
     1
  3
Standard
350
389
  0
DICTIONARY
  5
3C5
102
{ACAD_REACTORS
330
C
102
}
330
C
100
AcDbDictionary
281
     1
  3
2dWireframe
350
3CA
  3
3D Hidden
350
3CC
  3
3dWireframe
350
3CB
  3
Basic
350
3CD
  3
Brighten
350
3D1
  3
ColorChange
350
3D5
  3
Conceptual
350
3CF
  3
Dim
350
3D0
  3
Facepattern
350
3D4
  3
Flat
350
3C6
  3
FlatWithEdges
350
3C7
  3
Gouraud
350
3C8
  3
GouraudWithEdges
350
3C9
  3
Linepattern
350
3D3
  3
Realistic
350
3CE
  3
Thicken
350
3D2
  0
DICTIONARY
  5
622
102
{ACAD_REACTORS
330
C
102
}
330
C
100
AcDbDictionary
281
     1
  3
COLORDICT
350
623
  3
MATERIALDICT
350
624
  0
DICTIONARY
  5
357
102
{ACAD_REACTORS
330
C
102
}
330
C
100
AcDbDictionary
281
     1
  3
CANNOSCALE
350
625
  3
CTABLESTYLE
350
38D
  3
DIMASSOC
350
359
  3
HIDETEXT
350
358
  3
PROJECTNAME
350
38E
  0
LAYOUT
  5
33B
102
{ACAD_REACTORS
330
301
102
}
330
301
100
AcDbPlotSettings
  1

  2
Lexmark Optra PS2
  4

  6

 40
0.0
 41
0.0
 42
0.0
 43
0.0
 44
0.0
 45
0.0
 46
0.0
 47
0.0
 48
0.0
 49
0.0
140
0.0
141
0.0
142
1.0
143
1.0
 70
   688
 72
     0
 73
     0
 74
     5
  7
monochrome.ctb
 75
    16
147
1.0
148
0.0
149
0.0
100
AcDbLayout
  1
Layout1
 70
     1
 71
     1
 10
0.0
 20
0.0
 11
12.0
 21
9.0
 12
0.0
 22
0.0
 32
0.0
 14
0.0
 24
0.0
 34
0.0
 15
0.0
 25
0.0
 35
0.0
146
0.0
 13
0.0
 23
0.0
 33
0.0
 16
1.0
 26
0.0
 36
0.0
 17
0.0
 27
1.0
 37
0.0
 76
     0
330
338
  0
LAYOUT
  5
303
102
{ACAD_REACTORS
330
301
102
}
330
301
100
AcDbPlotSettings
  1

  2
Lexmark Optra Rx
  4
A4
  6

 40
6.805083274841307
 41
5.535083293914794
 42
6.974411010742187
 43
7.14373779296875
 44
209.9733276367186
 45
296.9259948730469
 46
0.0
 47
0.0
 48
0.0
 49
0.0
140
0.0
141
0.0
142
1.0
143
2.976565420630886
 70
 11952
 72
     1
 73
     1
 74
     0
  7
monochrome.ctb
 75
     0
147
0.335957675604539
148
204.1199660668592
149
172.3933209647495
100
AcDbLayout
  1
Model
 70
     1
 71
     0
 10
0.0
 20
0.0
 11
12.0
 21
9.0
 12
0.0
 22
0.0
 32
0.0
 14
0.0
 24
0.0
 34
0.0
 15
0.0
 25
0.0
 35
0.0
146
0.0
 13
0.0
 23
0.0
 33
0.0
 16
1.0
 26
0.0
 36
0.0
 17
0.0
 27
1.0
 37
0.0
 76
     0
330
18
331
39A
  0
MATERIAL
  5
3C3
102
{ACAD_REACTORS
330
386
102
}
102
{ACAD_XDICTIONARY
360
628
102
}
330
386
100
AcDbMaterial
  1
ByBlock
  0
MATERIAL
  5
3C2
102
{ACAD_REACTORS
330
386
102
}
102
{ACAD_XDICTIONARY
360
626
102
}
330
386
100
AcDbMaterial
  1
ByLayer
  0
MATERIAL
  5
3C4
102
{ACAD_REACTORS
330
386
102
}
102
{ACAD_XDICTIONARY
360
62A
102
}
330
386
100
AcDbMaterial
  1
Global
  0
MLINESTYLE
  5
1B
102
{ACAD_REACTORS
330
E
102
}
330
E
100
AcDbMlineStyle
  2
STANDARD
 70
     0
  3

 62
     0
 51
90.0
 52
90.0
 71
     2
 49
0.5
 62
   256
  6
BYLAYER
 49
-0.5
 62
   256
  6
BYLAYER
  0
ACDBPLACEHOLDER
  5
300
102
{ACAD_REACTORS
330
2FF
102
}
330
2FF
  0
SCALE
  5
3A1
102
{ACAD_REACTORS
330
3A0
102
}
330
3A0
100
AcDbScale
 70
     0
300
1:1
140
1.0
141
1.0
290
     1
  0
SCALE
  5
3A2
102
{ACAD_REACTORS
330
3A0
102
}
330
3A0
100
AcDbScale
 70
     0
300
1:2
140
1.0
141
2.0
290
     0
  0
SCALE
  5
3A3
102
{ACAD_REACTORS
330
3A0
102
}
330
3A0
100
AcDbScale
 70
     0
300
1:4
140
1.0
141
4.0
290
     0
  0
SCALE
  5
3A4
102
{ACAD_REACTORS
330
3A0
102
}
330
3A0
100
AcDbScale
 70
     0
300
1:5
140
1.0
141
5.0
290
     0
  0
SCALE
  5
3A5
102
{ACAD_REACTORS
330
3A0
102
}
330
3A0
100
AcDbScale
 70
     0
300
1:8
140
1.0
141
8.0
290
     0
  0
SCALE
  5
3A6
102
{ACAD_REACTORS
330
3A0
102
}
330
3A0
100
AcDbScale
 70
     0
300
1:10
140
1.0
141
10.0
290
     0
  0
SCALE
  5
3A7
102
{ACAD_REACTORS
330
3A0
102
}
330
3A0
100
AcDbScale
 70
     0
300
1:16
140
1.0
141
16.0
290
     0
  0
SCALE
  5
3A8
102
{ACAD_REACTORS
330
3A0
102
}
330
3A0
100
AcDbScale
 70
     0
300
1:20
140
1.0
141
20.0
290
     0
  0
SCALE
  5
3A9
102
{ACAD_REACTORS
330
3A0
102
}
330
3A0
100
AcDbScale
 70
     0
300
1:30
140
1.0
141
30.0
290
     0
  0
SCALE
  5
3AA
102
{ACAD_REACTORS
330
3A0
102
}
330
3A0
100
AcDbScale
 70
     0
300
1:40
140
1.0
141
40.0
290
     0
  0
SCALE
  5
3AB
102
{ACAD_REACTORS
330
3A0
102
}
330
3A0
100
AcDbScale
 70
     0
300
1:50
140
1.0
141
50.0
290
     0
  0
SCALE
  5
3AC
102
{ACAD_REACTORS
330
3A0
102
}
330
3A0
100
AcDbScale
 70
     0
300
1:100
140
1.0
141
100.0
290
     0
  0
SCALE
  5
3AD
102
{ACAD_REACTORS
330
3A0
102
}
330
3A0
100
AcDbScale
 70
     0
300
2:1
140
2.0
141
1.0
290
     0
  0
SCALE
  5
3AE
102
{ACAD_REACTORS
330
3A0
102
}
330
3A0
100
AcDbScale
 70
     0
300
4:1
140
4.0
141
1.0
290
     0
  0
SCALE
  5
3AF
102
{ACAD_REACTORS
330
3A0
102
}
330
3A0
100
AcDbScale
 70
     0
300
8:1
140
8.0
141
1.0
290
     0
  0
SCALE
  5
3B0
102
{ACAD_REACTORS
330
3A0
102
}
330
3A0
100
AcDbScale
 70
     0
300
10:1
140
10.0
141
1.0
290
     0
  0
SCALE
  5
3B1
102
{ACAD_REACTORS
330
3A0
102
}
330
3A0
100
AcDbScale
 70
     0
300
100:1
140
100.0
141
1.0
290
     0
  0
SCALE
  5
3B2
102
{ACAD_REACTORS
330
3A0
102
}
330
3A0
100
AcDbScale
 70
     0
300
1/128" = 1'-0"
140
0.0078125
141
12.0
290
     0
  0
SCALE
  5
3B3
102
{ACAD_REACTORS
330
3A0
102
}
330
3A0
100
AcDbScale
 70
     0
300
1/64" = 1'-0"
140
0.015625
141
12.0
290
     0
  0
SCALE
  5
3B4
102
{ACAD_REACTORS
330
3A0
102
}
330
3A0
100
AcDbScale
 70
     0
300
1/32" = 1'-0"
140
0.03125
141
12.0
290
     0
  0
SCALE
  5
3B5
102
{ACAD_REACTORS
330
3A0
102
}
330
3A0
100
AcDbScale
 70
     0
300
1/16" = 1'-0"
140
0.0625
141
12.0
290
     0
  0
SCALE
  5
3B6
102
{ACAD_REACTORS
330
3A0
102
}
330
3A0
100
AcDbScale
 70
     0
300
3/32" = 1'-0"
140
0.09375
141
12.0
290
     0
  0
SCALE
  5
3B7
102
{ACAD_REACTORS
330
3A0
102
}
330
3A0
100
AcDbScale
 70
     0
300
1/8" = 1'-0"
140
0.125
141
12.0
290
     0
  0
SCALE
  5
3B8
102
{ACAD_REACTORS
330
3A0
102
}
330
3A0
100
AcDbScale
 70
     0
300
3/16" = 1'-0"
140
0.1875
141
12.0
290
     0
  0
SCALE
  5
3B9
102
{ACAD_REACTORS
330
3A0
102
}
330
3A0
100
AcDbScale
 70
     0
300
1/4" = 1'-0"
140
0.25
141
12.0
290
     0
  0
SCALE
  5
3BA
102
{ACAD_REACTORS
330
3A0
102
}
330
3A0
100
AcDbScale
 70
     0
300
3/8" = 1'-0"
140
0.375
141
12.0
290
     0
  0
SCALE
  5
3BB
102
{ACAD_REACTORS
330
3A0
102
}
330
3A0
100
AcDbScale
 70
     0
300
1/2" = 1'-0"
140
0.5
141
12.0
290
     0
  0
SCALE
  5
3BC
102
{ACAD_REACTORS
330
3A0
102
}
330
3A0
100
AcDbScale
 70
     0
300
3/4" = 1'-0"
140
0.75
141
12.0
290
     0
  0
SCALE
  5
3BD
102
{ACAD_REACTORS
330
3A0
102
}
330
3A0
100
AcDbScale
 70
     0
300
1" = 1'-0"
140
1.0
141
12.0
290
     0
  0
SCALE
  5
3BE
102
{ACAD_REACTORS
330
3A0
102
}
330
3A0
100
AcDbScale
 70
     0
300
1-1/2" = 1'-0"
140
1.5
141
12.0
290
     0
  0
SCALE
  5
3BF
102
{ACAD_REACTORS
330
3A0
102
}
330
3A0
100
AcDbScale
 70
     0
300
3" = 1'-0"
140
3.0
141
12.0
290
     0
  0
SCALE
  5
3C0
102
{ACAD_REACTORS
330
3A0
102
}
330
3A0
100
AcDbScale
 70
     0
300
6" = 1'-0"
140
6.0
141
12.0
290
     0
  0
SCALE
  5
3C1
102
{ACAD_REACTORS
330
3A0
102
}
330
3A0
100
AcDbScale
 70
     0
300
1'-0" = 1'-0"
140
12.0
141
12.0
290
     0
  0
TABLESTYLE
  5
389
102
{ACAD_REACTORS
330
388
102
}
330
388
100
AcDbTableStyle
  3
Standard
 70
     0
 71
     0
 40
1.5
 41
1.5
280
     0
281
     0
  7
STANDARD
140
4.5
170
     2
 62
     0
 63
   257
283
     0
274
    -2
284
     1
 64
     0
275
    -2
285
     1
 65
     0
276
    -2
286
     1
 66
     0
277
    -2
287
     1
 67
     0
278
    -2
288
     1
 68
     0
279
    -2
289
     1
 69
     0
  7
STANDARD
140
6.0
170
     5
 62
     0
 63
   257
283
     0
274
    -2
284
     1
 64
     0
275
    -2
285
     1
 65
     0
276
    -2
286
     1
 66
     0
277
    -2
287
     1
 67
     0
278
    -2
288
     1
 68
     0
279
    -2
289
     1
 69
     0
  7
STANDARD
140
4.5
170
     5
 62
     0
 63
   257
283
     0
274
    -2
284
     1
 64
     0
275
    -2
285
     1
 65
     0
276
    -2
286
     1
 66
     0
277
    -2
287
     1
 67
     0
278
    -2
288
     1
 68
     0
279
    -2
289
     1
 69
     0
  0
VISUALSTYLE
  5
3CA
102
{ACAD_REACTORS
330
3C5
102
}
102
{ACAD_XDICTIONARY
360
634
102
}
330
3C5
100
AcDbVisualStyle
  2
2dWireframe
 70
     4
 71
     0
 72
     2
 73
     0
 90
        0
 40
-0.6
 41
-30.0
 62
     5
 63
     7
 74
     1
 91
        4
 64
     7
 65
   257
 75
     1
175
     1
 42
1.0
 92
        0
 66
   257
 43
1.0
 76
     1
 77
     6
 78
     2
 67
     7
 79
     5
170
     0
171
     0
290
     0
174
     0
 93
        1
 44
0.0
173
     0
291
     0
 45
0.0
1001
ACAD
1000
AcDbSavedByObjectVersion
1070
     0
  0
VISUALSTYLE
  5
3CC
102
{ACAD_REACTORS
330
3C5
102
}
102
{ACAD_XDICTIONARY
360
638
102
}
330
3C5
100
AcDbVisualStyle
  2
3D Hidden
 70
     6
 71
     1
 72
     2
 73
     2
 90
        0
 40
-0.6
 41
-30.0
 62
     5
 63
     7
 74
     2
 91
        2
 64
     7
 65
   257
 75
     2
175
     1
 42
40.0
 92
        0
 66
   257
 43
1.0
 76
     1
 77
     6
 78
     2
 67
     7
 79
     3
170
     0
171
     0
290
     0
174
     0
 93
        1
 44
0.0
173
     0
291
     0
 45
0.0
1001
ACAD
1000
AcDbSavedByObjectVersion
1070
     0
  0
VISUALSTYLE
  5
3CB
102
{ACAD_REACTORS
330
3C5
102
}
102
{ACAD_XDICTIONARY
360
636
102
}
330
3C5
100
AcDbVisualStyle
  2
3dWireframe
 70
     5
 71
     0
 72
     2
 73
     0
 90
        0
 40
-0.6
 41
-30.0
 62
     5
 63
     7
 74
     1
 91
        4
 64
     7
 65
   257
 75
     1
175
     1
 42
1.0
 92
        0
 66
   257
 43
1.0
 76
     1
 77
     6
 78
     2
 67
     7
 79
     5
170
     0
171
     0
290
     0
174
     0
 93
        1
 44
0.0
173
     0
291
     0
 45
0.0
1001
ACAD
1000
AcDbSavedByObjectVersion
1070
     0
  0
VISUALSTYLE
  5
3CD
102
{ACAD_REACTORS
330
3C5
102
}
102
{ACAD_XDICTIONARY
360
63A
102
}
330
3C5
100
AcDbVisualStyle
  2
Basic
 70
     7
 71
     1
 72
     0
 73
     1
 90
        0
 40
-0.6
 41
-30.0
 62
     5
 63
     7
 74
     0
 91
        4
 64
     7
 65
   257
 75
     1
175
     1
 42
1.0
 92
        8
 66
     7
 43
1.0
 76
     1
 77
     6
 78
     2
 67
     7
 79
     5
170
     0
171
     0
290
     0
174
     0
 93
        1
 44
0.0
173
     0
291
     1
 45
0.0
1001
ACAD
1000
AcDbSavedByObjectVersion
1070
     0
  0
VISUALSTYLE
  5
3D1
102
{ACAD_REACTORS
330
3C5
102
}
102
{ACAD_XDICTIONARY
360
642
102
}
330
3C5
100
AcDbVisualStyle
  2
Brighten
 70
    12
 71
     2
 72
     2
 73
     0
 90
        0
 40
-0.6
 41
-30.0
 62
     5
 63
     7
 74
     1
 91
        4
 64
     7
 65
   257
 75
     1
175
     1
 42
1.0
 92
        8
 66
     7
 43
1.0
 76
     1
 77
     6
 78
     2
 67
     7
 79
     5
170
     0
171
     0
290
     0
174
     0
 93
        1
 44
50.0
173
     0
291
     1
 45
0.0
1001
ACAD
1000
AcDbSavedByObjectVersion
1070
     0
  0
VISUALSTYLE
  5
3D5
102
{ACAD_REACTORS
330
3C5
102
}
102
{ACAD_XDICTIONARY
360
64A
102
}
330
3C5
100
AcDbVisualStyle
  2
ColorChange
 70
    16
 71
     2
 72
     2
 73
     3
 90
        0
 40
-0.6
 41
-30.0
 62
     5
 63
     8
 74
     1
 91
        4
 64
     7
 65
   257
 75
     1
175
     1
 42
1.0
 92
        8
 66
     8
 43
1.0
 76
     1
 77
     6
 78
     2
 67
     7
 79
     5
170
     0
171
     0
290
     0
174
     0
 93
        1
 44
0.0
173
     0
291
     1
 45
0.0
1001
ACAD
1000
AcDbSavedByObjectVersion
1070
     0
  0
VISUALSTYLE
  5
3CF
102
{ACAD_REACTORS
330
3C5
102
}
102
{ACAD_XDICTIONARY
360
63E
102
}
330
3C5
100
AcDbVisualStyle
  2
Conceptual
 70
     9
 71
     3
 72
     2
 73
     0
 90
        0
 40
-0.6
 41
-30.0
 62
     5
 63
     7
 74
     2
 91
        2
 64
     7
 65
   257
 75
     1
175
     1
 42
40.0
 92
        8
 66
     7
 43
1.0
 76
     1
 77
     6
 78
     2
 67
     7
 79
     3
170
     0
171
     0
290
     0
174
     0
 93
        1
 44
0.0
173
     0
291
     0
 45
0.0
1001
ACAD
1000
AcDbSavedByObjectVersion
1070
     0
  0
VISUALSTYLE
  5
3D0
102
{ACAD_REACTORS
330
3C5
102
}
102
{ACAD_XDICTIONARY
360
640
102
}
330
3C5
100
AcDbVisualStyle
  2
Dim
 70
    11
 71
     2
 72
     2
 73
     0
 90
        0
 40
-0.6
 41
-30.0
 62
     5
 63
     7
 74
     1
 91
        4
 64
     7
 65
   257
 75
     1
175
     1
 42
1.0
 92
        8
 66
     7
 43
1.0
 76
     1
 77
     6
 78
     2
 67
     7
 79
     5
170
     0
171
     0
290
     0
174
     0
 93
        1
 44
-50.0
173
     0
291
     1
 45
0.0
1001
ACAD
1000
AcDbSavedByObjectVersion
1070
     0
  0
VISUALSTYLE
  5
3D4
102
{ACAD_REACTORS
330
3C5
102
}
102
{ACAD_XDICTIONARY
360
648
102
}
330
3C5
100
AcDbVisualStyle
  2
Facepattern
 70
    15
 71
     2
 72
     2
 73
     0
 90
        0
 40
-0.6
 41
-30.0
 62
     5
 63
     7
 74
     1
 91
        4
 64
     7
 65
   257
 75
     1
175
     1
 42
1.0
 92
        8
 66
     7
 43
1.0
 76
     1
 77
     6
 78
     2
 67
     7
 79
     5
170
     0
171
     0
290
     0
174
     0
 93
        1
 44
0.0
173
     0
291
     1
 45
0.0
1001
ACAD
1000
AcDbSavedByObjectVersion
1070
     0
  0
VISUALSTYLE
  5
3C6
102
{ACAD_REACTORS
330
3C5
102
}
102
{ACAD_XDICTIONARY
360
62C
102
}
330
3C5
100
AcDbVisualStyle
  2
Flat
 70
     0
 71
     2
 72
     1
 73
     1
 90
        2
 40
-0.6
 41
30.0
 62
     5
 63
     7
 74
     0
 91
        4
 64
     7
 65
   257
 75
     1
175
     1
 42
1.0
 92
        8
 66
     7
 43
1.0
 76
     1
 77
     6
 78
     2
 67
     7
 79
     5
170
     0
171
     0
290
     0
174
     0
 93
       13
 44
0.0
173
     0
291
     1
 45
0.0
1001
ACAD
1000
AcDbSavedByObjectVersion
1070
     0
  0
VISUALSTYLE
  5
3C7
102
{ACAD_REACTORS
330
3C5
102
}
102
{ACAD_XDICTIONARY
360
62E
102
}
330
3C5
100
AcDbVisualStyle
  2
FlatWithEdges
 70
     1
 71
     2
 72
     1
 73
     1
 90
        2
 40
-0.6
 41
30.0
 62
     5
 63
     7
 74
     1
 91
        4
 64
     7
 65
   257
 75
     1
175
     1
 42
1.0
 92
        0
 66
   257
 43
1.0
 76
     1
 77
     6
 78
     2
 67
     7
 79
     5
170
     0
171
     0
290
     0
174
     0
 93
       13
 44
0.0
173
     0
291
     1
 45
0.0
1001
ACAD
1000
AcDbSavedByObjectVersion
1070
     0
  0
VISUALSTYLE
  5
3C8
102
{ACAD_REACTORS
330
3C5
102
}
102
{ACAD_XDICTIONARY
360
630
102
}
330
3C5
100
AcDbVisualStyle
  2
Gouraud
 70
     2
 71
     2
 72
     2
 73
     1
 90
        2
 40
-0.6
 41
30.0
 62
     5
 63
     7
 74
     0
 91
        4
 64
     7
 65
   257
 75
     1
175
     1
 42
1.0
 92
        0
 66
     7
 43
1.0
 76
     1
 77
     6
 78
     2
 67
     7
 79
     5
170
     0
171
     0
290
     0
174
     0
 93
       13
 44
0.0
173
     0
291
     1
 45
0.0
1001
ACAD
1000
AcDbSavedByObjectVersion
1070
     0
  0
VISUALSTYLE
  5
3C9
102
{ACAD_REACTORS
330
3C5
102
}
102
{ACAD_XDICTIONARY
360
632
102
}
330
3C5
100
AcDbVisualStyle
  2
GouraudWithEdges
 70
     3
 71
     2
 72
     2
 73
     1
 90
        2
 40
-0.6
 41
30.0
 62
     5
 63
     7
 74
     1
 91
        4
 64
     7
 65
   257
 75
     1
175
     1
 42
1.0
 92
        0
 66
   257
 43
1.0
 76
     1
 77
     6
 78
     2
 67
     7
 79
     5
170
     0
171
     0
290
     0
174
     0
 93
       13
 44
0.0
173
     0
291
     1
 45
0.0
1001
ACAD
1000
AcDbSavedByObjectVersion
1070
     0
  0
VISUALSTYLE
  5
3D3
102
{ACAD_REACTORS
330
3C5
102
}
102
{ACAD_XDICTIONARY
360
646
102
}
330
3C5
100
AcDbVisualStyle
  2
Linepattern
 70
    14
 71
     2
 72
     2
 73
     0
 90
        0
 40
-0.6
 41
-30.0
 62
     5
 63
     7
 74
     1
 91
        4
 64
     7
 65
   257
 75
     7
175
     7
 42
1.0
 92
        8
 66
     7
 43
1.0
 76
     1
 77
     6
 78
     2
 67
     7
 79
     5
170
     0
171
     0
290
     0
174
     0
 93
        1
 44
0.0
173
     0
291
     1
 45
0.0
1001
ACAD
1000
AcDbSavedByObjectVersion
1070
     0
  0
VISUALSTYLE
  5
3CE
102
{ACAD_REACTORS
330
3C5
102
}
102
{ACAD_XDICTIONARY
360
63C
102
}
330
3C5
100
AcDbVisualStyle
  2
Realistic
 70
     8
 71
     2
 72
     2
 73
     0
 90
        0
 40
-0.6
 41
-30.0
 62
     5
 63
     7
 74
     1
 91
        0
 64
     7
 65
   257
 75
     1
175
     1
 42
1.0
 92
        8
 66
     8
 43
1.0
 76
     1
 77
     6
 78
     2
 67
     7
 79
     5
170
     0
171
     0
290
     0
174
     0
 93
       13
 44
0.0
173
     0
291
     0
 45
0.0
1001
ACAD
1000
AcDbSavedByObjectVersion
1070
     0
  0
VISUALSTYLE
  5
3D2
102
{ACAD_REACTORS
330
3C5
102
}
102
{ACAD_XDICTIONARY
360
644
102
}
330
3C5
100
AcDbVisualStyle
  2
Thicken
 70
    13
 71
     2
 72
     2
 73
     0
 90
        0
 40
-0.6
 41
-30.0
 62
     5
 63
     7
 74
     1
 91
        4
 64
     7
 65
   257
 75
     1
175
     1
 42
1.0
 92
       12
 66
     7
 43
1.0
 76
     1
 77
     6
 78
     2
 67
     7
 79
     5
170
     0
171
     0
290
     0
174
     0
 93
        1
 44
0.0
173
     0
291
     1
 45
0.0
1001
ACAD
1000
AcDbSavedByObjectVersion
1070
     0
  0
XRECORD
  5
623
102
{ACAD_REACTORS
330
622
102
}
330
622
100
AcDbXrecord
280
     1
340
387
  0
XRECORD
  5
624
102
{ACAD_REACTORS
330
622
102
}
330
622
100
AcDbXrecord
280
     1
340
386
  0
DICTIONARYVAR
  5
625
102
{ACAD_REACTORS
330
357
102
}
330
357
100
DictionaryVariables
280
     0
  1
1:1
  0
DICTIONARYVAR
  5
38D
102
{ACAD_REACTORS
330
357
102
}
330
357
100
DictionaryVariables
280
     0
  1
Standard
  0
DICTIONARYVAR
  5
359
102
{ACAD_REACTORS
330
357
102
}
330
357
100
DictionaryVariables
280
     0
  1
2
  0
DICTIONARYVAR
  5
358
102
{ACAD_REACTORS
330
357
102
}
330
357
100
DictionaryVariables
280
     0
  1
1
  0
DICTIONARYVAR
  5
38E
102
{ACAD_REACTORS
330
357
102
}
330
357
100
DictionaryVariables
280
     0
  1

  0
DICTIONARY
  5
628
330
3C3
100
AcDbDictionary
280
     1
281
     1
  3
ACAD_XREC_ROUNDTRIP
360
629
  0
DICTIONARY
  5
626
330
3C2
100
AcDbDictionary
280
     1
281
     1
  3
ACAD_XREC_ROUNDTRIP
360
627
  0
DICTIONARY
  5
62A
330
3C4
100
AcDbDictionary
280
     1
281
     1
  3
ACAD_XREC_ROUNDTRIP
360
62B
  0
DICTIONARY
  5
634
330
3CA
100
AcDbDictionary
280
     1
281
     1
  3
ACAD_XREC_ROUNDTRIP
360
635
  0
DICTIONARY
  5
638
330
3CC
100
AcDbDictionary
280
     1
281
     1
  3
ACAD_XREC_ROUNDTRIP
360
639
  0
DICTIONARY
  5
636
330
3CB
100
AcDbDictionary
280
     1
281
     1
  3
ACAD_XREC_ROUNDTRIP
360
637
  0
DICTIONARY
  5
63A
330
3CD
100
AcDbDictionary
280
     1
281
     1
  3
ACAD_XREC_ROUNDTRIP
360
63B
  0
DICTIONARY
  5
642
330
3D1
100
AcDbDictionary
280
     1
281
     1
  3
ACAD_XREC_ROUNDTRIP
360
643
  0
DICTIONARY
  5
64A
330
3D5
100
AcDbDictionary
280
     1
281
     1
  3
ACAD_XREC_ROUNDTRIP
360
64B
  0
DICTIONARY
  5
63E
330
3CF
100
AcDbDictionary
280
     1
281
     1
  3
ACAD_XREC_ROUNDTRIP
360
63F
  0
DICTIONARY
  5
640
330
3D0
100
AcDbDictionary
280
     1
281
     1
  3
ACAD_XREC_ROUNDTRIP
360
641
  0
DICTIONARY
  5
648
330
3D4
100
AcDbDictionary
280
     1
281
     1
  3
ACAD_XREC_ROUNDTRIP
360
649
  0
DICTIONARY
  5
62C
330
3C6
100
AcDbDictionary
280
     1
281
     1
  3
ACAD_XREC_ROUNDTRIP
360
62D
  0
DICTIONARY
  5
62E
330
3C7
100
AcDbDictionary
280
     1
281
     1
  3
ACAD_XREC_ROUNDTRIP
360
62F
  0
DICTIONARY
  5
630
330
3C8
100
AcDbDictionary
280
     1
281
     1
  3
ACAD_XREC_ROUNDTRIP
360
631
  0
DICTIONARY
  5
632
330
3C9
100
AcDbDictionary
280
     1
281
     1
  3
ACAD_XREC_ROUNDTRIP
360
633
  0
DICTIONARY
  5
646
330
3D3
100
AcDbDictionary
280
     1
281
     1
  3
ACAD_XREC_ROUNDTRIP
360
647
  0
DICTIONARY
  5
63C
330
3CE
100
AcDbDictionary
280
     1
281
     1
  3
ACAD_XREC_ROUNDTRIP
360
63D
  0
DICTIONARY
  5
644
330
3D2
100
AcDbDictionary
280
     1
281
     1
  3
ACAD_XREC_ROUNDTRIP
360
645
  0
XRECORD
  5
629
102
{ACAD_REACTORS
330
628
102
}
330
628
100
AcDbXrecord
280
     1
102
MATERIAL
148
0.0
149
0.0
149
0.0
 93
        0
 94
      127
282
     0
 72
     1
 77
     1
171
     1
175
     1
179
     1
273
     0
  0
XRECORD
  5
627
102
{ACAD_REACTORS
330
626
102
}
330
626
100
AcDbXrecord
280
     1
102
MATERIAL
148
0.0
149
0.0
149
0.0
 93
        0
 94
      127
282
     0
 72
     1
 77
     1
171
     1
175
     1
179
     1
273
     0
  0
XRECORD
  5
62B
102
{ACAD_REACTORS
330
62A
102
}
330
62A
100
AcDbXrecord
280
     1
102
MATERIAL
148
0.0
149
0.0
149
0.0
 93
        0
 94
      127
282
     0
 72
     1
 77
     1
171
     1
175
     1
179
     1
273
     0
  0
XRECORD
  5
635
102
{ACAD_REACTORS
330
634
102
}
330
634
100
AcDbXrecord
280
     1
102
RTVSPropertyOp0
 70
     1
102
RTVSPropertyOp1
 70
     1
102
RTVSPropertyOp2
 70
     1
102
RTVSPropertyOp3
 70
     1
102
RTVSPropertyOp4
 70
     1
102
RTVSPropertyOp5
 70
     1
102
RTVSPropertyOp6
 70
     1
102
RTVSPropertyOp7
 70
     1
102
RTVSPropertyOp8
 70
     1
102
RTVSPropertyOp9
 70
     1
102
RTVSPropertyOp10
 70
     1
102
RTVSPropertyOp11
 70
     1
102
RTVSPropertyOp12
 70
     1
102
RTVSPropertyOp13
 70
     1
102
RTVSPropertyOp14
 70
     1
102
RTVSPropertyOp15
 70
     1
102
RTVSPropertyOp16
 70
     1
102
RTVSPropertyOp17
 70
     1
102
RTVSPropertyOp18
 70
     1
102
RTVSPropertyOp19
 70
     1
102
RTVSPropertyOp20
 70
     1
102
RTVSPropertyOp21
 70
     1
102
RTVSPropertyOp22
 70
     1
102
RTVSPropertyOp23
 70
     1
102
RTVSPropertyOp24
 70
     1
102
RTVSPropertyOp25
 70
     1
102
RTVSPropertyOp26
 70
     1
102
RTVSPropertyOp27
 70
     1
102
RTVSPropertyOp28
 70
     1
102
RTVSPropertyOp29
 70
     1
102
RTVSPropertyOp30
 70
     1
102
RTVSPropertyOp31
 70
     1
102
RTVSPropertyOp32
 70
     1
  0
XRECORD
  5
639
102
{ACAD_REACTORS
330
638
102
}
330
638
100
AcDbXrecord
280
     1
102
RTVSPropertyOp0
 70
     1
102
RTVSPropertyOp1
 70
     1
102
RTVSPropertyOp2
 70
     1
102
RTVSPropertyOp3
 70
     1
102
RTVSPropertyOp4
 70
     1
102
RTVSPropertyOp5
 70
     1
102
RTVSPropertyOp6
 70
     1
102
RTVSPropertyOp7
 70
     1
102
RTVSPropertyOp8
 70
     1
102
RTVSPropertyOp9
 70
     1
102
RTVSPropertyOp10
 70
     1
102
RTVSPropertyOp11
 70
     1
102
RTVSPropertyOp12
 70
     1
102
RTVSPropertyOp13
 70
     1
102
RTVSPropertyOp14
 70
     1
102
RTVSPropertyOp15
 70
     1
102
RTVSPropertyOp16
 70
     1
102
RTVSPropertyOp17
 70
     1
102
RTVSPropertyOp18
 70
     1
102
RTVSPropertyOp19
 70
     1
102
RTVSPropertyOp20
 70
     1
102
RTVSPropertyOp21
 70
     1
102
RTVSPropertyOp22
 70
     1
102
RTVSPropertyOp23
 70
     1
102
RTVSPropertyOp24
 70
     1
102
RTVSPropertyOp25
 70
     1
102
RTVSPropertyOp26
 70
     1
102
RTVSPropertyOp27
 70
     1
102
RTVSPropertyOp28
 70
     1
102
RTVSPropertyOp29
 70
     1
102
RTVSPropertyOp30
 70
     1
102
RTVSPropertyOp31
 70
     1
102
RTVSPropertyOp32
 70
     1
  0
XRECORD
  5
637
102
{ACAD_REACTORS
330
636
102
}
330
636
100
AcDbXrecord
280
     1
102
RTVSPropertyOp0
 70
     1
102
RTVSPropertyOp1
 70
     1
102
RTVSPropertyOp2
 70
     1
102
RTVSPropertyOp3
 70
     1
102
RTVSPropertyOp4
 70
     1
102
RTVSPropertyOp5
 70
     1
102
RTVSPropertyOp6
 70
     1
102
RTVSPropertyOp7
 70
     1
102
RTVSPropertyOp8
 70
     1
102
RTVSPropertyOp9
 70
     1
102
RTVSPropertyOp10
 70
     1
102
RTVSPropertyOp11
 70
     1
102
RTVSPropertyOp12
 70
     1
102
RTVSPropertyOp13
 70
     1
102
RTVSPropertyOp14
 70
     1
102
RTVSPropertyOp15
 70
     1
102
RTVSPropertyOp16
 70
     1
102
RTVSPropertyOp17
 70
     1
102
RTVSPropertyOp18
 70
     1
102
RTVSPropertyOp19
 70
     1
102
RTVSPropertyOp20
 70
     1
102
RTVSPropertyOp21
 70
     1
102
RTVSPropertyOp22
 70
     1
102
RTVSPropertyOp23
 70
     1
102
RTVSPropertyOp24
 70
     1
102
RTVSPropertyOp25
 70
     1
102
RTVSPropertyOp26
 70
     1
102
RTVSPropertyOp27
 70
     1
102
RTVSPropertyOp28
 70
     1
102
RTVSPropertyOp29
 70
     1
102
RTVSPropertyOp30
 70
     1
102
RTVSPropertyOp31
 70
     1
102
RTVSPropertyOp32
 70
     1
  0
XRECORD
  5
63B
102
{ACAD_REACTORS
330
63A
102
}
330
63A
100
AcDbXrecord
280
     1
102
RTVSPropertyOp0
 70
     1
102
RTVSPropertyOp1
 70
     1
102
RTVSPropertyOp2
 70
     1
102
RTVSPropertyOp3
 70
     1
102
RTVSPropertyOp4
 70
     1
102
RTVSPropertyOp5
 70
     1
102
RTVSPropertyOp6
 70
     1
102
RTVSPropertyOp7
 70
     1
102
RTVSPropertyOp8
 70
     1
102
RTVSPropertyOp9
 70
     1
102
RTVSPropertyOp10
 70
     1
102
RTVSPropertyOp11
 70
     1
102
RTVSPropertyOp12
 70
     1
102
RTVSPropertyOp13
 70
     1
102
RTVSPropertyOp14
 70
     1
102
RTVSPropertyOp15
 70
     1
102
RTVSPropertyOp16
 70
     1
102
RTVSPropertyOp17
 70
     1
102
RTVSPropertyOp18
 70
     1
102
RTVSPropertyOp19
 70
     1
102
RTVSPropertyOp20
 70
     1
102
RTVSPropertyOp21
 70
     1
102
RTVSPropertyOp22
 70
     1
102
RTVSPropertyOp23
 70
     1
102
RTVSPropertyOp24
 70
     1
102
RTVSPropertyOp25
 70
     1
102
RTVSPropertyOp26
 70
     1
102
RTVSPropertyOp27
 70
     1
102
RTVSPropertyOp28
 70
     1
102
RTVSPropertyOp29
 70
     1
102
RTVSPropertyOp30
 70
     1
102
RTVSPropertyOp31
 70
     1
102
RTVSPropertyOp32
 70
     1
  0
XRECORD
  5
643
102
{ACAD_REACTORS
330
642
102
}
330
642
100
AcDbXrecord
280
     1
102
RTVSPropertyOp0
 70
     1
102
RTVSPropertyOp1
 70
     1
102
RTVSPropertyOp2
 70
     1
102
RTVSPropertyOp3
 70
     1
102
RTVSPropertyOp4
 70
     1
102
RTVSPropertyOp5
 70
     1
102
RTVSPropertyOp6
 70
     1
102
RTVSPropertyOp7
 70
     1
102
RTVSPropertyOp8
 70
     1
102
RTVSPropertyOp9
 70
     1
102
RTVSPropertyOp10
 70
     1
102
RTVSPropertyOp11
 70
     1
102
RTVSPropertyOp12
 70
     1
102
RTVSPropertyOp13
 70
     1
102
RTVSPropertyOp14
 70
     1
102
RTVSPropertyOp15
 70
     1
102
RTVSPropertyOp16
 70
     1
102
RTVSPropertyOp17
 70
     1
102
RTVSPropertyOp18
 70
     1
102
RTVSPropertyOp19
 70
     1
102
RTVSPropertyOp20
 70
     1
102
RTVSPropertyOp21
 70
     1
102
RTVSPropertyOp22
 70
     1
102
RTVSPropertyOp23
 70
     1
102
RTVSPropertyOp24
 70
     1
102
RTVSPropertyOp25
 70
     1
102
RTVSPropertyOp26
 70
     1
102
RTVSPropertyOp27
 70
     1
102
RTVSPropertyOp28
 70
     1
102
RTVSPropertyOp29
 70
     1
102
RTVSPropertyOp30
 70
     1
102
RTVSPropertyOp31
 70
     1
102
RTVSPropertyOp32
 70
     1
  0
XRECORD
  5
64B
102
{ACAD_REACTORS
330
64A
102
}
330
64A
100
AcDbXrecord
280
     1
102
RTVSPropertyOp0
 70
     1
102
RTVSPropertyOp1
 70
     1
102
RTVSPropertyOp2
 70
     1
102
RTVSPropertyOp3
 70
     1
102
RTVSPropertyOp4
 70
     1
102
RTVSPropertyOp5
 70
     1
102
RTVSPropertyOp6
 70
     1
102
RTVSPropertyOp7
 70
     1
102
RTVSPropertyOp8
 70
     1
102
RTVSPropertyOp9
 70
     1
102
RTVSPropertyOp10
 70
     1
102
RTVSPropertyOp11
 70
     1
102
RTVSPropertyOp12
 70
     1
102
RTVSPropertyOp13
 70
     1
102
RTVSPropertyOp14
 70
     1
102
RTVSPropertyOp15
 70
     1
102
RTVSPropertyOp16
 70
     1
102
RTVSPropertyOp17
 70
     1
102
RTVSPropertyOp18
 70
     1
102
RTVSPropertyOp19
 70
     1
102
RTVSPropertyOp20
 70
     1
102
RTVSPropertyOp21
 70
     1
102
RTVSPropertyOp22
 70
     1
102
RTVSPropertyOp23
 70
     1
102
RTVSPropertyOp24
 70
     1
102
RTVSPropertyOp25
 70
     1
102
RTVSPropertyOp26
 70
     1
102
RTVSPropertyOp27
 70
     1
102
RTVSPropertyOp28
 70
     1
102
RTVSPropertyOp29
 70
     1
102
RTVSPropertyOp30
 70
     1
102
RTVSPropertyOp31
 70
     1
102
RTVSPropertyOp32
 70
     1
  0
XRECORD
  5
63F
102
{ACAD_REACTORS
330
63E
102
}
330
63E
100
AcDbXrecord
280
     1
102
RTVSPropertyOp0
 70
     1
102
RTVSPropertyOp1
 70
     1
102
RTVSPropertyOp2
 70
     1
102
RTVSPropertyOp3
 70
     1
102
RTVSPropertyOp4
 70
     1
102
RTVSPropertyOp5
 70
     1
102
RTVSPropertyOp6
 70
     1
102
RTVSPropertyOp7
 70
     1
102
RTVSPropertyOp8
 70
     1
102
RTVSPropertyOp9
 70
     1
102
RTVSPropertyOp10
 70
     1
102
RTVSPropertyOp11
 70
     1
102
RTVSPropertyOp12
 70
     1
102
RTVSPropertyOp13
 70
     1
102
RTVSPropertyOp14
 70
     1
102
RTVSPropertyOp15
 70
     1
102
RTVSPropertyOp16
 70
     1
102
RTVSPropertyOp17
 70
     1
102
RTVSPropertyOp18
 70
     1
102
RTVSPropertyOp19
 70
     1
102
RTVSPropertyOp20
 70
     1
102
RTVSPropertyOp21
 70
     1
102
RTVSPropertyOp22
 70
     1
102
RTVSPropertyOp23
 70
     1
102
RTVSPropertyOp24
 70
     1
102
RTVSPropertyOp25
 70
     1
102
RTVSPropertyOp26
 70
     1
102
RTVSPropertyOp27
 70
     1
102
RTVSPropertyOp28
 70
     1
102
RTVSPropertyOp29
 70
     1
102
RTVSPropertyOp30
 70
     1
102
RTVSPropertyOp31
 70
     1
102
RTVSPropertyOp32
 70
     1
  0
XRECORD
  5
641
102
{ACAD_REACTORS
330
640
102
}
330
640
100
AcDbXrecord
280
     1
102
RTVSPropertyOp0
 70
     1
102
RTVSPropertyOp1
 70
     1
102
RTVSPropertyOp2
 70
     1
102
RTVSPropertyOp3
 70
     1
102
RTVSPropertyOp4
 70
     1
102
RTVSPropertyOp5
 70
     1
102
RTVSPropertyOp6
 70
     1
102
RTVSPropertyOp7
 70
     1
102
RTVSPropertyOp8
 70
     1
102
RTVSPropertyOp9
 70
     1
102
RTVSPropertyOp10
 70
     1
102
RTVSPropertyOp11
 70
     1
102
RTVSPropertyOp12
 70
     1
102
RTVSPropertyOp13
 70
     1
102
RTVSPropertyOp14
 70
     1
102
RTVSPropertyOp15
 70
     1
102
RTVSPropertyOp16
 70
     1
102
RTVSPropertyOp17
 70
     1
102
RTVSPropertyOp18
 70
     1
102
RTVSPropertyOp19
 70
     1
102
RTVSPropertyOp20
 70
     1
102
RTVSPropertyOp21
 70
     1
102
RTVSPropertyOp22
 70
     1
102
RTVSPropertyOp23
 70
     1
102
RTVSPropertyOp24
 70
     1
102
RTVSPropertyOp25
 70
     1
102
RTVSPropertyOp26
 70
     1
102
RTVSPropertyOp27
 70
     1
102
RTVSPropertyOp28
 70
     1
102
RTVSPropertyOp29
 70
     1
102
RTVSPropertyOp30
 70
     1
102
RTVSPropertyOp31
 70
     1
102
RTVSPropertyOp32
 70
     1
  0
XRECORD
  5
649
102
{ACAD_REACTORS
330
648
102
}
330
648
100
AcDbXrecord
280
     1
102
RTVSPropertyOp0
 70
     1
102
RTVSPropertyOp1
 70
     1
102
RTVSPropertyOp2
 70
     1
102
RTVSPropertyOp3
 70
     1
102
RTVSPropertyOp4
 70
     1
102
RTVSPropertyOp5
 70
     1
102
RTVSPropertyOp6
 70
     1
102
RTVSPropertyOp7
 70
     1
102
RTVSPropertyOp8
 70
     1
102
RTVSPropertyOp9
 70
     1
102
RTVSPropertyOp10
 70
     1
102
RTVSPropertyOp11
 70
     1
102
RTVSPropertyOp12
 70
     1
102
RTVSPropertyOp13
 70
     1
102
RTVSPropertyOp14
 70
     1
102
RTVSPropertyOp15
 70
     1
102
RTVSPropertyOp16
 70
     1
102
RTVSPropertyOp17
 70
     1
102
RTVSPropertyOp18
 70
     1
102
RTVSPropertyOp19
 70
     1
102
RTVSPropertyOp20
 70
     1
102
RTVSPropertyOp21
 70
     1
102
RTVSPropertyOp22
 70
     1
102
RTVSPropertyOp23
 70
     1
102
RTVSPropertyOp24
 70
     1
102
RTVSPropertyOp25
 70
     1
102
RTVSPropertyOp26
 70
     1
102
RTVSPropertyOp27
 70
     1
102
RTVSPropertyOp28
 70
     1
102
RTVSPropertyOp29
 70
     1
102
RTVSPropertyOp30
 70
     1
102
RTVSPropertyOp31
 70
     1
102
RTVSPropertyOp32
 70
     1
  0
XRECORD
  5
62D
102
{ACAD_REACTORS
330
62C
102
}
330
62C
100
AcDbXrecord
280
     1
102
RTVSPropertyOp0
 70
     1
102
RTVSPropertyOp1
 70
     1
102
RTVSPropertyOp2
 70
     1
102
RTVSPropertyOp3
 70
     1
102
RTVSPropertyOp4
 70
     1
102
RTVSPropertyOp5
 70
     1
102
RTVSPropertyOp6
 70
     1
102
RTVSPropertyOp7
 70
     1
102
RTVSPropertyOp8
 70
     1
102
RTVSPropertyOp9
 70
     1
102
RTVSPropertyOp10
 70
     1
102
RTVSPropertyOp11
 70
     1
102
RTVSPropertyOp12
 70
     1
102
RTVSPropertyOp13
 70
     1
102
RTVSPropertyOp14
 70
     1
102
RTVSPropertyOp15
 70
     1
102
RTVSPropertyOp16
 70
     1
102
RTVSPropertyOp17
 70
     1
102
RTVSPropertyOp18
 70
     1
102
RTVSPropertyOp19
 70
     1
102
RTVSPropertyOp20
 70
     1
102
RTVSPropertyOp21
 70
     1
102
RTVSPropertyOp22
 70
     1
102
RTVSPropertyOp23
 70
     1
102
RTVSPropertyOp24
 70
     1
102
RTVSPropertyOp25
 70
     1
102
RTVSPropertyOp26
 70
     1
102
RTVSPropertyOp27
 70
     1
102
RTVSPropertyOp28
 70
     1
102
RTVSPropertyOp29
 70
     1
102
RTVSPropertyOp30
 70
     1
102
RTVSPropertyOp31
 70
     1
102
RTVSPropertyOp32
 70
     1
  0
XRECORD
  5
62F
102
{ACAD_REACTORS
330
62E
102
}
330
62E
100
AcDbXrecord
280
     1
102
RTVSPropertyOp0
 70
     1
102
RTVSPropertyOp1
 70
     1
102
RTVSPropertyOp2
 70
     1
102
RTVSPropertyOp3
 70
     1
102
RTVSPropertyOp4
 70
     1
102
RTVSPropertyOp5
 70
     1
102
RTVSPropertyOp6
 70
     1
102
RTVSPropertyOp7
 70
     1
102
RTVSPropertyOp8
 70
     1
102
RTVSPropertyOp9
 70
     1
102
RTVSPropertyOp10
 70
     1
102
RTVSPropertyOp11
 70
     1
102
RTVSPropertyOp12
 70
     1
102
RTVSPropertyOp13
 70
     1
102
RTVSPropertyOp14
 70
     1
102
RTVSPropertyOp15
 70
     1
102
RTVSPropertyOp16
 70
     1
102
RTVSPropertyOp17
 70
     1
102
RTVSPropertyOp18
 70
     1
102
RTVSPropertyOp19
 70
     1
102
RTVSPropertyOp20
 70
     1
102
RTVSPropertyOp21
 70
     1
102
RTVSPropertyOp22
 70
     1
102
RTVSPropertyOp23
 70
     1
102
RTVSPropertyOp24
 70
     1
102
RTVSPropertyOp25
 70
     1
102
RTVSPropertyOp26
 70
     1
102
RTVSPropertyOp27
 70
     1
102
RTVSPropertyOp28
 70
     1
102
RTVSPropertyOp29
 70
     1
102
RTVSPropertyOp30
 70
     1
102
RTVSPropertyOp31
 70
     1
102
RTVSPropertyOp32
 70
     1
  0
XRECORD
  5
631
102
{ACAD_REACTORS
330
630
102
}
330
630
100
AcDbXrecord
280
     1
102
RTVSPropertyOp0
 70
     1
102
RTVSPropertyOp1
 70
     1
102
RTVSPropertyOp2
 70
     1
102
RTVSPropertyOp3
 70
     1
102
RTVSPropertyOp4
 70
     1
102
RTVSPropertyOp5
 70
     1
102
RTVSPropertyOp6
 70
     1
102
RTVSPropertyOp7
 70
     1
102
RTVSPropertyOp8
 70
     1
102
RTVSPropertyOp9
 70
     1
102
RTVSPropertyOp10
 70
     1
102
RTVSPropertyOp11
 70
     1
102
RTVSPropertyOp12
 70
     1
102
RTVSPropertyOp13
 70
     1
102
RTVSPropertyOp14
 70
     1
102
RTVSPropertyOp15
 70
     1
102
RTVSPropertyOp16
 70
     1
102
RTVSPropertyOp17
 70
     1
102
RTVSPropertyOp18
 70
     1
102
RTVSPropertyOp19
 70
     1
102
RTVSPropertyOp20
 70
     1
102
RTVSPropertyOp21
 70
     1
102
RTVSPropertyOp22
 70
     1
102
RTVSPropertyOp23
 70
     1
102
RTVSPropertyOp24
 70
     1
102
RTVSPropertyOp25
 70
     1
102
RTVSPropertyOp26
 70
     1
102
RTVSPropertyOp27
 70
     1
102
RTVSPropertyOp28
 70
     1
102
RTVSPropertyOp29
 70
     1
102
RTVSPropertyOp30
 70
     1
102
RTVSPropertyOp31
 70
     1
102
RTVSPropertyOp32
 70
     1
  0
XRECORD
  5
633
102
{ACAD_REACTORS
330
632
102
}
330
632
100
AcDbXrecord
280
     1
102
RTVSPropertyOp0
 70
     1
102
RTVSPropertyOp1
 70
     1
102
RTVSPropertyOp2
 70
     1
102
RTVSPropertyOp3
 70
     1
102
RTVSPropertyOp4
 70
     1
102
RTVSPropertyOp5
 70
     1
102
RTVSPropertyOp6
 70
     1
102
RTVSPropertyOp7
 70
     1
102
RTVSPropertyOp8
 70
     1
102
RTVSPropertyOp9
 70
     1
102
RTVSPropertyOp10
 70
     1
102
RTVSPropertyOp11
 70
     1
102
RTVSPropertyOp12
 70
     1
102
RTVSPropertyOp13
 70
     1
102
RTVSPropertyOp14
 70
     1
102
RTVSPropertyOp15
 70
     1
102
RTVSPropertyOp16
 70
     1
102
RTVSPropertyOp17
 70
     1
102
RTVSPropertyOp18
 70
     1
102
RTVSPropertyOp19
 70
     1
102
RTVSPropertyOp20
 70
     1
102
RTVSPropertyOp21
 70
     1
102
RTVSPropertyOp22
 70
     1
102
RTVSPropertyOp23
 70
     1
102
RTVSPropertyOp24
 70
     1
102
RTVSPropertyOp25
 70
     1
102
RTVSPropertyOp26
 70
     1
102
RTVSPropertyOp27
 70
     1
102
RTVSPropertyOp28
 70
     1
102
RTVSPropertyOp29
 70
     1
102
RTVSPropertyOp30
 70
     1
102
RTVSPropertyOp31
 70
     1
102
RTVSPropertyOp32
 70
     1
  0
XRECORD
  5
647
102
{ACAD_REACTORS
330
646
102
}
330
646
100
AcDbXrecord
280
     1
102
RTVSPropertyOp0
 70
     1
102
RTVSPropertyOp1
 70
     1
102
RTVSPropertyOp2
 70
     1
102
RTVSPropertyOp3
 70
     1
102
RTVSPropertyOp4
 70
     1
102
RTVSPropertyOp5
 70
     1
102
RTVSPropertyOp6
 70
     1
102
RTVSPropertyOp7
 70
     1
102
RTVSPropertyOp8
 70
     1
102
RTVSPropertyOp9
 70
     1
102
RTVSPropertyOp10
 70
     1
102
RTVSPropertyOp11
 70
     1
102
RTVSPropertyOp12
 70
     1
102
RTVSPropertyOp13
 70
     1
102
RTVSPropertyOp14
 70
     1
102
RTVSPropertyOp15
 70
     1
102
RTVSPropertyOp16
 70
     1
102
RTVSPropertyOp17
 70
     1
102
RTVSPropertyOp18
 70
     1
102
RTVSPropertyOp19
 70
     1
102
RTVSPropertyOp20
 70
     1
102
RTVSPropertyOp21
 70
     1
102
RTVSPropertyOp22
 70
     1
102
RTVSPropertyOp23
 70
     1
102
RTVSPropertyOp24
 70
     1
102
RTVSPropertyOp25
 70
     1
102
RTVSPropertyOp26
 70
     1
102
RTVSPropertyOp27
 70
     1
102
RTVSPropertyOp28
 70
     1
102
RTVSPropertyOp29
 70
     1
102
RTVSPropertyOp30
 70
     1
102
RTVSPropertyOp31
 70
     1
102
RTVSPropertyOp32
 70
     1
  0
XRECORD
  5
63D
102
{ACAD_REACTORS
330
63C
102
}
330
63C
100
AcDbXrecord
280
     1
102
RTVSPropertyOp0
 70
     1
102
RTVSPropertyOp1
 70
     1
102
RTVSPropertyOp2
 70
     1
102
RTVSPropertyOp3
 70
     1
102
RTVSPropertyOp4
 70
     1
102
RTVSPropertyOp5
 70
     1
102
RTVSPropertyOp6
 70
     1
102
RTVSPropertyOp7
 70
     1
102
RTVSPropertyOp8
 70
     1
102
RTVSPropertyOp9
 70
     1
102
RTVSPropertyOp10
 70
     1
102
RTVSPropertyOp11
 70
     1
102
RTVSPropertyOp12
 70
     1
102
RTVSPropertyOp13
 70
     1
102
RTVSPropertyOp14
 70
     1
102
RTVSPropertyOp15
 70
     1
102
RTVSPropertyOp16
 70
     1
102
RTVSPropertyOp17
 70
     1
102
RTVSPropertyOp18
 70
     1
102
RTVSPropertyOp19
 70
     1
102
RTVSPropertyOp20
 70
     1
102
RTVSPropertyOp21
 70
     1
102
RTVSPropertyOp22
 70
     1
102
RTVSPropertyOp23
 70
     1
102
RTVSPropertyOp24
 70
     1
102
RTVSPropertyOp25
 70
     1
102
RTVSPropertyOp26
 70
     1
102
RTVSPropertyOp27
 70
     1
102
RTVSPropertyOp28
 70
     1
102
RTVSPropertyOp29
 70
     1
102
RTVSPropertyOp30
 70
     1
102
RTVSPropertyOp31
 70
     1
102
RTVSPropertyOp32
 70
     1
  0
XRECORD
  5
645
102
{ACAD_REACTORS
330
644
102
}
330
644
100
AcDbXrecord
280
     1
102
RTVSPropertyOp0
 70
     1
102
RTVSPropertyOp1
 70
     1
102
RTVSPropertyOp2
 70
     1
102
RTVSPropertyOp3
 70
     1
102
RTVSPropertyOp4
 70
     1
102
RTVSPropertyOp5
 70
     1
102
RTVSPropertyOp6
 70
     1
102
RTVSPropertyOp7
 70
     1
102
RTVSPropertyOp8
 70
     1
102
RTVSPropertyOp9
 70
     1
102
RTVSPropertyOp10
 70
     1
102
RTVSPropertyOp11
 70
     1
102
RTVSPropertyOp12
 70
     1
102
RTVSPropertyOp13
 70
     1
102
RTVSPropertyOp14
 70
     1
102
RTVSPropertyOp15
 70
     1
102
RTVSPropertyOp16
 70
     1
102
RTVSPropertyOp17
 70
     1
102
RTVSPropertyOp18
 70
     1
102
RTVSPropertyOp19
 70
     1
102
RTVSPropertyOp20
 70
     1
102
RTVSPropertyOp21
 70
     1
102
RTVSPropertyOp22
 70
     1
102
RTVSPropertyOp23
 70
     1
102
RTVSPropertyOp24
 70
     1
102
RTVSPropertyOp25
 70
     1
102
RTVSPropertyOp26
 70
     1
102
RTVSPropertyOp27
 70
     1
102
RTVSPropertyOp28
 70
     1
102
RTVSPropertyOp29
 70
     1
102
RTVSPropertyOp30
 70
     1
102
RTVSPropertyOp31
 70
     1
102
RTVSPropertyOp32
 70
     1
  0
ENDSEC
  0
EOF
