  0
SECTION
  2
HEADER
  9
$ACADVER
  1
AC1015
  9
$ACADMAINTVER
 70
     6
  9
$DWGCODEPAGE
  3
ANSI_1252
  9
$INSBASE
 10
0.0
 20
0.0
 30
0.0
  9
$EXTMIN
 10
1.000000000000000E+20
 20
1.000000000000000E+20
 30
1.000000000000000E+20
  9
$EXTMAX
 10
-1.000000000000000E+20
 20
-1.000000000000000E+20
 30
-1.000000000000000E+20
  9
$LIMMIN
 10
-170.0
 20
-170.0
  9
$LIMMAX
 10
519.0
 20
260.0
  9
$ORTHOMODE
 70
     0
  9
$REGENMODE
 70
     1
  9
$FILLMODE
 70
     1
  9
$QTEXTMODE
 70
     0
  9
$MIRRTEXT
 70
     0
  9
$LTSCALE
 40
1.0
  9
$ATTMODE
 70
     1
  9
$TEXTSIZE
 40
3.5
  9
$TRACEWID
 40
1.0
  9
$TEXTSTYLE
  7
SIMPLEX
  9
$CLAYER
  8
1
  9
$CELTYPE
  6
BYLAYER
  9
$CECOLOR
 62
   256
  9
$CELTSCALE
 40
1.0
  9
$DISPSILH
 70
     0
  9
$DIMSCALE
 40
1.0
  9
$DIMASZ
 40
2.5
  9
$DIMEXO
 40
0.0
  9
$DIMDLI
 40
3.75
  9
$DIMRND
 40
0.0
  9
$DIMDLE
 40
0.0
  9
$DIMEXE
 40
1.25
  9
$DIMTP
 40
0.0
  9
$DIMTM
 40
0.0
  9
$DIMTXT
 40
3.5
  9
$DIMCEN
 40
0.0
  9
$DIMTSZ
 40
0.0
  9
$DIMTOL
 70
     0
  9
$DIMLIM
 70
     0
  9
$DIMTIH
 70
     0
  9
$DIMTOH
 70
     0
  9
$DIMSE1
 70
     0
  9
$DIMSE2
 70
     0
  9
$DIMTAD
 70
     1
  9
$DIMZIN
 70
     8
  9
$DIMBLK
  1

  9
$DIMASO
 70
     1
  9
$DIMSHO
 70
     1
  9
$DIMPOST
  1

  9
$DIMAPOST
  1

  9
$DIMALT
 70
     0
  9
$DIMALTD
 70
     3
  9
$DIMALTF
 40
0.039370078
  9
$DIMLFAC
 40
1.0
  9
$DIMTOFL
 70
     0
  9
$DIMTVP
 40
0.0
  9
$DIMTIX
 70
     0
  9
$DIMSOXD
 70
     0
  9
$DIMSAH
 70
     0
  9
$DIMBLK1
  1

  9
$DIMBLK2
  1

  9
$DIMSTYLE
  2
STANDARD
  9
$DIMCLRD
 70
     0
  9
$DIMCLRE
 70
     0
  9
$DIMCLRT
 70
     0
  9
$DIMTFAC
 40
1.0
  9
$DIMGAP
 40
0.625
  9
$DIMJUST
 70
     0
  9
$DIMSD1
 70
     0
  9
$DIMSD2
 70
     0
  9
$DIMTOLJ
 70
     0
  9
$DIMTZIN
 70
     8
  9
$DIMALTZ
 70
     0
  9
$DIMALTTZ
 70
     0
  9
$DIMUPT
 70
     0
  9
$DIMDEC
 70
     2
  9
$DIMTDEC
 70
     2
  9
$DIMALTU
 70
     2
  9
$DIMALTTD
 70
     3
  9
$DIMTXSTY
  7
SIMPLEX
  9
$DIMAUNIT
 70
     0
  9
$DIMADEC
 70
     2
  9
$DIMALTRND
 40
0.0
  9
$DIMAZIN
 70
     2
  9
$DIMDSEP
 70
    46
  9
$DIMATFIT
 70
     3
  9
$DIMFRAC
 70
     0
  9
$DIMLDRBLK
  1

  9
$DIMLUNIT
 70
     2
  9
$DIMLWD
 70
    -2
  9
$DIMLWE
 70
    -2
  9
$DIMTMOVE
 70
     0
  9
$LUNITS
 70
     2
  9
$LUPREC
 70
     4
  9
$SKETCHINC
 40
1.0
  9
$FILLETRAD
 40
0.0
  9
$AUNITS
 70
     0
  9
$AUPREC
 70
     0
  9
$MENU
  1
c:\tdm21\cad\caduti13\tdm13
  9
$ELEVATION
 40
0.0
  9
$PELEVATION
 40
0.0
  9
$THICKNESS
 40
0.0
  9
$LIMCHECK
 70
     0
  9
$CHAMFERA
 40
0.0
  9
$CHAMFERB
 40
0.0
  9
$CHAMFERC
 40
0.0
  9
$CHAMFERD
 40
0.0
  9
$SKPOLY
 70
     0
  9
$TDCREATE
 40
2454957.593642639
  9
$TDUCREATE
 40
2454957.510309306
  9
$TDUPDATE
 40
2456861.344551979
  9
$TDUUPDATE
 40
2456861.261218646
  9
$TDINDWG
 40
0.0009643519
  9
$TDUSRTIMER
 40
0.0009475231
  9
$USRTIMER
 70
     1
  9
$ANGBASE
 50
0.0
  9
$ANGDIR
 70
     0
  9
$PDMODE
 70
     1
  9
$PDSIZE
 40
0.0
  9
$PLINEWID
 40
0.0
  9
$SPLFRAME
 70
     0
  9
$SPLINETYPE
 70
     6
  9
$SPLINESEGS
 70
     8
  9
$HANDSEED
  5
652
  9
$SURFTAB1
 70
     6
  9
$SURFTAB2
 70
     6
  9
$SURFTYPE
 70
     6
  9
$SURFU
 70
     6
  9
$SURFV
 70
     6
  9
$UCSBASE
  2

  9
$UCSNAME
  2

  9
$UCSORG
 10
0.0
 20
0.0
 30
0.0
  9
$UCSXDIR
 10
1.0
 20
0.0
 30
0.0
  9
$UCSYDIR
 10
0.0
 20
1.0
 30
0.0
  9
$UCSORTHOREF
  2

  9
$UCSORTHOVIEW
 70
     0
  9
$UCSORGTOP
 10
0.0
 20
0.0
 30
0.0
  9
$UCSORGBOTTOM
 10
0.0
 20
0.0
 30
0.0
  9
$UCSORGLEFT
 10
0.0
 20
0.0
 30
0.0
  9
$UCSORGRIGHT
 10
0.0
 20
0.0
 30
0.0
  9
$UCSORGFRONT
 10
0.0
 20
0.0
 30
0.0
  9
$UCSORGBACK
 10
0.0
 20
0.0
 30
0.0
  9
$PUCSBASE
  2

  9
$PUCSNAME
  2

  9
$PUCSORG
 10
0.0
 20
0.0
 30
0.0
  9
$PUCSXDIR
 10
1.0
 20
0.0
 30
0.0
  9
$PUCSYDIR
 10
0.0
 20
1.0
 30
0.0
  9
$PUCSORTHOREF
  2

  9
$PUCSORTHOVIEW
 70
     0
  9
$PUCSORGTOP
 10
0.0
 20
0.0
 30
0.0
  9
$PUCSORGBOTTOM
 10
0.0
 20
0.0
 30
0.0
  9
$PUCSORGLEFT
 10
0.0
 20
0.0
 30
0.0
  9
$PUCSORGRIGHT
 10
0.0
 20
0.0
 30
0.0
  9
$PUCSORGFRONT
 10
0.0
 20
0.0
 30
0.0
  9
$PUCSORGBACK
 10
0.0
 20
0.0
 30
0.0
  9
$USERI1
 70
     0
  9
$USERI2
 70
     0
  9
$USERI3
 70
     0
  9
$USERI4
 70
     0
  9
$USERI5
 70
     0
  9
$USERR1
 40
0.0
  9
$USERR2
 40
0.0
  9
$USERR3
 40
0.0
  9
$USERR4
 40
0.0
  9
$USERR5
 40
0.0
  9
$WORLDVIEW
 70
     1
  9
$SHADEDGE
 70
     3
  9
$SHADEDIF
 70
    70
  9
$TILEMODE
 70
     1
  9
$MAXACTVP
 70
    64
  9
$PINSBASE
 10
0.0
 20
0.0
 30
0.0
  9
$PLIMCHECK
 70
     0
  9
$PEXTMIN
 10
0.0
 20
0.0
 30
0.0
  9
$PEXTMAX
 10
0.0
 20
0.0
 30
0.0
  9
$PLIMMIN
 10
0.0
 20
0.0
  9
$PLIMMAX
 10
12.0
 20
9.0
  9
$UNITMODE
 70
     0
  9
$VISRETAIN
 70
     0
  9
$PLINEGEN
 70
     0
  9
$PSLTSCALE
 70
     1
  9
$TREEDEPTH
 70
  3020
  9
$CMLSTYLE
  2
STANDARD
  9
$CMLJUST
 70
     0
  9
$CMLSCALE
 40
20.0
  9
$PROXYGRAPHICS
 70
     1
  9
$MEASUREMENT
 70
     1
  9
$CELWEIGHT
370
    -1
  9
$ENDCAPS
280
     0
  9
$JOINSTYLE
280
     0
  9
$LWDISPLAY
290
     0
  9
$INSUNITS
 70
     4
  9
$HYPERLINKBASE
  1

  9
$STYLESHEET
  1
MONOCHROME.CTB
  9
$XEDIT
290
     1
  9
$CEPSNTYPE
380
     0
  9
$PSTYLEMODE
290
     1
  9
$FINGERPRINTGUID
  2
{46B44192-1510-48B1-B61B-CBE2ADA013A7}
  9
$VERSIONGUID
  2
{6160D478-9A74-4C97-9D8A-D4A65CE74B12}
  9
$EXTNAMES
290
     1
  9
$PSVPSCALE
 40
0.0
  9
$OLESTARTUP
290
     0
  0
ENDSEC
  0
SECTION
  2
CLASSES
  0
CLASS
  1
ACDBDICTIONARYWDFLT
  2
AcDbDictionaryWithDefault
  3
ObjectDBX Classes
 90
        0
280
     0
281
     0
  0
CLASS
  1
ACDBPLACEHOLDER
  2
AcDbPlaceHolder
  3
ObjectDBX Classes
 90
        0
280
     0
281
     0
  0
CLASS
  1
LAYOUT
  2
AcDbLayout
  3
ObjectDBX Classes
 90
        0
280
     0
281
     0
  0
CLASS
  1
DICTIONARYVAR
  2
AcDbDictionaryVar
  3
ObjectDBX Classes
 90
        0
280
     0
281
     0
  0
CLASS
  1
TABLESTYLE
  2
AcDbTableStyle
  3
ObjectDBX Classes
 90
     4095
280
     0
281
     0
  0
CLASS
  1
SCALE
  2
AcDbScale
  3
ObjectDBX Classes
 90
     1153
280
     0
281
     0
  0
CLASS
  1
MATERIAL
  2
AcDbMaterial
  3
ObjectDBX Classes
 90
     1153
280
     0
281
     0
  0
CLASS
  1
VISUALSTYLE
  2
AcDbVisualStyle
  3
ObjectDBX Classes
 90
     4095
280
     0
281
     0
  0
ENDSEC
  0
SECTION
  2
TABLES
  0
TABLE
  2
VPORT
  5
8
330
0
100
AcDbSymbolTable
 70
     1
  0
VPORT
  5
39A
330
8
100
AcDbSymbolTableRecord
100
AcDbViewportTableRecord
  2
*Active
 70
     0
 10
0.0
 20
0.0
 11
1.0
 21
1.0
 12
218.9201881351169
 22
109.7549380673833
 13
0.0
 23
0.0
 14
5.0
 24
5.0
 15
5.0
 25
5.0
 16
0.0
 26
0.0
 36
1.0
 17
0.0
 27
0.0
 37
0.0
 40
564.6711112651689
 41
1.066073697585768
 42
50.0
 43
0.0
 44
0.0
 50
0.0
 51
0.0
 71
     0
 72
  2000
 73
     1
 74
     1
 75
     0
 76
     0
 77
     0
 78
     0
281
     0
 65
     1
110
0.0
120
0.0
130
0.0
111
1.0
121
0.0
131
0.0
112
0.0
122
1.0
132
0.0
 79
     0
146
0.0
  0
ENDTAB
  0
TABLE
  2
LTYPE
  5
5
330
0
100
AcDbSymbolTable
 70
     3
  0
LTYPE
  5
12
330
5
100
AcDbSymbolTableRecord
100
AcDbLinetypeTableRecord
  2
BYBLOCK
 70
     0
  3

 72
    65
 73
     0
 40
0.0
  0
LTYPE
  5
13
330
5
100
AcDbSymbolTableRecord
100
AcDbLinetypeTableRecord
  2
BYLAYER
 70
     0
  3

 72
    65
 73
     0
 40
0.0
  0
LTYPE
  5
14
330
5
100
AcDbSymbolTableRecord
100
AcDbLinetypeTableRecord
  2
CONTINUOUS
 70
     0
  3
Solid line
 72
    65
 73
     0
 40
0.0
  0
LTYPE
  5
20
330
5
100
AcDbSymbolTableRecord
100
AcDbLinetypeTableRecord
  2
HIDDEN
 70
     0
  3
Hidden __ __ __ __ __ __ __ __ __ __ __ __ __ _
 72
    65
 73
     2
 40
9.524999999999997
 49
6.349999999999998
 74
     0
 49
-3.174999999999998
 74
     0
  0
LTYPE
  5
351
330
5
100
AcDbSymbolTableRecord
100
AcDbLinetypeTableRecord
  2
CENTER
 70
     0
  3
Dash dot __ . __ . __ . __ . __ . __ . __ . __
 72
    65
 73
     4
 40
25.4
 49
12.7
 74
     0
 49
-6.349999999999998
 74
     0
 49
0.0
 74
     0
 49
-6.349999999999998
 74
     0
  0
ENDTAB
  0
TABLE
  2
LAYER
  5
2
330
0
100
AcDbSymbolTable
 70
    16
  0
LAYER
  5
F
330
2
100
AcDbSymbolTableRecord
100
AcDbLayerTableRecord
  2
0
 70
     0
 62
     7
  6
CONTINUOUS
370
    -3
390
300
  0
LAYER
  5
23
330
2
100
AcDbSymbolTableRecord
100
AcDbLayerTableRecord
  2
1
 70
     0
 62
     4
  6
CONTINUOUS
370
    -3
390
300
  0
LAYER
  5
24
330
2
100
AcDbSymbolTableRecord
100
AcDbLayerTableRecord
  2
SK1
 70
     0
 62
     4
  6
CONTINUOUS
370
    -3
390
300
  0
LAYER
  5
25
330
2
100
AcDbSymbolTableRecord
100
AcDbLayerTableRecord
  2
2
 70
     0
 62
     7
  6
CONTINUOUS
370
    -3
390
300
  0
LAYER
  5
26
330
2
100
AcDbSymbolTableRecord
100
AcDbLayerTableRecord
  2
2L
 70
     0
 62
     7
  6
CONTINUOUS
370
    -3
390
300
  0
LAYER
  5
27
330
2
100
AcDbSymbolTableRecord
100
AcDbLayerTableRecord
  2
SK2
 70
     0
 62
     7
  6
CONTINUOUS
370
    -3
390
300
  0
LAYER
  5
28
330
2
100
AcDbSymbolTableRecord
100
AcDbLayerTableRecord
  2
3
 70
     0
 62
     1
  6
HIDDEN
370
    -3
390
300
  0
LAYER
  5
29
330
2
100
AcDbSymbolTableRecord
100
AcDbLayerTableRecord
  2
SK3
 70
     0
 62
     1
  6
HIDDEN
370
    -3
390
300
  0
LAYER
  5
2A
330
2
100
AcDbSymbolTableRecord
100
AcDbLayerTableRecord
  2
4
 70
     0
 62
     2
  6
CENTER
370
    -3
390
300
  0
LAYER
  5
2B
330
2
100
AcDbSymbolTableRecord
100
AcDbLayerTableRecord
  2
SK4
 70
     0
 62
     2
  6
CENTER
370
    -3
390
300
  0
LAYER
  5
2C
330
2
100
AcDbSymbolTableRecord
100
AcDbLayerTableRecord
  2
5
 70
     0
 62
    -7
  6
CONTINUOUS
370
    -3
390
300
  0
LAYER
  5
2D
330
2
100
AcDbSymbolTableRecord
100
AcDbLayerTableRecord
  2
6
 70
     0
 62
     5
  6
CONTINUOUS
370
    -3
390
300
  0
LAYER
  5
2E
330
2
100
AcDbSymbolTableRecord
100
AcDbLayerTableRecord
  2
SK6
 70
     0
 62
     5
  6
CONTINUOUS
370
    -3
390
300
  0
LAYER
  5
2F
330
2
100
AcDbSymbolTableRecord
100
AcDbLayerTableRecord
  2
DEFPOINTS
 70
     0
 62
     7
  6
CONTINUOUS
290
     0
370
    -3
390
300
  0
LAYER
  5
375
330
2
100
AcDbSymbolTableRecord
100
AcDbLayerTableRecord
  2
CUT
 70
     0
 62
     1
  6
CONTINUOUS
370
    -3
390
300
  0
LAYER
  5
376
330
2
100
AcDbSymbolTableRecord
100
AcDbLayerTableRecord
  2
NOCUT
 70
     0
 62
     7
  6
CONTINUOUS
370
    -3
390
300
  0
ENDTAB
  0
TABLE
  2
STYLE
  5
3
330
0
100
AcDbSymbolTable
 70
     4
  0
STYLE
  5
10
330
3
100
AcDbSymbolTableRecord
100
AcDbTextStyleTableRecord
  2
STANDARD
 70
     0
 40
0.0
 41
1.0
 50
0.0
 71
     0
 42
5.0
  3
txt
  4

  0
STYLE
  5
1D
330
3
100
AcDbSymbolTableRecord
100
AcDbTextStyleTableRecord
  2
TXT
 70
     0
 40
8.0
 41
1.0
 50
0.0
 71
     0
 42
8.0
  3
txt
  4

  0
STYLE
  5
1E
330
3
100
AcDbSymbolTableRecord
100
AcDbTextStyleTableRecord
  2
SIMPLEX
 70
     0
 40
0.0
 41
1.0
 50
0.0
 71
     0
 42
3.5
  3
simplex
  4

  0
STYLE
  5
34C
330
3
100
AcDbSymbolTableRecord
100
AcDbTextStyleTableRecord
  2

 70
     1
 40
0.0
 41
1.0
 50
0.0
 71
     0
 42
2.5
  3
ltypeshp.shx
  4

  0
ENDTAB
  0
TABLE
  2
VIEW
  5
6
330
0
100
AcDbSymbolTable
 70
     0
  0
ENDTAB
  0
TABLE
  2
UCS
  5
7
330
0
100
AcDbSymbolTable
 70
     0
  0
ENDTAB
  0
TABLE
  2
APPID
  5
9
330
0
100
AcDbSymbolTable
 70
     1
  0
APPID
  5
11
330
9
100
AcDbSymbolTableRecord
100
AcDbRegAppTableRecord
  2
ACAD
 70
     0
  0
ENDTAB
  0
TABLE
  2
DIMSTYLE
  5
A
330
0
100
AcDbSymbolTable
 70
     1
100
AcDbDimStyleTable
  0
DIMSTYLE
105
3F
102
{ACAD_REACTORS
330
5E3
330
5F1
330
5FE
330
60C
330
61A
102
}
330
A
100
AcDbSymbolTableRecord
100
AcDbDimStyleTableRecord
  2
STANDARD
 70
     0
 41
2.5
 42
0.0
 43
3.75
 44
1.25
 73
     0
 74
     0
 77
     1
 78
     8
 79
     2
140
3.5
141
0.0
143
0.039370078
147
0.625
171
     3
178
     0
179
     2
271
     2
272
     2
274
     3
283
     0
284
     8
340
1E
  0
ENDTAB
  0
TABLE
  2
BLOCK_RECORD
  5
1
330
0
100
AcDbSymbolTable
 70
     5
  0
BLOCK_RECORD
  5
18
330
1
100
AcDbSymbolTableRecord
100
AcDbBlockTableRecord
  2
*MODEL_SPACE
340
303
  0
BLOCK_RECORD
  5
338
330
1
100
AcDbSymbolTableRecord
100
AcDbBlockTableRecord
  2
*Paper_Space
340
33B
  0
BLOCK_RECORD
  5
5E4
330
1
100
AcDbSymbolTableRecord
100
AcDbBlockTableRecord
  2
*D0
340
0
  0
BLOCK_RECORD
  5
5F2
330
1
100
AcDbSymbolTableRecord
100
AcDbBlockTableRecord
  2
*D1
340
0
  0
BLOCK_RECORD
  5
5FF
330
1
100
AcDbSymbolTableRecord
100
AcDbBlockTableRecord
  2
*D2
340
0
  0
BLOCK_RECORD
  5
60D
330
1
100
AcDbSymbolTableRecord
100
AcDbBlockTableRecord
  2
*D3
340
0
  0
BLOCK_RECORD
  5
61B
330
1
100
AcDbSymbolTableRecord
100
AcDbBlockTableRecord
  2
*D4
340
0
  0
ENDTAB
  0
ENDSEC
  0
SECTION
  2
BLOCKS
  0
BLOCK
  5
32
330
18
100
AcDbEntity
  8
0
100
AcDbBlockBegin
  2
*MODEL_SPACE
 70
     0
 10
0.0
 20
0.0
 30
0.0
  3
*MODEL_SPACE
  1

  0
ENDBLK
  5
33
330
18
100
AcDbEntity
  8
0
100
AcDbBlockEnd
  0
BLOCK
  5
339
330
338
100
AcDbEntity
 67
     1
  8
0
100
AcDbBlockBegin
  2
*Paper_Space
 70
     0
 10
0.0
 20
0.0
 30
0.0
  3
*Paper_Space
  1

  0
ENDBLK
  5
33A
330
338
100
AcDbEntity
 67
     1
  8
0
100
AcDbBlockEnd
  0
BLOCK
  5
5E5
330
5E4
100
AcDbEntity
  8
0
100
AcDbBlockBegin
  2
*D0
 70
     1
 10
0.0
 20
0.0
 30
0.0
  3
*D0
  1

  0
LINE
  5
5E7
330
5E4
100
AcDbEntity
  8
2
 62
     0
370
    -2
100
AcDbLine
 10
36.2
 20
1.4224
 30
0.0
 11
52.45000000000001
 21
1.422400000000057
 31
0.0
  0
LINE
  5
5E8
330
5E4
100
AcDbEntity
  8
2
 62
     0
370
    -2
100
AcDbLine
 10
36.2
 20
-1.4224
 30
0.0
 11
52.45000000000002
 21
-1.422399999999943
 31
0.0
  0
LINE
  5
5E9
330
5E4
100
AcDbEntity
  8
2
 62
     0
370
    -2
100
AcDbLine
 10
51.20000000000002
 20
-3.922399999999948
 30
0.0
 11
51.2000000000001
 21
-35.14739999999994
 31
0.0
  0
LINE
  5
5EA
330
5E4
100
AcDbEntity
  8
2
 62
     0
370
    -2
100
AcDbLine
 10
51.2
 20
3.922400000000053
 30
0.0
 11
51.2
 21
6.422400000000053
 31
0.0
  0
SOLID
  5
5EB
330
5E4
100
AcDbEntity
  8
2
 62
     0
100
AcDbTrace
 10
50.78333333333334
 20
3.922400000000052
 30
0.0
 11
51.61666666666667
 21
3.922400000000053
 31
0.0
 12
51.20000000000001
 22
1.422400000000053
 32
0.0
 13
51.20000000000001
 23
1.422400000000053
 33
0.0
  0
SOLID
  5
5EC
330
5E4
100
AcDbEntity
  8
2
 62
     0
100
AcDbTrace
 10
51.61666666666669
 20
-3.922399999999947
 30
0.0
 11
50.78333333333336
 21
-3.922399999999949
 31
0.0
 12
51.20000000000002
 22
-1.422399999999948
 32
0.0
 13
51.20000000000002
 23
-1.422399999999948
 33
0.0
  0
MTEXT
  5
5ED
330
5E4
100
AcDbEntity
  8
2
 62
     0
100
AcDbMText
 10
48.20725000000007
 20
-20.78489999999995
 30
0.0
 40
3.5
 41
0.0
 71
     5
 72
     1
  1
UNC#4-40
  7
SIMPLEX
 11
-2.497689594207326E-15
 21
1.0
 31
0.0
 73
     1
 44
1.0
  0
POINT
  5
5EE
330
5E4
100
AcDbEntity
  8
DEFPOINTS
 62
     0
100
AcDbPoint
 10
36.2
 20
1.4224
 30
0.0
  0
POINT
  5
5EF
330
5E4
100
AcDbEntity
  8
DEFPOINTS
 62
     0
100
AcDbPoint
 10
36.2
 20
-1.4224
 30
0.0
  0
POINT
  5
5F0
330
5E4
100
AcDbEntity
  8
DEFPOINTS
 62
     0
100
AcDbPoint
 10
51.20000000000002
 20
-1.422399999999948
 30
0.0
  0
ENDBLK
  5
5E6
330
5E4
100
AcDbEntity
  8
0
100
AcDbBlockEnd
  0
BLOCK
  5
5F3
330
5F2
100
AcDbEntity
  8
0
100
AcDbBlockBegin
  2
*D1
 70
     1
 10
0.0
 20
0.0
 30
0.0
  3
*D1
  1

  0
LINE
  5
5F5
330
5F2
100
AcDbEntity
  8
2
 62
     0
370
    -2
100
AcDbLine
 10
0.0
 20
0.0
 30
0.0
 11
0.0
 21
76.25
 31
0.0
  0
LINE
  5
5F6
330
5F2
100
AcDbEntity
  8
2
 62
     0
370
    -2
100
AcDbLine
 10
36.2
 20
0.0
 30
0.0
 11
36.2
 21
76.25
 31
0.0
  0
LINE
  5
5F7
330
5F2
100
AcDbEntity
  8
2
 62
     0
370
    -2
100
AcDbLine
 10
2.5
 20
75.0
 30
0.0
 11
33.7
 21
75.0
 31
0.0
  0
SOLID
  5
5F8
330
5F2
100
AcDbEntity
  8
2
 62
     0
100
AcDbTrace
 10
2.5
 20
75.41666666666667
 30
0.0
 11
2.5
 21
74.58333333333333
 31
0.0
 12
0.0
 22
75.0
 32
0.0
 13
0.0
 23
75.0
 33
0.0
  0
SOLID
  5
5F9
330
5F2
100
AcDbEntity
  8
2
 62
     0
100
AcDbTrace
 10
33.7
 20
74.58333333333333
 30
0.0
 11
33.7
 21
75.41666666666667
 31
0.0
 12
36.2
 22
75.0
 32
0.0
 13
36.2
 23
75.0
 33
0.0
  0
MTEXT
  5
5FA
330
5F2
100
AcDbEntity
  8
2
 62
     0
100
AcDbMText
 10
18.1
 20
77.39775
 30
0.0
 40
3.5
 41
0.0
 71
     5
 72
     1
  1
36.2
  7
SIMPLEX
 73
     1
 44
1.0
  0
POINT
  5
5FB
330
5F2
100
AcDbEntity
  8
DEFPOINTS
 62
     0
100
AcDbPoint
 10
0.0
 20
0.0
 30
0.0
  0
POINT
  5
5FC
330
5F2
100
AcDbEntity
  8
DEFPOINTS
 62
     0
100
AcDbPoint
 10
36.2
 20
0.0
 30
0.0
  0
POINT
  5
5FD
330
5F2
100
AcDbEntity
  8
DEFPOINTS
 62
     0
100
AcDbPoint
 10
36.2
 20
75.0
 30
0.0
  0
ENDBLK
  5
5F4
330
5F2
100
AcDbEntity
  8
0
100
AcDbBlockEnd
  0
BLOCK
  5
600
330
5FF
100
AcDbEntity
  8
0
100
AcDbBlockBegin
  2
*D2
 70
     1
 10
0.0
 20
0.0
 30
0.0
  3
*D2
  1

  0
LINE
  5
602
330
5FF
100
AcDbEntity
  8
SK2
 62
     0
370
    -2
100
AcDbLine
 10
-15.34399999999999
 20
1.7907
 30
0.0
 11
-36.42000000000913
 21
1.79069999989244
 31
0.0
  0
LINE
  5
603
330
5FF
100
AcDbEntity
  8
SK2
 62
     0
370
    -2
100
AcDbLine
 10
-15.34399999999999
 20
-1.7907
 30
0.0
 11
-36.41999999999086
 21
-1.79070000010756
 31
0.0
  0
LINE
  5
604
330
5FF
100
AcDbEntity
  8
SK2
 62
     0
370
    -2
100
AcDbLine
 10
-35.1699999999781
 20
-4.290700000101181
 30
0.0
 11
-35.16999999988662
 21
-22.21920000010118
 31
0.0
  0
LINE
  5
605
330
5FF
100
AcDbEntity
  8
SK2
 62
     0
370
    -2
100
AcDbLine
 10
-35.17000000002189
 20
4.29069999989882
 30
0.0
 11
-35.17000000003464
 21
6.79069999989882
 31
0.0
  0
SOLID
  5
606
330
5FF
100
AcDbEntity
  8
SK2
 62
     0
100
AcDbTrace
 10
-35.58666666668855
 20
4.290699999896693
 30
0.0
 11
-34.75333333335522
 21
4.290699999900946
 31
0.0
 12
-35.17000000000913
 22
1.79069999989882
 32
0.0
 13
-35.17000000000913
 23
1.79069999989882
 33
0.0
  0
SOLID
  5
607
330
5FF
100
AcDbEntity
  8
SK2
 62
     0
100
AcDbTrace
 10
-34.75333333331144
 20
-4.290700000099054
 30
0.0
 11
-35.58666666664477
 21
-4.290700000103307
 31
0.0
 12
-35.16999999999086
 22
-1.79070000010118
 32
0.0
 13
-35.16999999999086
 23
-1.79070000010118
 33
0.0
  0
MTEXT
  5
608
330
5FF
100
AcDbEntity
  8
SK2
 62
     0
100
AcDbMText
 10
-37.56774999992598
 20
-14.50495000011342
 30
0.0
 40
3.5
 41
0.0
 71
     5
 72
     1
  1
%%c3.58
  7
SIMPLEX
 11
-5.102797555076165E-12
 21
1.0
 31
0.0
 73
     1
 44
1.0
  0
POINT
  5
609
330
5FF
100
AcDbEntity
  8
DEFPOINTS
 62
     0
100
AcDbPoint
 10
-15.34399999999999
 20
1.7907
 30
0.0
  0
POINT
  5
60A
330
5FF
100
AcDbEntity
  8
DEFPOINTS
 62
     0
100
AcDbPoint
 10
-15.34399999999999
 20
-1.7907
 30
0.0
  0
POINT
  5
60B
330
5FF
100
AcDbEntity
  8
DEFPOINTS
 62
     0
100
AcDbPoint
 10
-35.16999999999086
 20
-1.79070000010118
 30
0.0
  0
ENDBLK
  5
601
330
5FF
100
AcDbEntity
  8
0
100
AcDbBlockEnd
  0
BLOCK
  5
60E
330
60D
100
AcDbEntity
  8
0
100
AcDbBlockBegin
  2
*D3
 70
     1
 10
0.0
 20
0.0
 30
0.0
  3
*D3
  1

  0
LINE
  5
610
330
60D
100
AcDbEntity
  8
2
 62
     0
370
    -2
100
AcDbLine
 10
26.468381739
 20
1.0
 30
0.0
 11
26.468381739
 21
61.25
 31
0.0
  0
LINE
  5
611
330
60D
100
AcDbEntity
  8
2
 62
     0
370
    -2
100
AcDbLine
 10
36.2
 20
1.4224
 30
0.0
 11
36.2
 21
61.25
 31
0.0
  0
LINE
  5
612
330
60D
100
AcDbEntity
  8
2
 62
     0
370
    -2
100
AcDbLine
 10
36.2
 20
60.0
 30
0.0
 11
50.3555
 21
60.0
 31
0.0
  0
LINE
  5
613
330
60D
100
AcDbEntity
  8
2
 62
     0
370
    -2
100
AcDbLine
 10
28.968381739
 20
60.0
 30
0.0
 11
33.7
 21
60.0
 31
0.0
  0
SOLID
  5
614
330
60D
100
AcDbEntity
  8
2
 62
     0
100
AcDbTrace
 10
28.968381739
 20
60.41666666666666
 30
0.0
 11
28.968381739
 21
59.58333333333334
 31
0.0
 12
26.468381739
 22
60.0
 32
0.0
 13
26.468381739
 23
60.0
 33
0.0
  0
SOLID
  5
615
330
60D
100
AcDbEntity
  8
2
 62
     0
100
AcDbTrace
 10
33.7
 20
59.58333333333334
 30
0.0
 11
33.7
 21
60.41666666666666
 31
0.0
 12
36.2
 22
60.0
 32
0.0
 13
36.2
 23
60.0
 33
0.0
  0
MTEXT
  5
616
330
60D
100
AcDbEntity
  8
2
 62
     0
100
AcDbMText
 10
44.52775
 20
62.39775
 30
0.0
 40
3.5
 41
0.0
 71
     5
 72
     1
  1
9.73
  7
SIMPLEX
 73
     1
 44
1.0
  0
POINT
  5
617
330
60D
100
AcDbEntity
  8
DEFPOINTS
 62
     0
100
AcDbPoint
 10
26.468381739
 20
1.0
 30
0.0
  0
POINT
  5
618
330
60D
100
AcDbEntity
  8
DEFPOINTS
 62
     0
100
AcDbPoint
 10
36.2
 20
1.4224
 30
0.0
  0
POINT
  5
619
330
60D
100
AcDbEntity
  8
DEFPOINTS
 62
     0
100
AcDbPoint
 10
36.2
 20
60.0
 30
0.0
  0
ENDBLK
  5
60F
330
60D
100
AcDbEntity
  8
0
100
AcDbBlockEnd
  0
BLOCK
  5
61C
330
61B
100
AcDbEntity
  8
0
100
AcDbBlockBegin
  2
*D4
 70
     1
 10
0.0
 20
0.0
 30
0.0
  3
*D4
  1

  0
LINE
  5
61E
330
61B
100
AcDbEntity
  8
SK2
 62
     0
370
    -2
100
AcDbLine
 10
-20.16999999999999
 20
1.4224
 30
0.0
 11
-20.16999999999999
 21
91.25
 31
0.0
  0
LINE
  5
61F
330
61B
100
AcDbEntity
  8
SK2
 62
     0
370
    -2
100
AcDbLine
 10
37.23
 20
1.4224
 30
0.0
 11
37.23
 21
91.25
 31
0.0
  0
LINE
  5
620
330
61B
100
AcDbEntity
  8
SK2
 62
     0
370
    -2
100
AcDbLine
 10
-17.66999999999999
 20
90.0
 30
0.0
 11
34.73
 21
90.0
 31
0.0
  0
SOLID
  5
621
330
61B
100
AcDbEntity
  8
SK2
 62
     0
100
AcDbTrace
 10
-17.66999999999999
 20
90.41666666666667
 30
0.0
 11
-17.66999999999999
 21
89.58333333333333
 31
0.0
 12
-20.16999999999999
 22
90.0
 32
0.0
 13
-20.16999999999999
 23
90.0
 33
0.0
  0
SOLID
  5
622
330
61B
100
AcDbEntity
  8
SK2
 62
     0
100
AcDbTrace
 10
34.73
 20
89.58333333333333
 30
0.0
 11
34.73
 21
90.41666666666667
 31
0.0
 12
37.23
 22
90.0
 32
0.0
 13
37.23
 23
90.0
 33
0.0
  0
MTEXT
  5
623
330
61B
100
AcDbEntity
  8
SK2
 62
     0
100
AcDbMText
 10
8.530000000000005
 20
92.438
 30
0.0
 40
3.5
 41
0.0
 71
     5
 72
     1
  1
57.4
  7
SIMPLEX
 73
     1
 44
1.0
  0
POINT
  5
624
330
61B
100
AcDbEntity
  8
DEFPOINTS
 62
     0
100
AcDbPoint
 10
-20.16999999999999
 20
1.4224
 30
0.0
  0
POINT
  5
625
330
61B
100
AcDbEntity
  8
DEFPOINTS
 62
     0
100
AcDbPoint
 10
37.23
 20
1.4224
 30
0.0
  0
POINT
  5
626
330
61B
100
AcDbEntity
  8
DEFPOINTS
 62
     0
100
AcDbPoint
 10
37.23
 20
90.0
 30
0.0
  0
ENDBLK
  5
61D
330
61B
100
AcDbEntity
  8
0
100
AcDbBlockEnd
  0
ENDSEC
  0
SECTION
  2
ENTITIES
  0
LINE
  5
3D6
330
18
100
AcDbEntity
  8
SK4
100
AcDbLine
 10
-22.16999999999999
 20
0.0
 30
0.0
 11
14.7
 21
0.0
 31
0.0
  0
LINE
  5
3D7
330
18
100
AcDbEntity
  8
4
100
AcDbLine
 10
12.7
 20
0.0
 30
0.0
 11
39.23
 21
0.0
 31
0.0
  0
LINE
  5
3D8
330
18
100
AcDbEntity
  8
SK4
100
AcDbLine
 10
12.7
 20
0.0
 30
0.0
 11
39.23
 21
0.0
 31
0.0
  0
LINE
  5
3D9
330
18
100
AcDbEntity
  8
1
100
AcDbLine
 10
14.7
 20
1.7907
 30
0.0
 11
-0.0000000000000027
 21
1.7907
 31
0.0
  0
LINE
  5
3DA
330
18
100
AcDbEntity
  8
1
100
AcDbLine
 10
14.7
 20
1.7907
 30
0.0
 11
14.7
 21
1.788919698067843
 31
0.0
  0
LINE
  5
3DB
330
18
100
AcDbEntity
  8
1
100
AcDbLine
 10
14.7
 20
1.788919698067843
 30
0.0
 11
14.7
 21
1.630026555456018
 31
0.0
  0
LINE
  5
3DC
330
18
100
AcDbEntity
  8
1
100
AcDbLine
 10
14.7
 20
1.630026555456018
 30
0.0
 11
14.7
 21
-1.7907
 31
0.0
  0
ARC
  5
3DD
330
18
100
AcDbEntity
  8
1
100
AcDbCircle
 10
-153.7047635669097
 20
944.4769028970359
 30
0.0
 40
961.1129179740994
100
AcDbArc
 50
280.1216499368921
 51
280.3630192141118
  0
LINE
  5
3DE
330
18
100
AcDbEntity
  8
1
100
AcDbLine
 10
15.2
 20
-0.0958024079822202
 30
0.0
 11
16.70806477942618
 21
0.0000000000000098
 31
0.0
  0
ARC
  5
3DF
330
18
100
AcDbEntity
  8
1
100
AcDbCircle
 10
18.33653951728056
 20
-25.70837040554066
 30
0.0
 40
25.75991929379155
100
AcDbArc
 50
89.9420397196743
 51
93.62450957259348
  0
LINE
  5
3E0
330
18
100
AcDbEntity
  8
1
100
AcDbLine
 10
19.18428253
 20
1.0
 30
0.0
 11
19.18428253
 21
0.9997671199847444
 31
0.0
  0
LINE
  5
3E1
330
18
100
AcDbEntity
  8
1
100
AcDbLine
 10
19.18428253
 20
0.9997671199847444
 30
0.0
 11
19.18428253000001
 21
0.9799130892061748
 31
0.0
  0
LINE
  5
3E2
330
18
100
AcDbEntity
  8
1
100
AcDbLine
 10
19.18428253000001
 20
0.9799130892061748
 30
0.0
 11
19.18428253
 21
0.0393689861729672
 31
0.0
  0
LINE
  5
3E3
330
18
100
AcDbEntity
  8
1
100
AcDbLine
 10
14.7
 20
1.7907
 30
0.0
 11
19.18428253
 21
1.0
 31
0.0
  0
LINE
  5
3E4
330
18
100
AcDbEntity
  8
1
100
AcDbLine
 10
26.468381739
 20
0.039368986172351
 30
0.0
 11
19.18428253
 21
0.0393689861723509
 31
0.0
  0
LINE
  5
3E5
330
18
100
AcDbEntity
  8
1
100
AcDbLine
 10
19.18428253
 20
1.0
 30
0.0
 11
26.468381739
 21
1.0
 31
0.0
  0
LINE
  5
3E6
330
18
100
AcDbEntity
  8
1
100
AcDbLine
 10
15.2
 20
-0.0958024079822202
 30
0.0
 11
15.2
 21
-1.678116511349049
 31
0.0
  0
LINE
  5
3E7
330
18
100
AcDbEntity
  8
1
100
AcDbLine
 10
26.468381739
 20
-0.9578332105878122
 30
0.0
 11
19.18428253
 21
-0.9578332105878122
 31
0.0
  0
LINE
  5
3E8
330
18
100
AcDbEntity
  8
1
100
AcDbLine
 10
19.18428253
 20
-0.9578332105878121
 30
0.0
 11
19.18428253
 21
-1.0
 31
0.0
  0
LINE
  5
3E9
330
18
100
AcDbEntity
  8
1
100
AcDbLine
 10
26.468381739
 20
1.0
 30
0.0
 11
26.468381739
 21
0.9997671199847441
 31
0.0
  0
LINE
  5
3EA
330
18
100
AcDbEntity
  8
1
100
AcDbLine
 10
26.468381739
 20
0.9997671199847441
 30
0.0
 11
26.468381739
 21
0.9799130892061564
 31
0.0
  0
LINE
  5
3EB
330
18
100
AcDbEntity
  8
1
100
AcDbLine
 10
26.468381739
 20
0.9799130892061564
 30
0.0
 11
26.46838173900001
 21
0.039368986172351
 31
0.0
  0
LINE
  5
3EC
330
18
100
AcDbEntity
  8
1
100
AcDbLine
 10
26.468381739
 20
0.039368986172351
 30
0.0
 11
26.468381739
 21
-0.804747963498387
 31
0.0
  0
LINE
  5
3ED
330
18
100
AcDbEntity
  8
1
100
AcDbLine
 10
26.468381739
 20
-0.8047479634984
 30
0.0
 11
26.468381739
 21
-0.9578332105878121
 31
0.0
  0
LINE
  5
3EE
330
18
100
AcDbEntity
  8
1
100
AcDbLine
 10
26.46838173900001
 20
-0.9578332105878121
 30
0.0
 11
26.468381739
 21
-1.0
 31
0.0
  0
LINE
  5
3EF
330
18
100
AcDbEntity
  8
1
100
AcDbLine
 10
-0.0000000000000031
 20
-1.7907
 30
0.0
 11
14.7
 21
-1.7907
 31
0.0
  0
LINE
  5
3F0
330
18
100
AcDbEntity
  8
1
100
AcDbLine
 10
14.7
 20
-1.7907
 30
0.0
 11
19.18428253
 21
-1.0
 31
0.0
  0
LINE
  5
3F1
330
18
100
AcDbEntity
  8
1
100
AcDbLine
 10
19.18428253
 20
-1.0
 30
0.0
 11
26.468381739
 21
-1.0
 31
0.0
  0
ARC
  5
3F2
330
18
100
AcDbEntity
  8
1
100
AcDbCircle
 10
18.36297103610598
 20
-27.43988648882715
 30
0.0
 40
27.49153260773216
100
AcDbArc
 50
88.2880294071493
 51
90.0007768257393
  0
LINE
  5
3F3
330
18
100
AcDbEntity
  8
1
 62
     1
100
AcDbLine
 10
34.4964568392798
 20
1.241407443474575
 30
0.0
 11
34.74645514829736
 21
1.210382985391561
 31
0.0
  0
LINE
  5
3F4
330
18
100
AcDbEntity
  8
1
 62
     1
100
AcDbLine
 10
32.69595298923242
 20
1.4224
 30
0.0
 11
32.71904701076759
 21
1.4224
 31
0.0
  0
LINE
  5
3F5
330
18
100
AcDbEntity
  8
1
 62
     1
100
AcDbLine
 10
27.61595298923242
 20
1.4224
 30
0.0
 11
27.63904701076761
 21
1.4224
 31
0.0
  0
LINE
  5
3F6
330
18
100
AcDbEntity
  8
1
 62
     1
100
AcDbLine
 10
28.25095298923242
 20
1.4224
 30
0.0
 11
28.2740470107676
 21
1.4224
 31
0.0
  0
LINE
  5
3F7
330
18
100
AcDbEntity
  8
1
 62
     1
100
AcDbLine
 10
31.42595298923242
 20
1.4224
 30
0.0
 11
31.4490470107676
 21
1.4224
 31
0.0
  0
LINE
  5
3F8
330
18
100
AcDbEntity
  8
1
 62
     1
100
AcDbLine
 10
28.88595298923242
 20
1.4224
 30
0.0
 11
28.90904701076759
 21
1.4224
 31
0.0
  0
LINE
  5
3F9
330
18
100
AcDbEntity
  8
1
 62
     1
100
AcDbLine
 10
36.2
 20
-0.8924741250000001
 30
0.0
 11
36.11447136951114
 21
-1.040613989438243
 31
0.0
  0
LINE
  5
3FA
330
18
100
AcDbEntity
  8
1
 62
     1
100
AcDbLine
 10
33.3113666934815
 20
-1.388475556444611
 30
0.0
 11
33.02500000000001
 21
-0.892474125
 31
0.0
  0
LINE
  5
3FB
330
18
100
AcDbEntity
  8
1
 62
     1
100
AcDbLine
 10
33.90391176638065
 20
-1.314941499959599
 30
0.0
 11
33.66
 21
-0.892474125
 31
0.0
  0
LINE
  5
3FC
330
18
100
AcDbEntity
  8
1
 62
     1
100
AcDbLine
 10
27.61595298923242
 20
-1.422399999999996
 30
0.0
 11
27.31000000000001
 21
-0.8924741250000001
 31
0.0
  0
LINE
  5
3FD
330
18
100
AcDbEntity
  8
1
 62
     1
100
AcDbLine
 10
30.79095298923242
 20
-1.422400000000003
 30
0.0
 11
30.48500000000001
 21
-0.892474125
 31
0.0
  0
LINE
  5
3FE
330
18
100
AcDbEntity
  8
1
 62
     1
100
AcDbLine
 10
30.15595298923242
 20
-1.422400000000003
 30
0.0
 11
29.85
 21
-0.892474125
 31
0.0
  0
LINE
  5
3FF
330
18
100
AcDbEntity
  8
1
 62
     1
100
AcDbLine
 10
26.87142940722426
 20
-1.232699679782767
 30
0.0
 11
26.675
 21
-0.8924741250000001
 31
0.0
  0
LINE
  5
400
330
18
100
AcDbEntity
  8
1
 62
     1
100
AcDbLine
 10
36.11447136951114
 20
0.0452973646812558
 30
0.0
 11
35.68154698507811
 21
0.0501548996532673
 31
0.0
  0
LINE
  5
401
330
18
100
AcDbEntity
  8
1
 62
     1
100
AcDbLine
 10
35.68154698507811
 20
1.094339330504538
 30
0.0
 11
36.11447136951114
 21
1.040613989438277
 31
0.0
  0
LINE
  5
402
330
18
100
AcDbEntity
  8
1
 62
     1
100
AcDbLine
 10
35.43046325916441
 20
0.0514272447220114
 30
0.0
 11
35.27424328731006
 21
0.0516469753266554
 31
0.0
  0
LINE
  5
403
330
18
100
AcDbEntity
  8
1
 62
     1
100
AcDbLine
 10
35.08900191217896
 20
1.167873386989557
 30
0.0
 11
35.43046325890424
 21
1.12549848741492
 31
0.0
  0
LINE
  5
404
330
18
100
AcDbEntity
  8
1
 62
     1
100
AcDbLine
 10
34.7464551487454
 20
0.0491256847447958
 30
0.0
 11
34.49645683927979
 21
0.0461552494960418
 31
0.0
  0
LINE
  5
405
330
18
100
AcDbEntity
  8
1
 62
     1
100
AcDbLine
 10
33.90391176638065
 20
1.314941499959593
 30
0.0
 11
34.06244703769048
 21
1.295267483368203
 31
0.0
  0
LINE
  5
406
330
18
100
AcDbEntity
  8
1
 62
     1
100
AcDbLine
 10
33.3113666934815
 20
1.388475556444612
 30
0.0
 11
33.37843892708361
 21
1.380151981344843
 31
0.0
  0
LINE
  5
407
330
18
100
AcDbEntity
  8
1
 62
     1
100
AcDbLine
 10
36.11447136951112
 20
-1.000160954206669
 30
0.0
 11
36.2
 21
-0.8449582966629019
 31
0.0
  0
LINE
  5
408
330
18
100
AcDbEntity
  8
1
 62
     1
100
AcDbLine
 10
36.11447136951114
 20
-1.000160954206657
 30
0.0
 11
36.11447136951114
 21
-1.040613989438277
 31
0.0
  0
LINE
  5
409
330
18
100
AcDbEntity
  8
1
 62
     1
100
AcDbLine
 10
32.08404701076759
 20
1.4224
 30
0.0
 11
32.08404701076759
 21
1.422051336954023
 31
0.0
  0
LINE
  5
40A
330
18
100
AcDbEntity
  8
1
 62
     1
100
AcDbLine
 10
32.08404701076759
 20
1.422051336954023
 30
0.0
 11
32.08404701076759
 21
1.39228465958008
 31
0.0
  0
LINE
  5
40B
330
18
100
AcDbEntity
  8
1
 62
     1
100
AcDbLine
 10
32.08404701076759
 20
1.39228465958008
 30
0.0
 11
32.0840470107676
 21
0.0050387234782039
 31
0.0
  0
LINE
  5
40C
330
18
100
AcDbEntity
  8
1
 62
     1
100
AcDbLine
 10
32.06095298923241
 20
1.4224
 30
0.0
 11
32.08404701076759
 21
1.4224
 31
0.0
  0
LINE
  5
40D
330
18
100
AcDbEntity
  8
1
 62
     1
100
AcDbLine
 10
30.79095298923242
 20
1.4224
 30
0.0
 11
30.8140470107676
 21
1.4224
 31
0.0
  0
LINE
  5
40E
330
18
100
AcDbEntity
  8
1
 62
     1
100
AcDbLine
 10
30.79095298923242
 20
1.4224
 30
0.0
 11
30.79095298923242
 21
1.422051336954023
 31
0.0
  0
LINE
  5
40F
330
18
100
AcDbEntity
  8
1
 62
     1
100
AcDbLine
 10
30.79095298923242
 20
1.422051336954023
 30
0.0
 11
30.79095298923242
 21
1.39228465958008
 31
0.0
  0
LINE
  5
410
330
18
100
AcDbEntity
  8
1
 62
     1
100
AcDbLine
 10
30.79095298923242
 20
1.39228465958008
 30
0.0
 11
30.79095298923242
 21
0.0050387234782039
 31
0.0
  0
LINE
  5
411
330
18
100
AcDbEntity
  8
1
 62
     1
100
AcDbLine
 10
30.15595298923242
 20
1.4224
 30
0.0
 11
30.1790470107676
 21
1.4224
 31
0.0
  0
LINE
  5
412
330
18
100
AcDbEntity
  8
1
 62
     1
100
AcDbLine
 10
29.54404701076759
 20
1.4224
 30
0.0
 11
29.5440470107676
 21
1.422051336954023
 31
0.0
  0
LINE
  5
413
330
18
100
AcDbEntity
  8
1
 62
     1
100
AcDbLine
 10
29.5440470107676
 20
1.422051336954023
 30
0.0
 11
29.54404701076759
 21
1.39228465958008
 31
0.0
  0
LINE
  5
414
330
18
100
AcDbEntity
  8
1
 62
     1
100
AcDbLine
 10
29.54404701076759
 20
1.39228465958008
 30
0.0
 11
29.54404701076759
 21
0.0050387234782039
 31
0.0
  0
LINE
  5
415
330
18
100
AcDbEntity
  8
1
 62
     1
100
AcDbLine
 10
29.52095298923242
 20
1.4224
 30
0.0
 11
29.54404701076759
 21
1.4224
 31
0.0
  0
LINE
  5
416
330
18
100
AcDbEntity
  8
1
 62
     1
100
AcDbLine
 10
27.6390470107676
 20
0.0050387234782039
 30
0.0
 11
27.61595298923242
 21
0.0050387234782039
 31
0.0
  0
LINE
  5
417
330
18
100
AcDbEntity
  8
1
 62
     1
100
AcDbLine
 10
35.565
 20
-0.8449582966629019
 30
0.0
 11
35.68154698507811
 21
-1.055946508869686
 31
0.0
  0
LINE
  5
418
330
18
100
AcDbEntity
  8
1
 62
     1
100
AcDbLine
 10
35.565
 20
-0.8924741250000001
 30
0.0
 11
35.565
 21
-0.8924636653994397
 31
0.0
  0
LINE
  5
419
330
18
100
AcDbEntity
  8
1
 62
     1
100
AcDbLine
 10
35.565
 20
-0.8924636653994397
 30
0.0
 11
35.565
 21
-0.8893573575433376
 31
0.0
  0
LINE
  5
41A
330
18
100
AcDbEntity
  8
1
 62
     1
100
AcDbLine
 10
35.565
 20
-0.8893573575433376
 30
0.0
 11
35.565
 21
-0.8449582966628905
 31
0.0
  0
LINE
  5
41B
330
18
100
AcDbEntity
  8
1
 62
     1
100
AcDbLine
 10
35.68154698507811
 20
-1.094339330504538
 30
0.0
 11
35.565
 21
-0.8924741250000001
 31
0.0
  0
LINE
  5
41C
330
18
100
AcDbEntity
  8
1
 62
     1
100
AcDbLine
 10
35.68154698507811
 20
-1.055946508869684
 30
0.0
 11
35.68154698507811
 21
-1.094339330504538
 31
0.0
  0
LINE
  5
41D
330
18
100
AcDbEntity
  8
1
 62
     1
100
AcDbLine
 10
35.43046325890424
 20
-1.08820554330431
 30
0.0
 11
35.565
 21
-0.8449582966629019
 31
0.0
  0
LINE
  5
41E
330
18
100
AcDbEntity
  8
1
 62
     1
100
AcDbLine
 10
35.43046325890424
 20
-1.088205543304309
 30
0.0
 11
35.43046325890424
 21
-1.12549848741492
 31
0.0
  0
LINE
  5
41F
330
18
100
AcDbEntity
  8
1
 62
     1
100
AcDbLine
 10
35.565
 20
-0.8924741250000001
 30
0.0
 11
35.43046325890424
 21
-1.125498487414918
 31
0.0
  0
LINE
  5
420
330
18
100
AcDbEntity
  8
1
 62
     1
100
AcDbLine
 10
34.93000000000001
 20
-0.8449582966629019
 30
0.0
 11
35.08900191217896
 21
-1.131977344006237
 31
0.0
  0
LINE
  5
421
330
18
100
AcDbEntity
  8
1
 62
     1
100
AcDbLine
 10
35.08900191217896
 20
-1.167873386989556
 30
0.0
 11
34.93000000000001
 21
-0.8924741250000001
 31
0.0
  0
LINE
  5
422
330
18
100
AcDbEntity
  8
1
 62
     1
100
AcDbLine
 10
35.08900191217896
 20
-1.131977344054259
 30
0.0
 11
35.08900191217896
 21
-1.167873386989557
 31
0.0
  0
LINE
  5
423
330
18
100
AcDbEntity
  8
1
 62
     1
100
AcDbLine
 10
34.06244703769048
 20
-1.262997352640126
 30
0.0
 11
34.295
 21
-0.8449582966629019
 31
0.0
  0
LINE
  5
424
330
18
100
AcDbEntity
  8
1
 62
     1
100
AcDbLine
 10
34.06244703769048
 20
-1.26299735305254
 30
0.0
 11
34.06244703769048
 21
-1.295267483368203
 31
0.0
  0
LINE
  5
425
330
18
100
AcDbEntity
  8
1
 62
     1
100
AcDbLine
 10
34.295
 20
-0.8924741250000001
 30
0.0
 11
34.06244703769048
 21
-1.295267483368209
 31
0.0
  0
LINE
  5
426
330
18
100
AcDbEntity
  8
1
 62
     1
100
AcDbLine
 10
33.66000000000001
 20
-0.8449582966629019
 30
0.0
 11
33.90391176638065
 21
-1.283166243173875
 31
0.0
  0
LINE
  5
427
330
18
100
AcDbEntity
  8
1
 62
     1
100
AcDbLine
 10
33.66
 20
-0.8924741250000001
 30
0.0
 11
33.66
 21
-0.8924636653994397
 31
0.0
  0
LINE
  5
428
330
18
100
AcDbEntity
  8
1
 62
     1
100
AcDbLine
 10
33.66
 20
-0.8924636653994397
 30
0.0
 11
33.66
 21
-0.8893573575433376
 31
0.0
  0
LINE
  5
429
330
18
100
AcDbEntity
  8
1
 62
     1
100
AcDbLine
 10
33.66
 20
-0.8893573575433376
 30
0.0
 11
33.66
 21
-0.8449582966628905
 31
0.0
  0
LINE
  5
42A
330
18
100
AcDbEntity
  8
1
 62
     1
100
AcDbLine
 10
33.90391176638065
 20
-1.283166243173869
 30
0.0
 11
33.90391176638065
 21
-1.314941499959593
 31
0.0
  0
LINE
  5
42B
330
18
100
AcDbEntity
  8
1
 62
     1
100
AcDbLine
 10
33.37843892708361
 20
-1.34991257158198
 30
0.0
 11
33.66
 21
-0.8449582966629019
 31
0.0
  0
LINE
  5
42C
330
18
100
AcDbEntity
  8
1
 62
     1
100
AcDbLine
 10
33.37843892708361
 20
-1.349912571873004
 30
0.0
 11
33.37843892708361
 21
-1.380151981344843
 31
0.0
  0
LINE
  5
42D
330
18
100
AcDbEntity
  8
1
 62
     1
100
AcDbLine
 10
33.66
 20
-0.8924741250000001
 30
0.0
 11
33.37843892708361
 21
-1.380151981344851
 31
0.0
  0
LINE
  5
42E
330
18
100
AcDbEntity
  8
1
 62
     1
100
AcDbLine
 10
32.7190470107676
 20
-1.393077965982149
 30
0.0
 11
33.02500000000001
 21
-0.8449582966629019
 31
0.0
  0
LINE
  5
42F
330
18
100
AcDbEntity
  8
1
 62
     1
100
AcDbLine
 10
32.71904701076759
 20
-1.393077965982147
 30
0.0
 11
32.71904701076759
 21
-1.4224
 31
0.0
  0
LINE
  5
430
330
18
100
AcDbEntity
  8
1
 62
     1
100
AcDbLine
 10
33.02500000000001
 20
-0.8924741250000001
 30
0.0
 11
32.71904701076759
 21
-1.422400000000003
 31
0.0
  0
LINE
  5
431
330
18
100
AcDbEntity
  8
1
 62
     1
100
AcDbLine
 10
33.02500000000001
 20
-0.8449582966629019
 30
0.0
 11
33.3113666934815
 21
-1.358421447912661
 31
0.0
  0
LINE
  5
432
330
18
100
AcDbEntity
  8
1
 62
     1
100
AcDbLine
 10
33.02500000000001
 20
-0.8924741250000001
 30
0.0
 11
33.025
 21
-0.8924636653994397
 31
0.0
  0
LINE
  5
433
330
18
100
AcDbEntity
  8
1
 62
     1
100
AcDbLine
 10
33.025
 20
-0.8924636653994397
 30
0.0
 11
33.02500000000001
 21
-0.8893573575433376
 31
0.0
  0
LINE
  5
434
330
18
100
AcDbEntity
  8
1
 62
     1
100
AcDbLine
 10
33.02500000000001
 20
-0.8893573575433376
 30
0.0
 11
33.025
 21
-0.8449582966628905
 31
0.0
  0
LINE
  5
435
330
18
100
AcDbEntity
  8
1
 62
     1
100
AcDbLine
 10
33.3113666934815
 20
-1.358421447912661
 30
0.0
 11
33.3113666934815
 21
-1.388475556444612
 31
0.0
  0
LINE
  5
436
330
18
100
AcDbEntity
  8
1
 62
     1
100
AcDbLine
 10
34.295
 20
-0.8449582966629019
 30
0.0
 11
34.4964568392798
 21
-1.207699010523333
 31
0.0
  0
LINE
  5
437
330
18
100
AcDbEntity
  8
1
 62
     1
100
AcDbLine
 10
34.295
 20
-0.8924741250000001
 30
0.0
 11
34.29499999999999
 21
-0.8924636653994397
 31
0.0
  0
LINE
  5
438
330
18
100
AcDbEntity
  8
1
 62
     1
100
AcDbLine
 10
34.29499999999999
 20
-0.8924636653994397
 30
0.0
 11
34.29499999999999
 21
-0.8893573575433376
 31
0.0
  0
LINE
  5
439
330
18
100
AcDbEntity
  8
1
 62
     1
100
AcDbLine
 10
34.29499999999999
 20
-0.8893573575433376
 30
0.0
 11
34.29499999999999
 21
-0.8449582966628905
 31
0.0
  0
LINE
  5
43A
330
18
100
AcDbEntity
  8
1
 62
     1
100
AcDbLine
 10
34.4964568392798
 20
-1.241407443474575
 30
0.0
 11
34.295
 21
-0.8924741250000001
 31
0.0
  0
LINE
  5
43B
330
18
100
AcDbEntity
  8
1
 62
     1
100
AcDbLine
 10
34.4964568392798
 20
-1.207699010523333
 30
0.0
 11
34.4964568392798
 21
-1.241407443474575
 31
0.0
  0
LINE
  5
43C
330
18
100
AcDbEntity
  8
1
 62
     1
100
AcDbLine
 10
34.74645514829736
 20
-1.175785452635957
 30
0.0
 11
34.93000000000001
 21
-0.8449582966629019
 31
0.0
  0
LINE
  5
43D
330
18
100
AcDbEntity
  8
1
 62
     1
100
AcDbLine
 10
34.74645514829736
 20
-1.175785452635956
 30
0.0
 11
34.74645514829736
 21
-1.210382985391561
 31
0.0
  0
LINE
  5
43E
330
18
100
AcDbEntity
  8
1
 62
     1
100
AcDbLine
 10
34.93000000000001
 20
-0.8924741250000001
 30
0.0
 11
34.74645514829736
 21
-1.210382985391559
 31
0.0
  0
LINE
  5
43F
330
18
100
AcDbEntity
  8
1
 62
     1
100
AcDbLine
 10
34.93000000000001
 20
-0.8924741250000001
 30
0.0
 11
34.93
 21
-0.8924636653994397
 31
0.0
  0
LINE
  5
440
330
18
100
AcDbEntity
  8
1
 62
     1
100
AcDbLine
 10
34.93
 20
-0.8924636653994397
 30
0.0
 11
34.93000000000001
 21
-0.8893573575433376
 31
0.0
  0
LINE
  5
441
330
18
100
AcDbEntity
  8
1
 62
     1
100
AcDbLine
 10
34.93000000000001
 20
-0.8893573575433376
 30
0.0
 11
34.93
 21
-0.8449582966628905
 31
0.0
  0
LINE
  5
442
330
18
100
AcDbEntity
  8
1
 62
     1
100
AcDbLine
 10
30.17904701076759
 20
-1.393077965982145
 30
0.0
 11
30.48500000000001
 21
-0.8449582966629019
 31
0.0
  0
LINE
  5
443
330
18
100
AcDbEntity
  8
1
 62
     1
100
AcDbLine
 10
30.1790470107676
 20
-1.393077965982147
 30
0.0
 11
30.1790470107676
 21
-1.4224
 31
0.0
  0
LINE
  5
444
330
18
100
AcDbEntity
  8
1
 62
     1
100
AcDbLine
 10
30.48500000000001
 20
-0.8924741250000001
 30
0.0
 11
30.1790470107676
 21
-1.422399999999978
 31
0.0
  0
LINE
  5
445
330
18
100
AcDbEntity
  8
1
 62
     1
100
AcDbLine
 10
30.48500000000001
 20
-0.8924741250000001
 30
0.0
 11
30.485
 21
-0.8924636653994397
 31
0.0
  0
LINE
  5
446
330
18
100
AcDbEntity
  8
1
 62
     1
100
AcDbLine
 10
30.485
 20
-0.8924636653994397
 30
0.0
 11
30.485
 21
-0.8893573575433376
 31
0.0
  0
LINE
  5
447
330
18
100
AcDbEntity
  8
1
 62
     1
100
AcDbLine
 10
30.485
 20
-0.8893573575433376
 30
0.0
 11
30.485
 21
-0.8449582966628905
 31
0.0
  0
LINE
  5
448
330
18
100
AcDbEntity
  8
1
 62
     1
100
AcDbLine
 10
30.48500000000001
 20
-0.8449582966629019
 30
0.0
 11
30.79095298923242
 21
-1.393077965982149
 31
0.0
  0
LINE
  5
449
330
18
100
AcDbEntity
  8
1
 62
     1
100
AcDbLine
 10
30.79095298923242
 20
-1.393077965982147
 30
0.0
 11
30.79095298923242
 21
-1.4224
 31
0.0
  0
LINE
  5
44A
330
18
100
AcDbEntity
  8
1
 62
     1
100
AcDbLine
 10
30.8140470107676
 20
-1.393077965982146
 30
0.0
 11
31.12
 21
-0.8449582966629019
 31
0.0
  0
LINE
  5
44B
330
18
100
AcDbEntity
  8
1
 62
     1
100
AcDbLine
 10
30.81404701076759
 20
-1.393077965982147
 30
0.0
 11
30.8140470107676
 21
-1.4224
 31
0.0
  0
LINE
  5
44C
330
18
100
AcDbEntity
  8
1
 62
     1
100
AcDbLine
 10
31.12
 20
-0.8924741250000001
 30
0.0
 11
30.8140470107676
 21
-1.422399999999996
 31
0.0
  0
LINE
  5
44D
330
18
100
AcDbEntity
  8
1
 62
     1
100
AcDbLine
 10
31.12
 20
-0.892474125
 30
0.0
 11
31.12
 21
-0.8924636653994396
 31
0.0
  0
LINE
  5
44E
330
18
100
AcDbEntity
  8
1
 62
     1
100
AcDbLine
 10
31.12
 20
-0.8924636653994396
 30
0.0
 11
31.12
 21
-0.8893573575433376
 31
0.0
  0
LINE
  5
44F
330
18
100
AcDbEntity
  8
1
 62
     1
100
AcDbLine
 10
31.12
 20
-0.8893573575433376
 30
0.0
 11
31.12
 21
-0.8449582966628905
 31
0.0
  0
LINE
  5
450
330
18
100
AcDbEntity
  8
1
 62
     1
100
AcDbLine
 10
31.12
 20
-0.8449582966629019
 30
0.0
 11
31.42595298923243
 21
-1.393077965982162
 31
0.0
  0
LINE
  5
451
330
18
100
AcDbEntity
  8
1
 62
     1
100
AcDbLine
 10
31.42595298923242
 20
-1.422400000000015
 30
0.0
 11
31.12
 21
-0.892474125
 31
0.0
  0
LINE
  5
452
330
18
100
AcDbEntity
  8
1
 62
     1
100
AcDbLine
 10
31.42595298923242
 20
-1.393077965982147
 30
0.0
 11
31.42595298923242
 21
-1.4224
 31
0.0
  0
LINE
  5
453
330
18
100
AcDbEntity
  8
1
 62
     1
100
AcDbLine
 10
32.39
 20
-0.8449582966629019
 30
0.0
 11
32.69595298923242
 21
-1.393077965982161
 31
0.0
  0
LINE
  5
454
330
18
100
AcDbEntity
  8
1
 62
     1
100
AcDbLine
 10
32.39000000000001
 20
-0.892474125
 30
0.0
 11
32.39000000000001
 21
-0.8924636653994396
 31
0.0
  0
LINE
  5
455
330
18
100
AcDbEntity
  8
1
 62
     1
100
AcDbLine
 10
32.39000000000001
 20
-0.8924636653994396
 30
0.0
 11
32.39000000000001
 21
-0.8893573575433376
 31
0.0
  0
LINE
  5
456
330
18
100
AcDbEntity
  8
1
 62
     1
100
AcDbLine
 10
32.39000000000001
 20
-0.8893573575433376
 30
0.0
 11
32.39
 21
-0.8449582966628905
 31
0.0
  0
LINE
  5
457
330
18
100
AcDbEntity
  8
1
 62
     1
100
AcDbLine
 10
32.69595298923242
 20
-1.422400000000015
 30
0.0
 11
32.39000000000001
 21
-0.892474125
 31
0.0
  0
LINE
  5
458
330
18
100
AcDbEntity
  8
1
 62
     1
100
AcDbLine
 10
32.08404701076759
 20
-1.393077965982149
 30
0.0
 11
32.39000000000001
 21
-0.8449582966629019
 31
0.0
  0
LINE
  5
459
330
18
100
AcDbEntity
  8
1
 62
     1
100
AcDbLine
 10
32.08404701076759
 20
-1.393077965982147
 30
0.0
 11
32.08404701076759
 21
-1.4224
 31
0.0
  0
LINE
  5
45A
330
18
100
AcDbEntity
  8
1
 62
     1
100
AcDbLine
 10
32.39000000000001
 20
-0.8924741250000001
 30
0.0
 11
32.08404701076759
 21
-1.422400000000003
 31
0.0
  0
LINE
  5
45B
330
18
100
AcDbEntity
  8
1
 62
     1
100
AcDbLine
 10
31.44904701076759
 20
-1.393077965982146
 30
0.0
 11
31.755
 21
-0.8449582966629019
 31
0.0
  0
LINE
  5
45C
330
18
100
AcDbEntity
  8
1
 62
     1
100
AcDbLine
 10
31.4490470107676
 20
-1.393077965982147
 30
0.0
 11
31.4490470107676
 21
-1.4224
 31
0.0
  0
LINE
  5
45D
330
18
100
AcDbEntity
  8
1
 62
     1
100
AcDbLine
 10
31.755
 20
-0.8924741250000001
 30
0.0
 11
31.4490470107676
 21
-1.422399999999984
 31
0.0
  0
LINE
  5
45E
330
18
100
AcDbEntity
  8
1
 62
     1
100
AcDbLine
 10
31.755
 20
-0.8449582966629019
 30
0.0
 11
32.06095298923241
 21
-1.393077965982144
 31
0.0
  0
LINE
  5
45F
330
18
100
AcDbEntity
  8
1
 62
     1
100
AcDbLine
 10
31.755
 20
-0.8924741250000001
 30
0.0
 11
31.755
 21
-0.8924636653994397
 31
0.0
  0
LINE
  5
460
330
18
100
AcDbEntity
  8
1
 62
     1
100
AcDbLine
 10
31.755
 20
-0.8924636653994397
 30
0.0
 11
31.755
 21
-0.8893573575433376
 31
0.0
  0
LINE
  5
461
330
18
100
AcDbEntity
  8
1
 62
     1
100
AcDbLine
 10
31.755
 20
-0.8893573575433376
 30
0.0
 11
31.755
 21
-0.8449582966628905
 31
0.0
  0
LINE
  5
462
330
18
100
AcDbEntity
  8
1
 62
     1
100
AcDbLine
 10
32.06095298923241
 20
-1.42239999999999
 30
0.0
 11
31.755
 21
-0.892474125
 31
0.0
  0
LINE
  5
463
330
18
100
AcDbEntity
  8
1
 62
     1
100
AcDbLine
 10
32.06095298923241
 20
-1.393077965982147
 30
0.0
 11
32.06095298923241
 21
-1.4224
 31
0.0
  0
LINE
  5
464
330
18
100
AcDbEntity
  8
1
 62
     1
100
AcDbLine
 10
28.90904701076759
 20
-1.393077965982146
 30
0.0
 11
29.215
 21
-0.8449582966629019
 31
0.0
  0
LINE
  5
465
330
18
100
AcDbEntity
  8
1
 62
     1
100
AcDbLine
 10
28.90904701076759
 20
-1.393077965982147
 30
0.0
 11
28.90904701076759
 21
-1.4224
 31
0.0
  0
LINE
  5
466
330
18
100
AcDbEntity
  8
1
 62
     1
100
AcDbLine
 10
29.215
 20
-0.8924741250000001
 30
0.0
 11
28.90904701076759
 21
-1.422399999999996
 31
0.0
  0
LINE
  5
467
330
18
100
AcDbEntity
  8
1
 62
     1
100
AcDbLine
 10
29.215
 20
-0.8924741250000001
 30
0.0
 11
29.21500000000001
 21
-0.8924636653994397
 31
0.0
  0
LINE
  5
468
330
18
100
AcDbEntity
  8
1
 62
     1
100
AcDbLine
 10
29.21500000000001
 20
-0.8924636653994397
 30
0.0
 11
29.215
 21
-0.8893573575433376
 31
0.0
  0
LINE
  5
469
330
18
100
AcDbEntity
  8
1
 62
     1
100
AcDbLine
 10
29.215
 20
-0.8893573575433376
 30
0.0
 11
29.215
 21
-0.8449582966628905
 31
0.0
  0
LINE
  5
46A
330
18
100
AcDbEntity
  8
1
 62
     1
100
AcDbLine
 10
29.215
 20
-0.8449582966629019
 30
0.0
 11
29.52095298923242
 21
-1.393077965982149
 31
0.0
  0
LINE
  5
46B
330
18
100
AcDbEntity
  8
1
 62
     1
100
AcDbLine
 10
29.52095298923242
 20
-1.422400000000003
 30
0.0
 11
29.215
 21
-0.892474125
 31
0.0
  0
LINE
  5
46C
330
18
100
AcDbEntity
  8
1
 62
     1
100
AcDbLine
 10
29.52095298923242
 20
-1.393077965982147
 30
0.0
 11
29.52095298923242
 21
-1.4224
 31
0.0
  0
LINE
  5
46D
330
18
100
AcDbEntity
  8
1
 62
     1
100
AcDbLine
 10
29.54404701076759
 20
-1.393077965982149
 30
0.0
 11
29.85
 21
-0.8449582966629019
 31
0.0
  0
LINE
  5
46E
330
18
100
AcDbEntity
  8
1
 62
     1
100
AcDbLine
 10
29.5440470107676
 20
-1.393077965982147
 30
0.0
 11
29.54404701076759
 21
-1.4224
 31
0.0
  0
LINE
  5
46F
330
18
100
AcDbEntity
  8
1
 62
     1
100
AcDbLine
 10
29.85
 20
-0.8924741250000001
 30
0.0
 11
29.54404701076759
 21
-1.422400000000002
 31
0.0
  0
LINE
  5
470
330
18
100
AcDbEntity
  8
1
 62
     1
100
AcDbLine
 10
29.85
 20
-0.892474125
 30
0.0
 11
29.85
 21
-0.8924636653994396
 31
0.0
  0
LINE
  5
471
330
18
100
AcDbEntity
  8
1
 62
     1
100
AcDbLine
 10
29.85
 20
-0.8924636653994396
 30
0.0
 11
29.85
 21
-0.8893573575433376
 31
0.0
  0
LINE
  5
472
330
18
100
AcDbEntity
  8
1
 62
     1
100
AcDbLine
 10
29.85
 20
-0.8893573575433376
 30
0.0
 11
29.85
 21
-0.8449582966628905
 31
0.0
  0
LINE
  5
473
330
18
100
AcDbEntity
  8
1
 62
     1
100
AcDbLine
 10
29.85
 20
-0.8449582966629019
 30
0.0
 11
30.15595298923241
 21
-1.393077965982149
 31
0.0
  0
LINE
  5
474
330
18
100
AcDbEntity
  8
1
 62
     1
100
AcDbLine
 10
30.15595298923241
 20
-1.393077965982147
 30
0.0
 11
30.15595298923242
 21
-1.4224
 31
0.0
  0
LINE
  5
475
330
18
100
AcDbEntity
  8
1
 62
     1
100
AcDbLine
 10
28.58000000000001
 20
-0.8449582966629019
 30
0.0
 11
28.88595298923242
 21
-1.393077965982155
 31
0.0
  0
LINE
  5
476
330
18
100
AcDbEntity
  8
1
 62
     1
100
AcDbLine
 10
28.88595298923242
 20
-1.422400000000009
 30
0.0
 11
28.58000000000001
 21
-0.892474125
 31
0.0
  0
LINE
  5
477
330
18
100
AcDbEntity
  8
1
 62
     1
100
AcDbLine
 10
28.88595298923242
 20
-1.393077965982147
 30
0.0
 11
28.88595298923242
 21
-1.4224
 31
0.0
  0
LINE
  5
478
330
18
100
AcDbEntity
  8
1
 62
     1
100
AcDbLine
 10
28.27404701076759
 20
-1.393077965982146
 30
0.0
 11
28.58000000000001
 21
-0.8449582966629019
 31
0.0
  0
LINE
  5
479
330
18
100
AcDbEntity
  8
1
 62
     1
100
AcDbLine
 10
28.2740470107676
 20
-1.393077965982147
 30
0.0
 11
28.2740470107676
 21
-1.4224
 31
0.0
  0
LINE
  5
47A
330
18
100
AcDbEntity
  8
1
 62
     1
100
AcDbLine
 10
28.58000000000001
 20
-0.8924741250000001
 30
0.0
 11
28.2740470107676
 21
-1.422399999999984
 31
0.0
  0
LINE
  5
47B
330
18
100
AcDbEntity
  8
1
 62
     1
100
AcDbLine
 10
28.58000000000001
 20
-0.8924741250000001
 30
0.0
 11
28.58000000000001
 21
-0.8924636653994397
 31
0.0
  0
LINE
  5
47C
330
18
100
AcDbEntity
  8
1
 62
     1
100
AcDbLine
 10
28.58000000000001
 20
-0.8924636653994397
 30
0.0
 11
28.58000000000001
 21
-0.8893573575433376
 31
0.0
  0
LINE
  5
47D
330
18
100
AcDbEntity
  8
1
 62
     1
100
AcDbLine
 10
28.58000000000001
 20
-0.8893573575433376
 30
0.0
 11
28.58
 21
-0.8449582966628905
 31
0.0
  0
LINE
  5
47E
330
18
100
AcDbEntity
  8
1
 62
     1
100
AcDbLine
 10
27.94500000000001
 20
-0.8449582966629019
 30
0.0
 11
28.25095298923242
 21
-1.393077965982149
 31
0.0
  0
LINE
  5
47F
330
18
100
AcDbEntity
  8
1
 62
     1
100
AcDbLine
 10
28.25095298923242
 20
-1.422400000000002
 30
0.0
 11
27.94500000000001
 21
-0.8924741250000001
 31
0.0
  0
LINE
  5
480
330
18
100
AcDbEntity
  8
1
 62
     1
100
AcDbLine
 10
28.25095298923241
 20
-1.393077965982147
 30
0.0
 11
28.25095298923242
 21
-1.4224
 31
0.0
  0
LINE
  5
481
330
18
100
AcDbEntity
  8
1
 62
     1
100
AcDbLine
 10
27.63904701076759
 20
-1.393077965982145
 30
0.0
 11
27.94500000000001
 21
-0.8449582966629019
 31
0.0
  0
LINE
  5
482
330
18
100
AcDbEntity
  8
1
 62
     1
100
AcDbLine
 10
27.6390470107676
 20
-1.393077965982147
 30
0.0
 11
27.63904701076761
 21
-1.4224
 31
0.0
  0
LINE
  5
483
330
18
100
AcDbEntity
  8
1
 62
     1
100
AcDbLine
 10
27.94500000000001
 20
-0.8924741250000001
 30
0.0
 11
27.63904701076761
 21
-1.422399999999978
 31
0.0
  0
LINE
  5
484
330
18
100
AcDbEntity
  8
1
 62
     1
100
AcDbLine
 10
27.94500000000001
 20
-0.8924741250000001
 30
0.0
 11
27.94500000000001
 21
-0.8924636653994397
 31
0.0
  0
LINE
  5
485
330
18
100
AcDbEntity
  8
1
 62
     1
100
AcDbLine
 10
27.94500000000001
 20
-0.8924636653994397
 30
0.0
 11
27.945
 21
-0.8893573575433376
 31
0.0
  0
LINE
  5
486
330
18
100
AcDbEntity
  8
1
 62
     1
100
AcDbLine
 10
27.945
 20
-0.8893573575433376
 30
0.0
 11
27.945
 21
-0.8449582966628905
 31
0.0
  0
LINE
  5
487
330
18
100
AcDbEntity
  8
1
 62
     1
100
AcDbLine
 10
27.31000000000001
 20
-0.8449582966629019
 30
0.0
 11
27.61595298923242
 21
-1.393077965982146
 31
0.0
  0
LINE
  5
488
330
18
100
AcDbEntity
  8
1
 62
     1
100
AcDbLine
 10
27.61595298923241
 20
-1.393077965982147
 30
0.0
 11
27.61595298923242
 21
-1.4224
 31
0.0
  0
ARC
  5
489
330
18
100
AcDbEntity
  8
1
 62
     1
100
AcDbCircle
 10
26.72465686983157
 20
-2.412863268893331
 30
0.0
 40
2.464339592070865
100
AcDbArc
 50
82.34243881821938
 51
86.58552994552709
  0
LINE
  5
48A
330
18
100
AcDbEntity
  8
1
 62
     1
100
AcDbLine
 10
27.05303527521216
 20
1.337549876568782
 30
0.0
 11
27.05303527521216
 21
1.337230554468663
 31
0.0
  0
LINE
  5
48B
330
18
100
AcDbEntity
  8
1
 62
     1
100
AcDbLine
 10
27.05303527521216
 20
1.337230554468663
 30
0.0
 11
27.05303527521216
 21
1.309988556860621
 31
0.0
  0
LINE
  5
48C
330
18
100
AcDbEntity
  8
1
 62
     1
100
AcDbLine
 10
27.05303527521216
 20
1.309988556860621
 30
0.0
 11
27.05303527521217
 21
0.0294990565533796
 31
0.0
  0
LINE
  5
48D
330
18
100
AcDbEntity
  8
1
 62
     1
100
AcDbLine
 10
26.87142940722426
 20
1.232699679782769
 30
0.0
 11
27.05303527521216
 21
1.337549876568782
 31
0.0
  0
ARC
  5
48E
330
18
100
AcDbEntity
  8
1
 62
     1
100
AcDbCircle
 10
26.71860072488717
 20
-2.509541941259626
 30
0.0
 40
2.561163634647714
100
AcDbArc
 50
93.17417480089583
 51
95.60659208992756
  0
LINE
  5
48F
330
18
100
AcDbEntity
  8
1
 62
     1
100
AcDbLine
 10
26.468381739
 20
1.0
 30
0.0
 11
26.57678533074414
 21
1.062586842884622
 31
0.0
  0
LINE
  5
490
330
18
100
AcDbEntity
  8
1
 62
     1
100
AcDbLine
 10
26.675
 20
-0.8449582966629019
 30
0.0
 11
26.87142940722426
 21
-1.1987464118159
 31
0.0
  0
LINE
  5
491
330
18
100
AcDbEntity
  8
1
 62
     1
100
AcDbLine
 10
26.87142940722426
 20
-1.198746412144466
 30
0.0
 11
26.87142940722426
 21
-1.232699679782769
 31
0.0
  0
LINE
  5
492
330
18
100
AcDbEntity
  8
1
 62
     1
100
AcDbLine
 10
26.57678533074414
 20
-1.023003058634974
 30
0.0
 11
26.675
 21
-0.8449582966629019
 31
0.0
  0
LINE
  5
493
330
18
100
AcDbEntity
  8
1
 62
     1
100
AcDbLine
 10
26.57678533074414
 20
-1.02300305863495
 30
0.0
 11
26.57678533074415
 21
-1.062586842884622
 31
0.0
  0
LINE
  5
494
330
18
100
AcDbEntity
  8
1
 62
     1
100
AcDbLine
 10
26.675
 20
-0.8924741250000001
 30
0.0
 11
26.57678533074415
 21
-1.062586842884609
 31
0.0
  0
LINE
  5
495
330
18
100
AcDbEntity
  8
1
 62
     1
100
AcDbLine
 10
26.675
 20
-0.8924741250000001
 30
0.0
 11
26.675
 21
-0.8924636653994397
 31
0.0
  0
LINE
  5
496
330
18
100
AcDbEntity
  8
1
 62
     1
100
AcDbLine
 10
26.675
 20
-0.8924636653994397
 30
0.0
 11
26.675
 21
-0.8893573575433376
 31
0.0
  0
LINE
  5
497
330
18
100
AcDbEntity
  8
1
 62
     1
100
AcDbLine
 10
26.675
 20
-0.8893573575433376
 30
0.0
 11
26.675
 21
-0.8449582966628905
 31
0.0
  0
LINE
  5
498
330
18
100
AcDbEntity
  8
1
 62
     1
100
AcDbLine
 10
27.05303527521216
 20
-1.306324665469546
 30
0.0
 11
27.31000000000001
 21
-0.8449582966629019
 31
0.0
  0
LINE
  5
499
330
18
100
AcDbEntity
  8
1
 62
     1
100
AcDbLine
 10
27.05303527521217
 20
-1.30632466546945
 30
0.0
 11
27.05303527521216
 21
-1.337549876568782
 31
0.0
  0
LINE
  5
49A
330
18
100
AcDbEntity
  8
1
 62
     1
100
AcDbLine
 10
27.31000000000001
 20
-0.8924741250000001
 30
0.0
 11
27.05303527521216
 21
-1.337549876568783
 31
0.0
  0
LINE
  5
49B
330
18
100
AcDbEntity
  8
1
 62
     1
100
AcDbLine
 10
27.31000000000001
 20
-0.8924741250000001
 30
0.0
 11
27.31000000000001
 21
-0.8924636653994397
 31
0.0
  0
LINE
  5
49C
330
18
100
AcDbEntity
  8
1
 62
     1
100
AcDbLine
 10
27.31000000000001
 20
-0.8924636653994397
 30
0.0
 11
27.31
 21
-0.8893573575433376
 31
0.0
  0
LINE
  5
49D
330
18
100
AcDbEntity
  8
1
 62
     1
100
AcDbLine
 10
27.31
 20
-0.8893573575433376
 30
0.0
 11
27.31000000000001
 21
-0.8449582966628905
 31
0.0
  0
LINE
  5
49E
330
18
100
AcDbEntity
  8
1
 62
     1
100
AcDbLine
 10
30.17904701076762
 20
-1.393077965982147
 30
0.0
 11
30.15595298923242
 21
-1.393077965982146
 31
0.0
  0
LINE
  5
49F
330
18
100
AcDbEntity
  8
1
 62
     1
100
AcDbLine
 10
30.8140470107676
 20
-1.393077965982147
 30
0.0
 11
30.79095298923243
 21
-1.393077965982147
 31
0.0
  0
LINE
  5
4A0
330
18
100
AcDbEntity
  8
1
 62
     1
100
AcDbLine
 10
34.06244703806576
 20
0.0382326018098689
 30
0.0
 11
33.90391176638064
 21
0.0344478720291963
 31
0.0
  0
LINE
  5
4A1
330
18
100
AcDbEntity
  8
1
 62
     1
100
AcDbLine
 10
33.3784389272102
 20
0.0183984200644666
 30
0.0
 11
33.3113666934815
 21
0.0159539589336982
 31
0.0
  0
LINE
  5
4A2
330
18
100
AcDbEntity
  8
1
 62
     1
100
AcDbLine
 10
32.71904701076759
 20
0.0050387234782039
 30
0.0
 11
32.69595298923242
 21
0.0050387234782039
 31
0.0
  0
LINE
  5
4A3
330
18
100
AcDbEntity
  8
1
 62
     1
100
AcDbLine
 10
32.08404701076759
 20
0.0050387234782039
 30
0.0
 11
32.06095298923242
 21
0.0050387234782039
 31
0.0
  0
LINE
  5
4A4
330
18
100
AcDbEntity
  8
1
 62
     1
100
AcDbLine
 10
31.4490470107676
 20
0.0050387234782039
 30
0.0
 11
31.42595298923242
 21
0.0050387234782039
 31
0.0
  0
LINE
  5
4A5
330
18
100
AcDbEntity
  8
1
 62
     1
100
AcDbLine
 10
30.8140470107676
 20
0.0050387234782039
 30
0.0
 11
30.79095298923242
 21
0.0050387234782039
 31
0.0
  0
LINE
  5
4A6
330
18
100
AcDbEntity
  8
1
 62
     1
100
AcDbLine
 10
30.1790470107676
 20
0.0050387234782039
 30
0.0
 11
30.15595298923242
 21
0.0050387234782039
 31
0.0
  0
LINE
  5
4A7
330
18
100
AcDbEntity
  8
1
 62
     1
100
AcDbLine
 10
29.5440470107676
 20
0.0050387234782039
 30
0.0
 11
29.52095298923242
 21
0.0050387234782039
 31
0.0
  0
LINE
  5
4A8
330
18
100
AcDbEntity
  8
1
 62
     1
100
AcDbLine
 10
28.90904701076759
 20
0.0050387234782039
 30
0.0
 11
28.88595298923241
 21
0.0050387234782039
 31
0.0
  0
LINE
  5
4A9
330
18
100
AcDbEntity
  8
1
 62
     1
100
AcDbLine
 10
28.2740470107676
 20
0.0050387234782039
 30
0.0
 11
28.25095298923242
 21
0.0050387234782039
 31
0.0
  0
LINE
  5
4AA
330
18
100
AcDbEntity
  8
1
 62
     1
100
AcDbLine
 10
36.11447136951114
 20
-1.000160954206673
 30
0.0
 11
35.68154698507811
 21
-1.055946508869685
 31
0.0
  0
LINE
  5
4AB
330
18
100
AcDbEntity
  8
1
 62
     1
100
AcDbLine
 10
35.43046325890424
 20
-1.088205543304309
 30
0.0
 11
35.08900191227438
 21
-1.131977344799577
 31
0.0
  0
LINE
  5
4AC
330
18
100
AcDbEntity
  8
1
 62
     1
100
AcDbLine
 10
34.74645514829736
 20
-1.175785452635958
 30
0.0
 11
34.4964568392798
 21
-1.207699010523333
 31
0.0
  0
LINE
  5
4AD
330
18
100
AcDbEntity
  8
1
 62
     1
100
AcDbLine
 10
34.06244703870467
 20
-1.262997361021437
 30
0.0
 11
33.90391176638065
 21
-1.283166243173868
 31
0.0
  0
LINE
  5
4AE
330
18
100
AcDbEntity
  8
1
 62
     1
100
AcDbLine
 10
33.37843892789867
 20
-1.349912578297016
 30
0.0
 11
33.3113666934815
 21
-1.358421447912661
 31
0.0
  0
LINE
  5
4AF
330
18
100
AcDbEntity
  8
1
 62
     1
100
AcDbLine
 10
36.2
 20
1.03
 30
0.0
 11
37.23
 21
0.0
 31
0.0
  0
LINE
  5
4B0
330
18
100
AcDbEntity
  8
1
 62
     1
100
AcDbLine
 10
36.37549732273688
 20
-0.8047479634983867
 30
0.0
 11
36.5004970338537
 21
-0.6655410597296436
 31
0.0
  0
LINE
  5
4B1
330
18
100
AcDbEntity
  8
1
 62
     1
100
AcDbLine
 10
36.5004970338537
 20
-0.6655410597296436
 30
0.0
 11
36.55863344500911
 21
-0.5935277220090427
 31
0.0
  0
LINE
  5
4B2
330
18
100
AcDbEntity
  8
1
 62
     1
100
AcDbLine
 10
36.55863344500911
 20
-0.5935277220090427
 30
0.0
 11
36.58583793094813
 21
-0.556734819985243
 31
0.0
  0
LINE
  5
4B3
330
18
100
AcDbEntity
  8
1
 62
     1
100
AcDbLine
 10
36.58583793094813
 20
-0.556734819985243
 30
0.0
 11
36.6113056046748
 21
-0.5193184465916442
 31
0.0
  0
LINE
  5
4B4
330
18
100
AcDbEntity
  8
1
 62
     1
100
AcDbLine
 10
36.6113056046748
 20
-0.5193184465916442
 30
0.0
 11
36.63449608243901
 21
-0.4812215301512136
 31
0.0
  0
LINE
  5
4B5
330
18
100
AcDbEntity
  8
1
 62
     1
100
AcDbLine
 10
36.63449608243901
 20
-0.4812215301512136
 30
0.0
 11
36.64501660666971
 21
-0.461917507091949
 31
0.0
  0
LINE
  5
4B6
330
18
100
AcDbEntity
  8
1
 62
     1
100
AcDbLine
 10
36.64501660666971
 20
-0.461917507091949
 30
0.0
 11
36.65468780444585
 21
-0.4424371723769077
 31
0.0
  0
LINE
  5
4B7
330
18
100
AcDbEntity
  8
1
 62
     1
100
AcDbLine
 10
36.65468780444585
 20
-0.4424371723769077
 30
0.0
 11
36.66337931134134
 21
-0.4228154857632243
 31
0.0
  0
LINE
  5
4B8
330
18
100
AcDbEntity
  8
1
 62
     1
100
AcDbLine
 10
36.66337931134134
 20
-0.4228154857632243
 30
0.0
 11
36.67096010093471
 21
-0.4030836259270213
 31
0.0
  0
LINE
  5
4B9
330
18
100
AcDbEntity
  8
1
 62
     1
100
AcDbLine
 10
36.67096010093471
 20
-0.4030836259270213
 30
0.0
 11
36.67729664757966
 21
-0.383286139556374
 31
0.0
  0
LINE
  5
4BA
330
18
100
AcDbEntity
  8
1
 62
     1
100
AcDbLine
 10
36.67729664757966
 20
-0.383286139556374
 30
0.0
 11
36.68225635305377
 21
-0.3634819623594724
 31
0.0
  0
LINE
  5
4BB
330
18
100
AcDbEntity
  8
1
 62
     1
100
AcDbLine
 10
36.68225635305377
 20
-0.3634819623594724
 30
0.0
 11
36.68418093741305
 21
-0.3536099721092789
 31
0.0
  0
LINE
  5
4BC
330
18
100
AcDbEntity
  8
1
 62
     1
100
AcDbLine
 10
36.68418093741305
 20
-0.3536099721092789
 30
0.0
 11
36.68571709732045
 21
-0.3437692572447926
 31
0.0
  0
LINE
  5
4BD
330
18
100
AcDbEntity
  8
1
 62
     1
100
AcDbLine
 10
36.68571709732045
 20
-0.3437692572447926
 30
0.0
 11
36.68685628819566
 21
-0.3339717182040361
 31
0.0
  0
LINE
  5
4BE
330
18
100
AcDbEntity
  8
1
 62
     1
100
AcDbLine
 10
36.68685628819566
 20
-0.3339717182040361
 30
0.0
 11
36.68758980025379
 21
-0.324237803698602
 31
0.0
  0
LINE
  5
4BF
330
18
100
AcDbEntity
  8
1
 62
     1
100
AcDbLine
 10
36.68758980025379
 20
-0.324237803698602
 30
0.0
 11
36.68791001776403
 21
-0.3145811521580065
 31
0.0
  0
LINE
  5
4C0
330
18
100
AcDbEntity
  8
1
 62
     1
100
AcDbLine
 10
36.68791001776403
 20
-0.3145811521580065
 30
0.0
 11
36.6878162680999
 21
-0.3050076463072464
 31
0.0
  0
LINE
  5
4C1
330
18
100
AcDbEntity
  8
1
 62
     1
100
AcDbLine
 10
36.6878162680999
 20
-0.3050076463072464
 30
0.0
 11
36.68731052573376
 21
-0.2955369696648678
 31
0.0
  0
LINE
  5
4C2
330
18
100
AcDbEntity
  8
1
 62
     1
100
AcDbLine
 10
36.68731052573376
 20
-0.2955369696648678
 30
0.0
 11
36.68639478683806
 21
-0.2861868325926685
 31
0.0
  0
LINE
  5
4C3
330
18
100
AcDbEntity
  8
1
 62
     1
100
AcDbLine
 10
36.68639478683806
 20
-0.2861868325926685
 30
0.0
 11
36.68507476066918
 21
-0.2769597325103122
 31
0.0
  0
LINE
  5
4C4
330
18
100
AcDbEntity
  8
1
 62
     1
100
AcDbLine
 10
36.68507476066918
 20
-0.2769597325103122
 30
0.0
 11
36.68336189737252
 21
-0.2678686531583758
 31
0.0
  0
LINE
  5
4C5
330
18
100
AcDbEntity
  8
1
 62
     1
100
AcDbLine
 10
36.68336189737252
 20
-0.2678686531583758
 30
0.0
 11
36.68126803716753
 21
-0.2589290710825313
 31
0.0
  0
LINE
  5
4C6
330
18
100
AcDbEntity
  8
1
 62
     1
100
AcDbLine
 10
36.68126803716753
 20
-0.2589290710825313
 30
0.0
 11
36.67880447534743
 21
-0.2501438414418247
 31
0.0
  0
LINE
  5
4C7
330
18
100
AcDbEntity
  8
1
 62
     1
100
AcDbLine
 10
36.67880447534743
 20
-0.2501438414418247
 30
0.0
 11
36.67598706334022
 21
-0.2415167209813213
 31
0.0
  0
LINE
  5
4C8
330
18
100
AcDbEntity
  8
1
 62
     1
100
AcDbLine
 10
36.67598706334022
 20
-0.2415167209813213
 30
0.0
 11
36.67283335877249
 21
-0.2330571208664552
 31
0.0
  0
LINE
  5
4C9
330
18
100
AcDbEntity
  8
1
 62
     1
100
AcDbLine
 10
36.67283335877249
 20
-0.2330571208664552
 30
0.0
 11
36.66935949274638
 21
-0.224769119828135
 31
0.0
  0
LINE
  5
4CA
330
18
100
AcDbEntity
  8
1
 62
     1
100
AcDbLine
 10
36.66935949274638
 20
-0.224769119828135
 30
0.0
 11
36.66558104472551
 21
-0.2166493075083988
 31
0.0
  0
LINE
  5
4CB
330
18
100
AcDbEntity
  8
1
 62
     1
100
AcDbLine
 10
36.66558104472551
 20
-0.2166493075083988
 30
0.0
 11
36.66151661381843
 21
-0.2087013759354091
 31
0.0
  0
LINE
  5
4CC
330
18
100
AcDbEntity
  8
1
 62
     1
100
AcDbLine
 10
36.66151661381843
 20
-0.2087013759354091
 30
0.0
 11
36.6571842057017
 21
-0.2009278329728346
 31
0.0
  0
LINE
  5
4CD
330
18
100
AcDbEntity
  8
1
 62
     1
100
AcDbLine
 10
36.6571842057017
 20
-0.2009278329728346
 30
0.0
 11
36.64777459176026
 21
-0.1858871186492994
 31
0.0
  0
LINE
  5
4CE
330
18
100
AcDbEntity
  8
1
 62
     1
100
AcDbLine
 10
36.64777459176026
 20
-0.1858871186492994
 30
0.0
 11
36.63747911209626
 21
-0.1715143101336646
 31
0.0
  0
LINE
  5
4CF
330
18
100
AcDbEntity
  8
1
 62
     1
100
AcDbLine
 10
36.63747911209626
 20
-0.1715143101336646
 30
0.0
 11
36.62640396557588
 21
-0.1577794293632395
 31
0.0
  0
LINE
  5
4D0
330
18
100
AcDbEntity
  8
1
 62
     1
100
AcDbLine
 10
36.62640396557588
 20
-0.1577794293632395
 30
0.0
 11
36.61465454499054
 21
-0.1446645620551435
 31
0.0
  0
LINE
  5
4D1
330
18
100
AcDbEntity
  8
1
 62
     1
100
AcDbLine
 10
36.61465454499054
 20
-0.1446645620551435
 30
0.0
 11
36.60231832836513
 21
-0.1321393819022297
 31
0.0
  0
LINE
  5
4D2
330
18
100
AcDbEntity
  8
1
 62
     1
100
AcDbLine
 10
36.60231832836513
 20
-0.1321393819022297
 30
0.0
 11
36.58946565857454
 21
-0.1201744898686588
 31
0.0
  0
LINE
  5
4D3
330
18
100
AcDbEntity
  8
1
 62
     1
100
AcDbLine
 10
36.58946565857454
 20
-0.1201744898686588
 30
0.0
 11
36.5761679312603
 21
-0.1087475633327352
 31
0.0
  0
LINE
  5
4D4
330
18
100
AcDbEntity
  8
1
 62
     1
100
AcDbLine
 10
36.5761679312603
 20
-0.1087475633327352
 30
0.0
 11
36.56247752762381
 21
-0.0978306644642525
 31
0.0
  0
LINE
  5
4D5
330
18
100
AcDbEntity
  8
1
 62
     1
100
AcDbLine
 10
36.56247752762381
 20
-0.0978306644642525
 30
0.0
 11
36.53409807579525
 21
-0.0774364516242184
 31
0.0
  0
LINE
  5
4D6
330
18
100
AcDbEntity
  8
1
 62
     1
100
AcDbLine
 10
36.53409807579525
 20
-0.0774364516242184
 30
0.0
 11
36.504642024799
 21
-0.0588390504274846
 31
0.0
  0
LINE
  5
4D7
330
18
100
AcDbEntity
  8
1
 62
     1
100
AcDbLine
 10
36.504642024799
 20
-0.0588390504274846
 30
0.0
 11
36.47434155333728
 21
-0.0419132368128728
 31
0.0
  0
LINE
  5
4D8
330
18
100
AcDbEntity
  8
1
 62
     1
100
AcDbLine
 10
36.47434155333728
 20
-0.0419132368128728
 30
0.0
 11
36.44337291208063
 21
-0.0265594897013186
 31
0.0
  0
LINE
  5
4D9
330
18
100
AcDbEntity
  8
1
 62
     1
100
AcDbLine
 10
36.44337291208063
 20
-0.0265594897013186
 30
0.0
 11
36.41186899250223
 21
-0.0126996829207555
 31
0.0
  0
LINE
  5
4DA
330
18
100
AcDbEntity
  8
1
 62
     1
100
AcDbLine
 10
36.41186899250223
 20
-0.0126996829207555
 30
0.0
 11
36.3799469658243
 21
-0.0002778130311546
 31
0.0
  0
LINE
  5
4DB
330
18
100
AcDbEntity
  8
1
 62
     1
100
AcDbLine
 10
36.3799469658243
 20
-0.0002778130311546
 30
0.0
 11
36.34768934595053
 21
0.0107539998237701
 31
0.0
  0
LINE
  5
4DC
330
18
100
AcDbEntity
  8
1
 62
     1
100
AcDbLine
 10
36.34768934595053
 20
0.0107539998237701
 30
0.0
 11
36.31516270881217
 21
0.0204312987167815
 31
0.0
  0
LINE
  5
4DD
330
18
100
AcDbEntity
  8
1
 62
     1
100
AcDbLine
 10
36.31516270881217
 20
0.0204312987167815
 30
0.0
 11
36.28243156146301
 21
0.0287779144733048
 31
0.0
  0
LINE
  5
4DE
330
18
100
AcDbEntity
  8
1
 62
     1
100
AcDbLine
 10
36.28243156146301
 20
0.0287779144733048
 30
0.0
 11
36.24953958498284
 21
0.0358141304593732
 31
0.0
  0
LINE
  5
4DF
330
18
100
AcDbEntity
  8
1
 62
     1
100
AcDbLine
 10
36.24953958498284
 20
0.0358141304593732
 30
0.0
 11
36.2
 21
0.043936863482791
 31
0.0
  0
LINE
  5
4E0
330
18
100
AcDbEntity
  8
1
 62
     1
100
AcDbLine
 10
36.37549732273688
 20
-0.8047479634983867
 30
0.0
 11
36.2
 21
-0.989112965896709
 31
0.0
  0
LINE
  5
4E1
330
18
100
AcDbEntity
  8
1
 62
     1
100
AcDbLine
 10
36.20000000000001
 20
0.0439368634828949
 30
0.0
 11
36.20000000000002
 21
0.0139297752307294
 31
0.0
  0
LINE
  5
4E2
330
18
100
AcDbEntity
  8
1
 62
     1
100
AcDbLine
 10
36.2
 20
1.03
 30
0.0
 11
36.2
 21
1.029761266429238
 31
0.0
  0
LINE
  5
4E3
330
18
100
AcDbEntity
  8
1
 62
     1
100
AcDbLine
 10
36.2
 20
1.029761266429238
 30
0.0
 11
36.2
 21
1.009410804010862
 31
0.0
  0
LINE
  5
4E4
330
18
100
AcDbEntity
  8
1
 62
     1
100
AcDbLine
 10
36.2
 20
1.009410804010862
 30
0.0
 11
36.2
 21
0.0439368634827911
 31
0.0
  0
LINE
  5
4E5
330
18
100
AcDbEntity
  8
1
 62
     1
100
AcDbLine
 10
36.20000000000001
 20
-0.989112965896695
 30
0.0
 11
36.2
 21
-1.03
 31
0.0
  0
LINE
  5
4E6
330
18
100
AcDbEntity
  8
1
 62
     1
100
AcDbLine
 10
36.2
 20
-0.8449582966628906
 30
0.0
 11
36.2
 21
-0.9891129658966966
 31
0.0
  0
LINE
  5
4E7
330
18
100
AcDbEntity
  8
1
 62
     1
100
AcDbLine
 10
36.11447136951114
 20
1.040613989438277
 30
0.0
 11
36.11447136951114
 21
1.040373098704465
 31
0.0
  0
LINE
  5
4E8
330
18
100
AcDbEntity
  8
1
 62
     1
100
AcDbLine
 10
36.11447136951114
 20
1.040373098704465
 30
0.0
 11
36.11447136951114
 21
1.019839450657979
 31
0.0
  0
LINE
  5
4E9
330
18
100
AcDbEntity
  8
1
 62
     1
100
AcDbLine
 10
36.11447136951114
 20
1.019839450657979
 30
0.0
 11
36.11447136951113
 21
0.0452973646815779
 31
0.0
  0
ARC
  5
4EA
330
18
100
AcDbEntity
  8
1
 62
     1
100
AcDbCircle
 10
36.04633352317744
 20
-0.2723331222394506
 30
0.0
 40
0.324863361778456
100
AcDbArc
 50
61.77301058913128
 51
77.89245165890158
  0
LINE
  5
4EB
330
18
100
AcDbEntity
  8
1
 62
     1
100
AcDbLine
 10
32.71904701076759
 20
-1.393077965982147
 30
0.0
 11
32.69595298923242
 21
-1.393077965982147
 31
0.0
  0
LINE
  5
4EC
330
18
100
AcDbEntity
  8
1
 62
     1
100
AcDbLine
 10
32.69595298923242
 20
-1.393077965982147
 30
0.0
 11
32.69595298923242
 21
-1.4224
 31
0.0
  0
LINE
  5
4ED
330
18
100
AcDbEntity
  8
1
 62
     1
100
AcDbLine
 10
32.08404701076759
 20
-1.393077965982147
 30
0.0
 11
32.06095298923242
 21
-1.393077965982147
 31
0.0
  0
LINE
  5
4EE
330
18
100
AcDbEntity
  8
1
 62
     1
100
AcDbLine
 10
31.4490470107676
 20
-1.393077965982147
 30
0.0
 11
31.42595298923242
 21
-1.393077965982147
 31
0.0
  0
LINE
  5
4EF
330
18
100
AcDbEntity
  8
1
 62
     1
100
AcDbLine
 10
29.5440470107676
 20
-1.393077965982147
 30
0.0
 11
29.52095298923242
 21
-1.393077965982147
 31
0.0
  0
LINE
  5
4F0
330
18
100
AcDbEntity
  8
1
 62
     1
100
AcDbLine
 10
28.90904701076759
 20
-1.393077965982147
 30
0.0
 11
28.88595298923242
 21
-1.393077965982147
 31
0.0
  0
LINE
  5
4F1
330
18
100
AcDbEntity
  8
1
 62
     1
100
AcDbLine
 10
28.2740470107676
 20
-1.393077965982147
 30
0.0
 11
28.25095298923242
 21
-1.393077965982147
 31
0.0
  0
LINE
  5
4F2
330
18
100
AcDbEntity
  8
1
 62
     1
100
AcDbLine
 10
27.63904701076761
 20
-1.393077965982147
 30
0.0
 11
27.61595298923242
 21
-1.393077965982147
 31
0.0
  0
LINE
  5
4F3
330
18
100
AcDbEntity
  8
1
 62
     1
100
AcDbLine
 10
34.29500000000001
 20
0.0139297752307276
 30
0.0
 11
34.295
 21
0.8924741250000001
 31
0.0
  0
ARC
  5
4F4
330
18
100
AcDbEntity
  8
1
 62
     1
100
AcDbCircle
 10
34.44462877113485
 20
-0.2625792115408186
 30
0.0
 40
0.3143722977209433
100
AcDbArc
 50
90.71143931124726
 51
118.4193842691717
  0
LINE
  5
4F5
330
18
100
AcDbEntity
  8
1
 62
     1
100
AcDbLine
 10
34.44072683994281
 20
0.0516467467796681
 30
0.0
 11
34.44072954877997
 21
0.0516467467624571
 31
0.0
  0
LINE
  5
4F6
330
18
100
AcDbEntity
  8
1
 62
     1
100
AcDbLine
 10
34.4964568392798
 20
1.241407443474575
 30
0.0
 11
34.49645683927981
 21
1.241117432766724
 31
0.0
  0
LINE
  5
4F7
330
18
100
AcDbEntity
  8
1
 62
     1
100
AcDbLine
 10
34.49645683927981
 20
1.241117432766724
 30
0.0
 11
34.4964568392798
 21
1.216390651631465
 31
0.0
  0
LINE
  5
4F8
330
18
100
AcDbEntity
  8
1
 62
     1
100
AcDbLine
 10
34.4964568392798
 20
1.216390651631465
 30
0.0
 11
34.49645683927981
 21
0.0461552494960449
 31
0.0
  0
LINE
  5
4F9
330
18
100
AcDbEntity
  8
1
 62
     1
100
AcDbLine
 10
33.02500000000001
 20
0.0139297752307276
 30
0.0
 11
33.02500000000001
 21
0.8924741250000001
 31
0.0
  0
ARC
  5
4FA
330
18
100
AcDbEntity
  8
1
 62
     1
100
AcDbCircle
 10
33.17462876464528
 20
-0.2625791935102834
 30
0.0
 40
0.3143722787425469
100
AcDbArc
 50
90.7114234151791
 51
118.4193847928607
  0
LINE
  5
4FB
330
18
100
AcDbEntity
  8
1
 62
     1
100
AcDbLine
 10
33.17072692086903
 20
0.0516467467795271
 30
0.0
 11
33.17072954877997
 21
0.0516467467624571
 31
0.0
  0
LINE
  5
4FC
330
18
100
AcDbEntity
  8
1
 62
     1
100
AcDbLine
 10
33.3113666934815
 20
1.388475556444612
 30
0.0
 11
33.3113666934815
 21
1.388139038558515
 31
0.0
  0
LINE
  5
4FD
330
18
100
AcDbEntity
  8
1
 62
     1
100
AcDbLine
 10
33.3113666934815
 20
1.388139038558515
 30
0.0
 11
33.3113666934815
 21
1.359418175317618
 31
0.0
  0
LINE
  5
4FE
330
18
100
AcDbEntity
  8
1
 62
     1
100
AcDbLine
 10
33.3113666934815
 20
1.359418175317618
 30
0.0
 11
33.3113666934815
 21
0.0159539589336982
 31
0.0
  0
LINE
  5
4FF
330
18
100
AcDbEntity
  8
1
 62
     1
100
AcDbLine
 10
32.71904701076759
 20
1.4224
 30
0.0
 11
32.71904701076758
 21
1.422051336954023
 31
0.0
  0
LINE
  5
500
330
18
100
AcDbEntity
  8
1
 62
     1
100
AcDbLine
 10
32.71904701076758
 20
1.422051336954023
 30
0.0
 11
32.71904701076759
 21
1.39228465958008
 31
0.0
  0
LINE
  5
501
330
18
100
AcDbEntity
  8
1
 62
     1
100
AcDbLine
 10
32.71904701076759
 20
1.39228465958008
 30
0.0
 11
32.71904701076759
 21
0.0050387234782039
 31
0.0
  0
ARC
  5
502
330
18
100
AcDbEntity
  8
1
 62
     1
100
AcDbCircle
 10
32.88416826702048
 20
-0.2624770222532571
 30
0.0
 40
0.3143321628476475
100
AcDbArc
 50
90.89328746587158
 51
121.6845190296046
  0
LINE
  5
503
330
18
100
AcDbEntity
  8
1
 62
     1
100
AcDbLine
 10
33.37843892708361
 20
1.380151981344843
 30
0.0
 11
33.37843892708361
 21
1.37981835745379
 31
0.0
  0
LINE
  5
504
330
18
100
AcDbEntity
  8
1
 62
     1
100
AcDbLine
 10
33.37843892708361
 20
1.37981835745379
 30
0.0
 11
33.37843892708361
 21
1.351346538377489
 31
0.0
  0
LINE
  5
505
330
18
100
AcDbEntity
  8
1
 62
     1
100
AcDbLine
 10
33.37843892708361
 20
1.351346538377489
 30
0.0
 11
33.37843892708361
 21
0.0183984200508688
 31
0.0
  0
ARC
  5
506
330
18
100
AcDbEntity
  8
1
 62
     1
100
AcDbCircle
 10
33.51709930425584
 20
-0.2530242444678003
 30
0.0
 40
0.3047698920867193
100
AcDbArc
 50
90.53269395062478
 51
117.0609051283867
  0
LINE
  5
507
330
18
100
AcDbEntity
  8
1
 62
     1
100
AcDbLine
 10
33.51426661490871
 20
0.0516468854677767
 30
0.0
 11
33.51427036235637
 21
0.0516468854431224
 31
0.0
  0
LINE
  5
508
330
18
100
AcDbEntity
  8
1
 62
     1
100
AcDbLine
 10
33.66
 20
0.0139297752307276
 30
0.0
 11
33.66
 21
0.8924741250000001
 31
0.0
  0
LINE
  5
509
330
18
100
AcDbEntity
  8
1
 62
     1
100
AcDbLine
 10
35.56500000000001
 20
0.0139297752307276
 30
0.0
 11
35.565
 21
0.8924741250000001
 31
0.0
  0
ARC
  5
50A
330
18
100
AcDbEntity
  8
1
 62
     1
100
AcDbCircle
 10
35.71725054817792
 20
-0.2695253088150323
 30
0.0
 40
0.3217414190687754
100
AcDbArc
 50
96.37268410273276
 51
118.2413157343097
  0
LINE
  5
50B
330
18
100
AcDbEntity
  8
1
 62
     1
100
AcDbLine
 10
35.68154698507811
 20
1.094339330504538
 30
0.0
 11
35.68154698507811
 21
1.094086842173603
 31
0.0
  0
LINE
  5
50C
330
18
100
AcDbEntity
  8
1
 62
     1
100
AcDbLine
 10
35.68154698507811
 20
1.094086842173603
 30
0.0
 11
35.68154698507811
 21
1.072566539986202
 31
0.0
  0
LINE
  5
50D
330
18
100
AcDbEntity
  8
1
 62
     1
100
AcDbLine
 10
35.68154698507811
 20
1.072566539986202
 30
0.0
 11
35.68154698507812
 21
0.0501548996532722
 31
0.0
  0
LINE
  5
50E
330
18
100
AcDbEntity
  8
1
 62
     1
100
AcDbLine
 10
35.43046325890424
 20
1.12549848741492
 30
0.0
 11
35.43046325890424
 21
1.12523875815537
 31
0.0
  0
LINE
  5
50F
330
18
100
AcDbEntity
  8
1
 62
     1
100
AcDbLine
 10
35.43046325890424
 20
1.12523875815537
 30
0.0
 11
35.43046325890424
 21
1.103101171548464
 31
0.0
  0
LINE
  5
510
330
18
100
AcDbEntity
  8
1
 62
     1
100
AcDbLine
 10
35.43046325890424
 20
1.103101171548464
 30
0.0
 11
35.43046325890425
 21
0.0514272446262471
 31
0.0
  0
ARC
  5
511
330
18
100
AcDbEntity
  8
1
 62
     1
100
AcDbCircle
 10
35.4164098165962
 20
-0.2578132473821794
 30
0.0
 40
0.309582568082725
100
AcDbArc
 50
61.32998317622499
 51
87.39798205600897
  0
ARC
  5
512
330
18
100
AcDbEntity
  8
1
 62
     1
100
AcDbCircle
 10
35.07962844534408
 20
-0.2625783052547057
 30
0.0
 40
0.3143713760970742
100
AcDbArc
 50
90.71086981356262
 51
118.4194106561742
  0
LINE
  5
513
330
18
100
AcDbEntity
  8
1
 62
     1
100
AcDbLine
 10
35.08900191217896
 20
1.167873386989557
 30
0.0
 11
35.08900191217896
 21
1.167603204006872
 31
0.0
  0
LINE
  5
514
330
18
100
AcDbEntity
  8
1
 62
     1
100
AcDbLine
 10
35.08900191217896
 20
1.167603204006872
 30
0.0
 11
35.08900191217896
 21
1.144573054562031
 31
0.0
  0
LINE
  5
515
330
18
100
AcDbEntity
  8
1
 62
     1
100
AcDbLine
 10
35.08900191217896
 20
1.144573054562031
 30
0.0
 11
35.08900191217896
 21
0.0513373564177585
 31
0.0
  0
LINE
  5
516
330
18
100
AcDbEntity
  8
1
 62
     1
100
AcDbLine
 10
34.06244703769048
 20
1.295267483368203
 30
0.0
 11
34.06244703769049
 21
1.294961542709138
 31
0.0
  0
LINE
  5
517
330
18
100
AcDbEntity
  8
1
 62
     1
100
AcDbLine
 10
34.06244703769049
 20
1.294961542709138
 30
0.0
 11
34.06244703769048
 21
1.268868747581462
 31
0.0
  0
LINE
  5
518
330
18
100
AcDbEntity
  8
1
 62
     1
100
AcDbLine
 10
34.06244703769048
 20
1.268868747581462
 30
0.0
 11
34.06244703769048
 21
0.0382326017206227
 31
0.0
  0
ARC
  5
519
330
18
100
AcDbEntity
  8
1
 62
     1
100
AcDbCircle
 10
34.14988796135188
 20
-0.2397029597359304
 30
0.0
 40
0.2913628456465014
100
AcDbArc
 50
90.12146213849832
 51
107.4640250725702
  0
ARC
  5
51A
330
18
100
AcDbEntity
  8
1
 62
     1
100
AcDbCircle
 10
33.80962877113519
 20
-0.2625792115416646
 30
0.0
 40
0.3143722977218413
100
AcDbArc
 50
90.71143931212882
 51
118.4193842691496
  0
LINE
  5
51B
330
18
100
AcDbEntity
  8
1
 62
     1
100
AcDbLine
 10
33.8057268399383
 20
0.0516467467796681
 30
0.0
 11
33.80572954877996
 21
0.0516467467624571
 31
0.0
  0
LINE
  5
51C
330
18
100
AcDbEntity
  8
1
 62
     1
100
AcDbLine
 10
33.90391176638065
 20
1.314941499959593
 30
0.0
 11
33.90391176638065
 21
1.314629431153863
 31
0.0
  0
LINE
  5
51D
330
18
100
AcDbEntity
  8
1
 62
     1
100
AcDbLine
 10
33.90391176638065
 20
1.314629431153863
 30
0.0
 11
33.90391176638065
 21
1.288010534005346
 31
0.0
  0
LINE
  5
51E
330
18
100
AcDbEntity
  8
1
 62
     1
100
AcDbLine
 10
33.90391176638065
 20
1.288010534005346
 30
0.0
 11
33.90391176638066
 21
0.0344478720291978
 31
0.0
  0
LINE
  5
51F
330
18
100
AcDbEntity
  8
1
 62
     1
100
AcDbLine
 10
34.74645514829736
 20
1.210382985391561
 30
0.0
 11
34.74645514829737
 21
1.21010160501194
 31
0.0
  0
LINE
  5
520
330
18
100
AcDbEntity
  8
1
 62
     1
100
AcDbLine
 10
34.74645514829737
 20
1.21010160501194
 30
0.0
 11
34.74645514829736
 21
1.186113847213609
 31
0.0
  0
LINE
  5
521
330
18
100
AcDbEntity
  8
1
 62
     1
100
AcDbLine
 10
34.74645514829736
 20
1.186113847213609
 30
0.0
 11
34.74645514829736
 21
0.0491256845982615
 31
0.0
  0
LINE
  5
522
330
18
100
AcDbEntity
  8
1
 62
     1
100
AcDbLine
 10
34.74645514829737
 20
0.0491256802763371
 30
0.0
 11
34.78427035594878
 21
0.0516468808919394
 31
0.0
  0
LINE
  5
523
330
18
100
AcDbEntity
  8
1
 62
     1
100
AcDbLine
 10
34.93000000000001
 20
0.0139297752307276
 30
0.0
 11
34.93000000000001
 21
0.8924741250000001
 31
0.0
  0
LINE
  5
524
330
18
100
AcDbEntity
  8
1
 62
     1
100
AcDbLine
 10
31.755
 20
0.0139297752307276
 30
0.0
 11
31.755
 21
0.8924741250000001
 31
0.0
  0
ARC
  5
525
330
18
100
AcDbEntity
  8
1
 62
     1
100
AcDbCircle
 10
31.90462855391077
 20
-0.2625786080046953
 30
0.0
 40
0.3143716624576982
100
AcDbArc
 50
90.7109072224733
 51
118.4194017988658
  0
LINE
  5
526
330
18
100
AcDbEntity
  8
1
 62
     1
100
AcDbLine
 10
32.06095298923241
 20
1.4224
 30
0.0
 11
32.06095298923241
 21
1.422051336954023
 31
0.0
  0
LINE
  5
527
330
18
100
AcDbEntity
  8
1
 62
     1
100
AcDbLine
 10
32.06095298923241
 20
1.422051336954023
 30
0.0
 11
32.06095298923241
 21
1.39228465958008
 31
0.0
  0
LINE
  5
528
330
18
100
AcDbEntity
  8
1
 62
     1
100
AcDbLine
 10
32.06095298923241
 20
1.39228465958008
 30
0.0
 11
32.06095298923241
 21
0.0050387234782039
 31
0.0
  0
LINE
  5
529
330
18
100
AcDbEntity
  8
1
 62
     1
100
AcDbLine
 10
31.4490470107676
 20
1.4224
 30
0.0
 11
31.4490470107676
 21
1.422051336954023
 31
0.0
  0
LINE
  5
52A
330
18
100
AcDbEntity
  8
1
 62
     1
100
AcDbLine
 10
31.4490470107676
 20
1.422051336954023
 30
0.0
 11
31.4490470107676
 21
1.39228465958008
 31
0.0
  0
LINE
  5
52B
330
18
100
AcDbEntity
  8
1
 62
     1
100
AcDbLine
 10
31.4490470107676
 20
1.39228465958008
 30
0.0
 11
31.4490470107676
 21
0.0050387234782039
 31
0.0
  0
ARC
  5
52C
330
18
100
AcDbEntity
  8
1
 62
     1
100
AcDbCircle
 10
31.61416826702047
 20
-0.2624770222532421
 30
0.0
 40
0.3143321628476338
100
AcDbArc
 50
90.89328746587292
 51
121.6845190296054
  0
ARC
  5
52D
330
18
100
AcDbEntity
  8
1
 62
     1
100
AcDbCircle
 10
32.24916826702045
 20
-0.2624770222531906
 30
0.0
 40
0.3143321628475783
100
AcDbArc
 50
90.89328746586918
 51
121.6845190296088
  0
LINE
  5
52E
330
18
100
AcDbEntity
  8
1
 62
     1
100
AcDbLine
 10
32.39000000000001
 20
0.0139297752307276
 30
0.0
 11
32.39000000000001
 21
0.892474125
 31
0.0
  0
ARC
  5
52F
330
18
100
AcDbEntity
  8
1
 62
     1
100
AcDbCircle
 10
32.53962877600048
 20
-0.2625792250593826
 30
0.0
 40
0.3143723119501748
100
AcDbArc
 50
90.71145122945507
 51
118.41938387653
  0
LINE
  5
530
330
18
100
AcDbEntity
  8
1
 62
     1
100
AcDbLine
 10
32.53572677926773
 20
0.0516467467797588
 30
0.0
 11
32.53572954877999
 21
0.0516467467624571
 31
0.0
  0
LINE
  5
531
330
18
100
AcDbEntity
  8
1
 62
     1
100
AcDbLine
 10
32.69595298923242
 20
1.4224
 30
0.0
 11
32.69595298923242
 21
1.422051336954023
 31
0.0
  0
LINE
  5
532
330
18
100
AcDbEntity
  8
1
 62
     1
100
AcDbLine
 10
32.69595298923242
 20
1.422051336954023
 30
0.0
 11
32.69595298923243
 21
1.39228465958008
 31
0.0
  0
LINE
  5
533
330
18
100
AcDbEntity
  8
1
 62
     1
100
AcDbLine
 10
32.69595298923243
 20
1.39228465958008
 30
0.0
 11
32.69595298923242
 21
0.0050387234782039
 31
0.0
  0
LINE
  5
534
330
18
100
AcDbEntity
  8
1
 62
     1
100
AcDbLine
 10
31.12000000000001
 20
0.0139297752307276
 30
0.0
 11
31.12
 21
0.892474125
 31
0.0
  0
ARC
  5
535
330
18
100
AcDbEntity
  8
1
 62
     1
100
AcDbCircle
 10
31.26962855391076
 20
-0.2625786080046428
 30
0.0
 40
0.3143716624576462
100
AcDbArc
 50
90.7109072224695
 51
118.419401798868
  0
LINE
  5
536
330
18
100
AcDbEntity
  8
1
 62
     1
100
AcDbLine
 10
31.42595298923242
 20
1.4224
 30
0.0
 11
31.42595298923242
 21
1.422051336954023
 31
0.0
  0
LINE
  5
537
330
18
100
AcDbEntity
  8
1
 62
     1
100
AcDbLine
 10
31.42595298923242
 20
1.422051336954023
 30
0.0
 11
31.42595298923243
 21
1.39228465958008
 31
0.0
  0
LINE
  5
538
330
18
100
AcDbEntity
  8
1
 62
     1
100
AcDbLine
 10
31.42595298923243
 20
1.39228465958008
 30
0.0
 11
31.42595298923242
 21
0.0050387234782039
 31
0.0
  0
LINE
  5
539
330
18
100
AcDbEntity
  8
1
 62
     1
100
AcDbLine
 10
30.8140470107676
 20
1.4224
 30
0.0
 11
30.8140470107676
 21
1.422051336954023
 31
0.0
  0
LINE
  5
53A
330
18
100
AcDbEntity
  8
1
 62
     1
100
AcDbLine
 10
30.8140470107676
 20
1.422051336954023
 30
0.0
 11
30.8140470107676
 21
1.39228465958008
 31
0.0
  0
LINE
  5
53B
330
18
100
AcDbEntity
  8
1
 62
     1
100
AcDbLine
 10
30.8140470107676
 20
1.39228465958008
 30
0.0
 11
30.8140470107676
 21
0.0050387234782039
 31
0.0
  0
ARC
  5
53C
330
18
100
AcDbEntity
  8
1
 62
     1
100
AcDbCircle
 10
30.97916826702048
 20
-0.2624770222532606
 30
0.0
 40
0.3143321628476509
100
AcDbArc
 50
90.89328746587483
 51
121.6845190296047
  0
ARC
  5
53D
330
18
100
AcDbEntity
  8
1
 62
     1
100
AcDbCircle
 10
30.63462877746771
 20
-0.2625792291359398
 30
0.0
 40
0.314372316241034
100
AcDbArc
 50
90.71145482336539
 51
118.4193837581281
  0
LINE
  5
53E
330
18
100
AcDbEntity
  8
1
 62
     1
100
AcDbLine
 10
30.6307267609713
 20
0.0516467467797837
 30
0.0
 11
30.63072954877999
 21
0.0516467467624572
 31
0.0
  0
LINE
  5
53F
330
18
100
AcDbEntity
  8
1
 62
     1
100
AcDbLine
 10
30.1790470107676
 20
1.4224
 30
0.0
 11
30.1790470107676
 21
1.422051336954023
 31
0.0
  0
LINE
  5
540
330
18
100
AcDbEntity
  8
1
 62
     1
100
AcDbLine
 10
30.1790470107676
 20
1.422051336954023
 30
0.0
 11
30.17904701076761
 21
1.39228465958008
 31
0.0
  0
LINE
  5
541
330
18
100
AcDbEntity
  8
1
 62
     1
100
AcDbLine
 10
30.17904701076761
 20
1.39228465958008
 30
0.0
 11
30.17904701076761
 21
0.0050387234782039
 31
0.0
  0
ARC
  5
542
330
18
100
AcDbEntity
  8
1
 62
     1
100
AcDbCircle
 10
30.34416826702047
 20
-0.2624770222532768
 30
0.0
 40
0.3143321628476662
100
AcDbArc
 50
90.8932874658735
 51
121.6845190296032
  0
LINE
  5
543
330
18
100
AcDbEntity
  8
1
 62
     1
100
AcDbLine
 10
30.48500000000001
 20
0.0139297752307276
 30
0.0
 11
30.48500000000001
 21
0.8924741250000001
 31
0.0
  0
LINE
  5
544
330
18
100
AcDbEntity
  8
1
 62
     1
100
AcDbLine
 10
27.31000000000001
 20
0.0139297752307276
 30
0.0
 11
27.31000000000001
 21
0.8924741250000001
 31
0.0
  0
ARC
  5
545
330
18
100
AcDbEntity
  8
1
 62
     1
100
AcDbCircle
 10
27.45962877599999
 20
-0.2625792250580333
 30
0.0
 40
0.314372311948754
100
AcDbArc
 50
90.71145122820286
 51
118.4193838765696
  0
LINE
  5
546
330
18
100
AcDbEntity
  8
1
 62
     1
100
AcDbLine
 10
27.45572677927412
 20
0.0516467467797588
 30
0.0
 11
27.45572954877997
 21
0.0516467467624571
 31
0.0
  0
LINE
  5
547
330
18
100
AcDbEntity
  8
1
 62
     1
100
AcDbLine
 10
27.61595298923242
 20
1.4224
 30
0.0
 11
27.61595298923242
 21
1.422051336954023
 31
0.0
  0
LINE
  5
548
330
18
100
AcDbEntity
  8
1
 62
     1
100
AcDbLine
 10
27.61595298923242
 20
1.422051336954023
 30
0.0
 11
27.61595298923242
 21
1.39228465958008
 31
0.0
  0
LINE
  5
549
330
18
100
AcDbEntity
  8
1
 62
     1
100
AcDbLine
 10
27.61595298923242
 20
1.39228465958008
 30
0.0
 11
27.61595298923242
 21
0.0050387234782039
 31
0.0
  0
LINE
  5
54A
330
18
100
AcDbEntity
  8
1
 62
     1
100
AcDbLine
 10
27.63904701076761
 20
1.4224
 30
0.0
 11
27.63904701076761
 21
1.422051336954023
 31
0.0
  0
LINE
  5
54B
330
18
100
AcDbEntity
  8
1
 62
     1
100
AcDbLine
 10
27.63904701076761
 20
1.422051336954023
 30
0.0
 11
27.6390470107676
 21
1.39228465958008
 31
0.0
  0
LINE
  5
54C
330
18
100
AcDbEntity
  8
1
 62
     1
100
AcDbLine
 10
27.6390470107676
 20
1.39228465958008
 30
0.0
 11
27.63904701076761
 21
0.0050387234782039
 31
0.0
  0
ARC
  5
54D
330
18
100
AcDbEntity
  8
1
 62
     1
100
AcDbCircle
 10
27.80416826702048
 20
-0.2624770222532753
 30
0.0
 40
0.3143321628476669
100
AcDbArc
 50
90.89328746587412
 51
121.6845190296038
  0
LINE
  5
54E
330
18
100
AcDbEntity
  8
1
 62
     1
100
AcDbLine
 10
27.945
 20
0.0139297752307276
 30
0.0
 11
27.94500000000001
 21
0.8924741250000001
 31
0.0
  0
ARC
  5
54F
330
18
100
AcDbEntity
  8
1
 62
     1
100
AcDbCircle
 10
28.09462877482206
 20
-0.2625792217852781
 30
0.0
 40
0.3143723085039493
100
AcDbArc
 50
90.7114483428822
 51
118.4193839716247
  0
LINE
  5
550
330
18
100
AcDbEntity
  8
1
 62
     1
100
AcDbLine
 10
28.09072679396317
 20
0.051646746779738
 30
0.0
 11
28.09072954877997
 21
0.051646746762457
 31
0.0
  0
LINE
  5
551
330
18
100
AcDbEntity
  8
1
 62
     1
100
AcDbLine
 10
28.25095298923242
 20
1.4224
 30
0.0
 11
28.25095298923242
 21
1.422051336954023
 31
0.0
  0
LINE
  5
552
330
18
100
AcDbEntity
  8
1
 62
     1
100
AcDbLine
 10
28.25095298923242
 20
1.422051336954023
 30
0.0
 11
28.25095298923242
 21
1.39228465958008
 31
0.0
  0
LINE
  5
553
330
18
100
AcDbEntity
  8
1
 62
     1
100
AcDbLine
 10
28.25095298923242
 20
1.39228465958008
 30
0.0
 11
28.25095298923242
 21
0.0050387234782039
 31
0.0
  0
LINE
  5
554
330
18
100
AcDbEntity
  8
1
 62
     1
100
AcDbLine
 10
28.2740470107676
 20
1.4224
 30
0.0
 11
28.2740470107676
 21
1.422051336954023
 31
0.0
  0
LINE
  5
555
330
18
100
AcDbEntity
  8
1
 62
     1
100
AcDbLine
 10
28.2740470107676
 20
1.422051336954023
 30
0.0
 11
28.2740470107676
 21
1.39228465958008
 31
0.0
  0
LINE
  5
556
330
18
100
AcDbEntity
  8
1
 62
     1
100
AcDbLine
 10
28.2740470107676
 20
1.39228465958008
 30
0.0
 11
28.2740470107676
 21
0.0050387234782039
 31
0.0
  0
ARC
  5
557
330
18
100
AcDbEntity
  8
1
 62
     1
100
AcDbCircle
 10
28.43916826702048
 20
-0.262477022253278
 30
0.0
 40
0.3143321628476675
100
AcDbArc
 50
90.89328746587412
 51
121.6845190296036
  0
LINE
  5
558
330
18
100
AcDbEntity
  8
1
 62
     1
100
AcDbLine
 10
28.58000000000001
 20
0.0139297752307276
 30
0.0
 11
28.58000000000001
 21
0.8924741250000001
 31
0.0
  0
ARC
  5
559
330
18
100
AcDbEntity
  8
1
 62
     1
100
AcDbCircle
 10
28.72962855391079
 20
-0.2625786080047237
 30
0.0
 40
0.3143716624577292
100
AcDbArc
 50
90.71090722247318
 51
118.419401798865
  0
LINE
  5
55A
330
18
100
AcDbEntity
  8
1
 62
     1
100
AcDbLine
 10
28.88595298923242
 20
1.4224
 30
0.0
 11
28.88595298923242
 21
1.422051336954023
 31
0.0
  0
LINE
  5
55B
330
18
100
AcDbEntity
  8
1
 62
     1
100
AcDbLine
 10
28.88595298923242
 20
1.422051336954023
 30
0.0
 11
28.88595298923242
 21
1.39228465958008
 31
0.0
  0
LINE
  5
55C
330
18
100
AcDbEntity
  8
1
 62
     1
100
AcDbLine
 10
28.88595298923242
 20
1.39228465958008
 30
0.0
 11
28.88595298923242
 21
0.0050387234782039
 31
0.0
  0
LINE
  5
55D
330
18
100
AcDbEntity
  8
1
 62
     1
100
AcDbLine
 10
29.85
 20
0.0139297752307276
 30
0.0
 11
29.85
 21
0.892474125
 31
0.0
  0
ARC
  5
55E
330
18
100
AcDbEntity
  8
1
 62
     1
100
AcDbCircle
 10
29.99962876774325
 20
-0.2625792021176158
 30
0.0
 40
0.3143722878023656
100
AcDbArc
 50
90.71143100353261
 51
118.4193845428642
  0
LINE
  5
55F
330
18
100
AcDbEntity
  8
1
 62
     1
100
AcDbLine
 10
29.99572688223706
 20
0.0516467467795973
 30
0.0
 11
29.99572954877998
 21
0.0516467467624571
 31
0.0
  0
LINE
  5
560
330
18
100
AcDbEntity
  8
1
 62
     1
100
AcDbLine
 10
30.15595298923242
 20
1.4224
 30
0.0
 11
30.15595298923242
 21
1.422051336954023
 31
0.0
  0
LINE
  5
561
330
18
100
AcDbEntity
  8
1
 62
     1
100
AcDbLine
 10
30.15595298923242
 20
1.422051336954023
 30
0.0
 11
30.15595298923242
 21
1.39228465958008
 31
0.0
  0
LINE
  5
562
330
18
100
AcDbEntity
  8
1
 62
     1
100
AcDbLine
 10
30.15595298923242
 20
1.39228465958008
 30
0.0
 11
30.15595298923241
 21
0.0050387234782039
 31
0.0
  0
ARC
  5
563
330
18
100
AcDbEntity
  8
1
 62
     1
100
AcDbCircle
 10
29.70916826702047
 20
-0.2624770222532307
 30
0.0
 40
0.3143321628476192
100
AcDbArc
 50
90.89328746587168
 51
121.684519029606
  0
ARC
  5
564
330
18
100
AcDbEntity
  8
1
 62
     1
100
AcDbCircle
 10
29.3646287646454
 20
-0.26257919351055
 30
0.0
 40
0.3143722787428344
100
AcDbArc
 50
90.71142341557298
 51
118.4193847928553
  0
LINE
  5
565
330
18
100
AcDbEntity
  8
1
 62
     1
100
AcDbLine
 10
29.36072692086698
 20
0.051646746779527
 30
0.0
 11
29.36072954877997
 21
0.051646746762457
 31
0.0
  0
LINE
  5
566
330
18
100
AcDbEntity
  8
1
 62
     1
100
AcDbLine
 10
29.52095298923242
 20
1.4224
 30
0.0
 11
29.52095298923242
 21
1.422051336954023
 31
0.0
  0
LINE
  5
567
330
18
100
AcDbEntity
  8
1
 62
     1
100
AcDbLine
 10
29.52095298923242
 20
1.422051336954023
 30
0.0
 11
29.52095298923242
 21
1.39228465958008
 31
0.0
  0
LINE
  5
568
330
18
100
AcDbEntity
  8
1
 62
     1
100
AcDbLine
 10
29.52095298923242
 20
1.39228465958008
 30
0.0
 11
29.52095298923242
 21
0.0050387234782039
 31
0.0
  0
LINE
  5
569
330
18
100
AcDbEntity
  8
1
 62
     1
100
AcDbLine
 10
28.90904701076759
 20
1.4224
 30
0.0
 11
28.90904701076759
 21
1.422051336954023
 31
0.0
  0
LINE
  5
56A
330
18
100
AcDbEntity
  8
1
 62
     1
100
AcDbLine
 10
28.90904701076759
 20
1.422051336954023
 30
0.0
 11
28.9090470107676
 21
1.39228465958008
 31
0.0
  0
LINE
  5
56B
330
18
100
AcDbEntity
  8
1
 62
     1
100
AcDbLine
 10
28.9090470107676
 20
1.39228465958008
 30
0.0
 11
28.90904701076759
 21
0.0050387234782039
 31
0.0
  0
ARC
  5
56C
330
18
100
AcDbEntity
  8
1
 62
     1
100
AcDbCircle
 10
29.07416826702049
 20
-0.2624770222532986
 30
0.0
 40
0.3143321628476904
100
AcDbArc
 50
90.89328746587665
 51
121.6845190296027
  0
LINE
  5
56D
330
18
100
AcDbEntity
  8
1
 62
     1
100
AcDbLine
 10
29.215
 20
0.0139297752307276
 30
0.0
 11
29.215
 21
0.8924741250000001
 31
0.0
  0
ARC
  5
56E
330
18
100
AcDbEntity
  8
1
 62
     1
100
AcDbCircle
 10
27.16571468787708
 20
-0.2454075256426062
 30
0.0
 40
0.297094398571688
100
AcDbArc
 50
90.278556786518
 51
112.2878682629551
  0
LINE
  5
56F
330
18
100
AcDbEntity
  8
1
 62
     1
100
AcDbLine
 10
26.57678533074415
 20
1.062586842884622
 30
0.0
 11
26.57678533074414
 21
1.062341345250507
 31
0.0
  0
LINE
  5
570
330
18
100
AcDbEntity
  8
1
 62
     1
100
AcDbLine
 10
26.57678533074414
 20
1.062341345250507
 30
0.0
 11
26.57678533074414
 21
1.041416107112773
 31
0.0
  0
LINE
  5
571
330
18
100
AcDbEntity
  8
1
 62
     1
100
AcDbLine
 10
26.57678533074414
 20
1.041416107112773
 30
0.0
 11
26.57678533074415
 21
0.0476925149888205
 31
0.0
  0
ARC
  5
572
330
18
100
AcDbEntity
  8
1
 62
     1
100
AcDbCircle
 10
26.52287497177488
 20
-0.2682533267738014
 30
0.0
 40
0.3205220714475569
100
AcDbArc
 50
61.67087445596756
 51
80.31678425104083
  0
LINE
  5
573
330
18
100
AcDbEntity
  8
1
 62
     1
100
AcDbLine
 10
26.675
 20
0.0139297752307276
 30
0.0
 11
26.675
 21
0.8924741250000001
 31
0.0
  0
ARC
  5
574
330
18
100
AcDbEntity
  8
1
 62
     1
100
AcDbCircle
 10
26.824628776
 20
-0.2625792250580821
 30
0.0
 40
0.3143723119488032
100
AcDbArc
 50
90.71145122820407
 51
118.4193838765671
  0
LINE
  5
575
330
18
100
AcDbEntity
  8
1
 62
     1
100
AcDbLine
 10
26.82072677927413
 20
0.0516467467797588
 30
0.0
 11
26.82072954877998
 21
0.0516467467624571
 31
0.0
  0
LINE
  5
576
330
18
100
AcDbEntity
  8
1
 62
     1
100
AcDbLine
 10
26.87142940722426
 20
1.232699679782769
 30
0.0
 11
26.87142940722426
 21
1.232412130972792
 31
0.0
  0
LINE
  5
577
330
18
100
AcDbEntity
  8
1
 62
     1
100
AcDbLine
 10
26.87142940722426
 20
1.232412130972792
 30
0.0
 11
26.87142940722426
 21
1.207896243443968
 31
0.0
  0
LINE
  5
578
330
18
100
AcDbEntity
  8
1
 62
     1
100
AcDbLine
 10
26.87142940722426
 20
1.207896243443968
 30
0.0
 11
26.87142940722426
 21
0.0471054248064021
 31
0.0
  0
LINE
  5
579
330
18
100
AcDbEntity
  8
1
 62
     1
100
AcDbLine
 10
27.05303527521216
 20
-1.306324665469545
 30
0.0
 11
26.87142940382884
 21
-1.198746417863536
 31
0.0
  0
LINE
  5
57A
330
18
100
AcDbEntity
  8
1
 62
     1
100
AcDbLine
 10
26.57678533074414
 20
-1.023003058634949
 30
0.0
 11
26.468381739
 21
-0.9578332105878122
 31
0.0
  0
LINE
  5
57B
330
18
100
AcDbEntity
  8
1
 62
     1
100
AcDbLine
 10
26.46838173900001
 20
-0.9578332105878121
 30
0.0
 11
26.468381739
 21
-0.9999999988280567
 31
0.0
  0
LINE
  5
57C
330
18
100
AcDbEntity
  8
1
 62
     1
100
AcDbLine
 10
26.468381739
 20
-0.8047479634984
 30
0.0
 11
26.468381739
 21
-0.9578332105878121
 31
0.0
  0
LINE
  5
57D
330
18
100
AcDbEntity
  8
1
 62
     1
100
AcDbLine
 10
26.468381739
 20
0.039368986172351
 30
0.0
 11
26.468381739
 21
-0.804747963498387
 31
0.0
  0
LINE
  5
57E
330
18
100
AcDbEntity
  8
1
 62
     1
100
AcDbLine
 10
26.468381739
 20
1.0
 30
0.0
 11
26.468381739
 21
0.9997671199847441
 31
0.0
  0
LINE
  5
57F
330
18
100
AcDbEntity
  8
1
 62
     1
100
AcDbLine
 10
26.468381739
 20
0.9997671199847441
 30
0.0
 11
26.468381739
 21
0.9799130892061564
 31
0.0
  0
LINE
  5
580
330
18
100
AcDbEntity
  8
1
 62
     1
100
AcDbLine
 10
26.468381739
 20
0.9799130892061564
 30
0.0
 11
26.46838173900001
 21
0.039368986172351
 31
0.0
  0
LINE
  5
581
330
18
100
AcDbEntity
  8
1
 62
     1
100
AcDbLine
 10
35.27424328731006
 20
0.0516469753266554
 30
0.0
 11
35.08900191217895
 21
0.0513373564177539
 31
0.0
  0
LINE
  5
582
330
18
100
AcDbEntity
  8
1
 62
     1
100
AcDbLine
 10
35.07572964735846
 20
0.0516468920978222
 30
0.0
 11
35.08900191217896
 21
0.0513373564177538
 31
0.0
  0
ARC
  5
583
330
18
100
AcDbEntity
  8
1
 62
     1
100
AcDbCircle
 10
34.78224108391179
 20
-0.2550198695296612
 30
0.0
 40
0.3067014427540632
100
AcDbArc
 50
61.21593674472934
 51
89.6208684963052
  0
ARC
  5
584
330
18
100
AcDbEntity
  8
1
 62
     1
100
AcDbCircle
 10
34.44068011210265
 20
-0.2341689677443085
 30
0.0
 40
0.2858161849137208
100
AcDbArc
 50
78.74670216891889
 51
89.99008972288186
  0
ARC
  5
585
330
18
100
AcDbEntity
  8
1
 62
     1
100
AcDbCircle
 10
34.14724051190041
 20
-0.2550217292052991
 30
0.0
 40
0.3067033799997133
100
AcDbArc
 50
61.21601033120451
 51
89.62077002711153
  0
ARC
  5
586
330
18
100
AcDbEntity
  8
1
 62
     1
100
AcDbCircle
 10
33.8052907287634
 20
-0.2389839728873571
 30
0.0
 40
0.2906369804664053
100
AcDbArc
 50
70.16670682757031
 51
89.91348982020874
  0
ARC
  5
587
330
18
100
AcDbEntity
  8
1
 62
     1
100
AcDbCircle
 10
33.51224087939848
 20
-0.2550206029879299
 30
0.0
 40
0.3067022231115718
100
AcDbArc
 50
61.21596921842873
 51
89.62083000329667
  0
ARC
  5
588
330
18
100
AcDbEntity
  8
1
 62
     1
100
AcDbCircle
 10
33.16922756395129
 20
-0.2475691036669165
 30
0.0
 40
0.299246541167654
100
AcDbArc
 50
61.65845411987205
 51
89.71239268024733
  0
LINE
  5
589
330
18
100
AcDbEntity
  8
1
 62
     1
100
AcDbLine
 10
33.51427036235637
 20
0.051646931701861
 30
0.0
 11
33.51426661304141
 21
0.051646931701861
 31
0.0
  0
ARC
  5
58A
330
18
100
AcDbEntity
  8
1
 62
     1
100
AcDbCircle
 10
32.8772420773119
 20
-0.2550174041134732
 30
0.0
 40
0.3066988279506327
100
AcDbArc
 50
61.21587765593796
 51
89.62103774204904
  0
ARC
  5
58B
330
18
100
AcDbEntity
  8
1
 62
     1
100
AcDbCircle
 10
32.53340065585113
 20
-0.252892076937438
 30
0.0
 40
0.3045940317032806
100
AcDbArc
 50
57.78017924917253
 51
89.56185180895527
  0
ARC
  5
58C
330
18
100
AcDbEntity
  8
1
 62
     1
100
AcDbCircle
 10
32.24224207731195
 20
-0.2550174041131985
 30
0.0
 40
0.3066988279503584
100
AcDbArc
 50
61.21587765592139
 51
89.62103774206065
  0
ARC
  5
58D
330
18
100
AcDbEntity
  8
1
 62
     1
100
AcDbCircle
 10
31.89840065585113
 20
-0.2528920769374735
 30
0.0
 40
0.304594031703312
100
AcDbArc
 50
57.78017924918004
 51
89.56185180895933
  0
ARC
  5
58E
330
18
100
AcDbEntity
  8
1
 62
     1
100
AcDbCircle
 10
31.60724207731195
 20
-0.2550174041131655
 30
0.0
 40
0.3066988279503243
100
AcDbArc
 50
61.21587765592017
 51
89.62103774206061
  0
ARC
  5
58F
330
18
100
AcDbEntity
  8
1
 62
     1
100
AcDbCircle
 10
31.26340065585113
 20
-0.2528920769375058
 30
0.0
 40
0.3045940317033454
100
AcDbArc
 50
57.78017924917762
 51
89.56185180895672
  0
ARC
  5
590
330
18
100
AcDbEntity
  8
1
 62
     1
100
AcDbCircle
 10
30.97224207731194
 20
-0.2550174041132258
 30
0.0
 40
0.3066988279503849
100
AcDbArc
 50
61.21587765592328
 51
89.62103774206003
  0
ARC
  5
591
330
18
100
AcDbEntity
  8
1
 62
     1
100
AcDbCircle
 10
30.62840065585113
 20
-0.2528920769374543
 30
0.0
 40
0.3045940317032933
100
AcDbArc
 50
57.78017924917627
 51
89.56185180895729
  0
ARC
  5
592
330
18
100
AcDbEntity
  8
1
 62
     1
100
AcDbCircle
 10
30.33724207731193
 20
-0.2550174041132983
 30
0.0
 40
0.3066988279504574
100
AcDbArc
 50
61.21587765592746
 51
89.62103774205745
  0
ARC
  5
593
330
18
100
AcDbEntity
  8
1
 62
     1
100
AcDbCircle
 10
29.99340065585114
 20
-0.2528920769374398
 30
0.0
 40
0.304594031703278
100
AcDbArc
 50
57.78017924917651
 51
89.56185180895794
  0
ARC
  5
594
330
18
100
AcDbEntity
  8
1
 62
     1
100
AcDbCircle
 10
29.70224207731193
 20
-0.2550174041133154
 30
0.0
 40
0.3066988279504739
100
AcDbArc
 50
61.21587765592898
 51
89.62103774205615
  0
ARC
  5
595
330
18
100
AcDbEntity
  8
1
 62
     1
100
AcDbCircle
 10
29.35840065585115
 20
-0.2528920769374137
 30
0.0
 40
0.3045940317032525
100
AcDbArc
 50
57.78017924917447
 51
89.56185180896125
  0
ARC
  5
596
330
18
100
AcDbEntity
  8
1
 62
     1
100
AcDbCircle
 10
29.06724207731194
 20
-0.2550174041132251
 30
0.0
 40
0.3066988279503851
100
AcDbArc
 50
61.21587765592323
 51
89.62103774206003
  0
ARC
  5
597
330
18
100
AcDbEntity
  8
1
 62
     1
100
AcDbCircle
 10
28.72340065585114
 20
-0.2528920769374272
 30
0.0
 40
0.3045940317032675
100
AcDbArc
 50
57.78017924917391
 51
89.56185180895793
  0
ARC
  5
598
330
18
100
AcDbEntity
  8
1
 62
     1
100
AcDbCircle
 10
28.43224207731193
 20
-0.2550174041133018
 30
0.0
 40
0.30669882795046
100
AcDbArc
 50
61.21587765592835
 51
89.62103774205745
  0
ARC
  5
599
330
18
100
AcDbEntity
  8
1
 62
     1
100
AcDbCircle
 10
28.08840065585114
 20
-0.2528920769374423
 30
0.0
 40
0.3045940317032819
100
AcDbArc
 50
57.78017924917565
 51
89.56185180895729
  0
ARC
  5
59A
330
18
100
AcDbEntity
  8
1
 62
     1
100
AcDbCircle
 10
27.79724207731196
 20
-0.2550174041131926
 30
0.0
 40
0.3066988279503505
100
AcDbArc
 50
61.21587765592203
 51
89.62103774206197
  0
ARC
  5
59B
330
18
100
AcDbEntity
  8
1
 62
     1
100
AcDbCircle
 10
27.45340065585112
 20
-0.252892076937579
 30
0.0
 40
0.3045940317034174
100
AcDbArc
 50
57.78017924918606
 51
89.56185180895415
  0
LINE
  5
59C
330
18
100
AcDbEntity
  8
1
 62
     1
100
AcDbLine
 10
27.16427047806947
 20
0.0516467152233693
 30
0.0
 11
27.16427168242161
 21
0.051646715226545
 31
0.0
  0
ARC
  5
59D
330
18
100
AcDbEntity
  8
1
 62
     1
100
AcDbCircle
 10
27.16224289682622
 20
-0.2550138743376124
 30
0.0
 40
0.30669525214522
100
AcDbArc
 50
61.21569441790805
 51
89.62095176140176
  0
ARC
  5
59E
330
18
100
AcDbEntity
  8
1
 62
     1
100
AcDbCircle
 10
26.82069705075489
 20
-0.2338473839952765
 30
0.0
 40
0.2854944334202535
100
AcDbArc
 50
79.76425597797203
 51
89.99347797565186
  0
LINE
  5
59F
330
18
100
AcDbEntity
  8
1
 62
     1
100
AcDbLine
 10
35.68154698507811
 20
-1.094339330504538
 30
0.0
 11
36.11447136951114
 21
-1.040613989438277
 31
0.0
  0
LINE
  5
5A0
330
18
100
AcDbEntity
  8
1
 62
     1
100
AcDbLine
 10
35.08900191217896
 20
-1.167873386989556
 30
0.0
 11
35.43046325890424
 21
-1.12549848741492
 31
0.0
  0
LINE
  5
5A1
330
18
100
AcDbEntity
  8
1
 62
     1
100
AcDbLine
 10
34.4964568392798
 20
-1.241407443474575
 30
0.0
 11
34.74645514829736
 21
-1.210382985391561
 31
0.0
  0
LINE
  5
5A2
330
18
100
AcDbEntity
  8
1
 62
     1
100
AcDbLine
 10
33.90391176638065
 20
-1.314941499959593
 30
0.0
 11
34.06244703769048
 21
-1.295267483368203
 31
0.0
  0
LINE
  5
5A3
330
18
100
AcDbEntity
  8
1
 62
     1
100
AcDbLine
 10
33.3113666934815
 20
-1.388475556444612
 30
0.0
 11
33.37843892708361
 21
-1.380151981344843
 31
0.0
  0
LINE
  5
5A4
330
18
100
AcDbEntity
  8
1
 62
     1
100
AcDbLine
 10
36.2
 20
-1.03
 30
0.0
 11
37.23
 21
0.0
 31
0.0
  0
LINE
  5
5A5
330
18
100
AcDbEntity
  8
1
 62
     1
100
AcDbLine
 10
36.2
 20
0.8924741250000001
 30
0.0
 11
36.11447136951112
 21
1.040613989438273
 31
0.0
  0
LINE
  5
5A6
330
18
100
AcDbEntity
  8
1
 62
     1
100
AcDbLine
 10
32.69595298923242
 20
-1.4224
 30
0.0
 11
32.71904701076759
 21
-1.4224
 31
0.0
  0
LINE
  5
5A7
330
18
100
AcDbEntity
  8
1
 62
     1
100
AcDbLine
 10
32.06095298923241
 20
-1.4224
 30
0.0
 11
32.0840470107676
 21
-1.4224
 31
0.0
  0
LINE
  5
5A8
330
18
100
AcDbEntity
  8
1
 62
     1
100
AcDbLine
 10
31.42595298923243
 20
-1.4224
 30
0.0
 11
31.4490470107676
 21
-1.4224
 31
0.0
  0
LINE
  5
5A9
330
18
100
AcDbEntity
  8
1
 62
     1
100
AcDbLine
 10
30.79095298923242
 20
-1.4224
 30
0.0
 11
30.8140470107676
 21
-1.4224
 31
0.0
  0
LINE
  5
5AA
330
18
100
AcDbEntity
  8
1
 62
     1
100
AcDbLine
 10
30.15595298923242
 20
-1.4224
 30
0.0
 11
30.17904701076761
 21
-1.4224
 31
0.0
  0
LINE
  5
5AB
330
18
100
AcDbEntity
  8
1
 62
     1
100
AcDbLine
 10
29.52095298923242
 20
-1.4224
 30
0.0
 11
29.5440470107676
 21
-1.4224
 31
0.0
  0
LINE
  5
5AC
330
18
100
AcDbEntity
  8
1
 62
     1
100
AcDbLine
 10
28.88595298923241
 20
-1.4224
 30
0.0
 11
28.90904701076759
 21
-1.4224
 31
0.0
  0
LINE
  5
5AD
330
18
100
AcDbEntity
  8
1
 62
     1
100
AcDbLine
 10
28.25095298923241
 20
-1.4224
 30
0.0
 11
28.2740470107676
 21
-1.4224
 31
0.0
  0
LINE
  5
5AE
330
18
100
AcDbEntity
  8
1
 62
     1
100
AcDbLine
 10
27.61595298923242
 20
-1.4224
 30
0.0
 11
27.63904701076761
 21
-1.4224
 31
0.0
  0
LINE
  5
5AF
330
18
100
AcDbEntity
  8
1
 62
     1
100
AcDbLine
 10
34.4964568392798
 20
1.241407443474575
 30
0.0
 11
34.295
 21
0.8924741250000001
 31
0.0
  0
LINE
  5
5B0
330
18
100
AcDbEntity
  8
1
 62
     1
100
AcDbLine
 10
33.31136669348149
 20
1.388475556444612
 30
0.0
 11
33.025
 21
0.8924741249999999
 31
0.0
  0
LINE
  5
5B1
330
18
100
AcDbEntity
  8
1
 62
     1
100
AcDbLine
 10
33.02500000000001
 20
0.892474125
 30
0.0
 11
32.71904701076759
 21
1.422400000000003
 31
0.0
  0
LINE
  5
5B2
330
18
100
AcDbEntity
  8
1
 62
     1
100
AcDbLine
 10
33.66000000000001
 20
0.8924741250000002
 30
0.0
 11
33.3784389270836
 21
1.380151981344851
 31
0.0
  0
LINE
  5
5B3
330
18
100
AcDbEntity
  8
1
 62
     1
100
AcDbLine
 10
35.68154698507811
 20
1.094339330504538
 30
0.0
 11
35.565
 21
0.8924741250000001
 31
0.0
  0
LINE
  5
5B4
330
18
100
AcDbEntity
  8
1
 62
     1
100
AcDbLine
 10
35.565
 20
0.8924741250000001
 30
0.0
 11
35.43046325890424
 21
1.12549848741492
 31
0.0
  0
LINE
  5
5B5
330
18
100
AcDbEntity
  8
1
 62
     1
100
AcDbLine
 10
35.08900191217896
 20
1.167873386989557
 30
0.0
 11
34.93000000000001
 21
0.8924741250000001
 31
0.0
  0
LINE
  5
5B6
330
18
100
AcDbEntity
  8
1
 62
     1
100
AcDbLine
 10
34.295
 20
0.8924741250000001
 30
0.0
 11
34.06244703769048
 21
1.295267483368208
 31
0.0
  0
LINE
  5
5B7
330
18
100
AcDbEntity
  8
1
 62
     1
100
AcDbLine
 10
33.90391176638065
 20
1.314941499959599
 30
0.0
 11
33.66
 21
0.892474125
 31
0.0
  0
LINE
  5
5B8
330
18
100
AcDbEntity
  8
1
 62
     1
100
AcDbLine
 10
34.93000000000001
 20
0.8924741250000001
 30
0.0
 11
34.74645514829736
 21
1.21038298539156
 31
0.0
  0
LINE
  5
5B9
330
18
100
AcDbEntity
  8
1
 62
     1
100
AcDbLine
 10
32.06095298923241
 20
1.422399999999998
 30
0.0
 11
31.755
 21
0.892474125
 31
0.0
  0
LINE
  5
5BA
330
18
100
AcDbEntity
  8
1
 62
     1
100
AcDbLine
 10
31.755
 20
0.8924741250000001
 30
0.0
 11
31.44904701076759
 21
1.4224
 31
0.0
  0
LINE
  5
5BB
330
18
100
AcDbEntity
  8
1
 62
     1
100
AcDbLine
 10
32.39000000000001
 20
0.8924741250000002
 30
0.0
 11
32.08404701076759
 21
1.422400000000003
 31
0.0
  0
LINE
  5
5BC
330
18
100
AcDbEntity
  8
1
 62
     1
100
AcDbLine
 10
32.69595298923242
 20
1.422400000000015
 30
0.0
 11
32.39000000000001
 21
0.892474125
 31
0.0
  0
LINE
  5
5BD
330
18
100
AcDbEntity
  8
1
 62
     1
100
AcDbLine
 10
31.42595298923242
 20
1.422400000000015
 30
0.0
 11
31.12
 21
0.892474125
 31
0.0
  0
LINE
  5
5BE
330
18
100
AcDbEntity
  8
1
 62
     1
100
AcDbLine
 10
31.12
 20
0.892474125
 30
0.0
 11
30.8140470107676
 21
1.422399999999999
 31
0.0
  0
LINE
  5
5BF
330
18
100
AcDbEntity
  8
1
 62
     1
100
AcDbLine
 10
30.79095298923242
 20
1.422400000000003
 30
0.0
 11
30.48500000000001
 21
0.892474125
 31
0.0
  0
LINE
  5
5C0
330
18
100
AcDbEntity
  8
1
 62
     1
100
AcDbLine
 10
30.48500000000001
 20
0.8924741250000001
 30
0.0
 11
30.17904701076759
 21
1.422399999999999
 31
0.0
  0
LINE
  5
5C1
330
18
100
AcDbEntity
  8
1
 62
     1
100
AcDbLine
 10
27.61595298923242
 20
1.422399999999999
 30
0.0
 11
27.31000000000001
 21
0.8924741250000001
 31
0.0
  0
LINE
  5
5C2
330
18
100
AcDbEntity
  8
1
 62
     1
100
AcDbLine
 10
27.94500000000001
 20
0.8924741250000002
 30
0.0
 11
27.63904701076759
 21
1.422399999999999
 31
0.0
  0
LINE
  5
5C3
330
18
100
AcDbEntity
  8
1
 62
     1
100
AcDbLine
 10
28.25095298923242
 20
1.422400000000002
 30
0.0
 11
27.945
 21
0.8924741250000001
 31
0.0
  0
LINE
  5
5C4
330
18
100
AcDbEntity
  8
1
 62
     1
100
AcDbLine
 10
28.58000000000001
 20
0.8924741250000002
 30
0.0
 11
28.27404701076759
 21
1.4224
 31
0.0
  0
LINE
  5
5C5
330
18
100
AcDbEntity
  8
1
 62
     1
100
AcDbLine
 10
28.88595298923242
 20
1.422400000000009
 30
0.0
 11
28.58000000000001
 21
0.892474125
 31
0.0
  0
LINE
  5
5C6
330
18
100
AcDbEntity
  8
1
 62
     1
100
AcDbLine
 10
30.15595298923241
 20
1.422400000000003
 30
0.0
 11
29.85
 21
0.892474125
 31
0.0
  0
LINE
  5
5C7
330
18
100
AcDbEntity
  8
1
 62
     1
100
AcDbLine
 10
29.85
 20
0.8924741250000001
 30
0.0
 11
29.5440470107676
 21
1.422400000000002
 31
0.0
  0
LINE
  5
5C8
330
18
100
AcDbEntity
  8
1
 62
     1
100
AcDbLine
 10
29.52095298923242
 20
1.422400000000003
 30
0.0
 11
29.215
 21
0.892474125
 31
0.0
  0
LINE
  5
5C9
330
18
100
AcDbEntity
  8
1
 62
     1
100
AcDbLine
 10
29.215
 20
0.8924741250000002
 30
0.0
 11
28.90904701076759
 21
1.422399999999999
 31
0.0
  0
LINE
  5
5CA
330
18
100
AcDbEntity
  8
1
 62
     1
100
AcDbLine
 10
27.31000000000001
 20
0.8924741250000001
 30
0.0
 11
27.05303527521216
 21
1.337549876568783
 31
0.0
  0
LINE
  5
5CB
330
18
100
AcDbEntity
  8
1
 62
     1
100
AcDbLine
 10
26.675
 20
0.8924741250000001
 30
0.0
 11
26.57678533074414
 21
1.062586842884621
 31
0.0
  0
LINE
  5
5CC
330
18
100
AcDbEntity
  8
1
 62
     1
100
AcDbLine
 10
26.87142940722426
 20
1.232699679782769
 30
0.0
 11
26.675
 21
0.8924741250000001
 31
0.0
  0
LINE
  5
5CD
330
18
100
AcDbEntity
  8
1
 62
     1
100
AcDbLine
 10
26.87142940722426
 20
-1.232699679782769
 30
0.0
 11
27.05303527521216
 21
-1.337549876568782
 31
0.0
  0
LINE
  5
5CE
330
18
100
AcDbEntity
  8
1
 62
     1
100
AcDbLine
 10
26.468381739
 20
-1.0
 30
0.0
 11
26.57678533074414
 21
-1.062586842884622
 31
0.0
  0
LINE
  5
5CF
330
18
100
AcDbEntity
  8
SK1
100
AcDbLine
 10
0.0
 20
1.7907
 30
0.0
 11
-15.34399999999999
 21
1.7907
 31
0.0
  0
LINE
  5
5D0
330
18
100
AcDbEntity
  8
SK1
100
AcDbLine
 10
-15.34399999999999
 20
-1.397
 30
0.0
 11
-15.34399999999999
 21
-1.7907
 31
0.0
  0
LINE
  5
5D1
330
18
100
AcDbEntity
  8
SK1
100
AcDbLine
 10
-19.99092999999999
 20
1.120266704852019
 30
0.0
 11
-15.34399999999999
 21
1.120266704852019
 31
0.0
  0
LINE
  5
5D2
330
18
100
AcDbEntity
  8
SK1
100
AcDbLine
 10
-19.99092999999999
 20
1.397
 30
0.0
 11
-15.34399999999999
 21
1.397
 31
0.0
  0
ARC
  5
5D3
330
18
100
AcDbEntity
  8
SK1
100
AcDbCircle
 10
-16.86024664547292
 20
-0.8606616719957443
 30
0.0
 40
3.704639114131345
100
AcDbArc
 50
147.6765675986659
 51
153.3053878970728
  0
LINE
  5
5D4
330
18
100
AcDbEntity
  8
SK1
100
AcDbLine
 10
-19.99092999999999
 20
1.397
 30
0.0
 11
-19.99093
 21
1.120266704852019
 31
0.0
  0
LINE
  5
5D5
330
18
100
AcDbEntity
  8
SK1
100
AcDbLine
 10
-20.16999999999999
 20
1.397
 30
0.0
 11
-19.99092999999999
 21
1.397
 31
0.0
  0
LINE
  5
5D6
330
18
100
AcDbEntity
  8
SK1
100
AcDbLine
 10
-15.34399999999999
 20
1.7907
 30
0.0
 11
-15.34399999999999
 21
1.790617385787269
 31
0.0
  0
LINE
  5
5D7
330
18
100
AcDbEntity
  8
SK1
100
AcDbLine
 10
-15.34399999999999
 20
1.790617385787269
 30
0.0
 11
-15.34399999999999
 21
1.765408044908009
 31
0.0
  0
LINE
  5
5D8
330
18
100
AcDbEntity
  8
SK1
100
AcDbLine
 10
-15.34399999999999
 20
1.765408044908009
 30
0.0
 11
-15.34399999999999
 21
1.397
 31
0.0
  0
LINE
  5
5D9
330
18
100
AcDbEntity
  8
SK1
100
AcDbLine
 10
-19.99092999999999
 20
-1.120266704852018
 30
0.0
 11
-15.34399999999999
 21
-1.120266704852018
 31
0.0
  0
LINE
  5
5DA
330
18
100
AcDbEntity
  8
SK1
100
AcDbLine
 10
-19.99092999999999
 20
-1.397
 30
0.0
 11
-15.34399999999999
 21
-1.397
 31
0.0
  0
LINE
  5
5DB
330
18
100
AcDbEntity
  8
SK1
100
AcDbLine
 10
-20.16999999999999
 20
0.8035808963010509
 30
0.0
 11
-20.17
 21
-0.80358089630105
 31
0.0
  0
LINE
  5
5DC
330
18
100
AcDbEntity
  8
SK1
100
AcDbLine
 10
-20.17
 20
1.397
 30
0.0
 11
-20.16999999999999
 21
0.8035808963010512
 31
0.0
  0
LINE
  5
5DD
330
18
100
AcDbEntity
  8
SK1
100
AcDbLine
 10
-20.17
 20
-0.8035808963010501
 30
0.0
 11
-20.17
 21
-1.397
 31
0.0
  0
ARC
  5
5DE
330
18
100
AcDbEntity
  8
SK1
100
AcDbCircle
 10
-16.86024664549565
 20
0.8606616719835946
 30
0.0
 40
3.704639114105579
100
AcDbArc
 50
206.6946121029173
 51
212.3234324013621
  0
LINE
  5
5DF
330
18
100
AcDbEntity
  8
SK1
100
AcDbLine
 10
-20.16999999999999
 20
-1.397
 30
0.0
 11
-19.99092999999999
 21
-1.397
 31
0.0
  0
LINE
  5
5E0
330
18
100
AcDbEntity
  8
SK1
100
AcDbLine
 10
-19.99093
 20
-1.120266704852018
 30
0.0
 11
-19.99093
 21
-1.397
 31
0.0
  0
LINE
  5
5E1
330
18
100
AcDbEntity
  8
SK1
100
AcDbLine
 10
-15.34399999999999
 20
1.120266704851952
 30
0.0
 11
-15.34399999999999
 21
-1.120266704851978
 31
0.0
  0
LINE
  5
5E2
330
18
100
AcDbEntity
  8
SK1
100
AcDbLine
 10
-15.34399999999999
 20
-1.7907
 30
0.0
 11
0.0000000000000009
 21
-1.7907
 31
0.0
  0
DIMENSION
  5
5E3
330
18
100
AcDbEntity
  8
2
100
AcDbDimension
  2
*D0
 10
51.20000000000002
 20
-1.422399999999948
 30
0.0
 11
48.20725000000007
 21
-20.78489999999995
 31
0.0
 70
    32
  1
UNC#4-40
 71
     5
 42
2.8448
  3
STANDARD
100
AcDbAlignedDimension
 13
36.2
 23
1.4224
 33
0.0
 14
36.2
 24
-1.4224
 34
0.0
 50
90.0000000000002
100
AcDbRotatedDimension
  0
DIMENSION
  5
5F1
330
18
100
AcDbEntity
  8
2
100
AcDbDimension
  2
*D1
 10
36.2
 20
75.0
 30
0.0
 11
18.1
 21
77.39775
 31
0.0
 70
    32
  1
<>
 71
     5
 42
36.2
  3
STANDARD
100
AcDbAlignedDimension
 13
0.0
 23
0.0
 33
0.0
 14
36.2
 24
0.0
 34
0.0
100
AcDbRotatedDimension
  0
DIMENSION
  5
5FE
330
18
100
AcDbEntity
  8
SK2
100
AcDbDimension
  2
*D2
 10
-35.16999999999086
 20
-1.79070000010118
 30
0.0
 11
-37.56774999992598
 21
-14.50495000011342
 31
0.0
 70
    32
  1
%%c<>
 71
     5
 42
3.5814
  3
STANDARD
100
AcDbAlignedDimension
 13
-15.34399999999999
 23
1.7907
 33
0.0
 14
-15.34399999999999
 24
-1.7907
 34
0.0
 50
90.0000000002924
100
AcDbRotatedDimension
  0
DIMENSION
  5
60C
330
18
100
AcDbEntity
  8
2
100
AcDbDimension
  2
*D3
 10
36.2
 20
60.0
 30
0.0
 11
44.52775
 21
62.39775
 31
0.0
 70
    32
  1
<>
 71
     5
 42
9.731618261000001
  3
STANDARD
100
AcDbAlignedDimension
 13
26.468381739
 23
1.0
 33
0.0
 14
36.2
 24
1.4224
 34
0.0
100
AcDbRotatedDimension
  0
DIMENSION
  5
61A
330
18
100
AcDbEntity
  8
SK2
100
AcDbDimension
  2
*D4
 10
37.23
 20
90.0
 30
0.0
 11
8.530000000000005
 21
92.438
 31
0.0
 70
    32
  1
<>
 71
     5
 42
57.39999999999999
  3
STANDARD
100
AcDbAlignedDimension
 13
-20.16999999999999
 23
1.4224
 33
0.0
 14
37.23
 24
1.4224
 34
0.0
100
AcDbRotatedDimension
  0
ENDSEC
  0
SECTION
  2
OBJECTS
  0
DICTIONARY
  5
C
330
0
100
AcDbDictionary
281
     1
  3
ACAD_COLOR
350
387
  3
ACAD_GROUP
350
D
  3
ACAD_LAYOUT
350
301
  3
ACAD_MATERIAL
350
386
  3
ACAD_MLEADERSTYLE
350
627
  3
ACAD_MLINESTYLE
350
E
  3
ACAD_PLOTSETTINGS
350
302
  3
ACAD_PLOTSTYLENAME
350
2FF
  3
ACAD_SCALELIST
350
3A0
  3
ACAD_TABLESTYLE
350
388
  3
ACAD_VISUALSTYLE
350
3C5
  3
ACDBHEADERROUNDTRIPXREC
350
628
  3
AcDbVariableDictionary
350
357
  0
DICTIONARY
  5
387
102
{ACAD_REACTORS
330
C
102
}
330
C
100
AcDbDictionary
281
     1
  0
DICTIONARY
  5
D
102
{ACAD_REACTORS
330
C
102
}
330
C
100
AcDbDictionary
281
     1
  0
DICTIONARY
  5
301
102
{ACAD_REACTORS
330
C
102
}
330
C
100
AcDbDictionary
281
     1
  3
Layout1
350
33B
  3
Model
350
303
  0
DICTIONARY
  5
386
102
{ACAD_REACTORS
330
C
102
}
330
C
100
AcDbDictionary
281
     1
  3
ByBlock
350
3C3
  3
ByLayer
350
3C2
  3
Global
350
3C4
  0
DICTIONARY
  5
627
102
{ACAD_REACTORS
330
C
102
}
330
C
100
AcDbDictionary
281
     1
  0
DICTIONARY
  5
E
102
{ACAD_REACTORS
330
C
102
}
330
C
100
AcDbDictionary
281
     1
  3
STANDARD
350
1B
  0
DICTIONARY
  5
302
102
{ACAD_REACTORS
330
C
102
}
330
C
100
AcDbDictionary
281
     1
  0
ACDBDICTIONARYWDFLT
  5
2FF
102
{ACAD_REACTORS
330
C
102
}
330
C
100
AcDbDictionary
281
     1
  3
Normal
350
300
100
AcDbDictionaryWithDefault
340
300
  0
DICTIONARY
  5
3A0
102
{ACAD_REACTORS
330
C
102
}
330
C
100
AcDbDictionary
281
     1
  3
A0
350
3A1
  3
A1
350
3A2
  3
A2
350
3A3
  3
A3
350
3A4
  3
A4
350
3A5
  3
A5
350
3A6
  3
A6
350
3A7
  3
A7
350
3A8
  3
A8
350
3A9
  3
A9
350
3AA
  3
B0
350
3AB
  3
B1
350
3AC
  3
B2
350
3AD
  3
B3
350
3AE
  3
B4
350
3AF
  3
B5
350
3B0
  3
B6
350
3B1
  3
B7
350
3B2
  3
B8
350
3B3
  3
B9
350
3B4
  3
C0
350
3B5
  3
C1
350
3B6
  3
C2
350
3B7
  3
C3
350
3B8
  3
C4
350
3B9
  3
C5
350
3BA
  3
C6
350
3BB
  3
C7
350
3BC
  3
C8
350
3BD
  3
C9
350
3BE
  3
D0
350
3BF
  3
D1
350
3C0
  3
D2
350
3C1
  0
DICTIONARY
  5
388
102
{ACAD_REACTORS
330
C
102
}
330
C
100
AcDbDictionary
281
     1
  3
Standard
350
389
  0
DICTIONARY
  5
3C5
102
{ACAD_REACTORS
330
C
102
}
330
C
100
AcDbDictionary
281
     1
  3
2dWireframe
350
3CA
  3
3D Hidden
350
3CC
  3
3dWireframe
350
3CB
  3
Basic
350
3CD
  3
Brighten
350
3D1
  3
ColorChange
350
3D5
  3
Conceptual
350
3CF
  3
Dim
350
3D0
  3
Facepattern
350
3D4
  3
Flat
350
3C6
  3
FlatWithEdges
350
3C7
  3
Gouraud
350
3C8
  3
GouraudWithEdges
350
3C9
  3
Linepattern
350
3D3
  3
Realistic
350
3CE
  3
Thicken
350
3D2
  0
DICTIONARY
  5
628
102
{ACAD_REACTORS
330
C
102
}
330
C
100
AcDbDictionary
281
     1
  3
COLORDICT
350
629
  3
MATERIALDICT
350
62A
  0
DICTIONARY
  5
357
102
{ACAD_REACTORS
330
C
102
}
330
C
100
AcDbDictionary
281
     1
  3
CANNOSCALE
350
62B
  3
CTABLESTYLE
350
38D
  3
DIMASSOC
350
359
  3
HIDETEXT
350
358
  3
PROJECTNAME
350
38E
  0
LAYOUT
  5
33B
102
{ACAD_REACTORS
330
301
102
}
330
301
100
AcDbPlotSettings
  1

  2
Lexmark Optra PS2
  4

  6

 40
0.0
 41
0.0
 42
0.0
 43
0.0
 44
0.0
 45
0.0
 46
0.0
 47
0.0
 48
0.0
 49
0.0
140
0.0
141
0.0
142
1.0
143
1.0
 70
   688
 72
     0
 73
     0
 74
     5
  7
monochrome.ctb
 75
    16
147
1.0
148
0.0
149
0.0
100
AcDbLayout
  1
Layout1
 70
     1
 71
     1
 10
0.0
 20
0.0
 11
12.0
 21
9.0
 12
0.0
 22
0.0
 32
0.0
 14
0.0
 24
0.0
 34
0.0
 15
0.0
 25
0.0
 35
0.0
146
0.0
 13
0.0
 23
0.0
 33
0.0
 16
1.0
 26
0.0
 36
0.0
 17
0.0
 27
1.0
 37
0.0
 76
     0
330
338
  0
LAYOUT
  5
303
102
{ACAD_REACTORS
330
301
102
}
330
301
100
AcDbPlotSettings
  1

  2
Lexmark Optra Rx
  4
A4
  6

 40
6.805083274841307
 41
5.535083293914794
 42
6.974411010742187
 43
7.14373779296875
 44
209.9733276367186
 45
296.9259948730469
 46
0.0
 47
0.0
 48
0.0
 49
0.0
140
0.0
141
0.0
142
1.0
143
2.976565420630886
 70
 11952
 72
     1
 73
     1
 74
     0
  7
monochrome.ctb
 75
     0
147
0.335957675604539
148
204.1199660668592
149
172.3933209647495
100
AcDbLayout
  1
Model
 70
     1
 71
     0
 10
0.0
 20
0.0
 11
12.0
 21
9.0
 12
0.0
 22
0.0
 32
0.0
 14
0.0
 24
0.0
 34
0.0
 15
0.0
 25
0.0
 35
0.0
146
0.0
 13
0.0
 23
0.0
 33
0.0
 16
1.0
 26
0.0
 36
0.0
 17
0.0
 27
1.0
 37
0.0
 76
     0
330
18
331
39A
  0
MATERIAL
  5
3C3
102
{ACAD_REACTORS
330
386
102
}
102
{ACAD_XDICTIONARY
360
62E
102
}
330
386
100
AcDbMaterial
  1
ByBlock
  0
MATERIAL
  5
3C2
102
{ACAD_REACTORS
330
386
102
}
102
{ACAD_XDICTIONARY
360
62C
102
}
330
386
100
AcDbMaterial
  1
ByLayer
  0
MATERIAL
  5
3C4
102
{ACAD_REACTORS
330
386
102
}
102
{ACAD_XDICTIONARY
360
630
102
}
330
386
100
AcDbMaterial
  1
Global
  0
MLINESTYLE
  5
1B
102
{ACAD_REACTORS
330
E
102
}
330
E
100
AcDbMlineStyle
  2
STANDARD
 70
     0
  3

 62
     0
 51
90.0
 52
90.0
 71
     2
 49
0.5
 62
   256
  6
BYLAYER
 49
-0.5
 62
   256
  6
BYLAYER
  0
ACDBPLACEHOLDER
  5
300
102
{ACAD_REACTORS
330
2FF
102
}
330
2FF
  0
SCALE
  5
3A1
102
{ACAD_REACTORS
330
3A0
102
}
330
3A0
100
AcDbScale
 70
     0
300
1:1
140
1.0
141
1.0
290
     1
  0
SCALE
  5
3A2
102
{ACAD_REACTORS
330
3A0
102
}
330
3A0
100
AcDbScale
 70
     0
300
1:2
140
1.0
141
2.0
290
     0
  0
SCALE
  5
3A3
102
{ACAD_REACTORS
330
3A0
102
}
330
3A0
100
AcDbScale
 70
     0
300
1:4
140
1.0
141
4.0
290
     0
  0
SCALE
  5
3A4
102
{ACAD_REACTORS
330
3A0
102
}
330
3A0
100
AcDbScale
 70
     0
300
1:5
140
1.0
141
5.0
290
     0
  0
SCALE
  5
3A5
102
{ACAD_REACTORS
330
3A0
102
}
330
3A0
100
AcDbScale
 70
     0
300
1:8
140
1.0
141
8.0
290
     0
  0
SCALE
  5
3A6
102
{ACAD_REACTORS
330
3A0
102
}
330
3A0
100
AcDbScale
 70
     0
300
1:10
140
1.0
141
10.0
290
     0
  0
SCALE
  5
3A7
102
{ACAD_REACTORS
330
3A0
102
}
330
3A0
100
AcDbScale
 70
     0
300
1:16
140
1.0
141
16.0
290
     0
  0
SCALE
  5
3A8
102
{ACAD_REACTORS
330
3A0
102
}
330
3A0
100
AcDbScale
 70
     0
300
1:20
140
1.0
141
20.0
290
     0
  0
SCALE
  5
3A9
102
{ACAD_REACTORS
330
3A0
102
}
330
3A0
100
AcDbScale
 70
     0
300
1:30
140
1.0
141
30.0
290
     0
  0
SCALE
  5
3AA
102
{ACAD_REACTORS
330
3A0
102
}
330
3A0
100
AcDbScale
 70
     0
300
1:40
140
1.0
141
40.0
290
     0
  0
SCALE
  5
3AB
102
{ACAD_REACTORS
330
3A0
102
}
330
3A0
100
AcDbScale
 70
     0
300
1:50
140
1.0
141
50.0
290
     0
  0
SCALE
  5
3AC
102
{ACAD_REACTORS
330
3A0
102
}
330
3A0
100
AcDbScale
 70
     0
300
1:100
140
1.0
141
100.0
290
     0
  0
SCALE
  5
3AD
102
{ACAD_REACTORS
330
3A0
102
}
330
3A0
100
AcDbScale
 70
     0
300
2:1
140
2.0
141
1.0
290
     0
  0
SCALE
  5
3AE
102
{ACAD_REACTORS
330
3A0
102
}
330
3A0
100
AcDbScale
 70
     0
300
4:1
140
4.0
141
1.0
290
     0
  0
SCALE
  5
3AF
102
{ACAD_REACTORS
330
3A0
102
}
330
3A0
100
AcDbScale
 70
     0
300
8:1
140
8.0
141
1.0
290
     0
  0
SCALE
  5
3B0
102
{ACAD_REACTORS
330
3A0
102
}
330
3A0
100
AcDbScale
 70
     0
300
10:1
140
10.0
141
1.0
290
     0
  0
SCALE
  5
3B1
102
{ACAD_REACTORS
330
3A0
102
}
330
3A0
100
AcDbScale
 70
     0
300
100:1
140
100.0
141
1.0
290
     0
  0
SCALE
  5
3B2
102
{ACAD_REACTORS
330
3A0
102
}
330
3A0
100
AcDbScale
 70
     0
300
1/128" = 1'-0"
140
0.0078125
141
12.0
290
     0
  0
SCALE
  5
3B3
102
{ACAD_REACTORS
330
3A0
102
}
330
3A0
100
AcDbScale
 70
     0
300
1/64" = 1'-0"
140
0.015625
141
12.0
290
     0
  0
SCALE
  5
3B4
102
{ACAD_REACTORS
330
3A0
102
}
330
3A0
100
AcDbScale
 70
     0
300
1/32" = 1'-0"
140
0.03125
141
12.0
290
     0
  0
SCALE
  5
3B5
102
{ACAD_REACTORS
330
3A0
102
}
330
3A0
100
AcDbScale
 70
     0
300
1/16" = 1'-0"
140
0.0625
141
12.0
290
     0
  0
SCALE
  5
3B6
102
{ACAD_REACTORS
330
3A0
102
}
330
3A0
100
AcDbScale
 70
     0
300
3/32" = 1'-0"
140
0.09375
141
12.0
290
     0
  0
SCALE
  5
3B7
102
{ACAD_REACTORS
330
3A0
102
}
330
3A0
100
AcDbScale
 70
     0
300
1/8" = 1'-0"
140
0.125
141
12.0
290
     0
  0
SCALE
  5
3B8
102
{ACAD_REACTORS
330
3A0
102
}
330
3A0
100
AcDbScale
 70
     0
300
3/16" = 1'-0"
140
0.1875
141
12.0
290
     0
  0
SCALE
  5
3B9
102
{ACAD_REACTORS
330
3A0
102
}
330
3A0
100
AcDbScale
 70
     0
300
1/4" = 1'-0"
140
0.25
141
12.0
290
     0
  0
SCALE
  5
3BA
102
{ACAD_REACTORS
330
3A0
102
}
330
3A0
100
AcDbScale
 70
     0
300
3/8" = 1'-0"
140
0.375
141
12.0
290
     0
  0
SCALE
  5
3BB
102
{ACAD_REACTORS
330
3A0
102
}
330
3A0
100
AcDbScale
 70
     0
300
1/2" = 1'-0"
140
0.5
141
12.0
290
     0
  0
SCALE
  5
3BC
102
{ACAD_REACTORS
330
3A0
102
}
330
3A0
100
AcDbScale
 70
     0
300
3/4" = 1'-0"
140
0.75
141
12.0
290
     0
  0
SCALE
  5
3BD
102
{ACAD_REACTORS
330
3A0
102
}
330
3A0
100
AcDbScale
 70
     0
300
1" = 1'-0"
140
1.0
141
12.0
290
     0
  0
SCALE
  5
3BE
102
{ACAD_REACTORS
330
3A0
102
}
330
3A0
100
AcDbScale
 70
     0
300
1-1/2" = 1'-0"
140
1.5
141
12.0
290
     0
  0
SCALE
  5
3BF
102
{ACAD_REACTORS
330
3A0
102
}
330
3A0
100
AcDbScale
 70
     0
300
3" = 1'-0"
140
3.0
141
12.0
290
     0
  0
SCALE
  5
3C0
102
{ACAD_REACTORS
330
3A0
102
}
330
3A0
100
AcDbScale
 70
     0
300
6" = 1'-0"
140
6.0
141
12.0
290
     0
  0
SCALE
  5
3C1
102
{ACAD_REACTORS
330
3A0
102
}
330
3A0
100
AcDbScale
 70
     0
300
1'-0" = 1'-0"
140
12.0
141
12.0
290
     0
  0
TABLESTYLE
  5
389
102
{ACAD_REACTORS
330
388
102
}
330
388
100
AcDbTableStyle
  3
Standard
 70
     0
 71
     0
 40
1.5
 41
1.5
280
     0
281
     0
  7
STANDARD
140
4.5
170
     2
 62
     0
 63
   257
283
     0
274
    -2
284
     1
 64
     0
275
    -2
285
     1
 65
     0
276
    -2
286
     1
 66
     0
277
    -2
287
     1
 67
     0
278
    -2
288
     1
 68
     0
279
    -2
289
     1
 69
     0
  7
STANDARD
140
6.0
170
     5
 62
     0
 63
   257
283
     0
274
    -2
284
     1
 64
     0
275
    -2
285
     1
 65
     0
276
    -2
286
     1
 66
     0
277
    -2
287
     1
 67
     0
278
    -2
288
     1
 68
     0
279
    -2
289
     1
 69
     0
  7
STANDARD
140
4.5
170
     5
 62
     0
 63
   257
283
     0
274
    -2
284
     1
 64
     0
275
    -2
285
     1
 65
     0
276
    -2
286
     1
 66
     0
277
    -2
287
     1
 67
     0
278
    -2
288
     1
 68
     0
279
    -2
289
     1
 69
     0
  0
VISUALSTYLE
  5
3CA
102
{ACAD_REACTORS
330
3C5
102
}
102
{ACAD_XDICTIONARY
360
63A
102
}
330
3C5
100
AcDbVisualStyle
  2
2dWireframe
 70
     4
 71
     0
 72
     2
 73
     0
 90
        0
 40
-0.6
 41
-30.0
 62
     5
 63
     7
 74
     1
 91
        4
 64
     7
 65
   257
 75
     1
175
     1
 42
1.0
 92
        0
 66
   257
 43
1.0
 76
     1
 77
     6
 78
     2
 67
     7
 79
     5
170
     0
171
     0
290
     0
174
     0
 93
        1
 44
0.0
173
     0
291
     0
 45
0.0
1001
ACAD
1000
AcDbSavedByObjectVersion
1070
     0
  0
VISUALSTYLE
  5
3CC
102
{ACAD_REACTORS
330
3C5
102
}
102
{ACAD_XDICTIONARY
360
63E
102
}
330
3C5
100
AcDbVisualStyle
  2
3D Hidden
 70
     6
 71
     1
 72
     2
 73
     2
 90
        0
 40
-0.6
 41
-30.0
 62
     5
 63
     7
 74
     2
 91
        2
 64
     7
 65
   257
 75
     2
175
     1
 42
40.0
 92
        0
 66
   257
 43
1.0
 76
     1
 77
     6
 78
     2
 67
     7
 79
     3
170
     0
171
     0
290
     0
174
     0
 93
        1
 44
0.0
173
     0
291
     0
 45
0.0
1001
ACAD
1000
AcDbSavedByObjectVersion
1070
     0
  0
VISUALSTYLE
  5
3CB
102
{ACAD_REACTORS
330
3C5
102
}
102
{ACAD_XDICTIONARY
360
63C
102
}
330
3C5
100
AcDbVisualStyle
  2
3dWireframe
 70
     5
 71
     0
 72
     2
 73
     0
 90
        0
 40
-0.6
 41
-30.0
 62
     5
 63
     7
 74
     1
 91
        4
 64
     7
 65
   257
 75
     1
175
     1
 42
1.0
 92
        0
 66
   257
 43
1.0
 76
     1
 77
     6
 78
     2
 67
     7
 79
     5
170
     0
171
     0
290
     0
174
     0
 93
        1
 44
0.0
173
     0
291
     0
 45
0.0
1001
ACAD
1000
AcDbSavedByObjectVersion
1070
     0
  0
VISUALSTYLE
  5
3CD
102
{ACAD_REACTORS
330
3C5
102
}
102
{ACAD_XDICTIONARY
360
640
102
}
330
3C5
100
AcDbVisualStyle
  2
Basic
 70
     7
 71
     1
 72
     0
 73
     1
 90
        0
 40
-0.6
 41
-30.0
 62
     5
 63
     7
 74
     0
 91
        4
 64
     7
 65
   257
 75
     1
175
     1
 42
1.0
 92
        8
 66
     7
 43
1.0
 76
     1
 77
     6
 78
     2
 67
     7
 79
     5
170
     0
171
     0
290
     0
174
     0
 93
        1
 44
0.0
173
     0
291
     1
 45
0.0
1001
ACAD
1000
AcDbSavedByObjectVersion
1070
     0
  0
VISUALSTYLE
  5
3D1
102
{ACAD_REACTORS
330
3C5
102
}
102
{ACAD_XDICTIONARY
360
648
102
}
330
3C5
100
AcDbVisualStyle
  2
Brighten
 70
    12
 71
     2
 72
     2
 73
     0
 90
        0
 40
-0.6
 41
-30.0
 62
     5
 63
     7
 74
     1
 91
        4
 64
     7
 65
   257
 75
     1
175
     1
 42
1.0
 92
        8
 66
     7
 43
1.0
 76
     1
 77
     6
 78
     2
 67
     7
 79
     5
170
     0
171
     0
290
     0
174
     0
 93
        1
 44
50.0
173
     0
291
     1
 45
0.0
1001
ACAD
1000
AcDbSavedByObjectVersion
1070
     0
  0
VISUALSTYLE
  5
3D5
102
{ACAD_REACTORS
330
3C5
102
}
102
{ACAD_XDICTIONARY
360
650
102
}
330
3C5
100
AcDbVisualStyle
  2
ColorChange
 70
    16
 71
     2
 72
     2
 73
     3
 90
        0
 40
-0.6
 41
-30.0
 62
     5
 63
     8
 74
     1
 91
        4
 64
     7
 65
   257
 75
     1
175
     1
 42
1.0
 92
        8
 66
     8
 43
1.0
 76
     1
 77
     6
 78
     2
 67
     7
 79
     5
170
     0
171
     0
290
     0
174
     0
 93
        1
 44
0.0
173
     0
291
     1
 45
0.0
1001
ACAD
1000
AcDbSavedByObjectVersion
1070
     0
  0
VISUALSTYLE
  5
3CF
102
{ACAD_REACTORS
330
3C5
102
}
102
{ACAD_XDICTIONARY
360
644
102
}
330
3C5
100
AcDbVisualStyle
  2
Conceptual
 70
     9
 71
     3
 72
     2
 73
     0
 90
        0
 40
-0.6
 41
-30.0
 62
     5
 63
     7
 74
     2
 91
        2
 64
     7
 65
   257
 75
     1
175
     1
 42
40.0
 92
        8
 66
     7
 43
1.0
 76
     1
 77
     6
 78
     2
 67
     7
 79
     3
170
     0
171
     0
290
     0
174
     0
 93
        1
 44
0.0
173
     0
291
     0
 45
0.0
1001
ACAD
1000
AcDbSavedByObjectVersion
1070
     0
  0
VISUALSTYLE
  5
3D0
102
{ACAD_REACTORS
330
3C5
102
}
102
{ACAD_XDICTIONARY
360
646
102
}
330
3C5
100
AcDbVisualStyle
  2
Dim
 70
    11
 71
     2
 72
     2
 73
     0
 90
        0
 40
-0.6
 41
-30.0
 62
     5
 63
     7
 74
     1
 91
        4
 64
     7
 65
   257
 75
     1
175
     1
 42
1.0
 92
        8
 66
     7
 43
1.0
 76
     1
 77
     6
 78
     2
 67
     7
 79
     5
170
     0
171
     0
290
     0
174
     0
 93
        1
 44
-50.0
173
     0
291
     1
 45
0.0
1001
ACAD
1000
AcDbSavedByObjectVersion
1070
     0
  0
VISUALSTYLE
  5
3D4
102
{ACAD_REACTORS
330
3C5
102
}
102
{ACAD_XDICTIONARY
360
64E
102
}
330
3C5
100
AcDbVisualStyle
  2
Facepattern
 70
    15
 71
     2
 72
     2
 73
     0
 90
        0
 40
-0.6
 41
-30.0
 62
     5
 63
     7
 74
     1
 91
        4
 64
     7
 65
   257
 75
     1
175
     1
 42
1.0
 92
        8
 66
     7
 43
1.0
 76
     1
 77
     6
 78
     2
 67
     7
 79
     5
170
     0
171
     0
290
     0
174
     0
 93
        1
 44
0.0
173
     0
291
     1
 45
0.0
1001
ACAD
1000
AcDbSavedByObjectVersion
1070
     0
  0
VISUALSTYLE
  5
3C6
102
{ACAD_REACTORS
330
3C5
102
}
102
{ACAD_XDICTIONARY
360
632
102
}
330
3C5
100
AcDbVisualStyle
  2
Flat
 70
     0
 71
     2
 72
     1
 73
     1
 90
        2
 40
-0.6
 41
30.0
 62
     5
 63
     7
 74
     0
 91
        4
 64
     7
 65
   257
 75
     1
175
     1
 42
1.0
 92
        8
 66
     7
 43
1.0
 76
     1
 77
     6
 78
     2
 67
     7
 79
     5
170
     0
171
     0
290
     0
174
     0
 93
       13
 44
0.0
173
     0
291
     1
 45
0.0
1001
ACAD
1000
AcDbSavedByObjectVersion
1070
     0
  0
VISUALSTYLE
  5
3C7
102
{ACAD_REACTORS
330
3C5
102
}
102
{ACAD_XDICTIONARY
360
634
102
}
330
3C5
100
AcDbVisualStyle
  2
FlatWithEdges
 70
     1
 71
     2
 72
     1
 73
     1
 90
        2
 40
-0.6
 41
30.0
 62
     5
 63
     7
 74
     1
 91
        4
 64
     7
 65
   257
 75
     1
175
     1
 42
1.0
 92
        0
 66
   257
 43
1.0
 76
     1
 77
     6
 78
     2
 67
     7
 79
     5
170
     0
171
     0
290
     0
174
     0
 93
       13
 44
0.0
173
     0
291
     1
 45
0.0
1001
ACAD
1000
AcDbSavedByObjectVersion
1070
     0
  0
VISUALSTYLE
  5
3C8
102
{ACAD_REACTORS
330
3C5
102
}
102
{ACAD_XDICTIONARY
360
636
102
}
330
3C5
100
AcDbVisualStyle
  2
Gouraud
 70
     2
 71
     2
 72
     2
 73
     1
 90
        2
 40
-0.6
 41
30.0
 62
     5
 63
     7
 74
     0
 91
        4
 64
     7
 65
   257
 75
     1
175
     1
 42
1.0
 92
        0
 66
     7
 43
1.0
 76
     1
 77
     6
 78
     2
 67
     7
 79
     5
170
     0
171
     0
290
     0
174
     0
 93
       13
 44
0.0
173
     0
291
     1
 45
0.0
1001
ACAD
1000
AcDbSavedByObjectVersion
1070
     0
  0
VISUALSTYLE
  5
3C9
102
{ACAD_REACTORS
330
3C5
102
}
102
{ACAD_XDICTIONARY
360
638
102
}
330
3C5
100
AcDbVisualStyle
  2
GouraudWithEdges
 70
     3
 71
     2
 72
     2
 73
     1
 90
        2
 40
-0.6
 41
30.0
 62
     5
 63
     7
 74
     1
 91
        4
 64
     7
 65
   257
 75
     1
175
     1
 42
1.0
 92
        0
 66
   257
 43
1.0
 76
     1
 77
     6
 78
     2
 67
     7
 79
     5
170
     0
171
     0
290
     0
174
     0
 93
       13
 44
0.0
173
     0
291
     1
 45
0.0
1001
ACAD
1000
AcDbSavedByObjectVersion
1070
     0
  0
VISUALSTYLE
  5
3D3
102
{ACAD_REACTORS
330
3C5
102
}
102
{ACAD_XDICTIONARY
360
64C
102
}
330
3C5
100
AcDbVisualStyle
  2
Linepattern
 70
    14
 71
     2
 72
     2
 73
     0
 90
        0
 40
-0.6
 41
-30.0
 62
     5
 63
     7
 74
     1
 91
        4
 64
     7
 65
   257
 75
     7
175
     7
 42
1.0
 92
        8
 66
     7
 43
1.0
 76
     1
 77
     6
 78
     2
 67
     7
 79
     5
170
     0
171
     0
290
     0
174
     0
 93
        1
 44
0.0
173
     0
291
     1
 45
0.0
1001
ACAD
1000
AcDbSavedByObjectVersion
1070
     0
  0
VISUALSTYLE
  5
3CE
102
{ACAD_REACTORS
330
3C5
102
}
102
{ACAD_XDICTIONARY
360
642
102
}
330
3C5
100
AcDbVisualStyle
  2
Realistic
 70
     8
 71
     2
 72
     2
 73
     0
 90
        0
 40
-0.6
 41
-30.0
 62
     5
 63
     7
 74
     1
 91
        0
 64
     7
 65
   257
 75
     1
175
     1
 42
1.0
 92
        8
 66
     8
 43
1.0
 76
     1
 77
     6
 78
     2
 67
     7
 79
     5
170
     0
171
     0
290
     0
174
     0
 93
       13
 44
0.0
173
     0
291
     0
 45
0.0
1001
ACAD
1000
AcDbSavedByObjectVersion
1070
     0
  0
VISUALSTYLE
  5
3D2
102
{ACAD_REACTORS
330
3C5
102
}
102
{ACAD_XDICTIONARY
360
64A
102
}
330
3C5
100
AcDbVisualStyle
  2
Thicken
 70
    13
 71
     2
 72
     2
 73
     0
 90
        0
 40
-0.6
 41
-30.0
 62
     5
 63
     7
 74
     1
 91
        4
 64
     7
 65
   257
 75
     1
175
     1
 42
1.0
 92
       12
 66
     7
 43
1.0
 76
     1
 77
     6
 78
     2
 67
     7
 79
     5
170
     0
171
     0
290
     0
174
     0
 93
        1
 44
0.0
173
     0
291
     1
 45
0.0
1001
ACAD
1000
AcDbSavedByObjectVersion
1070
     0
  0
XRECORD
  5
629
102
{ACAD_REACTORS
330
628
102
}
330
628
100
AcDbXrecord
280
     1
340
387
  0
XRECORD
  5
62A
102
{ACAD_REACTORS
330
628
102
}
330
628
100
AcDbXrecord
280
     1
340
386
  0
DICTIONARYVAR
  5
62B
102
{ACAD_REACTORS
330
357
102
}
330
357
100
DictionaryVariables
280
     0
  1
1:1
  0
DICTIONARYVAR
  5
38D
102
{ACAD_REACTORS
330
357
102
}
330
357
100
DictionaryVariables
280
     0
  1
Standard
  0
DICTIONARYVAR
  5
359
102
{ACAD_REACTORS
330
357
102
}
330
357
100
DictionaryVariables
280
     0
  1
2
  0
DICTIONARYVAR
  5
358
102
{ACAD_REACTORS
330
357
102
}
330
357
100
DictionaryVariables
280
     0
  1
1
  0
DICTIONARYVAR
  5
38E
102
{ACAD_REACTORS
330
357
102
}
330
357
100
DictionaryVariables
280
     0
  1

  0
DICTIONARY
  5
62E
330
3C3
100
AcDbDictionary
280
     1
281
     1
  3
ACAD_XREC_ROUNDTRIP
360
62F
  0
DICTIONARY
  5
62C
330
3C2
100
AcDbDictionary
280
     1
281
     1
  3
ACAD_XREC_ROUNDTRIP
360
62D
  0
DICTIONARY
  5
630
330
3C4
100
AcDbDictionary
280
     1
281
     1
  3
ACAD_XREC_ROUNDTRIP
360
631
  0
DICTIONARY
  5
63A
330
3CA
100
AcDbDictionary
280
     1
281
     1
  3
ACAD_XREC_ROUNDTRIP
360
63B
  0
DICTIONARY
  5
63E
330
3CC
100
AcDbDictionary
280
     1
281
     1
  3
ACAD_XREC_ROUNDTRIP
360
63F
  0
DICTIONARY
  5
63C
330
3CB
100
AcDbDictionary
280
     1
281
     1
  3
ACAD_XREC_ROUNDTRIP
360
63D
  0
DICTIONARY
  5
640
330
3CD
100
AcDbDictionary
280
     1
281
     1
  3
ACAD_XREC_ROUNDTRIP
360
641
  0
DICTIONARY
  5
648
330
3D1
100
AcDbDictionary
280
     1
281
     1
  3
ACAD_XREC_ROUNDTRIP
360
649
  0
DICTIONARY
  5
650
330
3D5
100
AcDbDictionary
280
     1
281
     1
  3
ACAD_XREC_ROUNDTRIP
360
651
  0
DICTIONARY
  5
644
330
3CF
100
AcDbDictionary
280
     1
281
     1
  3
ACAD_XREC_ROUNDTRIP
360
645
  0
DICTIONARY
  5
646
330
3D0
100
AcDbDictionary
280
     1
281
     1
  3
ACAD_XREC_ROUNDTRIP
360
647
  0
DICTIONARY
  5
64E
330
3D4
100
AcDbDictionary
280
     1
281
     1
  3
ACAD_XREC_ROUNDTRIP
360
64F
  0
DICTIONARY
  5
632
330
3C6
100
AcDbDictionary
280
     1
281
     1
  3
ACAD_XREC_ROUNDTRIP
360
633
  0
DICTIONARY
  5
634
330
3C7
100
AcDbDictionary
280
     1
281
     1
  3
ACAD_XREC_ROUNDTRIP
360
635
  0
DICTIONARY
  5
636
330
3C8
100
AcDbDictionary
280
     1
281
     1
  3
ACAD_XREC_ROUNDTRIP
360
637
  0
DICTIONARY
  5
638
330
3C9
100
AcDbDictionary
280
     1
281
     1
  3
ACAD_XREC_ROUNDTRIP
360
639
  0
DICTIONARY
  5
64C
330
3D3
100
AcDbDictionary
280
     1
281
     1
  3
ACAD_XREC_ROUNDTRIP
360
64D
  0
DICTIONARY
  5
642
330
3CE
100
AcDbDictionary
280
     1
281
     1
  3
ACAD_XREC_ROUNDTRIP
360
643
  0
DICTIONARY
  5
64A
330
3D2
100
AcDbDictionary
280
     1
281
     1
  3
ACAD_XREC_ROUNDTRIP
360
64B
  0
XRECORD
  5
62F
102
{ACAD_REACTORS
330
62E
102
}
330
62E
100
AcDbXrecord
280
     1
102
MATERIAL
148
0.0
149
0.0
149
0.0
 93
        0
 94
      127
282
     0
 72
     1
 77
     1
171
     1
175
     1
179
     1
273
     0
  0
XRECORD
  5
62D
102
{ACAD_REACTORS
330
62C
102
}
330
62C
100
AcDbXrecord
280
     1
102
MATERIAL
148
0.0
149
0.0
149
0.0
 93
        0
 94
      127
282
     0
 72
     1
 77
     1
171
     1
175
     1
179
     1
273
     0
  0
XRECORD
  5
631
102
{ACAD_REACTORS
330
630
102
}
330
630
100
AcDbXrecord
280
     1
102
MATERIAL
148
0.0
149
0.0
149
0.0
 93
        0
 94
      127
282
     0
 72
     1
 77
     1
171
     1
175
     1
179
     1
273
     0
  0
XRECORD
  5
63B
102
{ACAD_REACTORS
330
63A
102
}
330
63A
100
AcDbXrecord
280
     1
102
RTVSPropertyOp0
 70
     1
102
RTVSPropertyOp1
 70
     1
102
RTVSPropertyOp2
 70
     1
102
RTVSPropertyOp3
 70
     1
102
RTVSPropertyOp4
 70
     1
102
RTVSPropertyOp5
 70
     1
102
RTVSPropertyOp6
 70
     1
102
RTVSPropertyOp7
 70
     1
102
RTVSPropertyOp8
 70
     1
102
RTVSPropertyOp9
 70
     1
102
RTVSPropertyOp10
 70
     1
102
RTVSPropertyOp11
 70
     1
102
RTVSPropertyOp12
 70
     1
102
RTVSPropertyOp13
 70
     1
102
RTVSPropertyOp14
 70
     1
102
RTVSPropertyOp15
 70
     1
102
RTVSPropertyOp16
 70
     1
102
RTVSPropertyOp17
 70
     1
102
RTVSPropertyOp18
 70
     1
102
RTVSPropertyOp19
 70
     1
102
RTVSPropertyOp20
 70
     1
102
RTVSPropertyOp21
 70
     1
102
RTVSPropertyOp22
 70
     1
102
RTVSPropertyOp23
 70
     1
102
RTVSPropertyOp24
 70
     1
102
RTVSPropertyOp25
 70
     1
102
RTVSPropertyOp26
 70
     1
102
RTVSPropertyOp27
 70
     1
102
RTVSPropertyOp28
 70
     1
102
RTVSPropertyOp29
 70
     1
102
RTVSPropertyOp30
 70
     1
102
RTVSPropertyOp31
 70
     1
102
RTVSPropertyOp32
 70
     1
  0
XRECORD
  5
63F
102
{ACAD_REACTORS
330
63E
102
}
330
63E
100
AcDbXrecord
280
     1
102
RTVSPropertyOp0
 70
     1
102
RTVSPropertyOp1
 70
     1
102
RTVSPropertyOp2
 70
     1
102
RTVSPropertyOp3
 70
     1
102
RTVSPropertyOp4
 70
     1
102
RTVSPropertyOp5
 70
     1
102
RTVSPropertyOp6
 70
     1
102
RTVSPropertyOp7
 70
     1
102
RTVSPropertyOp8
 70
     1
102
RTVSPropertyOp9
 70
     1
102
RTVSPropertyOp10
 70
     1
102
RTVSPropertyOp11
 70
     1
102
RTVSPropertyOp12
 70
     1
102
RTVSPropertyOp13
 70
     1
102
RTVSPropertyOp14
 70
     1
102
RTVSPropertyOp15
 70
     1
102
RTVSPropertyOp16
 70
     1
102
RTVSPropertyOp17
 70
     1
102
RTVSPropertyOp18
 70
     1
102
RTVSPropertyOp19
 70
     1
102
RTVSPropertyOp20
 70
     1
102
RTVSPropertyOp21
 70
     1
102
RTVSPropertyOp22
 70
     1
102
RTVSPropertyOp23
 70
     1
102
RTVSPropertyOp24
 70
     1
102
RTVSPropertyOp25
 70
     1
102
RTVSPropertyOp26
 70
     1
102
RTVSPropertyOp27
 70
     1
102
RTVSPropertyOp28
 70
     1
102
RTVSPropertyOp29
 70
     1
102
RTVSPropertyOp30
 70
     1
102
RTVSPropertyOp31
 70
     1
102
RTVSPropertyOp32
 70
     1
  0
XRECORD
  5
63D
102
{ACAD_REACTORS
330
63C
102
}
330
63C
100
AcDbXrecord
280
     1
102
RTVSPropertyOp0
 70
     1
102
RTVSPropertyOp1
 70
     1
102
RTVSPropertyOp2
 70
     1
102
RTVSPropertyOp3
 70
     1
102
RTVSPropertyOp4
 70
     1
102
RTVSPropertyOp5
 70
     1
102
RTVSPropertyOp6
 70
     1
102
RTVSPropertyOp7
 70
     1
102
RTVSPropertyOp8
 70
     1
102
RTVSPropertyOp9
 70
     1
102
RTVSPropertyOp10
 70
     1
102
RTVSPropertyOp11
 70
     1
102
RTVSPropertyOp12
 70
     1
102
RTVSPropertyOp13
 70
     1
102
RTVSPropertyOp14
 70
     1
102
RTVSPropertyOp15
 70
     1
102
RTVSPropertyOp16
 70
     1
102
RTVSPropertyOp17
 70
     1
102
RTVSPropertyOp18
 70
     1
102
RTVSPropertyOp19
 70
     1
102
RTVSPropertyOp20
 70
     1
102
RTVSPropertyOp21
 70
     1
102
RTVSPropertyOp22
 70
     1
102
RTVSPropertyOp23
 70
     1
102
RTVSPropertyOp24
 70
     1
102
RTVSPropertyOp25
 70
     1
102
RTVSPropertyOp26
 70
     1
102
RTVSPropertyOp27
 70
     1
102
RTVSPropertyOp28
 70
     1
102
RTVSPropertyOp29
 70
     1
102
RTVSPropertyOp30
 70
     1
102
RTVSPropertyOp31
 70
     1
102
RTVSPropertyOp32
 70
     1
  0
XRECORD
  5
641
102
{ACAD_REACTORS
330
640
102
}
330
640
100
AcDbXrecord
280
     1
102
RTVSPropertyOp0
 70
     1
102
RTVSPropertyOp1
 70
     1
102
RTVSPropertyOp2
 70
     1
102
RTVSPropertyOp3
 70
     1
102
RTVSPropertyOp4
 70
     1
102
RTVSPropertyOp5
 70
     1
102
RTVSPropertyOp6
 70
     1
102
RTVSPropertyOp7
 70
     1
102
RTVSPropertyOp8
 70
     1
102
RTVSPropertyOp9
 70
     1
102
RTVSPropertyOp10
 70
     1
102
RTVSPropertyOp11
 70
     1
102
RTVSPropertyOp12
 70
     1
102
RTVSPropertyOp13
 70
     1
102
RTVSPropertyOp14
 70
     1
102
RTVSPropertyOp15
 70
     1
102
RTVSPropertyOp16
 70
     1
102
RTVSPropertyOp17
 70
     1
102
RTVSPropertyOp18
 70
     1
102
RTVSPropertyOp19
 70
     1
102
RTVSPropertyOp20
 70
     1
102
RTVSPropertyOp21
 70
     1
102
RTVSPropertyOp22
 70
     1
102
RTVSPropertyOp23
 70
     1
102
RTVSPropertyOp24
 70
     1
102
RTVSPropertyOp25
 70
     1
102
RTVSPropertyOp26
 70
     1
102
RTVSPropertyOp27
 70
     1
102
RTVSPropertyOp28
 70
     1
102
RTVSPropertyOp29
 70
     1
102
RTVSPropertyOp30
 70
     1
102
RTVSPropertyOp31
 70
     1
102
RTVSPropertyOp32
 70
     1
  0
XRECORD
  5
649
102
{ACAD_REACTORS
330
648
102
}
330
648
100
AcDbXrecord
280
     1
102
RTVSPropertyOp0
 70
     1
102
RTVSPropertyOp1
 70
     1
102
RTVSPropertyOp2
 70
     1
102
RTVSPropertyOp3
 70
     1
102
RTVSPropertyOp4
 70
     1
102
RTVSPropertyOp5
 70
     1
102
RTVSPropertyOp6
 70
     1
102
RTVSPropertyOp7
 70
     1
102
RTVSPropertyOp8
 70
     1
102
RTVSPropertyOp9
 70
     1
102
RTVSPropertyOp10
 70
     1
102
RTVSPropertyOp11
 70
     1
102
RTVSPropertyOp12
 70
     1
102
RTVSPropertyOp13
 70
     1
102
RTVSPropertyOp14
 70
     1
102
RTVSPropertyOp15
 70
     1
102
RTVSPropertyOp16
 70
     1
102
RTVSPropertyOp17
 70
     1
102
RTVSPropertyOp18
 70
     1
102
RTVSPropertyOp19
 70
     1
102
RTVSPropertyOp20
 70
     1
102
RTVSPropertyOp21
 70
     1
102
RTVSPropertyOp22
 70
     1
102
RTVSPropertyOp23
 70
     1
102
RTVSPropertyOp24
 70
     1
102
RTVSPropertyOp25
 70
     1
102
RTVSPropertyOp26
 70
     1
102
RTVSPropertyOp27
 70
     1
102
RTVSPropertyOp28
 70
     1
102
RTVSPropertyOp29
 70
     1
102
RTVSPropertyOp30
 70
     1
102
RTVSPropertyOp31
 70
     1
102
RTVSPropertyOp32
 70
     1
  0
XRECORD
  5
651
102
{ACAD_REACTORS
330
650
102
}
330
650
100
AcDbXrecord
280
     1
102
RTVSPropertyOp0
 70
     1
102
RTVSPropertyOp1
 70
     1
102
RTVSPropertyOp2
 70
     1
102
RTVSPropertyOp3
 70
     1
102
RTVSPropertyOp4
 70
     1
102
RTVSPropertyOp5
 70
     1
102
RTVSPropertyOp6
 70
     1
102
RTVSPropertyOp7
 70
     1
102
RTVSPropertyOp8
 70
     1
102
RTVSPropertyOp9
 70
     1
102
RTVSPropertyOp10
 70
     1
102
RTVSPropertyOp11
 70
     1
102
RTVSPropertyOp12
 70
     1
102
RTVSPropertyOp13
 70
     1
102
RTVSPropertyOp14
 70
     1
102
RTVSPropertyOp15
 70
     1
102
RTVSPropertyOp16
 70
     1
102
RTVSPropertyOp17
 70
     1
102
RTVSPropertyOp18
 70
     1
102
RTVSPropertyOp19
 70
     1
102
RTVSPropertyOp20
 70
     1
102
RTVSPropertyOp21
 70
     1
102
RTVSPropertyOp22
 70
     1
102
RTVSPropertyOp23
 70
     1
102
RTVSPropertyOp24
 70
     1
102
RTVSPropertyOp25
 70
     1
102
RTVSPropertyOp26
 70
     1
102
RTVSPropertyOp27
 70
     1
102
RTVSPropertyOp28
 70
     1
102
RTVSPropertyOp29
 70
     1
102
RTVSPropertyOp30
 70
     1
102
RTVSPropertyOp31
 70
     1
102
RTVSPropertyOp32
 70
     1
  0
XRECORD
  5
645
102
{ACAD_REACTORS
330
644
102
}
330
644
100
AcDbXrecord
280
     1
102
RTVSPropertyOp0
 70
     1
102
RTVSPropertyOp1
 70
     1
102
RTVSPropertyOp2
 70
     1
102
RTVSPropertyOp3
 70
     1
102
RTVSPropertyOp4
 70
     1
102
RTVSPropertyOp5
 70
     1
102
RTVSPropertyOp6
 70
     1
102
RTVSPropertyOp7
 70
     1
102
RTVSPropertyOp8
 70
     1
102
RTVSPropertyOp9
 70
     1
102
RTVSPropertyOp10
 70
     1
102
RTVSPropertyOp11
 70
     1
102
RTVSPropertyOp12
 70
     1
102
RTVSPropertyOp13
 70
     1
102
RTVSPropertyOp14
 70
     1
102
RTVSPropertyOp15
 70
     1
102
RTVSPropertyOp16
 70
     1
102
RTVSPropertyOp17
 70
     1
102
RTVSPropertyOp18
 70
     1
102
RTVSPropertyOp19
 70
     1
102
RTVSPropertyOp20
 70
     1
102
RTVSPropertyOp21
 70
     1
102
RTVSPropertyOp22
 70
     1
102
RTVSPropertyOp23
 70
     1
102
RTVSPropertyOp24
 70
     1
102
RTVSPropertyOp25
 70
     1
102
RTVSPropertyOp26
 70
     1
102
RTVSPropertyOp27
 70
     1
102
RTVSPropertyOp28
 70
     1
102
RTVSPropertyOp29
 70
     1
102
RTVSPropertyOp30
 70
     1
102
RTVSPropertyOp31
 70
     1
102
RTVSPropertyOp32
 70
     1
  0
XRECORD
  5
647
102
{ACAD_REACTORS
330
646
102
}
330
646
100
AcDbXrecord
280
     1
102
RTVSPropertyOp0
 70
     1
102
RTVSPropertyOp1
 70
     1
102
RTVSPropertyOp2
 70
     1
102
RTVSPropertyOp3
 70
     1
102
RTVSPropertyOp4
 70
     1
102
RTVSPropertyOp5
 70
     1
102
RTVSPropertyOp6
 70
     1
102
RTVSPropertyOp7
 70
     1
102
RTVSPropertyOp8
 70
     1
102
RTVSPropertyOp9
 70
     1
102
RTVSPropertyOp10
 70
     1
102
RTVSPropertyOp11
 70
     1
102
RTVSPropertyOp12
 70
     1
102
RTVSPropertyOp13
 70
     1
102
RTVSPropertyOp14
 70
     1
102
RTVSPropertyOp15
 70
     1
102
RTVSPropertyOp16
 70
     1
102
RTVSPropertyOp17
 70
     1
102
RTVSPropertyOp18
 70
     1
102
RTVSPropertyOp19
 70
     1
102
RTVSPropertyOp20
 70
     1
102
RTVSPropertyOp21
 70
     1
102
RTVSPropertyOp22
 70
     1
102
RTVSPropertyOp23
 70
     1
102
RTVSPropertyOp24
 70
     1
102
RTVSPropertyOp25
 70
     1
102
RTVSPropertyOp26
 70
     1
102
RTVSPropertyOp27
 70
     1
102
RTVSPropertyOp28
 70
     1
102
RTVSPropertyOp29
 70
     1
102
RTVSPropertyOp30
 70
     1
102
RTVSPropertyOp31
 70
     1
102
RTVSPropertyOp32
 70
     1
  0
XRECORD
  5
64F
102
{ACAD_REACTORS
330
64E
102
}
330
64E
100
AcDbXrecord
280
     1
102
RTVSPropertyOp0
 70
     1
102
RTVSPropertyOp1
 70
     1
102
RTVSPropertyOp2
 70
     1
102
RTVSPropertyOp3
 70
     1
102
RTVSPropertyOp4
 70
     1
102
RTVSPropertyOp5
 70
     1
102
RTVSPropertyOp6
 70
     1
102
RTVSPropertyOp7
 70
     1
102
RTVSPropertyOp8
 70
     1
102
RTVSPropertyOp9
 70
     1
102
RTVSPropertyOp10
 70
     1
102
RTVSPropertyOp11
 70
     1
102
RTVSPropertyOp12
 70
     1
102
RTVSPropertyOp13
 70
     1
102
RTVSPropertyOp14
 70
     1
102
RTVSPropertyOp15
 70
     1
102
RTVSPropertyOp16
 70
     1
102
RTVSPropertyOp17
 70
     1
102
RTVSPropertyOp18
 70
     1
102
RTVSPropertyOp19
 70
     1
102
RTVSPropertyOp20
 70
     1
102
RTVSPropertyOp21
 70
     1
102
RTVSPropertyOp22
 70
     1
102
RTVSPropertyOp23
 70
     1
102
RTVSPropertyOp24
 70
     1
102
RTVSPropertyOp25
 70
     1
102
RTVSPropertyOp26
 70
     1
102
RTVSPropertyOp27
 70
     1
102
RTVSPropertyOp28
 70
     1
102
RTVSPropertyOp29
 70
     1
102
RTVSPropertyOp30
 70
     1
102
RTVSPropertyOp31
 70
     1
102
RTVSPropertyOp32
 70
     1
  0
XRECORD
  5
633
102
{ACAD_REACTORS
330
632
102
}
330
632
100
AcDbXrecord
280
     1
102
RTVSPropertyOp0
 70
     1
102
RTVSPropertyOp1
 70
     1
102
RTVSPropertyOp2
 70
     1
102
RTVSPropertyOp3
 70
     1
102
RTVSPropertyOp4
 70
     1
102
RTVSPropertyOp5
 70
     1
102
RTVSPropertyOp6
 70
     1
102
RTVSPropertyOp7
 70
     1
102
RTVSPropertyOp8
 70
     1
102
RTVSPropertyOp9
 70
     1
102
RTVSPropertyOp10
 70
     1
102
RTVSPropertyOp11
 70
     1
102
RTVSPropertyOp12
 70
     1
102
RTVSPropertyOp13
 70
     1
102
RTVSPropertyOp14
 70
     1
102
RTVSPropertyOp15
 70
     1
102
RTVSPropertyOp16
 70
     1
102
RTVSPropertyOp17
 70
     1
102
RTVSPropertyOp18
 70
     1
102
RTVSPropertyOp19
 70
     1
102
RTVSPropertyOp20
 70
     1
102
RTVSPropertyOp21
 70
     1
102
RTVSPropertyOp22
 70
     1
102
RTVSPropertyOp23
 70
     1
102
RTVSPropertyOp24
 70
     1
102
RTVSPropertyOp25
 70
     1
102
RTVSPropertyOp26
 70
     1
102
RTVSPropertyOp27
 70
     1
102
RTVSPropertyOp28
 70
     1
102
RTVSPropertyOp29
 70
     1
102
RTVSPropertyOp30
 70
     1
102
RTVSPropertyOp31
 70
     1
102
RTVSPropertyOp32
 70
     1
  0
XRECORD
  5
635
102
{ACAD_REACTORS
330
634
102
}
330
634
100
AcDbXrecord
280
     1
102
RTVSPropertyOp0
 70
     1
102
RTVSPropertyOp1
 70
     1
102
RTVSPropertyOp2
 70
     1
102
RTVSPropertyOp3
 70
     1
102
RTVSPropertyOp4
 70
     1
102
RTVSPropertyOp5
 70
     1
102
RTVSPropertyOp6
 70
     1
102
RTVSPropertyOp7
 70
     1
102
RTVSPropertyOp8
 70
     1
102
RTVSPropertyOp9
 70
     1
102
RTVSPropertyOp10
 70
     1
102
RTVSPropertyOp11
 70
     1
102
RTVSPropertyOp12
 70
     1
102
RTVSPropertyOp13
 70
     1
102
RTVSPropertyOp14
 70
     1
102
RTVSPropertyOp15
 70
     1
102
RTVSPropertyOp16
 70
     1
102
RTVSPropertyOp17
 70
     1
102
RTVSPropertyOp18
 70
     1
102
RTVSPropertyOp19
 70
     1
102
RTVSPropertyOp20
 70
     1
102
RTVSPropertyOp21
 70
     1
102
RTVSPropertyOp22
 70
     1
102
RTVSPropertyOp23
 70
     1
102
RTVSPropertyOp24
 70
     1
102
RTVSPropertyOp25
 70
     1
102
RTVSPropertyOp26
 70
     1
102
RTVSPropertyOp27
 70
     1
102
RTVSPropertyOp28
 70
     1
102
RTVSPropertyOp29
 70
     1
102
RTVSPropertyOp30
 70
     1
102
RTVSPropertyOp31
 70
     1
102
RTVSPropertyOp32
 70
     1
  0
XRECORD
  5
637
102
{ACAD_REACTORS
330
636
102
}
330
636
100
AcDbXrecord
280
     1
102
RTVSPropertyOp0
 70
     1
102
RTVSPropertyOp1
 70
     1
102
RTVSPropertyOp2
 70
     1
102
RTVSPropertyOp3
 70
     1
102
RTVSPropertyOp4
 70
     1
102
RTVSPropertyOp5
 70
     1
102
RTVSPropertyOp6
 70
     1
102
RTVSPropertyOp7
 70
     1
102
RTVSPropertyOp8
 70
     1
102
RTVSPropertyOp9
 70
     1
102
RTVSPropertyOp10
 70
     1
102
RTVSPropertyOp11
 70
     1
102
RTVSPropertyOp12
 70
     1
102
RTVSPropertyOp13
 70
     1
102
RTVSPropertyOp14
 70
     1
102
RTVSPropertyOp15
 70
     1
102
RTVSPropertyOp16
 70
     1
102
RTVSPropertyOp17
 70
     1
102
RTVSPropertyOp18
 70
     1
102
RTVSPropertyOp19
 70
     1
102
RTVSPropertyOp20
 70
     1
102
RTVSPropertyOp21
 70
     1
102
RTVSPropertyOp22
 70
     1
102
RTVSPropertyOp23
 70
     1
102
RTVSPropertyOp24
 70
     1
102
RTVSPropertyOp25
 70
     1
102
RTVSPropertyOp26
 70
     1
102
RTVSPropertyOp27
 70
     1
102
RTVSPropertyOp28
 70
     1
102
RTVSPropertyOp29
 70
     1
102
RTVSPropertyOp30
 70
     1
102
RTVSPropertyOp31
 70
     1
102
RTVSPropertyOp32
 70
     1
  0
XRECORD
  5
639
102
{ACAD_REACTORS
330
638
102
}
330
638
100
AcDbXrecord
280
     1
102
RTVSPropertyOp0
 70
     1
102
RTVSPropertyOp1
 70
     1
102
RTVSPropertyOp2
 70
     1
102
RTVSPropertyOp3
 70
     1
102
RTVSPropertyOp4
 70
     1
102
RTVSPropertyOp5
 70
     1
102
RTVSPropertyOp6
 70
     1
102
RTVSPropertyOp7
 70
     1
102
RTVSPropertyOp8
 70
     1
102
RTVSPropertyOp9
 70
     1
102
RTVSPropertyOp10
 70
     1
102
RTVSPropertyOp11
 70
     1
102
RTVSPropertyOp12
 70
     1
102
RTVSPropertyOp13
 70
     1
102
RTVSPropertyOp14
 70
     1
102
RTVSPropertyOp15
 70
     1
102
RTVSPropertyOp16
 70
     1
102
RTVSPropertyOp17
 70
     1
102
RTVSPropertyOp18
 70
     1
102
RTVSPropertyOp19
 70
     1
102
RTVSPropertyOp20
 70
     1
102
RTVSPropertyOp21
 70
     1
102
RTVSPropertyOp22
 70
     1
102
RTVSPropertyOp23
 70
     1
102
RTVSPropertyOp24
 70
     1
102
RTVSPropertyOp25
 70
     1
102
RTVSPropertyOp26
 70
     1
102
RTVSPropertyOp27
 70
     1
102
RTVSPropertyOp28
 70
     1
102
RTVSPropertyOp29
 70
     1
102
RTVSPropertyOp30
 70
     1
102
RTVSPropertyOp31
 70
     1
102
RTVSPropertyOp32
 70
     1
  0
XRECORD
  5
64D
102
{ACAD_REACTORS
330
64C
102
}
330
64C
100
AcDbXrecord
280
     1
102
RTVSPropertyOp0
 70
     1
102
RTVSPropertyOp1
 70
     1
102
RTVSPropertyOp2
 70
     1
102
RTVSPropertyOp3
 70
     1
102
RTVSPropertyOp4
 70
     1
102
RTVSPropertyOp5
 70
     1
102
RTVSPropertyOp6
 70
     1
102
RTVSPropertyOp7
 70
     1
102
RTVSPropertyOp8
 70
     1
102
RTVSPropertyOp9
 70
     1
102
RTVSPropertyOp10
 70
     1
102
RTVSPropertyOp11
 70
     1
102
RTVSPropertyOp12
 70
     1
102
RTVSPropertyOp13
 70
     1
102
RTVSPropertyOp14
 70
     1
102
RTVSPropertyOp15
 70
     1
102
RTVSPropertyOp16
 70
     1
102
RTVSPropertyOp17
 70
     1
102
RTVSPropertyOp18
 70
     1
102
RTVSPropertyOp19
 70
     1
102
RTVSPropertyOp20
 70
     1
102
RTVSPropertyOp21
 70
     1
102
RTVSPropertyOp22
 70
     1
102
RTVSPropertyOp23
 70
     1
102
RTVSPropertyOp24
 70
     1
102
RTVSPropertyOp25
 70
     1
102
RTVSPropertyOp26
 70
     1
102
RTVSPropertyOp27
 70
     1
102
RTVSPropertyOp28
 70
     1
102
RTVSPropertyOp29
 70
     1
102
RTVSPropertyOp30
 70
     1
102
RTVSPropertyOp31
 70
     1
102
RTVSPropertyOp32
 70
     1
  0
XRECORD
  5
643
102
{ACAD_REACTORS
330
642
102
}
330
642
100
AcDbXrecord
280
     1
102
RTVSPropertyOp0
 70
     1
102
RTVSPropertyOp1
 70
     1
102
RTVSPropertyOp2
 70
     1
102
RTVSPropertyOp3
 70
     1
102
RTVSPropertyOp4
 70
     1
102
RTVSPropertyOp5
 70
     1
102
RTVSPropertyOp6
 70
     1
102
RTVSPropertyOp7
 70
     1
102
RTVSPropertyOp8
 70
     1
102
RTVSPropertyOp9
 70
     1
102
RTVSPropertyOp10
 70
     1
102
RTVSPropertyOp11
 70
     1
102
RTVSPropertyOp12
 70
     1
102
RTVSPropertyOp13
 70
     1
102
RTVSPropertyOp14
 70
     1
102
RTVSPropertyOp15
 70
     1
102
RTVSPropertyOp16
 70
     1
102
RTVSPropertyOp17
 70
     1
102
RTVSPropertyOp18
 70
     1
102
RTVSPropertyOp19
 70
     1
102
RTVSPropertyOp20
 70
     1
102
RTVSPropertyOp21
 70
     1
102
RTVSPropertyOp22
 70
     1
102
RTVSPropertyOp23
 70
     1
102
RTVSPropertyOp24
 70
     1
102
RTVSPropertyOp25
 70
     1
102
RTVSPropertyOp26
 70
     1
102
RTVSPropertyOp27
 70
     1
102
RTVSPropertyOp28
 70
     1
102
RTVSPropertyOp29
 70
     1
102
RTVSPropertyOp30
 70
     1
102
RTVSPropertyOp31
 70
     1
102
RTVSPropertyOp32
 70
     1
  0
XRECORD
  5
64B
102
{ACAD_REACTORS
330
64A
102
}
330
64A
100
AcDbXrecord
280
     1
102
RTVSPropertyOp0
 70
     1
102
RTVSPropertyOp1
 70
     1
102
RTVSPropertyOp2
 70
     1
102
RTVSPropertyOp3
 70
     1
102
RTVSPropertyOp4
 70
     1
102
RTVSPropertyOp5
 70
     1
102
RTVSPropertyOp6
 70
     1
102
RTVSPropertyOp7
 70
     1
102
RTVSPropertyOp8
 70
     1
102
RTVSPropertyOp9
 70
     1
102
RTVSPropertyOp10
 70
     1
102
RTVSPropertyOp11
 70
     1
102
RTVSPropertyOp12
 70
     1
102
RTVSPropertyOp13
 70
     1
102
RTVSPropertyOp14
 70
     1
102
RTVSPropertyOp15
 70
     1
102
RTVSPropertyOp16
 70
     1
102
RTVSPropertyOp17
 70
     1
102
RTVSPropertyOp18
 70
     1
102
RTVSPropertyOp19
 70
     1
102
RTVSPropertyOp20
 70
     1
102
RTVSPropertyOp21
 70
     1
102
RTVSPropertyOp22
 70
     1
102
RTVSPropertyOp23
 70
     1
102
RTVSPropertyOp24
 70
     1
102
RTVSPropertyOp25
 70
     1
102
RTVSPropertyOp26
 70
     1
102
RTVSPropertyOp27
 70
     1
102
RTVSPropertyOp28
 70
     1
102
RTVSPropertyOp29
 70
     1
102
RTVSPropertyOp30
 70
     1
102
RTVSPropertyOp31
 70
     1
102
RTVSPropertyOp32
 70
     1
  0
ENDSEC
  0
EOF
