  0
SECTION
  2
HEADER
  9
$ACADVER
  1
AC1015
  9
$ACADMAINTVER
 70
     6
  9
$DWGCODEPAGE
  3
ANSI_1252
  9
$INSBASE
 10
0.0
 20
0.0
 30
0.0
  9
$EXTMIN
 10
1.000000000000000E+20
 20
1.000000000000000E+20
 30
1.000000000000000E+20
  9
$EXTMAX
 10
-1.000000000000000E+20
 20
-1.000000000000000E+20
 30
-1.000000000000000E+20
  9
$LIMMIN
 10
-170.0
 20
-170.0
  9
$LIMMAX
 10
519.0
 20
260.0
  9
$ORTHOMODE
 70
     0
  9
$REGENMODE
 70
     1
  9
$FILLMODE
 70
     1
  9
$QTEXTMODE
 70
     0
  9
$MIRRTEXT
 70
     0
  9
$LTSCALE
 40
1.0
  9
$ATTMODE
 70
     1
  9
$TEXTSIZE
 40
3.5
  9
$TRACEWID
 40
1.0
  9
$TEXTSTYLE
  7
SIMPLEX
  9
$CLAYER
  8
1
  9
$CELTYPE
  6
BYLAYER
  9
$CECOLOR
 62
   256
  9
$CELTSCALE
 40
1.0
  9
$DISPSILH
 70
     0
  9
$DIMSCALE
 40
1.0
  9
$DIMASZ
 40
2.5
  9
$DIMEXO
 40
0.0
  9
$DIMDLI
 40
3.75
  9
$DIMRND
 40
0.0
  9
$DIMDLE
 40
0.0
  9
$DIMEXE
 40
1.25
  9
$DIMTP
 40
0.0
  9
$DIMTM
 40
0.0
  9
$DIMTXT
 40
3.5
  9
$DIMCEN
 40
0.0
  9
$DIMTSZ
 40
0.0
  9
$DIMTOL
 70
     0
  9
$DIMLIM
 70
     0
  9
$DIMTIH
 70
     0
  9
$DIMTOH
 70
     0
  9
$DIMSE1
 70
     0
  9
$DIMSE2
 70
     0
  9
$DIMTAD
 70
     1
  9
$DIMZIN
 70
     8
  9
$DIMBLK
  1

  9
$DIMASO
 70
     1
  9
$DIMSHO
 70
     1
  9
$DIMPOST
  1

  9
$DIMAPOST
  1

  9
$DIMALT
 70
     0
  9
$DIMALTD
 70
     3
  9
$DIMALTF
 40
0.039370078
  9
$DIMLFAC
 40
1.0
  9
$DIMTOFL
 70
     0
  9
$DIMTVP
 40
0.0
  9
$DIMTIX
 70
     0
  9
$DIMSOXD
 70
     0
  9
$DIMSAH
 70
     0
  9
$DIMBLK1
  1

  9
$DIMBLK2
  1

  9
$DIMSTYLE
  2
STANDARD
  9
$DIMCLRD
 70
     0
  9
$DIMCLRE
 70
     0
  9
$DIMCLRT
 70
     0
  9
$DIMTFAC
 40
1.0
  9
$DIMGAP
 40
0.625
  9
$DIMJUST
 70
     0
  9
$DIMSD1
 70
     0
  9
$DIMSD2
 70
     0
  9
$DIMTOLJ
 70
     0
  9
$DIMTZIN
 70
     8
  9
$DIMALTZ
 70
     0
  9
$DIMALTTZ
 70
     0
  9
$DIMUPT
 70
     0
  9
$DIMDEC
 70
     2
  9
$DIMTDEC
 70
     2
  9
$DIMALTU
 70
     2
  9
$DIMALTTD
 70
     3
  9
$DIMTXSTY
  7
SIMPLEX
  9
$DIMAUNIT
 70
     0
  9
$DIMADEC
 70
     2
  9
$DIMALTRND
 40
0.0
  9
$DIMAZIN
 70
     2
  9
$DIMDSEP
 70
    46
  9
$DIMATFIT
 70
     3
  9
$DIMFRAC
 70
     0
  9
$DIMLDRBLK
  1

  9
$DIMLUNIT
 70
     2
  9
$DIMLWD
 70
    -2
  9
$DIMLWE
 70
    -2
  9
$DIMTMOVE
 70
     0
  9
$LUNITS
 70
     2
  9
$LUPREC
 70
     4
  9
$SKETCHINC
 40
1.0
  9
$FILLETRAD
 40
0.0
  9
$AUNITS
 70
     0
  9
$AUPREC
 70
     0
  9
$MENU
  1
c:\tdm21\cad\caduti13\tdm13
  9
$ELEVATION
 40
0.0
  9
$PELEVATION
 40
0.0
  9
$THICKNESS
 40
0.0
  9
$LIMCHECK
 70
     0
  9
$CHAMFERA
 40
0.0
  9
$CHAMFERB
 40
0.0
  9
$CHAMFERC
 40
0.0
  9
$CHAMFERD
 40
0.0
  9
$SKPOLY
 70
     0
  9
$TDCREATE
 40
2454957.593642639
  9
$TDUCREATE
 40
2454957.510309306
  9
$TDUPDATE
 40
2456860.783865914
  9
$TDUUPDATE
 40
2456860.700532581
  9
$TDINDWG
 40
0.0009643519
  9
$TDUSRTIMER
 40
0.0009475231
  9
$USRTIMER
 70
     1
  9
$ANGBASE
 50
0.0
  9
$ANGDIR
 70
     0
  9
$PDMODE
 70
     1
  9
$PDSIZE
 40
0.0
  9
$PLINEWID
 40
0.0
  9
$SPLFRAME
 70
     0
  9
$SPLINETYPE
 70
     6
  9
$SPLINESEGS
 70
     8
  9
$HANDSEED
  5
5FA
  9
$SURFTAB1
 70
     6
  9
$SURFTAB2
 70
     6
  9
$SURFTYPE
 70
     6
  9
$SURFU
 70
     6
  9
$SURFV
 70
     6
  9
$UCSBASE
  2

  9
$UCSNAME
  2

  9
$UCSORG
 10
0.0
 20
0.0
 30
0.0
  9
$UCSXDIR
 10
1.0
 20
0.0
 30
0.0
  9
$UCSYDIR
 10
0.0
 20
1.0
 30
0.0
  9
$UCSORTHOREF
  2

  9
$UCSORTHOVIEW
 70
     0
  9
$UCSORGTOP
 10
0.0
 20
0.0
 30
0.0
  9
$UCSORGBOTTOM
 10
0.0
 20
0.0
 30
0.0
  9
$UCSORGLEFT
 10
0.0
 20
0.0
 30
0.0
  9
$UCSORGRIGHT
 10
0.0
 20
0.0
 30
0.0
  9
$UCSORGFRONT
 10
0.0
 20
0.0
 30
0.0
  9
$UCSORGBACK
 10
0.0
 20
0.0
 30
0.0
  9
$PUCSBASE
  2

  9
$PUCSNAME
  2

  9
$PUCSORG
 10
0.0
 20
0.0
 30
0.0
  9
$PUCSXDIR
 10
1.0
 20
0.0
 30
0.0
  9
$PUCSYDIR
 10
0.0
 20
1.0
 30
0.0
  9
$PUCSORTHOREF
  2

  9
$PUCSORTHOVIEW
 70
     0
  9
$PUCSORGTOP
 10
0.0
 20
0.0
 30
0.0
  9
$PUCSORGBOTTOM
 10
0.0
 20
0.0
 30
0.0
  9
$PUCSORGLEFT
 10
0.0
 20
0.0
 30
0.0
  9
$PUCSORGRIGHT
 10
0.0
 20
0.0
 30
0.0
  9
$PUCSORGFRONT
 10
0.0
 20
0.0
 30
0.0
  9
$PUCSORGBACK
 10
0.0
 20
0.0
 30
0.0
  9
$USERI1
 70
     0
  9
$USERI2
 70
     0
  9
$USERI3
 70
     0
  9
$USERI4
 70
     0
  9
$USERI5
 70
     0
  9
$USERR1
 40
0.0
  9
$USERR2
 40
0.0
  9
$USERR3
 40
0.0
  9
$USERR4
 40
0.0
  9
$USERR5
 40
0.0
  9
$WORLDVIEW
 70
     1
  9
$SHADEDGE
 70
     3
  9
$SHADEDIF
 70
    70
  9
$TILEMODE
 70
     1
  9
$MAXACTVP
 70
    64
  9
$PINSBASE
 10
0.0
 20
0.0
 30
0.0
  9
$PLIMCHECK
 70
     0
  9
$PEXTMIN
 10
0.0
 20
0.0
 30
0.0
  9
$PEXTMAX
 10
0.0
 20
0.0
 30
0.0
  9
$PLIMMIN
 10
0.0
 20
0.0
  9
$PLIMMAX
 10
12.0
 20
9.0
  9
$UNITMODE
 70
     0
  9
$VISRETAIN
 70
     0
  9
$PLINEGEN
 70
     0
  9
$PSLTSCALE
 70
     1
  9
$TREEDEPTH
 70
  3020
  9
$CMLSTYLE
  2
STANDARD
  9
$CMLJUST
 70
     0
  9
$CMLSCALE
 40
20.0
  9
$PROXYGRAPHICS
 70
     1
  9
$MEASUREMENT
 70
     1
  9
$CELWEIGHT
370
    -1
  9
$ENDCAPS
280
     0
  9
$JOINSTYLE
280
     0
  9
$LWDISPLAY
290
     0
  9
$INSUNITS
 70
     4
  9
$HYPERLINKBASE
  1

  9
$STYLESHEET
  1
MONOCHROME.CTB
  9
$XEDIT
290
     1
  9
$CEPSNTYPE
380
     0
  9
$PSTYLEMODE
290
     1
  9
$FINGERPRINTGUID
  2
{46B44192-1510-48B1-B61B-CBE2ADA013A7}
  9
$VERSIONGUID
  2
{6160D478-9A74-4C97-9D8A-D4A65CE74B12}
  9
$EXTNAMES
290
     1
  9
$PSVPSCALE
 40
0.0
  9
$OLESTARTUP
290
     0
  0
ENDSEC
  0
SECTION
  2
CLASSES
  0
CLASS
  1
ACDBDICTIONARYWDFLT
  2
AcDbDictionaryWithDefault
  3
ObjectDBX Classes
 90
        0
280
     0
281
     0
  0
CLASS
  1
ACDBPLACEHOLDER
  2
AcDbPlaceHolder
  3
ObjectDBX Classes
 90
        0
280
     0
281
     0
  0
CLASS
  1
LAYOUT
  2
AcDbLayout
  3
ObjectDBX Classes
 90
        0
280
     0
281
     0
  0
CLASS
  1
DICTIONARYVAR
  2
AcDbDictionaryVar
  3
ObjectDBX Classes
 90
        0
280
     0
281
     0
  0
CLASS
  1
TABLESTYLE
  2
AcDbTableStyle
  3
ObjectDBX Classes
 90
     4095
280
     0
281
     0
  0
CLASS
  1
SCALE
  2
AcDbScale
  3
ObjectDBX Classes
 90
     1153
280
     0
281
     0
  0
CLASS
  1
MATERIAL
  2
AcDbMaterial
  3
ObjectDBX Classes
 90
     1153
280
     0
281
     0
  0
CLASS
  1
VISUALSTYLE
  2
AcDbVisualStyle
  3
ObjectDBX Classes
 90
     4095
280
     0
281
     0
  0
ENDSEC
  0
SECTION
  2
TABLES
  0
TABLE
  2
VPORT
  5
8
330
0
100
AcDbSymbolTable
 70
     1
  0
VPORT
  5
39A
330
8
100
AcDbSymbolTableRecord
100
AcDbViewportTableRecord
  2
*Active
 70
     0
 10
0.0
 20
0.0
 11
1.0
 21
1.0
 12
218.9201881351169
 22
109.7549380673833
 13
0.0
 23
0.0
 14
5.0
 24
5.0
 15
5.0
 25
5.0
 16
0.0
 26
0.0
 36
1.0
 17
0.0
 27
0.0
 37
0.0
 40
564.6711112651689
 41
1.066073697585768
 42
50.0
 43
0.0
 44
0.0
 50
0.0
 51
0.0
 71
     0
 72
  2000
 73
     1
 74
     1
 75
     0
 76
     0
 77
     0
 78
     0
281
     0
 65
     1
110
0.0
120
0.0
130
0.0
111
1.0
121
0.0
131
0.0
112
0.0
122
1.0
132
0.0
 79
     0
146
0.0
  0
ENDTAB
  0
TABLE
  2
LTYPE
  5
5
330
0
100
AcDbSymbolTable
 70
     3
  0
LTYPE
  5
12
330
5
100
AcDbSymbolTableRecord
100
AcDbLinetypeTableRecord
  2
BYBLOCK
 70
     0
  3

 72
    65
 73
     0
 40
0.0
  0
LTYPE
  5
13
330
5
100
AcDbSymbolTableRecord
100
AcDbLinetypeTableRecord
  2
BYLAYER
 70
     0
  3

 72
    65
 73
     0
 40
0.0
  0
LTYPE
  5
14
330
5
100
AcDbSymbolTableRecord
100
AcDbLinetypeTableRecord
  2
CONTINUOUS
 70
     0
  3
Solid line
 72
    65
 73
     0
 40
0.0
  0
LTYPE
  5
20
330
5
100
AcDbSymbolTableRecord
100
AcDbLinetypeTableRecord
  2
HIDDEN
 70
     0
  3
Hidden __ __ __ __ __ __ __ __ __ __ __ __ __ _
 72
    65
 73
     2
 40
9.524999999999997
 49
6.349999999999998
 74
     0
 49
-3.174999999999998
 74
     0
  0
LTYPE
  5
351
330
5
100
AcDbSymbolTableRecord
100
AcDbLinetypeTableRecord
  2
CENTER
 70
     0
  3
Dash dot __ . __ . __ . __ . __ . __ . __ . __
 72
    65
 73
     4
 40
25.4
 49
12.7
 74
     0
 49
-6.349999999999998
 74
     0
 49
0.0
 74
     0
 49
-6.349999999999998
 74
     0
  0
ENDTAB
  0
TABLE
  2
LAYER
  5
2
330
0
100
AcDbSymbolTable
 70
    16
  0
LAYER
  5
F
330
2
100
AcDbSymbolTableRecord
100
AcDbLayerTableRecord
  2
0
 70
     0
 62
     7
  6
CONTINUOUS
370
    -3
390
300
  0
LAYER
  5
23
330
2
100
AcDbSymbolTableRecord
100
AcDbLayerTableRecord
  2
1
 70
     0
 62
     4
  6
CONTINUOUS
370
    -3
390
300
  0
LAYER
  5
24
330
2
100
AcDbSymbolTableRecord
100
AcDbLayerTableRecord
  2
SK1
 70
     0
 62
     4
  6
CONTINUOUS
370
    -3
390
300
  0
LAYER
  5
25
330
2
100
AcDbSymbolTableRecord
100
AcDbLayerTableRecord
  2
2
 70
     0
 62
     7
  6
CONTINUOUS
370
    -3
390
300
  0
LAYER
  5
26
330
2
100
AcDbSymbolTableRecord
100
AcDbLayerTableRecord
  2
2L
 70
     0
 62
     7
  6
CONTINUOUS
370
    -3
390
300
  0
LAYER
  5
27
330
2
100
AcDbSymbolTableRecord
100
AcDbLayerTableRecord
  2
SK2
 70
     0
 62
     7
  6
CONTINUOUS
370
    -3
390
300
  0
LAYER
  5
28
330
2
100
AcDbSymbolTableRecord
100
AcDbLayerTableRecord
  2
3
 70
     0
 62
     1
  6
HIDDEN
370
    -3
390
300
  0
LAYER
  5
29
330
2
100
AcDbSymbolTableRecord
100
AcDbLayerTableRecord
  2
SK3
 70
     0
 62
     1
  6
HIDDEN
370
    -3
390
300
  0
LAYER
  5
2A
330
2
100
AcDbSymbolTableRecord
100
AcDbLayerTableRecord
  2
4
 70
     0
 62
     2
  6
CENTER
370
    -3
390
300
  0
LAYER
  5
2B
330
2
100
AcDbSymbolTableRecord
100
AcDbLayerTableRecord
  2
SK4
 70
     0
 62
     2
  6
CENTER
370
    -3
390
300
  0
LAYER
  5
2C
330
2
100
AcDbSymbolTableRecord
100
AcDbLayerTableRecord
  2
5
 70
     0
 62
    -7
  6
CONTINUOUS
370
    -3
390
300
  0
LAYER
  5
2D
330
2
100
AcDbSymbolTableRecord
100
AcDbLayerTableRecord
  2
6
 70
     0
 62
     5
  6
CONTINUOUS
370
    -3
390
300
  0
LAYER
  5
2E
330
2
100
AcDbSymbolTableRecord
100
AcDbLayerTableRecord
  2
SK6
 70
     0
 62
     5
  6
CONTINUOUS
370
    -3
390
300
  0
LAYER
  5
2F
330
2
100
AcDbSymbolTableRecord
100
AcDbLayerTableRecord
  2
DEFPOINTS
 70
     0
 62
     7
  6
CONTINUOUS
290
     0
370
    -3
390
300
  0
LAYER
  5
375
330
2
100
AcDbSymbolTableRecord
100
AcDbLayerTableRecord
  2
CUT
 70
     0
 62
     1
  6
CONTINUOUS
370
    -3
390
300
  0
LAYER
  5
376
330
2
100
AcDbSymbolTableRecord
100
AcDbLayerTableRecord
  2
NOCUT
 70
     0
 62
     7
  6
CONTINUOUS
370
    -3
390
300
  0
ENDTAB
  0
TABLE
  2
STYLE
  5
3
330
0
100
AcDbSymbolTable
 70
     4
  0
STYLE
  5
10
330
3
100
AcDbSymbolTableRecord
100
AcDbTextStyleTableRecord
  2
STANDARD
 70
     0
 40
0.0
 41
1.0
 50
0.0
 71
     0
 42
5.0
  3
txt
  4

  0
STYLE
  5
1D
330
3
100
AcDbSymbolTableRecord
100
AcDbTextStyleTableRecord
  2
TXT
 70
     0
 40
8.0
 41
1.0
 50
0.0
 71
     0
 42
8.0
  3
txt
  4

  0
STYLE
  5
1E
330
3
100
AcDbSymbolTableRecord
100
AcDbTextStyleTableRecord
  2
SIMPLEX
 70
     0
 40
0.0
 41
1.0
 50
0.0
 71
     0
 42
3.5
  3
simplex
  4

  0
STYLE
  5
34C
330
3
100
AcDbSymbolTableRecord
100
AcDbTextStyleTableRecord
  2

 70
     1
 40
0.0
 41
1.0
 50
0.0
 71
     0
 42
2.5
  3
ltypeshp.shx
  4

  0
ENDTAB
  0
TABLE
  2
VIEW
  5
6
330
0
100
AcDbSymbolTable
 70
     0
  0
ENDTAB
  0
TABLE
  2
UCS
  5
7
330
0
100
AcDbSymbolTable
 70
     0
  0
ENDTAB
  0
TABLE
  2
APPID
  5
9
330
0
100
AcDbSymbolTable
 70
     1
  0
APPID
  5
11
330
9
100
AcDbSymbolTableRecord
100
AcDbRegAppTableRecord
  2
ACAD
 70
     0
  0
ENDTAB
  0
TABLE
  2
DIMSTYLE
  5
A
330
0
100
AcDbSymbolTable
 70
     1
100
AcDbDimStyleTable
  0
DIMSTYLE
105
3F
102
{ACAD_REACTORS
330
58E
330
59B
330
5A8
330
5B5
330
5C2
102
}
330
A
100
AcDbSymbolTableRecord
100
AcDbDimStyleTableRecord
  2
STANDARD
 70
     0
 41
2.5
 42
0.0
 43
3.75
 44
1.25
 73
     0
 74
     0
 77
     1
 78
     8
 79
     2
140
3.5
141
0.0
143
0.039370078
147
0.625
171
     3
178
     0
179
     2
271
     2
272
     2
274
     3
283
     0
284
     8
340
1E
  0
ENDTAB
  0
TABLE
  2
BLOCK_RECORD
  5
1
330
0
100
AcDbSymbolTable
 70
     5
  0
BLOCK_RECORD
  5
18
330
1
100
AcDbSymbolTableRecord
100
AcDbBlockTableRecord
  2
*MODEL_SPACE
340
303
  0
BLOCK_RECORD
  5
338
330
1
100
AcDbSymbolTableRecord
100
AcDbBlockTableRecord
  2
*Paper_Space
340
33B
  0
BLOCK_RECORD
  5
58F
330
1
100
AcDbSymbolTableRecord
100
AcDbBlockTableRecord
  2
*D0
340
0
  0
BLOCK_RECORD
  5
59C
330
1
100
AcDbSymbolTableRecord
100
AcDbBlockTableRecord
  2
*D1
340
0
  0
BLOCK_RECORD
  5
5A9
330
1
100
AcDbSymbolTableRecord
100
AcDbBlockTableRecord
  2
*D2
340
0
  0
BLOCK_RECORD
  5
5B6
330
1
100
AcDbSymbolTableRecord
100
AcDbBlockTableRecord
  2
*D3
340
0
  0
BLOCK_RECORD
  5
5C3
330
1
100
AcDbSymbolTableRecord
100
AcDbBlockTableRecord
  2
*D4
340
0
  0
ENDTAB
  0
ENDSEC
  0
SECTION
  2
BLOCKS
  0
BLOCK
  5
32
330
18
100
AcDbEntity
  8
0
100
AcDbBlockBegin
  2
*MODEL_SPACE
 70
     0
 10
0.0
 20
0.0
 30
0.0
  3
*MODEL_SPACE
  1

  0
ENDBLK
  5
33
330
18
100
AcDbEntity
  8
0
100
AcDbBlockEnd
  0
BLOCK
  5
339
330
338
100
AcDbEntity
 67
     1
  8
0
100
AcDbBlockBegin
  2
*Paper_Space
 70
     0
 10
0.0
 20
0.0
 30
0.0
  3
*Paper_Space
  1

  0
ENDBLK
  5
33A
330
338
100
AcDbEntity
 67
     1
  8
0
100
AcDbBlockEnd
  0
BLOCK
  5
590
330
58F
100
AcDbEntity
  8
0
100
AcDbBlockBegin
  2
*D0
 70
     1
 10
0.0
 20
0.0
 30
0.0
  3
*D0
  1

  0
LINE
  5
592
330
58F
100
AcDbEntity
  8
2
 62
     0
370
    -2
100
AcDbLine
 10
68.0
 20
8.0
 30
0.0
 11
84.25
 21
8.000000000000057
 31
0.0
  0
LINE
  5
593
330
58F
100
AcDbEntity
  8
2
 62
     0
370
    -2
100
AcDbLine
 10
68.0
 20
-8.0
 30
0.0
 11
84.25000000000006
 21
-7.999999999999944
 31
0.0
  0
LINE
  5
594
330
58F
100
AcDbEntity
  8
2
 62
     0
370
    -2
100
AcDbLine
 10
83.00000000000001
 20
5.500000000000053
 30
0.0
 11
83.00000000000004
 21
-5.499999999999948
 31
0.0
  0
SOLID
  5
595
330
58F
100
AcDbEntity
  8
2
 62
     0
100
AcDbTrace
 10
83.41666666666669
 20
5.500000000000055
 30
0.0
 11
82.58333333333334
 21
5.500000000000052
 31
0.0
 12
83.0
 22
8.000000000000053
 32
0.0
 13
83.0
 23
8.000000000000053
 33
0.0
  0
SOLID
  5
596
330
58F
100
AcDbEntity
  8
2
 62
     0
100
AcDbTrace
 10
82.58333333333337
 20
-5.49999999999995
 30
0.0
 11
83.41666666666671
 21
-5.499999999999947
 31
0.0
 12
83.00000000000006
 22
-7.999999999999948
 32
0.0
 13
83.00000000000006
 23
-7.999999999999948
 33
0.0
  0
MTEXT
  5
597
330
58F
100
AcDbEntity
  8
2
 62
     0
100
AcDbMText
 10
80.60925000000003
 20
0.0000000000000439
 30
0.0
 40
3.5
 41
0.0
 71
     5
 72
     1
  1
M16
  7
SIMPLEX
 11
-3.552713678800501E-15
 21
1.0
 31
0.0
 73
     1
 44
1.0
  0
POINT
  5
598
330
58F
100
AcDbEntity
  8
DEFPOINTS
 62
     0
100
AcDbPoint
 10
68.0
 20
8.0
 30
0.0
  0
POINT
  5
599
330
58F
100
AcDbEntity
  8
DEFPOINTS
 62
     0
100
AcDbPoint
 10
68.0
 20
-8.0
 30
0.0
  0
POINT
  5
59A
330
58F
100
AcDbEntity
  8
DEFPOINTS
 62
     0
100
AcDbPoint
 10
83.00000000000006
 20
-7.999999999999948
 30
0.0
  0
ENDBLK
  5
591
330
58F
100
AcDbEntity
  8
0
100
AcDbBlockEnd
  0
BLOCK
  5
59D
330
59C
100
AcDbEntity
  8
0
100
AcDbBlockBegin
  2
*D1
 70
     1
 10
0.0
 20
0.0
 30
0.0
  3
*D1
  1

  0
LINE
  5
59F
330
59C
100
AcDbEntity
  8
2
 62
     0
370
    -2
100
AcDbLine
 10
0.0
 20
0.0
 30
0.0
 11
0.0
 21
76.25
 31
0.0
  0
LINE
  5
5A0
330
59C
100
AcDbEntity
  8
2
 62
     0
370
    -2
100
AcDbLine
 10
68.0
 20
0.0
 30
0.0
 11
68.0
 21
76.25
 31
0.0
  0
LINE
  5
5A1
330
59C
100
AcDbEntity
  8
2
 62
     0
370
    -2
100
AcDbLine
 10
2.5
 20
75.0
 30
0.0
 11
65.5
 21
75.0
 31
0.0
  0
SOLID
  5
5A2
330
59C
100
AcDbEntity
  8
2
 62
     0
100
AcDbTrace
 10
2.5
 20
75.41666666666667
 30
0.0
 11
2.5
 21
74.58333333333333
 31
0.0
 12
0.0
 22
75.0
 32
0.0
 13
0.0
 23
75.0
 33
0.0
  0
SOLID
  5
5A3
330
59C
100
AcDbEntity
  8
2
 62
     0
100
AcDbTrace
 10
65.5
 20
74.58333333333333
 30
0.0
 11
65.5
 21
75.41666666666667
 31
0.0
 12
68.0
 22
75.0
 32
0.0
 13
68.0
 23
75.0
 33
0.0
  0
MTEXT
  5
5A4
330
59C
100
AcDbEntity
  8
2
 62
     0
100
AcDbMText
 10
34.0
 20
77.39075
 30
0.0
 40
3.5
 41
0.0
 71
     5
 72
     1
  1
68
  7
SIMPLEX
 73
     1
 44
1.0
  0
POINT
  5
5A5
330
59C
100
AcDbEntity
  8
DEFPOINTS
 62
     0
100
AcDbPoint
 10
0.0
 20
0.0
 30
0.0
  0
POINT
  5
5A6
330
59C
100
AcDbEntity
  8
DEFPOINTS
 62
     0
100
AcDbPoint
 10
68.0
 20
0.0
 30
0.0
  0
POINT
  5
5A7
330
59C
100
AcDbEntity
  8
DEFPOINTS
 62
     0
100
AcDbPoint
 10
68.0
 20
75.0
 30
0.0
  0
ENDBLK
  5
59E
330
59C
100
AcDbEntity
  8
0
100
AcDbBlockEnd
  0
BLOCK
  5
5AA
330
5A9
100
AcDbEntity
  8
0
100
AcDbBlockBegin
  2
*D2
 70
     1
 10
0.0
 20
0.0
 30
0.0
  3
*D2
  1

  0
LINE
  5
5AC
330
5A9
100
AcDbEntity
  8
SK2
 62
     0
370
    -2
100
AcDbLine
 10
-30.0
 20
6.0
 30
0.0
 11
-58.25000000003062
 21
5.999999999855829
 31
0.0
  0
LINE
  5
5AD
330
5A9
100
AcDbEntity
  8
SK2
 62
     0
370
    -2
100
AcDbLine
 10
-30.0
 20
-6.0
 30
0.0
 11
-58.24999999996938
 21
-6.000000000144171
 31
0.0
  0
LINE
  5
5AE
330
5A9
100
AcDbEntity
  8
SK2
 62
     0
370
    -2
100
AcDbLine
 10
-57.00000000001786
 20
3.499999999862208
 30
0.0
 11
-56.99999999998214
 21
-3.500000000137792
 31
0.0
  0
SOLID
  5
5AF
330
5A9
100
AcDbEntity
  8
SK2
 62
     0
100
AcDbTrace
 10
-56.5833333333512
 20
3.499999999864334
 30
0.0
 11
-57.41666666668453
 21
3.499999999860082
 31
0.0
 12
-57.00000000003062
 22
5.999999999862208
 32
0.0
 13
-57.00000000003062
 23
5.999999999862208
 33
0.0
  0
SOLID
  5
5B0
330
5A9
100
AcDbEntity
  8
SK2
 62
     0
100
AcDbTrace
 10
-57.41666666664881
 20
-3.500000000139918
 30
0.0
 11
-56.58333333331548
 21
-3.500000000135666
 31
0.0
 12
-56.99999999996938
 22
-6.000000000137792
 32
0.0
 13
-56.99999999996938
 23
-6.000000000137792
 33
0.0
  0
MTEXT
  5
5B1
330
5A9
100
AcDbEntity
  8
SK2
 62
     0
100
AcDbMText
 10
-59.39075
 20
-0.0000000001499931
 30
0.0
 40
3.5
 41
0.0
 71
     5
 72
     1
  1
%%c12
  7
SIMPLEX
 11
-5.103473199596920E-12
 21
1.0
 31
0.0
 73
     1
 44
1.0
  0
POINT
  5
5B2
330
5A9
100
AcDbEntity
  8
DEFPOINTS
 62
     0
100
AcDbPoint
 10
-30.0
 20
6.0
 30
0.0
  0
POINT
  5
5B3
330
5A9
100
AcDbEntity
  8
DEFPOINTS
 62
     0
100
AcDbPoint
 10
-30.0
 20
-6.0
 30
0.0
  0
POINT
  5
5B4
330
5A9
100
AcDbEntity
  8
DEFPOINTS
 62
     0
100
AcDbPoint
 10
-56.99999999996938
 20
-6.000000000137792
 30
0.0
  0
ENDBLK
  5
5AB
330
5A9
100
AcDbEntity
  8
0
100
AcDbBlockEnd
  0
BLOCK
  5
5B7
330
5B6
100
AcDbEntity
  8
0
100
AcDbBlockBegin
  2
*D3
 70
     1
 10
0.0
 20
0.0
 30
0.0
  3
*D3
  1

  0
LINE
  5
5B9
330
5B6
100
AcDbEntity
  8
2
 62
     0
370
    -2
100
AcDbLine
 10
41.75869692
 20
5.85
 30
0.0
 11
41.75869692
 21
61.25
 31
0.0
  0
LINE
  5
5BA
330
5B6
100
AcDbEntity
  8
2
 62
     0
370
    -2
100
AcDbLine
 10
68.0
 20
8.0
 30
0.0
 11
68.0
 21
61.25
 31
0.0
  0
LINE
  5
5BB
330
5B6
100
AcDbEntity
  8
2
 62
     0
370
    -2
100
AcDbLine
 10
44.25869692
 20
60.0
 30
0.0
 11
65.5
 21
60.0
 31
0.0
  0
SOLID
  5
5BC
330
5B6
100
AcDbEntity
  8
2
 62
     0
100
AcDbTrace
 10
44.25869692
 20
60.41666666666666
 30
0.0
 11
44.25869692
 21
59.58333333333334
 31
0.0
 12
41.75869692
 22
60.0
 32
0.0
 13
41.75869692
 23
60.0
 33
0.0
  0
SOLID
  5
5BD
330
5B6
100
AcDbEntity
  8
2
 62
     0
100
AcDbTrace
 10
65.5
 20
59.58333333333334
 30
0.0
 11
65.5
 21
60.41666666666666
 31
0.0
 12
68.0
 22
60.0
 32
0.0
 13
68.0
 23
60.0
 33
0.0
  0
MTEXT
  5
5BE
330
5B6
100
AcDbEntity
  8
2
 62
     0
100
AcDbMText
 10
54.87934846
 20
62.438
 30
0.0
 40
3.5
 41
0.0
 71
     5
 72
     1
  1
26.24
  7
SIMPLEX
 73
     1
 44
1.0
  0
POINT
  5
5BF
330
5B6
100
AcDbEntity
  8
DEFPOINTS
 62
     0
100
AcDbPoint
 10
41.75869692
 20
5.85
 30
0.0
  0
POINT
  5
5C0
330
5B6
100
AcDbEntity
  8
DEFPOINTS
 62
     0
100
AcDbPoint
 10
68.0
 20
8.0
 30
0.0
  0
POINT
  5
5C1
330
5B6
100
AcDbEntity
  8
DEFPOINTS
 62
     0
100
AcDbPoint
 10
68.0
 20
60.0
 30
0.0
  0
ENDBLK
  5
5B8
330
5B6
100
AcDbEntity
  8
0
100
AcDbBlockEnd
  0
BLOCK
  5
5C4
330
5C3
100
AcDbEntity
  8
0
100
AcDbBlockBegin
  2
*D4
 70
     1
 10
0.0
 20
0.0
 30
0.0
  3
*D4
  1

  0
LINE
  5
5C6
330
5C3
100
AcDbEntity
  8
SK2
 62
     0
370
    -2
100
AcDbLine
 10
-42.0
 20
8.0
 30
0.0
 11
-42.0
 21
91.25
 31
0.0
  0
LINE
  5
5C7
330
5C3
100
AcDbEntity
  8
SK2
 62
     0
370
    -2
100
AcDbLine
 10
68.0
 20
8.0
 30
0.0
 11
68.0
 21
91.25
 31
0.0
  0
LINE
  5
5C8
330
5C3
100
AcDbEntity
  8
SK2
 62
     0
370
    -2
100
AcDbLine
 10
-39.5
 20
90.0
 30
0.0
 11
65.5
 21
90.0
 31
0.0
  0
SOLID
  5
5C9
330
5C3
100
AcDbEntity
  8
SK2
 62
     0
100
AcDbTrace
 10
-39.5
 20
90.41666666666667
 30
0.0
 11
-39.5
 21
89.58333333333333
 31
0.0
 12
-42.0
 22
90.0
 32
0.0
 13
-42.0
 23
90.0
 33
0.0
  0
SOLID
  5
5CA
330
5C3
100
AcDbEntity
  8
SK2
 62
     0
100
AcDbTrace
 10
65.5
 20
89.58333333333333
 30
0.0
 11
65.5
 21
90.41666666666667
 31
0.0
 12
68.0
 22
90.0
 32
0.0
 13
68.0
 23
90.0
 33
0.0
  0
MTEXT
  5
5CB
330
5C3
100
AcDbEntity
  8
SK2
 62
     0
100
AcDbMText
 10
13.0
 20
92.39075
 30
0.0
 40
3.5
 41
0.0
 71
     5
 72
     1
  1
110
  7
SIMPLEX
 73
     1
 44
1.0
  0
POINT
  5
5CC
330
5C3
100
AcDbEntity
  8
DEFPOINTS
 62
     0
100
AcDbPoint
 10
-42.0
 20
8.0
 30
0.0
  0
POINT
  5
5CD
330
5C3
100
AcDbEntity
  8
DEFPOINTS
 62
     0
100
AcDbPoint
 10
68.0
 20
8.0
 30
0.0
  0
POINT
  5
5CE
330
5C3
100
AcDbEntity
  8
DEFPOINTS
 62
     0
100
AcDbPoint
 10
68.0
 20
90.0
 30
0.0
  0
ENDBLK
  5
5C5
330
5C3
100
AcDbEntity
  8
0
100
AcDbBlockEnd
  0
ENDSEC
  0
SECTION
  2
ENTITIES
  0
LINE
  5
3D6
330
18
100
AcDbEntity
  8
SK4
100
AcDbLine
 10
-44.0
 20
0.0
 30
0.0
 11
12.0
 21
0.0
 31
0.0
  0
LINE
  5
3D7
330
18
100
AcDbEntity
  8
4
100
AcDbLine
 10
10.0
 20
0.0
 30
0.0
 11
70.0
 21
0.0
 31
0.0
  0
LINE
  5
3D8
330
18
100
AcDbEntity
  8
SK4
100
AcDbLine
 10
10.0
 20
0.0
 30
0.0
 11
70.0
 21
0.0
 31
0.0
  0
LINE
  5
3D9
330
18
100
AcDbEntity
  8
1
100
AcDbLine
 10
12.0
 20
6.0
 30
0.0
 11
12.0
 21
5.994034840234019
 31
0.0
  0
LINE
  5
3DA
330
18
100
AcDbEntity
  8
1
100
AcDbLine
 10
12.0
 20
5.994034840234019
 30
0.0
 11
12.0
 21
5.46164032654052
 31
0.0
  0
LINE
  5
3DB
330
18
100
AcDbEntity
  8
1
100
AcDbLine
 10
12.0
 20
5.46164032654052
 30
0.0
 11
12.0
 21
-6.0
 31
0.0
  0
LINE
  5
3DC
330
18
100
AcDbEntity
  8
1
100
AcDbLine
 10
12.0
 20
6.0
 30
0.0
 11
-0.0000000000000053
 21
6.0
 31
0.0
  0
LINE
  5
3DD
330
18
100
AcDbEntity
  8
1
100
AcDbLine
 10
41.75869692
 20
-4.726138423042574
 30
0.0
 11
41.75869691999999
 21
-0.6822800752604151
 31
0.0
  0
LINE
  5
3DE
330
18
100
AcDbEntity
  8
1
100
AcDbLine
 10
20.0
 20
3.32565769876857
 30
0.0
 11
20.0
 21
-3.900125885191039
 31
0.0
  0
LINE
  5
3DF
330
18
100
AcDbEntity
  8
1
100
AcDbLine
 10
20.0
 20
-3.900125885191037
 30
0.0
 11
30.87935485226687
 21
-5.188220992036094
 31
0.0
  0
LINE
  5
3E0
330
18
100
AcDbEntity
  8
1
100
AcDbLine
 10
30.87935485226687
 20
-5.188220992036094
 30
0.0
 11
41.75869692000001
 21
-5.808295855691672
 31
0.0
  0
LINE
  5
3E1
330
18
100
AcDbEntity
  8
1
100
AcDbLine
 10
20.0
 20
3.325657698768571
 30
0.0
 11
40.6131981674475
 21
-0.4611330299086525
 31
0.0
  0
LINE
  5
3E2
330
18
100
AcDbEntity
  8
1
100
AcDbLine
 10
20.0
 20
5.726124192065278
 30
0.0
 11
30.87935484669134
 21
4.934758524070153
 31
0.0
  0
LINE
  5
3E3
330
18
100
AcDbEntity
  8
1
100
AcDbLine
 10
30.87935484669134
 20
4.934758524070153
 30
0.0
 11
41.75869692
 21
3.508010030950679
 31
0.0
  0
LINE
  5
3E4
330
18
100
AcDbEntity
  8
1
100
AcDbLine
 10
12.0
 20
5.85
 30
0.0
 11
19.99999999999999
 21
5.85
 31
0.0
  0
ARC
  5
3E5
330
18
100
AcDbEntity
  8
1
100
AcDbCircle
 10
56.09209617964895
 20
-179.4378544803058
 30
0.0
 40
185.3660847698451
100
AcDbArc
 50
94.43482284284501
 51
96.87500358728896
  0
LINE
  5
3E6
330
18
100
AcDbEntity
  8
1
100
AcDbLine
 10
19.99999999999999
 20
5.85
 30
0.0
 11
19.99999999999999
 21
5.849971857444316
 31
0.0
  0
LINE
  5
3E7
330
18
100
AcDbEntity
  8
1
100
AcDbLine
 10
19.99999999999999
 20
5.849971857444316
 30
0.0
 11
20.0
 21
5.841702860325157
 31
0.0
  0
LINE
  5
3E8
330
18
100
AcDbEntity
  8
1
100
AcDbLine
 10
20.0
 20
5.841702860325157
 30
0.0
 11
19.99999999999999
 21
5.726124192065278
 31
0.0
  0
ARC
  5
3E9
330
18
100
AcDbEntity
  8
1
100
AcDbCircle
 10
22.44554396367796
 20
149.7918883672374
 30
0.0
 40
155.6418893925479
100
AcDbArc
 50
269.0996953689435
 51
269.9996585489813
  0
LINE
  5
3EA
330
18
100
AcDbEntity
  8
1
100
AcDbLine
 10
20.0
 20
-5.830787060902966
 30
0.0
 11
20.0
 21
-5.85
 31
0.0
  0
LINE
  5
3EB
330
18
100
AcDbEntity
  8
1
100
AcDbLine
 10
41.75869692
 20
3.508010030950677
 30
0.0
 11
41.75869692
 21
-0.6822800752575124
 31
0.0
  0
LINE
  5
3EC
330
18
100
AcDbEntity
  8
1
100
AcDbLine
 10
41.75869691999999
 20
-5.808295855691659
 30
0.0
 11
41.75869691999999
 21
-4.726138423042581
 31
0.0
  0
LINE
  5
3ED
330
18
100
AcDbEntity
  8
1
100
AcDbLine
 10
41.75869691999999
 20
-5.808295855691667
 30
0.0
 11
41.75869692
 21
-5.85
 31
0.0
  0
LINE
  5
3EE
330
18
100
AcDbEntity
  8
1
100
AcDbLine
 10
0.0
 20
-6.0
 30
0.0
 11
12.0
 21
-6.0
 31
0.0
  0
LINE
  5
3EF
330
18
100
AcDbEntity
  8
1
100
AcDbLine
 10
40.6131981674475
 20
-0.4611330299086525
 30
0.0
 11
40.6132313486197
 21
-0.4611394469552372
 31
0.0
  0
LINE
  5
3F0
330
18
100
AcDbEntity
  8
1
100
AcDbLine
 10
40.6132313486197
 20
-0.4611394469552371
 30
0.0
 11
41.75869692
 21
-0.682280075257492
 31
0.0
  0
LINE
  5
3F1
330
18
100
AcDbEntity
  8
1
100
AcDbLine
 10
40.61323140534117
 20
-0.4611394580014328
 30
0.0
 11
40.61319816743271
 21
-0.4611330299852611
 31
0.0
  0
LINE
  5
3F2
330
18
100
AcDbEntity
  8
1
100
AcDbLine
 10
12.0
 20
-5.85
 30
0.0
 11
20.0
 21
-5.85
 31
0.0
  0
LINE
  5
3F3
330
18
100
AcDbEntity
  8
1
100
AcDbLine
 10
22.4446164244807
 20
-5.85
 30
0.0
 11
41.75869692
 21
-5.85
 31
0.0
  0
LINE
  5
3F4
330
18
100
AcDbEntity
  8
1
100
AcDbLine
 10
41.75869692
 20
3.508010030950676
 30
0.0
 11
41.75869691999998
 21
5.372814254445655
 31
0.0
  0
LINE
  5
3F5
330
18
100
AcDbEntity
  8
1
 62
     1
100
AcDbLine
 10
60.97113247308103
 20
8.0
 30
0.0
 11
61.028867526919
 21
8.0
 31
0.0
  0
ARC
  5
3F6
330
18
100
AcDbEntity
  8
1
 62
     1
100
AcDbCircle
 10
73.40313396432386
 20
56.25762888887117
 30
0.0
 40
58.33546711821312
100
AcDbArc
 50
263.2341793169022
 51
264.3205776031652
  0
LINE
  5
3F7
330
18
100
AcDbEntity
  8
1
 62
     1
100
AcDbLine
 10
67.63011775874224
 20
-5.781655861357638
 30
0.0
 11
66.53053910657343
 21
-5.890810926459838
 31
0.0
  0
LINE
  5
3F8
330
18
100
AcDbEntity
  8
1
 62
     1
100
AcDbLine
 10
65.28790210763003
 20
-1.510647710027255
 30
0.0
 11
64.78550234651823
 21
-1.437893432639439
 31
0.0
  0
LINE
  5
3F9
330
18
100
AcDbEntity
  8
1
 62
     1
100
AcDbLine
 10
65.28790210763006
 20
-6.006024690161301
 30
0.0
 11
64.78550234651823
 21
-6.050375795876588
 31
0.0
  0
LINE
  5
3FA
330
18
100
AcDbEntity
  8
1
 62
     1
100
AcDbLine
 10
60.97113247308103
 20
-0.5637460821936308
 30
0.0
 11
60.97113247308103
 21
-5.705206452721485
 31
0.0
  0
LINE
  5
3FB
330
18
100
AcDbEntity
  8
1
 62
     1
100
AcDbLine
 10
55.02886752691899
 20
1.009548033643645
 30
0.0
 11
55.02886752691898
 21
-4.496815861304095
 31
0.0
  0
LINE
  5
3FC
330
18
100
AcDbEntity
  8
1
 62
     1
100
AcDbLine
 10
48.97113247308103
 20
2.572791698175856
 30
0.0
 11
48.97113247308102
 21
-3.086130431889619
 31
0.0
  0
LINE
  5
3FD
330
18
100
AcDbEntity
  8
1
 62
     1
100
AcDbLine
 10
43.0
 20
4.012697983359748
 30
0.0
 11
42.99999999999999
 21
-1.573854050665468
 31
0.0
  0
ARC
  5
3FE
330
18
100
AcDbEntity
  8
1
 62
     1
100
AcDbCircle
 10
135.3652201798175
 20
-59.61607536336661
 30
0.0
 40
92.76768686453727
100
AcDbArc
 50
144.3318670200291
 51
145.3737933933079
  0
ARC
  5
3FF
330
18
100
AcDbEntity
  8
1
 62
     1
100
AcDbCircle
 10
93.80490082398522
 20
21.74717929697209
 30
0.0
 40
46.82452297455408
100
AcDbArc
 50
216.1598549108883
 51
218.127906079179
  0
ARC
  5
400
330
18
100
AcDbEntity
  8
1
 62
     1
100
AcDbCircle
 10
178.9579055327707
 20
-86.74375233966954
 30
0.0
 40
147.164518377992
100
AcDbArc
 50
146.6693024791554
 51
147.3638435616318
  0
ARC
  5
401
330
18
100
AcDbEntity
  8
1
 62
     1
100
AcDbCircle
 10
99.82663010999931
 20
25.61980623518922
 30
0.0
 40
55.68873056883323
100
AcDbArc
 50
214.6231665218848
 51
216.3445007249203
  0
ARC
  5
402
330
18
100
AcDbEntity
  8
1
 62
     1
100
AcDbCircle
 10
111.4210192373388
 20
-43.26459512424579
 30
0.0
 40
60.88978767728726
100
AcDbArc
 50
141.1509154250109
 51
142.6316369902547
  0
ARC
  5
403
330
18
100
AcDbEntity
  8
1
 62
     1
100
AcDbCircle
 10
80.21564733392349
 20
11.28183632438839
 30
0.0
 40
23.02901929184538
100
AcDbArc
 50
225.2399168341176
 51
226.9845091368097
  0
ARC
  5
404
330
18
100
AcDbEntity
  8
1
 62
     1
100
AcDbCircle
 10
153.6451509035683
 20
-71.21973444670358
 30
0.0
 40
115.9259532001436
100
AcDbArc
 50
145.593931959703
 51
146.4528179146293
  0
ARC
  5
405
330
18
100
AcDbEntity
  8
1
 62
     1
100
AcDbCircle
 10
88.94007165262539
 20
18.41270909927916
 30
0.0
 40
39.2357782442783
100
AcDbArc
 50
217.9481355562103
 51
220.1981302139263
  0
ARC
  5
406
330
18
100
AcDbEntity
  8
1
 62
     1
100
AcDbCircle
 10
82.12593966182006
 20
13.09109767447789
 30
0.0
 40
27.26924560976738
100
AcDbArc
 50
222.4348441401272
 51
225.3774073119927
  0
ARC
  5
407
330
18
100
AcDbEntity
  8
1
 62
     1
100
AcDbCircle
 10
121.7455272368372
 20
-50.55962322846015
 30
0.0
 40
74.94769942391969
100
AcDbArc
 50
142.8600209371825
 51
144.107696773282
  0
ARC
  5
408
330
18
100
AcDbEntity
  8
1
 62
     1
100
AcDbCircle
 10
85.08682661459734
 20
15.54497871877697
 30
0.0
 40
32.76063251616111
100
AcDbArc
 50
220.0252381136264
 51
222.5981565029689
  0
ARC
  5
409
330
18
100
AcDbEntity
  8
1
 62
     1
100
AcDbCircle
 10
107.1913191405355
 20
30.12854554490708
 30
0.0
 40
66.03871682670626
100
AcDbArc
 50
213.3068352404686
 51
214.8113296810556
  0
ARC
  5
40A
330
18
100
AcDbEntity
  8
1
 62
     1
100
AcDbCircle
 10
274.0175647047926
 20
-143.0787168302724
 30
0.0
 40
260.855162043633
100
AcDbArc
 50
148.3330635558092
 51
148.7417566686557
  0
ARC
  5
40B
330
18
100
AcDbEntity
  8
1
 62
     1
100
AcDbCircle
 10
116.1523629248961
 20
35.41258303783913
 30
0.0
 40
78.16344520509688
100
AcDbArc
 50
212.184876761687
 51
213.4975616588979
  0
ARC
  5
40C
330
18
100
AcDbEntity
  8
1
 62
     1
100
AcDbCircle
 10
379.6127219179183
 20
-204.6645661017206
 30
0.0
 40
384.739138253841
100
AcDbArc
 50
148.9499789427971
 51
149.2315325403247
  0
ARC
  5
40D
330
18
100
AcDbEntity
  8
1
 62
     1
100
AcDbCircle
 10
215.8109869867457
 20
-108.8003457592982
 30
0.0
 40
191.6933245244824
100
AcDbArc
 50
147.5770985734319
 51
148.1225859784219
  0
ARC
  5
40E
330
18
100
AcDbEntity
  8
1
 62
     1
100
AcDbCircle
 10
127.0646256166906
 20
41.67016143467617
 30
0.0
 40
92.46888964674758
100
AcDbArc
 50
211.2358112363952
 51
212.3775398736705
  0
ARC
  5
40F
330
18
100
AcDbEntity
  8
1
 62
     1
100
AcDbCircle
 10
631.8696073939541
 20
-351.057640610844
 30
0.0
 40
678.0669848790587
100
AcDbArc
 50
149.4380043265792
 51
149.5997834544401
  0
ARC
  5
410
330
18
100
AcDbEntity
  8
1
 62
     1
100
AcDbCircle
 10
140.4517295522231
 20
49.19549146883767
 30
0.0
 40
109.5547441609309
100
AcDbArc
 50
210.442069499235
 51
211.4300579247031
  0
ARC
  5
411
330
18
100
AcDbEntity
  8
1
 62
     1
100
AcDbCircle
 10
2069.596188180491
 20
-1183.835232595405
 30
0.0
 40
2341.260695604888
100
AcDbArc
 50
149.80503694487
 51
149.8523259565771
  0
ARC
  5
412
330
18
100
AcDbEntity
  8
1
 62
     1
100
AcDbCircle
 10
46.16972789194755
 20
-5.559690449152305
 30
0.0
 40
10.08356181534131
100
AcDbArc
 50
108.3213798703717
 51
115.940850654072
  0
LINE
  5
413
330
18
100
AcDbEntity
  8
1
 62
     1
100
AcDbLine
 10
43.00000000000001
 20
-1.573854050665468
 30
0.0
 11
42.85164098926973
 21
-1.405782427439627
 31
0.0
  0
LINE
  5
414
330
18
100
AcDbEntity
  8
1
 62
     1
100
AcDbLine
 10
42.85164098926973
 20
-1.405782427439627
 30
0.0
 11
42.70088891030451
 21
-1.252693593587219
 31
0.0
  0
LINE
  5
415
330
18
100
AcDbEntity
  8
1
 62
     1
100
AcDbLine
 10
42.70088891030451
 20
-1.252693593587219
 30
0.0
 11
42.54792095783353
 21
-1.115204623654365
 31
0.0
  0
LINE
  5
416
330
18
100
AcDbEntity
  8
1
 62
     1
100
AcDbLine
 10
42.54792095783353
 20
-1.115204623654365
 30
0.0
 11
42.47067637050607
 21
-1.052506099419742
 31
0.0
  0
LINE
  5
417
330
18
100
AcDbEntity
  8
1
 62
     1
100
AcDbLine
 10
42.47067637050607
 20
-1.052506099419742
 30
0.0
 11
42.39296578365504
 21
-0.9939379437128932
 31
0.0
  0
LINE
  5
418
330
18
100
AcDbEntity
  8
1
 62
     1
100
AcDbLine
 10
42.39296578365504
 20
-0.9939379437128932
 30
0.0
 11
42.31481042751213
 21
-0.9395640186975673
 31
0.0
  0
LINE
  5
419
330
18
100
AcDbEntity
  8
1
 62
     1
100
AcDbLine
 10
42.31481042751213
 20
-0.9395640186975673
 30
0.0
 11
42.23625343665438
 21
-0.8894622786436885
 31
0.0
  0
LINE
  5
41A
330
18
100
AcDbEntity
  8
1
 62
     1
100
AcDbLine
 10
42.23625343665438
 20
-0.8894622786436885
 30
0.0
 11
42.15732506624682
 21
-0.8436966851716957
 31
0.0
  0
LINE
  5
41B
330
18
100
AcDbEntity
  8
1
 62
     1
100
AcDbLine
 10
42.15732506624682
 20
-0.8436966851716957
 30
0.0
 11
42.07806900614584
 21
-0.8023386143503661
 31
0.0
  0
LINE
  5
41C
330
18
100
AcDbEntity
  8
1
 62
     1
100
AcDbLine
 10
42.07806900614584
 20
-0.8023386143503661
 30
0.0
 11
41.99852874166157
 21
-0.7654531276227624
 31
0.0
  0
LINE
  5
41D
330
18
100
AcDbEntity
  8
1
 62
     1
100
AcDbLine
 10
41.99852874166157
 20
-0.7654531276227624
 30
0.0
 11
41.91874777518537
 21
-0.7331049876910612
 31
0.0
  0
LINE
  5
41E
330
18
100
AcDbEntity
  8
1
 62
     1
100
AcDbLine
 10
41.91874777518537
 20
-0.7331049876910612
 30
0.0
 11
41.83878586675468
 21
-0.7053599851841872
 31
0.0
  0
LINE
  5
41F
330
18
100
AcDbEntity
  8
1
 62
     1
100
AcDbLine
 10
41.83878586675468
 20
-0.7053599851841872
 30
0.0
 11
41.75869692000001
 21
-0.6822800752574933
 31
0.0
  0
LINE
  5
420
330
18
100
AcDbEntity
  8
1
 62
     1
100
AcDbLine
 10
43.02886752691897
 20
-7.999996927265504
 30
0.0
 11
43.99999999999999
 21
-6.316141770151479
 31
0.0
  0
LINE
  5
421
330
18
100
AcDbEntity
  8
1
 62
     1
100
AcDbLine
 10
43.02886752691897
 20
-7.999996927265501
 30
0.0
 11
43.02886752691898
 21
-7.99999999999707
 31
0.0
  0
LINE
  5
422
330
18
100
AcDbEntity
  8
1
 62
     1
100
AcDbLine
 10
44.0
 20
-6.317950000000001
 30
0.0
 11
43.02886885745234
 21
-7.999997695449663
 31
0.0
  0
LINE
  5
423
330
18
100
AcDbEntity
  8
1
 62
     1
100
AcDbLine
 10
43.02886885745234
 20
-7.999997695449663
 30
0.0
 11
43.02886752691897
 21
-7.999999999999995
 31
0.0
  0
LINE
  5
424
330
18
100
AcDbEntity
  8
1
 62
     1
100
AcDbLine
 10
43.99999999999999
 20
-6.316141770151479
 30
0.0
 11
44.23656746799931
 21
-6.727696682948212
 31
0.0
  0
LINE
  5
425
330
18
100
AcDbEntity
  8
1
 62
     1
100
AcDbLine
 10
44.0
 20
-6.317950000000001
 30
0.0
 11
44.0
 21
-6.316141770151479
 31
0.0
  0
ARC
  5
426
330
18
100
AcDbEntity
  8
1
 62
     1
100
AcDbCircle
 10
159.1613352851243
 20
59.63481386514897
 30
0.0
 40
132.7090256636577
100
AcDbArc
 50
210.0039875863309
 51
210.6322473403265
  0
LINE
  5
427
330
18
100
AcDbEntity
  8
1
 62
     1
100
AcDbLine
 10
44.23656746799931
 20
-6.727696682948206
 30
0.0
 11
44.0
 21
-6.317950000000001
 31
0.0
  0
LINE
  5
428
330
18
100
AcDbEntity
  8
1
 62
     1
100
AcDbLine
 10
67.63011775874224
 20
6.244329748427424
 30
0.0
 11
66.5305391065734
 21
6.585869490877008
 31
0.0
  0
LINE
  5
429
330
18
100
AcDbEntity
  8
1
 62
     1
100
AcDbLine
 10
66.53053910657343
 20
7.236870259540503
 30
0.0
 11
67.63011775874226
 21
6.958604535970466
 31
0.0
  0
LINE
  5
42A
330
18
100
AcDbEntity
  8
1
 62
     1
100
AcDbLine
 10
64.78550234651823
 20
7.678479339286914
 30
0.0
 11
65.28790210763006
 21
7.551339154479349
 31
0.0
  0
ARC
  5
42B
330
18
100
AcDbEntity
  8
1
 62
     1
100
AcDbCircle
 10
60.21264300725321
 20
10.12208384896518
 30
0.0
 40
14.03395670657415
100
AcDbArc
 50
301.9067053303174
 51
303.703400571238
  0
LINE
  5
42C
330
18
100
AcDbEntity
  8
1
 62
     1
100
AcDbLine
 10
67.63011775874226
 20
-1.791479662375155
 30
0.0
 11
67.63011775874226
 21
-5.781655861357637
 31
0.0
  0
ARC
  5
42D
330
18
100
AcDbEntity
  8
1
 62
     1
100
AcDbCircle
 10
82.38885222406806
 20
-15.93772150824277
 30
0.0
 40
17.91551848694909
100
AcDbArc
 50
143.4320539934844
 51
145.4666103948854
  0
ARC
  5
42E
330
18
100
AcDbEntity
  8
1
 62
     1
100
AcDbCircle
 10
45.03649397288376
 20
-22.74562079197432
 30
0.0
 40
30.10163421574348
100
AcDbArc
 50
44.43468996598418
 51
45.8591824239083
  0
LINE
  5
42F
330
18
100
AcDbEntity
  8
1
 62
     1
100
AcDbLine
 10
66.00000000000001
 20
-5.020983721242995
 30
0.0
 11
66.0
 21
-1.143775545609225
 31
0.0
  0
ARC
  5
430
330
18
100
AcDbEntity
  8
1
 62
     1
100
AcDbCircle
 10
52.31894989697278
 20
-13.95827401330309
 30
0.0
 40
16.34158509976836
100
AcDbArc
 50
29.58218674494615
 51
33.15500106264083
  0
LINE
  5
431
330
18
100
AcDbEntity
  8
1
 62
     1
100
AcDbLine
 10
66.53053910657344
 20
-1.671588137481251
 30
0.0
 11
66.53053910657344
 21
-5.890810926459839
 31
0.0
  0
ARC
  5
432
330
18
100
AcDbEntity
  8
1
 62
     1
100
AcDbCircle
 10
60.21023157009523
 20
9.218816733709085
 30
0.0
 40
11.87030926769241
100
AcDbArc
 50
295.3256416209579
 51
299.1928850349706
  0
LINE
  5
433
330
18
100
AcDbEntity
  8
1
 62
     1
100
AcDbLine
 10
65.28790210763006
 20
-1.51064771002726
 30
0.0
 11
65.28790210763007
 21
-6.006024690161303
 31
0.0
  0
ARC
  5
434
330
18
100
AcDbEntity
  8
1
 62
     1
100
AcDbCircle
 10
78.32482289156943
 20
-14.6777277708128
 30
0.0
 40
15.65754770278068
100
AcDbArc
 50
141.9205940100418
 51
146.3695403518973
  0
LINE
  5
435
330
18
100
AcDbEntity
  8
1
 62
     1
100
AcDbLine
 10
62.97113247308103
 20
8.0
 30
0.0
 11
63.02886752691897
 21
8.0
 31
0.0
  0
LINE
  5
436
330
18
100
AcDbEntity
  8
1
 62
     1
100
AcDbLine
 10
58.97113247308106
 20
8.0
 30
0.0
 11
59.028867526919
 21
8.0
 31
0.0
  0
LINE
  5
437
330
18
100
AcDbEntity
  8
1
 62
     1
100
AcDbLine
 10
56.97113247308103
 20
8.0
 30
0.0
 11
57.02886752691899
 21
8.0
 31
0.0
  0
LINE
  5
438
330
18
100
AcDbEntity
  8
1
 62
     1
100
AcDbLine
 10
54.97113247308103
 20
8.0
 30
0.0
 11
55.02886752691898
 21
8.0
 31
0.0
  0
LINE
  5
439
330
18
100
AcDbEntity
  8
1
 62
     1
100
AcDbLine
 10
52.97113247308103
 20
8.0
 30
0.0
 11
53.02886752691897
 21
8.0
 31
0.0
  0
ARC
  5
43A
330
18
100
AcDbEntity
  8
1
 62
     1
100
AcDbCircle
 10
59.0602457465699
 20
8.476359646529373
 30
0.0
 40
9.266906742255859
100
AcDbArc
 50
282.2651371669297
 51
288.4955082328992
  0
LINE
  5
43B
330
18
100
AcDbEntity
  8
1
 62
     1
100
AcDbLine
 10
61.02886752691901
 20
-0.5790238308741708
 30
0.0
 11
61.02886752691901
 21
-5.715933268783639
 31
0.0
  0
ARC
  5
43C
330
18
100
AcDbEntity
  8
1
 62
     1
100
AcDbCircle
 10
70.56609862004538
 20
-12.13945403519782
 30
0.0
 40
11.49859338519481
100
AcDbArc
 50
138.1598799770182
 51
146.0389250470855
  0
ARC
  5
43D
330
18
100
AcDbEntity
  8
1
 62
     1
100
AcDbCircle
 10
49.83687055570407
 20
-16.45810895983577
 30
0.0
 40
20.21488188240401
100
AcDbArc
 50
49.47877885472202
 51
53.0088046567926
  0
LINE
  5
43E
330
18
100
AcDbEntity
  8
1
 62
     1
100
AcDbLine
 10
62.00000000000001
 20
-4.46967785906366
 30
0.0
 11
62.00000000000001
 21
-0.3119292578982544
 31
0.0
  0
LINE
  5
43F
330
18
100
AcDbEntity
  8
1
 62
     1
100
AcDbLine
 10
62.00000000000001
 20
-4.469677859063658
 30
0.0
 11
62.24954103826472
 21
-4.834606325646552
 31
0.0
  0
LINE
  5
440
330
18
100
AcDbEntity
  8
1
 62
     1
100
AcDbLine
 10
62.24954103826472
 20
-4.834606325646552
 30
0.0
 11
62.495229260464
 21
-5.224580166520151
 31
0.0
  0
LINE
  5
441
330
18
100
AcDbEntity
  8
1
 62
     1
100
AcDbLine
 10
62.495229260464
 20
-5.224580166520151
 30
0.0
 11
62.97113247308103
 21
-6.06434214009415
 31
0.0
  0
LINE
  5
442
330
18
100
AcDbEntity
  8
1
 62
     1
100
AcDbLine
 10
62.97113247308103
 20
-1.091392647191644
 30
0.0
 11
62.97113247308102
 21
-6.064342141952613
 31
0.0
  0
ARC
  5
443
330
18
100
AcDbEntity
  8
1
 62
     1
100
AcDbCircle
 10
51.67206634796609
 20
-11.58752122504827
 30
0.0
 40
13.66624070061679
100
AcDbArc
 50
57.71774191025791
 51
62.41690000595072
  0
LINE
  5
444
330
18
100
AcDbEntity
  8
1
 62
     1
100
AcDbLine
 10
58.00000000000001
 20
-3.839840569828042
 30
0.0
 11
58.0
 21
0.5254001578286036
 31
0.0
  0
LINE
  5
445
330
18
100
AcDbEntity
  8
1
 62
     1
100
AcDbLine
 10
57.99999999999999
 20
-3.839840569828053
 30
0.0
 11
58.24954095180704
 21
-4.169091172082275
 31
0.0
  0
LINE
  5
446
330
18
100
AcDbEntity
  8
1
 62
     1
100
AcDbLine
 10
58.24954095180704
 20
-4.169091172082275
 30
0.0
 11
58.49522913089326
 21
-4.528124663599673
 31
0.0
  0
LINE
  5
447
330
18
100
AcDbEntity
  8
1
 62
     1
100
AcDbLine
 10
58.49522913089326
 20
-4.528124663599673
 30
0.0
 11
58.73603594875468
 21
-4.913311225069744
 31
0.0
  0
LINE
  5
448
330
18
100
AcDbEntity
  8
1
 62
     1
100
AcDbLine
 10
58.73603594875468
 20
-4.913311225069744
 30
0.0
 11
58.97113247308107
 21
-5.320984173999236
 31
0.0
  0
LINE
  5
449
330
18
100
AcDbEntity
  8
1
 62
     1
100
AcDbLine
 10
58.97113247308106
 20
-0.033620752262766
 30
0.0
 11
58.97113247308106
 21
-5.320984173999198
 31
0.0
  0
ARC
  5
44A
330
18
100
AcDbEntity
  8
1
 62
     1
100
AcDbCircle
 10
57.13478547820577
 20
8.879743962377063
 30
0.0
 40
8.399045087246204
100
AcDbArc
 50
269.2774404861696
 51
275.912737026855
  0
LINE
  5
44B
330
18
100
AcDbEntity
  8
1
 62
     1
100
AcDbLine
 10
57.02886752691899
 20
0.481363278653977
 30
0.0
 11
57.02886752691899
 21
-4.925443808175454
 31
0.0
  0
LINE
  5
44C
330
18
100
AcDbEntity
  8
1
 62
     1
100
AcDbLine
 10
57.02886752691897
 20
-4.925443808398573
 30
0.0
 11
57.27022531406725
 21
-4.617321882888827
 31
0.0
  0
LINE
  5
44D
330
18
100
AcDbEntity
  8
1
 62
     1
100
AcDbLine
 10
57.27022531406725
 20
-4.617321882888827
 30
0.0
 11
57.51317109844174
 21
-4.333491055785822
 31
0.0
  0
LINE
  5
44E
330
18
100
AcDbEntity
  8
1
 62
     1
100
AcDbLine
 10
57.51317109844174
 20
-4.333491055785822
 30
0.0
 11
57.75676036118961
 21
-4.074266788107278
 31
0.0
  0
LINE
  5
44F
330
18
100
AcDbEntity
  8
1
 62
     1
100
AcDbLine
 10
57.75676036118961
 20
-4.074266788107278
 30
0.0
 11
57.99999999999999
 21
-3.839840569828053
 31
0.0
  0
ARC
  5
450
330
18
100
AcDbEntity
  8
1
 62
     1
100
AcDbCircle
 10
59.7955406551856
 20
8.6574026608734
 30
0.0
 40
10.28540966263257
100
AcDbArc
 50
288.3222317419526
 51
294.128032811949
  0
LINE
  5
451
330
18
100
AcDbEntity
  8
1
 62
     1
100
AcDbLine
 10
63.02886752691898
 20
-1.106564403698561
 30
0.0
 11
63.02886752691897
 21
-6.074320865343521
 31
0.0
  0
ARC
  5
452
330
18
100
AcDbEntity
  8
1
 62
     1
100
AcDbCircle
 10
74.54622717610211
 20
-13.53409299139796
 30
0.0
 40
13.7220675094551
100
AcDbArc
 50
140.2272022154527
 51
147.0689458657642
  0
ARC
  5
453
330
18
100
AcDbEntity
  8
1
 62
     1
100
AcDbCircle
 10
51.30038635838783
 20
-8.216135391684844
 30
0.0
 40
9.943147325639895
100
AcDbArc
 50
68.33557717776073
 51
74.24613048847671
  0
LINE
  5
454
330
18
100
AcDbEntity
  8
1
 62
     1
100
AcDbLine
 10
54.00000000000001
 20
-3.142538380010328
 30
0.0
 11
54.24954095034245
 21
-3.430326410032193
 31
0.0
  0
LINE
  5
455
330
18
100
AcDbEntity
  8
1
 62
     1
100
AcDbLine
 10
54.24954095034245
 20
-3.430326410032193
 30
0.0
 11
54.49522911998518
 21
-3.75211181664106
 31
0.0
  0
LINE
  5
456
330
18
100
AcDbEntity
  8
1
 62
     1
100
AcDbLine
 10
54.49522911998518
 20
-3.75211181664106
 30
0.0
 11
54.73603593191306
 21
-4.104527623426565
 31
0.0
  0
LINE
  5
457
330
18
100
AcDbEntity
  8
1
 62
     1
100
AcDbLine
 10
54.73603593191306
 20
-4.104527623426565
 30
0.0
 11
54.97113247308102
 21
-4.484139563104398
 31
0.0
  0
LINE
  5
458
330
18
100
AcDbEntity
  8
1
 62
     1
100
AcDbLine
 10
54.97113247308104
 20
1.024740581799431
 30
0.0
 11
54.97113247308102
 21
-4.484139563104402
 31
0.0
  0
ARC
  5
459
330
18
100
AcDbEntity
  8
1
 62
     1
100
AcDbCircle
 10
56.10971059443317
 20
9.466503124699319
 30
0.0
 40
8.525735160308402
100
AcDbArc
 50
262.7167837230137
 51
269.2626839410266
  0
LINE
  5
45A
330
18
100
AcDbEntity
  8
1
 62
     1
100
AcDbLine
 10
55.02886752691898
 20
-4.4968158613041
 30
0.0
 11
55.27022531175354
 21
-4.208598989453662
 31
0.0
  0
LINE
  5
45B
330
18
100
AcDbEntity
  8
1
 62
     1
100
AcDbLine
 10
55.27022531175354
 20
-4.208598989453662
 30
0.0
 11
55.513171100649
 21
-3.946116768698575
 31
0.0
  0
LINE
  5
45C
330
18
100
AcDbEntity
  8
1
 62
     1
100
AcDbLine
 10
55.513171100649
 20
-3.946116768698575
 30
0.0
 11
55.75676036431828
 21
-3.709526978786506
 31
0.0
  0
LINE
  5
45D
330
18
100
AcDbEntity
  8
1
 62
     1
100
AcDbLine
 10
55.75676036431828
 20
-3.709526978786506
 30
0.0
 11
56.00000000000001
 21
-3.498882126827596
 31
0.0
  0
ARC
  5
45E
330
18
100
AcDbEntity
  8
1
 62
     1
100
AcDbCircle
 10
51.69768672924962
 20
-9.729424938792711
 30
0.0
 40
11.5056254847331
100
AcDbArc
 50
62.72047009895737
 51
68.0416854819121
  0
LINE
  5
45F
330
18
100
AcDbEntity
  8
1
 62
     1
100
AcDbLine
 10
56.00000000000001
 20
-3.498882126827596
 30
0.0
 11
56.00000000000001
 21
0.9415198933268623
 31
0.0
  0
LINE
  5
460
330
18
100
AcDbEntity
  8
1
 62
     1
100
AcDbLine
 10
56.00000000000001
 20
-3.498882126827596
 30
0.0
 11
56.24954099143616
 21
-3.808081241709844
 31
0.0
  0
LINE
  5
461
330
18
100
AcDbEntity
  8
1
 62
     1
100
AcDbLine
 10
56.24954099143616
 20
-3.808081241709844
 30
0.0
 11
56.49522918268795
 21
-4.149240915233268
 31
0.0
  0
LINE
  5
462
330
18
100
AcDbEntity
  8
1
 62
     1
100
AcDbLine
 10
56.49522918268795
 20
-4.149240915233268
 30
0.0
 11
56.73603598159539
 21
-4.518854999235169
 31
0.0
  0
LINE
  5
463
330
18
100
AcDbEntity
  8
1
 62
     1
100
AcDbLine
 10
56.73603598159539
 20
-4.518854999235169
 30
0.0
 11
56.97113247308103
 21
-4.913365118602572
 31
0.0
  0
LINE
  5
464
330
18
100
AcDbEntity
  8
1
 62
     1
100
AcDbLine
 10
56.97113247308104
 20
0.4966515450868704
 30
0.0
 11
56.97113247308103
 21
-4.913365119061847
 31
0.0
  0
ARC
  5
465
330
18
100
AcDbEntity
  8
1
 62
     1
100
AcDbCircle
 10
58.14625790414928
 20
8.55057138813134
 30
0.0
 40
8.644685341908506
100
AcDbArc
 50
275.8600270233416
 51
282.3824966123304
  0
LINE
  5
466
330
18
100
AcDbEntity
  8
1
 62
     1
100
AcDbLine
 10
59.028867526919
 20
-0.0489374443871664
 30
0.0
 11
59.028867526919
 21
-5.332412060534357
 31
0.0
  0
ARC
  5
467
330
18
100
AcDbEntity
  8
1
 62
     1
100
AcDbCircle
 10
66.89777044852868
 20
-10.8770647930682
 30
0.0
 40
9.626006896213195
100
AcDbArc
 50
135.7771182047585
 51
144.8303868987026
  0
ARC
  5
468
330
18
100
AcDbEntity
  8
1
 62
     1
100
AcDbCircle
 10
47.90298951723661
 20
-19.36588583245196
 30
0.0
 40
24.62580828288349
100
AcDbArc
 50
46.72027282393468
 51
49.1815435726977
  0
LINE
  5
469
330
18
100
AcDbEntity
  8
1
 62
     1
100
AcDbLine
 10
64.0
 20
-4.755787151470389
 30
0.0
 11
64.0
 21
-0.7294598074768062
 31
0.0
  0
ARC
  5
46A
330
18
100
AcDbEntity
  8
1
 62
     1
100
AcDbCircle
 10
51.42398563596083
 20
-13.2631336450887
 30
0.0
 40
15.18337184579668
100
AcDbArc
 50
28.36087455054613
 51
34.07732861654068
  0
LINE
  5
46B
330
18
100
AcDbEntity
  8
1
 62
     1
100
AcDbLine
 10
64.78550234651823
 20
-1.437893432639438
 30
0.0
 11
64.78550234651824
 21
-6.050375795876587
 31
0.0
  0
ARC
  5
46C
330
18
100
AcDbEntity
  8
1
 62
     1
100
AcDbCircle
 10
51.09771749815926
 20
-13.81829610977016
 30
0.0
 40
16.52768175028618
100
AcDbArc
 50
53.31729419872365
 51
57.40962895886823
  0
LINE
  5
46D
330
18
100
AcDbEntity
  8
1
 62
     1
100
AcDbLine
 10
60.00000000000001
 20
-4.163914280044194
 30
0.0
 11
60.0
 21
0.106970499954786
 31
0.0
  0
LINE
  5
46E
330
18
100
AcDbEntity
  8
1
 62
     1
100
AcDbLine
 10
60.00000000000001
 20
-4.163914280044192
 30
0.0
 11
60.24954095361544
 21
-4.51176861786881
 31
0.0
  0
LINE
  5
46F
330
18
100
AcDbEntity
  8
1
 62
     1
100
AcDbLine
 10
60.24954095361544
 20
-4.51176861786881
 30
0.0
 11
60.49522912530082
 21
-4.887097425393547
 31
0.0
  0
LINE
  5
470
330
18
100
AcDbEntity
  8
1
 62
     1
100
AcDbLine
 10
60.49522912530082
 20
-4.887097425393547
 30
0.0
 11
60.97113247308103
 21
-5.705206453724108
 31
0.0
  0
ARC
  5
471
330
18
100
AcDbEntity
  8
1
 62
     1
100
AcDbCircle
 10
55.15780681745308
 20
10.31564112097491
 30
0.0
 40
9.03669031153656
100
AcDbArc
 50
256.3737119129887
 51
262.6388086561074
  0
LINE
  5
472
330
18
100
AcDbEntity
  8
1
 62
     1
100
AcDbLine
 10
53.02886752691897
 20
1.533293405028588
 30
0.0
 11
53.02886752691897
 21
-4.048414637872523
 31
0.0
  0
LINE
  5
473
330
18
100
AcDbEntity
  8
1
 62
     1
100
AcDbLine
 10
53.02886752691897
 20
-4.048414637872533
 30
0.0
 11
53.27022532564383
 21
-3.781370426081886
 31
0.0
  0
LINE
  5
474
330
18
100
AcDbEntity
  8
1
 62
     1
100
AcDbLine
 10
53.27022532564383
 20
-3.781370426081886
 30
0.0
 11
53.51317111169764
 21
-3.541390969444316
 31
0.0
  0
LINE
  5
475
330
18
100
AcDbEntity
  8
1
 62
     1
100
AcDbLine
 10
53.51317111169764
 20
-3.541390969444316
 30
0.0
 11
53.75676036872017
 21
-3.328475786446499
 31
0.0
  0
LINE
  5
476
330
18
100
AcDbEntity
  8
1
 62
     1
100
AcDbLine
 10
53.75676036872017
 20
-3.328475786446499
 30
0.0
 11
54.00000000000001
 21
-3.142538380010328
 31
0.0
  0
LINE
  5
477
330
18
100
AcDbEntity
  8
1
 62
     1
100
AcDbLine
 10
54.0
 20
-3.14253838001033
 30
0.0
 11
54.0
 21
1.353498650469938
 31
0.0
  0
ARC
  5
478
330
18
100
AcDbEntity
  8
1
 62
     1
100
AcDbCircle
 10
53.83849388075934
 20
12.84078136172439
 30
0.0
 40
11.35173367215527
100
AcDbArc
 50
244.9322117337093
 51
250.2361393458283
  0
LINE
  5
479
330
18
100
AcDbEntity
  8
1
 62
     1
100
AcDbLine
 10
49.02886752691898
 20
2.558283813146396
 30
0.0
 11
49.02886752691897
 21
-3.100256054095176
 31
0.0
  0
LINE
  5
47A
330
18
100
AcDbEntity
  8
1
 62
     1
100
AcDbLine
 10
49.02886752691896
 20
-3.100256054095182
 30
0.0
 11
49.14929106556733
 21
-2.985931081444152
 31
0.0
  0
LINE
  5
47B
330
18
100
AcDbEntity
  8
1
 62
     1
100
AcDbLine
 10
49.14929106556733
 20
-2.985931081444152
 30
0.0
 11
49.27022532029869
 21
-2.878981167543833
 31
0.0
  0
LINE
  5
47C
330
18
100
AcDbEntity
  8
1
 62
     1
100
AcDbLine
 10
49.27022532029869
 20
-2.878981167543833
 30
0.0
 11
49.39156340460707
 21
-2.77936923009175
 31
0.0
  0
LINE
  5
47D
330
18
100
AcDbEntity
  8
1
 62
     1
100
AcDbLine
 10
49.39156340460707
 20
-2.77936923009175
 30
0.0
 11
49.5131711097906
 21
-2.687069338683787
 31
0.0
  0
LINE
  5
47E
330
18
100
AcDbEntity
  8
1
 62
     1
100
AcDbLine
 10
49.5131711097906
 20
-2.687069338683787
 30
0.0
 11
49.63495118616544
 21
-2.602024465636564
 31
0.0
  0
LINE
  5
47F
330
18
100
AcDbEntity
  8
1
 62
     1
100
AcDbLine
 10
49.63495118616544
 20
-2.602024465636564
 30
0.0
 11
49.75676036893559
 21
-2.524204091298725
 31
0.0
  0
LINE
  5
480
330
18
100
AcDbEntity
  8
1
 62
     1
100
AcDbLine
 10
49.75676036893559
 20
-2.524204091298725
 30
0.0
 11
49.8784965378487
 21
-2.453546773323251
 31
0.0
  0
LINE
  5
481
330
18
100
AcDbEntity
  8
1
 62
     1
100
AcDbLine
 10
49.8784965378487
 20
-2.453546773323251
 30
0.0
 11
50.0
 21
-2.390022407619545
 31
0.0
  0
LINE
  5
482
330
18
100
AcDbEntity
  8
1
 62
     1
100
AcDbLine
 10
49.99999999999999
 20
-2.390022407619545
 30
0.0
 11
50.00000000000001
 21
2.157817005689122
 31
0.0
  0
ARC
  5
483
330
18
100
AcDbEntity
  8
1
 62
     1
100
AcDbCircle
 10
49.69654005283333
 20
-6.146800331382931
 30
0.0
 40
8.310170216149192
100
AcDbArc
 50
81.1773557629402
 51
87.90727964412339
  0
LINE
  5
484
330
18
100
AcDbEntity
  8
1
 62
     1
100
AcDbLine
 10
50.0
 20
-2.390022407619545
 30
0.0
 11
50.12517758154953
 21
-2.505768283129172
 31
0.0
  0
LINE
  5
485
330
18
100
AcDbEntity
  8
1
 62
     1
100
AcDbLine
 10
50.12517758154953
 20
-2.505768283129172
 30
0.0
 11
50.2495409773676
 21
-2.631291425103705
 31
0.0
  0
LINE
  5
486
330
18
100
AcDbEntity
  8
1
 62
     1
100
AcDbLine
 10
50.2495409773676
 20
-2.631291425103705
 30
0.0
 11
50.3729366575713
 21
-2.766219640926188
 31
0.0
  0
LINE
  5
487
330
18
100
AcDbEntity
  8
1
 62
     1
100
AcDbLine
 10
50.3729366575713
 20
-2.766219640926188
 30
0.0
 11
50.49522915840716
 21
-2.910175076409917
 31
0.0
  0
LINE
  5
488
330
18
100
AcDbEntity
  8
1
 62
     1
100
AcDbLine
 10
50.49522915840716
 20
-2.910175076409917
 30
0.0
 11
50.73603596101621
 21
-3.223628412899012
 31
0.0
  0
LINE
  5
489
330
18
100
AcDbEntity
  8
1
 62
     1
100
AcDbLine
 10
50.73603596101621
 20
-3.223628412899012
 30
0.0
 11
50.97113247308104
 21
-3.568509917731603
 31
0.0
  0
LINE
  5
48A
330
18
100
AcDbEntity
  8
1
 62
     1
100
AcDbLine
 10
50.97113247308104
 20
2.065097559296807
 30
0.0
 11
50.97113247308103
 21
-3.568509917637162
 31
0.0
  0
ARC
  5
48B
330
18
100
AcDbEntity
  8
1
 62
     1
100
AcDbCircle
 10
54.36926204505724
 20
11.43618705530307
 30
0.0
 40
9.962572893505893
100
AcDbArc
 50
250.4095947381217
 51
256.2421885157324
  0
LINE
  5
48C
330
18
100
AcDbEntity
  8
1
 62
     1
100
AcDbLine
 10
51.02886752691897
 20
2.050296011992712
 30
0.0
 11
51.02886752691897
 21
-3.582211992363371
 31
0.0
  0
LINE
  5
48D
330
18
100
AcDbEntity
  8
1
 62
     1
100
AcDbLine
 10
51.02886752691898
 20
-3.582211992363373
 30
0.0
 11
51.27022531006305
 21
-3.337514156383163
 31
0.0
  0
LINE
  5
48E
330
18
100
AcDbEntity
  8
1
 62
     1
100
AcDbLine
 10
51.27022531006305
 20
-3.337514156383163
 30
0.0
 11
51.51317109628683
 21
-3.121092441405919
 31
0.0
  0
LINE
  5
48F
330
18
100
AcDbEntity
  8
1
 62
     1
100
AcDbLine
 10
51.51317109628683
 20
-3.121092441405919
 30
0.0
 11
51.63495117491814
 21
-3.023434513716197
 31
0.0
  0
LINE
  5
490
330
18
100
AcDbEntity
  8
1
 62
     1
100
AcDbLine
 10
51.63495117491814
 20
-3.023434513716197
 30
0.0
 11
51.75676036141287
 21
-2.932788088964225
 31
0.0
  0
LINE
  5
491
330
18
100
AcDbEntity
  8
1
 62
     1
100
AcDbLine
 10
51.75676036141287
 20
-2.932788088964225
 30
0.0
 11
51.87849653459186
 21
-2.849105797098664
 31
0.0
  0
LINE
  5
492
330
18
100
AcDbEntity
  8
1
 62
     1
100
AcDbLine
 10
51.87849653459186
 20
-2.849105797098664
 30
0.0
 11
52.00000000000001
 21
-2.772375857698465
 31
0.0
  0
LINE
  5
493
330
18
100
AcDbEntity
  8
1
 62
     1
100
AcDbLine
 10
52.00000000000001
 20
-2.772375857698464
 30
0.0
 11
52.0
 21
1.759526697500186
 31
0.0
  0
ARC
  5
494
330
18
100
AcDbEntity
  8
1
 62
     1
100
AcDbCircle
 10
50.6152750346154
 20
-6.929089474287235
 30
0.0
 40
8.798273588707193
100
AcDbArc
 50
76.2205898887656
 51
80.94479192909641
  0
LINE
  5
495
330
18
100
AcDbEntity
  8
1
 62
     1
100
AcDbLine
 10
52.00000000000001
 20
-2.772375857698465
 30
0.0
 11
52.12517757884797
 21
-2.900248001645712
 31
0.0
  0
LINE
  5
496
330
18
100
AcDbEntity
  8
1
 62
     1
100
AcDbLine
 10
52.12517757884797
 20
-2.900248001645712
 30
0.0
 11
52.24954097673036
 21
-3.037487072066393
 31
0.0
  0
LINE
  5
497
330
18
100
AcDbEntity
  8
1
 62
     1
100
AcDbLine
 10
52.24954097673036
 20
-3.037487072066393
 30
0.0
 11
52.4952291707069
 21
-3.338483202085512
 31
0.0
  0
LINE
  5
498
330
18
100
AcDbEntity
  8
1
 62
     1
100
AcDbLine
 10
52.4952291707069
 20
-3.338483202085512
 30
0.0
 11
52.73603598033925
 21
-3.672151320096321
 31
0.0
  0
LINE
  5
499
330
18
100
AcDbEntity
  8
1
 62
     1
100
AcDbLine
 10
52.73603598033925
 20
-3.672151320096321
 30
0.0
 11
52.97113247308103
 21
-4.035196315265088
 31
0.0
  0
LINE
  5
49A
330
18
100
AcDbEntity
  8
1
 62
     1
100
AcDbLine
 10
52.97113247308104
 20
1.54832354814002
 30
0.0
 11
52.97113247308103
 21
-4.035196315243981
 31
0.0
  0
ARC
  5
49B
330
18
100
AcDbEntity
  8
1
 62
     1
100
AcDbCircle
 10
46.84031975212542
 20
-5.269909114573732
 30
0.0
 40
9.017852100795128
100
AcDbArc
 50
101.9628398833785
 51
108.3587653128242
  0
LINE
  5
49C
330
18
100
AcDbEntity
  8
1
 62
     1
100
AcDbLine
 10
44.00000000000001
 20
-1.186853671829549
 30
0.0
 11
44.0
 21
3.288967815466905
 31
0.0
  0
LINE
  5
49D
330
18
100
AcDbEntity
  8
1
 62
     1
100
AcDbLine
 10
44.0
 20
-1.186853671829548
 30
0.0
 11
44.12517757246346
 21
-1.263390953184111
 31
0.0
  0
LINE
  5
49E
330
18
100
AcDbEntity
  8
1
 62
     1
100
AcDbLine
 10
44.12517757246346
 20
-1.263390953184111
 30
0.0
 11
44.24954096043686
 21
-1.350672197679352
 31
0.0
  0
LINE
  5
49F
330
18
100
AcDbEntity
  8
1
 62
     1
100
AcDbLine
 10
44.24954096043686
 20
-1.350672197679352
 30
0.0
 11
44.37293663497627
 21
-1.448401555093798
 31
0.0
  0
LINE
  5
4A0
330
18
100
AcDbEntity
  8
1
 62
     1
100
AcDbLine
 10
44.37293663497627
 20
-1.448401555093798
 30
0.0
 11
44.49522913318899
 21
-1.556275147368544
 31
0.0
  0
LINE
  5
4A1
330
18
100
AcDbEntity
  8
1
 62
     1
100
AcDbLine
 10
44.49522913318899
 20
-1.556275147368544
 30
0.0
 11
44.61629811483547
 21
-1.673980966441116
 31
0.0
  0
LINE
  5
4A2
330
18
100
AcDbEntity
  8
1
 62
     1
100
AcDbLine
 10
44.61629811483547
 20
-1.673980966441116
 30
0.0
 11
44.7360359425459
 21
-1.801198941729934
 31
0.0
  0
LINE
  5
4A3
330
18
100
AcDbEntity
  8
1
 62
     1
100
AcDbLine
 10
44.7360359425459
 20
-1.801198941729934
 30
0.0
 11
44.85434565589502
 21
-1.937601103038535
 31
0.0
  0
LINE
  5
4A4
330
18
100
AcDbEntity
  8
1
 62
     1
100
AcDbLine
 10
44.85434565589502
 20
-1.937601103038535
 30
0.0
 11
44.97113247308103
 21
-2.082842903668205
 31
0.0
  0
LINE
  5
4A5
330
18
100
AcDbEntity
  8
1
 62
     1
100
AcDbLine
 10
44.97113247308103
 20
3.552056088355001
 30
0.0
 11
44.97113247308103
 21
-2.082842903194641
 31
0.0
  0
ARC
  5
4A6
330
18
100
AcDbEntity
  8
1
 62
     1
100
AcDbCircle
 10
54.82687464206809
 20
18.96501116304021
 30
0.0
 40
19.05157018925503
100
AcDbArc
 50
231.7374132759618
 51
235.3685691519909
  0
LINE
  5
4A7
330
18
100
AcDbEntity
  8
1
 62
     1
100
AcDbLine
 10
43.02886752691897
 20
4.006070761958673
 30
0.0
 11
43.02886752691897
 21
-1.581362125733762
 31
0.0
  0
LINE
  5
4A8
330
18
100
AcDbEntity
  8
1
 62
     1
100
AcDbLine
 10
43.02886752691896
 20
-1.581362125809956
 30
0.0
 11
43.14929107021134
 21
-1.504534233940035
 31
0.0
  0
LINE
  5
4A9
330
18
100
AcDbEntity
  8
1
 62
     1
100
AcDbLine
 10
43.14929107021134
 20
-1.504534233940035
 30
0.0
 11
43.27022532570376
 21
-1.435760551441994
 31
0.0
  0
LINE
  5
4AA
330
18
100
AcDbEntity
  8
1
 62
     1
100
AcDbLine
 10
43.27022532570376
 20
-1.435760551441994
 30
0.0
 11
43.39156340937962
 21
-1.374943322743162
 31
0.0
  0
LINE
  5
4AB
330
18
100
AcDbEntity
  8
1
 62
     1
100
AcDbLine
 10
43.39156340937962
 20
-1.374943322743162
 30
0.0
 11
43.51317111293501
 21
-1.321991716042462
 31
0.0
  0
LINE
  5
4AC
330
18
100
AcDbEntity
  8
1
 62
     1
100
AcDbLine
 10
43.51317111293501
 20
-1.321991716042462
 30
0.0
 11
43.6349511880063
 21
-1.276799639678713
 31
0.0
  0
LINE
  5
4AD
330
18
100
AcDbEntity
  8
1
 62
     1
100
AcDbLine
 10
43.6349511880063
 20
-1.276799639678713
 30
0.0
 11
43.75676036983582
 21
-1.239277491706052
 31
0.0
  0
LINE
  5
4AE
330
18
100
AcDbEntity
  8
1
 62
     1
100
AcDbLine
 10
43.75676036983582
 20
-1.239277491706052
 30
0.0
 11
43.87849653817995
 21
-1.209323489307965
 31
0.0
  0
LINE
  5
4AF
330
18
100
AcDbEntity
  8
1
 62
     1
100
AcDbLine
 10
43.87849653817995
 20
-1.209323489307965
 30
0.0
 11
44.0
 21
-1.186853671829548
 31
0.0
  0
LINE
  5
4B0
330
18
100
AcDbEntity
  8
1
 62
     1
100
AcDbLine
 10
43.00000000000001
 20
7.579734807862939
 30
0.0
 11
42.39296573409899
 21
6.452739245899404
 31
0.0
  0
LINE
  5
4B1
330
18
100
AcDbEntity
  8
1
 62
     1
100
AcDbLine
 10
42.39296573409899
 20
6.452739245899404
 30
0.0
 11
41.75869692000001
 21
5.372814254445647
 31
0.0
  0
ARC
  5
4B2
330
18
100
AcDbEntity
  8
1
 62
     1
100
AcDbCircle
 10
53.95556618768204
 20
16.57738030032389
 30
0.0
 40
15.80197419371118
100
AcDbArc
 50
235.603974885563
 51
239.771047468883
  0
LINE
  5
4B3
330
18
100
AcDbEntity
  8
1
 62
     1
100
AcDbLine
 10
45.02886752691898
 20
3.53832531840529
 30
0.0
 11
45.02886752691897
 21
-2.097627686770335
 31
0.0
  0
LINE
  5
4B4
330
18
100
AcDbEntity
  8
1
 62
     1
100
AcDbLine
 10
45.02886752691897
 20
-2.097627686770336
 30
0.0
 11
45.14929105906725
 21
-2.007887624046908
 31
0.0
  0
LINE
  5
4B5
330
18
100
AcDbEntity
  8
1
 62
     1
100
AcDbLine
 10
45.14929105906725
 20
-2.007887624046908
 30
0.0
 11
45.27022530867925
 21
-1.926009647748873
 31
0.0
  0
LINE
  5
4B6
330
18
100
AcDbEntity
  8
1
 62
     1
100
AcDbLine
 10
45.27022530867925
 20
-1.926009647748873
 30
0.0
 11
45.39156339113341
 21
-1.851915926309008
 31
0.0
  0
LINE
  5
4B7
330
18
100
AcDbEntity
  8
1
 62
     1
100
AcDbLine
 10
45.39156339113341
 20
-1.851915926309008
 30
0.0
 11
45.51317109690127
 21
-1.785536995000863
 31
0.0
  0
LINE
  5
4B8
330
18
100
AcDbEntity
  8
1
 62
     1
100
AcDbLine
 10
45.51317109690127
 20
-1.785536995000863
 30
0.0
 11
45.63495117623629
 21
-1.726782746624939
 31
0.0
  0
LINE
  5
4B9
330
18
100
AcDbEntity
  8
1
 62
     1
100
AcDbLine
 10
45.63495117623629
 20
-1.726782746624939
 30
0.0
 11
45.75676036274008
 21
-1.675582990537789
 31
0.0
  0
LINE
  5
4BA
330
18
100
AcDbEntity
  8
1
 62
     1
100
AcDbLine
 10
45.75676036274008
 20
-1.675582990537789
 30
0.0
 11
45.87849653528181
 21
-1.631849012540636
 31
0.0
  0
LINE
  5
4BB
330
18
100
AcDbEntity
  8
1
 62
     1
100
AcDbLine
 10
45.87849653528181
 20
-1.631849012540636
 30
0.0
 11
45.99999999999999
 21
-1.59551452696376
 31
0.0
  0
ARC
  5
4BC
330
18
100
AcDbEntity
  8
1
 62
     1
100
AcDbCircle
 10
47.72011995584995
 20
-5.273822600812903
 30
0.0
 40
8.376558343312196
100
AcDbArc
 50
95.1299433978154
 51
101.8499413991312
  0
LINE
  5
4BD
330
18
100
AcDbEntity
  8
1
 62
     1
100
AcDbLine
 10
46.0
 20
-1.59551452696376
 30
0.0
 11
45.99999999999999
 21
2.924223056891324
 31
0.0
  0
LINE
  5
4BE
330
18
100
AcDbEntity
  8
1
 62
     1
100
AcDbLine
 10
45.99999999999999
 20
-1.59551452696376
 30
0.0
 11
46.12517758620666
 21
-1.685536273851516
 31
0.0
  0
LINE
  5
4BF
330
18
100
AcDbEntity
  8
1
 62
     1
100
AcDbLine
 10
46.12517758620666
 20
-1.685536273851516
 30
0.0
 11
46.24954098842332
 21
-1.786025317707592
 31
0.0
  0
LINE
  5
4C0
330
18
100
AcDbEntity
  8
1
 62
     1
100
AcDbLine
 10
46.24954098842332
 20
-1.786025317707592
 30
0.0
 11
46.37293667540555
 21
-1.896658916018922
 31
0.0
  0
LINE
  5
4C1
330
18
100
AcDbEntity
  8
1
 62
     1
100
AcDbLine
 10
46.37293667540555
 20
-1.896658916018922
 30
0.0
 11
46.4952291817881
 21
-2.017107052809504
 31
0.0
  0
LINE
  5
4C2
330
18
100
AcDbEntity
  8
1
 62
     1
100
AcDbLine
 10
46.4952291817881
 20
-2.017107052809504
 30
0.0
 11
46.6162981649657
 21
-2.147032392947671
 31
0.0
  0
LINE
  5
4C3
330
18
100
AcDbEntity
  8
1
 62
     1
100
AcDbLine
 10
46.6162981649657
 20
-2.147032392947671
 30
0.0
 11
46.73603598554381
 21
-2.286090392630526
 31
0.0
  0
LINE
  5
4C4
330
18
100
AcDbEntity
  8
1
 62
     1
100
AcDbLine
 10
46.73603598554381
 20
-2.286090392630526
 30
0.0
 11
46.97113247308103
 21
-2.590181831371756
 31
0.0
  0
LINE
  5
4C5
330
18
100
AcDbEntity
  8
1
 62
     1
100
AcDbLine
 10
46.97113247308102
 20
3.06917174334861
 30
0.0
 11
46.97113247308103
 21
-2.590181831183397
 31
0.0
  0
ARC
  5
4C6
330
18
100
AcDbEntity
  8
1
 62
     1
100
AcDbCircle
 10
53.66491347417782
 20
14.54641029873585
 30
0.0
 40
13.26984024051768
100
AcDbArc
 50
239.9944307659226
 51
244.7287384655413
  0
LINE
  5
4C7
330
18
100
AcDbEntity
  8
1
 62
     1
100
AcDbLine
 10
47.02886752691897
 20
3.055021256140511
 30
0.0
 11
47.02886752691898
 21
-2.604668962367763
 31
0.0
  0
LINE
  5
4C8
330
18
100
AcDbEntity
  8
1
 62
     1
100
AcDbLine
 10
47.02886752691897
 20
-2.604668962367794
 30
0.0
 11
47.14929106677268
 21
-2.502411674591882
 31
0.0
  0
LINE
  5
4C9
330
18
100
AcDbEntity
  8
1
 62
     1
100
AcDbLine
 10
47.14929106677268
 20
-2.502411674591882
 30
0.0
 11
47.27022531932797
 21
-2.40778970139697
 31
0.0
  0
LINE
  5
4CA
330
18
100
AcDbEntity
  8
1
 62
     1
100
AcDbLine
 10
47.27022531932797
 20
-2.40778970139697
 30
0.0
 11
47.39156340108768
 21
-2.320745468795294
 31
0.0
  0
LINE
  5
4CB
330
18
100
AcDbEntity
  8
1
 62
     1
100
AcDbLine
 10
47.39156340108768
 20
-2.320745468795294
 30
0.0
 11
47.51317110446789
 21
-2.2412311849514
 31
0.0
  0
LINE
  5
4CC
330
18
100
AcDbEntity
  8
1
 62
     1
100
AcDbLine
 10
47.51317110446789
 20
-2.2412311849514
 30
0.0
 11
47.63495118072841
 21
-2.169173130810304
 31
0.0
  0
LINE
  5
4CD
330
18
100
AcDbEntity
  8
1
 62
     1
100
AcDbLine
 10
47.63495118072841
 20
-2.169173130810304
 30
0.0
 11
47.75676036475159
 21
-2.104520850571408
 31
0.0
  0
LINE
  5
4CE
330
18
100
AcDbEntity
  8
1
 62
     1
100
AcDbLine
 10
47.75676036475159
 20
-2.104520850571408
 30
0.0
 11
47.8784965358267
 21
-2.047199110358972
 31
0.0
  0
LINE
  5
4CF
330
18
100
AcDbEntity
  8
1
 62
     1
100
AcDbLine
 10
47.8784965358267
 20
-2.047199110358972
 30
0.0
 11
48.00000000000001
 21
-1.997159618620135
 31
0.0
  0
LINE
  5
4D0
330
18
100
AcDbEntity
  8
1
 62
     1
100
AcDbLine
 10
48.00000000000001
 20
-1.997159618620218
 30
0.0
 11
47.99999999999999
 21
2.546618769459779
 31
0.0
  0
ARC
  5
4D1
330
18
100
AcDbEntity
  8
1
 62
     1
100
AcDbCircle
 10
48.70430853558513
 20
-5.564826526930741
 30
0.0
 40
8.14196922523557
100
AcDbArc
 50
88.1220045158369
 51
94.96248798561973
  0
LINE
  5
4D2
330
18
100
AcDbEntity
  8
1
 62
     1
100
AcDbLine
 10
48.00000000000001
 20
-1.997159618620135
 30
0.0
 11
48.12517756356281
 21
-2.10027015229809
 31
0.0
  0
LINE
  5
4D3
330
18
100
AcDbEntity
  8
1
 62
     1
100
AcDbLine
 10
48.12517756356281
 20
-2.10027015229809
 30
0.0
 11
48.24954094607678
 21
-2.213525227915881
 31
0.0
  0
LINE
  5
4D4
330
18
100
AcDbEntity
  8
1
 62
     1
100
AcDbLine
 10
48.24954094607678
 20
-2.213525227915881
 30
0.0
 11
48.37293661902147
 21
-2.336576611252162
 31
0.0
  0
LINE
  5
4D5
330
18
100
AcDbEntity
  8
1
 62
     1
100
AcDbLine
 10
48.37293661902147
 20
-2.336576611252162
 30
0.0
 11
48.49522911924294
 21
-2.469069590850721
 31
0.0
  0
LINE
  5
4D6
330
18
100
AcDbEntity
  8
1
 62
     1
100
AcDbLine
 10
48.49522911924294
 20
-2.469069590850721
 30
0.0
 11
48.61629810543155
 21
-2.610642988361002
 31
0.0
  0
LINE
  5
4D7
330
18
100
AcDbEntity
  8
1
 62
     1
100
AcDbLine
 10
48.61629810543155
 20
-2.610642988361002
 30
0.0
 11
48.73603593825126
 21
-2.760929310563773
 31
0.0
  0
LINE
  5
4D8
330
18
100
AcDbEntity
  8
1
 62
     1
100
AcDbLine
 10
48.73603593825126
 20
-2.760929310563773
 30
0.0
 11
48.97113247308103
 21
-3.086130432144906
 31
0.0
  0
LINE
  5
4D9
330
18
100
AcDbEntity
  8
1
 62
     1
100
AcDbLine
 10
68.0
 20
5.657657582219789
 30
0.0
 11
68.0
 21
6.31795
 31
0.0
  0
LINE
  5
4DA
330
18
100
AcDbEntity
  8
1
 62
     1
100
AcDbLine
 10
68.00000000000001
 20
-5.264101294062734
 30
0.0
 11
68.00000000000001
 21
-1.553064171520952
 31
0.0
  0
LINE
  5
4DB
330
18
100
AcDbEntity
  8
1
 62
     1
100
AcDbLine
 10
67.63011775874226
 20
6.958604535970466
 30
0.0
 11
67.63011775874224
 21
6.95845118640012
 31
0.0
  0
LINE
  5
4DC
330
18
100
AcDbEntity
  8
1
 62
     1
100
AcDbLine
 10
67.63011775874224
 20
6.95845118640012
 30
0.0
 11
67.63011775874226
 21
6.912423518676642
 31
0.0
  0
LINE
  5
4DD
330
18
100
AcDbEntity
  8
1
 62
     1
100
AcDbLine
 10
67.63011775874226
 20
6.912423518676642
 30
0.0
 11
67.63011775874226
 21
6.244329748427423
 31
0.0
  0
ARC
  5
4DE
330
18
100
AcDbEntity
  8
1
 62
     1
100
AcDbCircle
 10
43.5733572313365
 20
-9.331940151245341
 30
0.0
 40
28.65917098961955
100
AcDbArc
 50
31.5356805087674
 51
32.92224715427303
  0
LINE
  5
4DF
330
18
100
AcDbEntity
  8
1
 62
     1
100
AcDbLine
 10
66.0
 20
5.831585205460361
 30
0.0
 11
66.0
 21
6.317950000000001
 31
0.0
  0
ARC
  5
4E0
330
18
100
AcDbEntity
  8
1
 62
     1
100
AcDbCircle
 10
79.89974018486159
 20
-3.376404960866512
 30
0.0
 40
16.67299319338274
100
AcDbArc
 50
143.3077724356979
 51
146.4772104026695
  0
LINE
  5
4E1
330
18
100
AcDbEntity
  8
1
 62
     1
100
AcDbLine
 10
66.53053910657343
 20
7.236870259540504
 30
0.0
 11
66.53053910657343
 21
7.236729797930389
 31
0.0
  0
LINE
  5
4E2
330
18
100
AcDbEntity
  8
1
 62
     1
100
AcDbLine
 10
66.53053910657343
 20
7.236729797930389
 30
0.0
 11
66.53053910657343
 21
7.194670287570533
 31
0.0
  0
LINE
  5
4E3
330
18
100
AcDbEntity
  8
1
 62
     1
100
AcDbLine
 10
66.53053910657343
 20
7.194670287570533
 30
0.0
 11
66.53053910657343
 21
6.585869490876998
 31
0.0
  0
LINE
  5
4E4
330
18
100
AcDbEntity
  8
1
 62
     1
100
AcDbLine
 10
65.28790210763006
 20
7.551339154479349
 30
0.0
 11
65.28790210763006
 21
7.551212336695731
 31
0.0
  0
LINE
  5
4E5
330
18
100
AcDbEntity
  8
1
 62
     1
100
AcDbLine
 10
65.28790210763006
 20
7.551212336695731
 30
0.0
 11
65.28790210763005
 21
7.513335029841332
 31
0.0
  0
LINE
  5
4E6
330
18
100
AcDbEntity
  8
1
 62
     1
100
AcDbLine
 10
65.28790210763005
 20
7.513335029841332
 30
0.0
 11
65.28790210763005
 21
6.966948877791447
 31
0.0
  0
ARC
  5
4E7
330
18
100
AcDbEntity
  8
1
 62
     1
100
AcDbCircle
 10
38.11083401530777
 20
-10.86550034506385
 30
0.0
 40
32.50524334423779
100
AcDbArc
 50
30.90871795836622
 51
33.27120128195439
  0
LINE
  5
4E8
330
18
100
AcDbEntity
  8
1
 62
     1
100
AcDbLine
 10
60.00000000000001
 20
6.197018810666663
 30
0.0
 11
60.00000000000001
 21
6.317950000000001
 31
0.0
  0
LINE
  5
4E9
330
18
100
AcDbEntity
  8
1
 62
     1
100
AcDbLine
 10
60.00000000000001
 20
6.197018810666662
 30
0.0
 11
60.97113247308103
 21
7.70934745425231
 31
0.0
  0
LINE
  5
4EA
330
18
100
AcDbEntity
  8
1
 62
     1
100
AcDbLine
 10
60.97113247308103
 20
8.0
 30
0.0
 11
60.97113247308103
 21
7.999935123213003
 31
0.0
  0
LINE
  5
4EB
330
18
100
AcDbEntity
  8
1
 62
     1
100
AcDbLine
 10
60.97113247308103
 20
7.999935123213003
 30
0.0
 11
60.97113247308102
 21
7.98076305383233
 31
0.0
  0
LINE
  5
4EC
330
18
100
AcDbEntity
  8
1
 62
     1
100
AcDbLine
 10
60.97113247308102
 20
7.98076305383233
 30
0.0
 11
60.97113247308103
 21
7.709347454252311
 31
0.0
  0
LINE
  5
4ED
330
18
100
AcDbEntity
  8
1
 62
     1
100
AcDbLine
 10
59.028867526919
 20
8.0
 30
0.0
 11
59.028867526919
 21
7.99996158058407
 31
0.0
  0
LINE
  5
4EE
330
18
100
AcDbEntity
  8
1
 62
     1
100
AcDbLine
 10
59.028867526919
 20
7.99996158058407
 30
0.0
 11
59.028867526919
 21
7.988673169417099
 31
0.0
  0
LINE
  5
4EF
330
18
100
AcDbEntity
  8
1
 62
     1
100
AcDbLine
 10
59.028867526919
 20
7.988673169417099
 30
0.0
 11
59.02886752691899
 21
7.8308973291253
 31
0.0
  0
ARC
  5
4F0
330
18
100
AcDbEntity
  8
1
 62
     1
100
AcDbCircle
 10
0.3284448825961803
 20
-28.1573574854427
 30
0.0
 40
68.85418404754012
100
AcDbArc
 50
29.93008857837029
 51
31.51177044831553
  0
LINE
  5
4F1
330
18
100
AcDbEntity
  8
1
 62
     1
100
AcDbLine
 10
56.0
 20
6.305287532380876
 30
0.0
 11
56.00000000000001
 21
6.317950000000001
 31
0.0
  0
ARC
  5
4F2
330
18
100
AcDbEntity
  8
1
 62
     1
100
AcDbCircle
 10
114.3608463064942
 20
-27.56972391262147
 30
0.0
 40
67.47954344438406
100
AcDbArc
 50
148.2643490993003
 51
149.8673755253813
  0
LINE
  5
4F3
330
18
100
AcDbEntity
  8
1
 62
     1
100
AcDbLine
 10
56.97113247308103
 20
8.0
 30
0.0
 11
56.97113247308103
 21
7.999982417666271
 31
0.0
  0
LINE
  5
4F4
330
18
100
AcDbEntity
  8
1
 62
     1
100
AcDbLine
 10
56.97113247308103
 20
7.999982417666271
 30
0.0
 11
56.97113247308103
 21
7.994849012420991
 31
0.0
  0
LINE
  5
4F5
330
18
100
AcDbEntity
  8
1
 62
     1
100
AcDbLine
 10
56.97113247308103
 20
7.994849012420991
 30
0.0
 11
56.97113247308104
 21
7.924235248447514
 31
0.0
  0
LINE
  5
4F6
330
18
100
AcDbEntity
  8
1
 62
     1
100
AcDbLine
 10
55.02886752691898
 20
8.0
 30
0.0
 11
55.02886752691899
 21
7.999994898301677
 31
0.0
  0
LINE
  5
4F7
330
18
100
AcDbEntity
  8
1
 62
     1
100
AcDbLine
 10
55.02886752691899
 20
7.999994898301677
 30
0.0
 11
55.02886752691898
 21
7.998514649052083
 31
0.0
  0
LINE
  5
4F8
330
18
100
AcDbEntity
  8
1
 62
     1
100
AcDbLine
 10
55.02886752691898
 20
7.998514649052083
 30
0.0
 11
55.02886752691898
 21
7.978502635990078
 31
0.0
  0
ARC
  5
4F9
330
18
100
AcDbEntity
  8
1
 62
     1
100
AcDbCircle
 10
-131.6563158346031
 20
-101.4837172082629
 30
0.0
 40
216.4101237376422
100
AcDbArc
 50
29.87287978426702
 51
30.38508230423255
  0
LINE
  5
4FA
330
18
100
AcDbEntity
  8
1
 62
     1
100
AcDbLine
 10
54.00000000000001
 20
6.317921541873432
 30
0.0
 11
54.07122164606685
 21
6.441309606129767
 31
0.0
  0
LINE
  5
4FB
330
18
100
AcDbEntity
  8
1
 62
     1
100
AcDbLine
 10
54.97113247308103
 20
8.0
 30
0.0
 11
54.97113247308103
 21
7.999995157736617
 31
0.0
  0
LINE
  5
4FC
330
18
100
AcDbEntity
  8
1
 62
     1
100
AcDbLine
 10
54.97113247308103
 20
7.999995157736617
 30
0.0
 11
54.97113247308103
 21
7.99859044922707
 31
0.0
  0
LINE
  5
4FD
330
18
100
AcDbEntity
  8
1
 62
     1
100
AcDbLine
 10
54.97113247308103
 20
7.99859044922707
 30
0.0
 11
54.97113247308104
 21
7.979610132969166
 31
0.0
  0
LINE
  5
4FE
330
18
100
AcDbEntity
  8
1
 62
     1
100
AcDbLine
 10
63.02886752691897
 20
8.0
 30
0.0
 11
63.02886752691897
 21
7.999900239350136
 31
0.0
  0
LINE
  5
4FF
330
18
100
AcDbEntity
  8
1
 62
     1
100
AcDbLine
 10
63.02886752691897
 20
7.999900239350136
 30
0.0
 11
63.02886752691897
 21
7.97024597163654
 31
0.0
  0
LINE
  5
500
330
18
100
AcDbEntity
  8
1
 62
     1
100
AcDbLine
 10
63.02886752691897
 20
7.97024597163654
 30
0.0
 11
63.02886752691897
 21
7.545704490196231
 31
0.0
  0
ARC
  5
501
330
18
100
AcDbEntity
  8
1
 62
     1
100
AcDbCircle
 10
31.2760560362504
 20
-13.22312267084582
 30
0.0
 40
37.94192826734486
100
AcDbArc
 50
30.40516945308068
 51
33.18783103833488
  0
LINE
  5
502
330
18
100
AcDbEntity
  8
1
 62
     1
100
AcDbLine
 10
61.028867526919
 20
8.0
 30
0.0
 11
61.02886752691899
 21
7.999934239230764
 31
0.0
  0
LINE
  5
503
330
18
100
AcDbEntity
  8
1
 62
     1
100
AcDbLine
 10
61.02886752691899
 20
7.999934239230764
 30
0.0
 11
61.028867526919
 21
7.980497680568204
 31
0.0
  0
LINE
  5
504
330
18
100
AcDbEntity
  8
1
 62
     1
100
AcDbLine
 10
61.028867526919
 20
7.980497680568204
 30
0.0
 11
61.028867526919
 21
7.705242173301203
 31
0.0
  0
ARC
  5
505
330
18
100
AcDbEntity
  8
1
 62
     1
100
AcDbCircle
 10
18.99917552768252
 20
-18.83925393521388
 30
0.0
 40
49.71025918312463
100
AcDbArc
 50
30.11436726851752
 51
32.27508638736988
  0
LINE
  5
506
330
18
100
AcDbEntity
  8
1
 62
     1
100
AcDbLine
 10
62.00000000000001
 20
6.101860267593219
 30
0.0
 11
62.00000000000001
 21
6.317950000000001
 31
0.0
  0
LINE
  5
507
330
18
100
AcDbEntity
  8
1
 62
     1
100
AcDbLine
 10
62.0
 20
6.101860267593217
 30
0.0
 11
62.49522926018798
 21
6.872096685366884
 31
0.0
  0
LINE
  5
508
330
18
100
AcDbEntity
  8
1
 62
     1
100
AcDbLine
 10
62.49522926018798
 20
6.872096685366884
 30
0.0
 11
62.97113247308103
 21
7.550778798751663
 31
0.0
  0
LINE
  5
509
330
18
100
AcDbEntity
  8
1
 62
     1
100
AcDbLine
 10
62.97113247308103
 20
8.0
 30
0.0
 11
62.97113247308101
 21
7.999901311718805
 31
0.0
  0
LINE
  5
50A
330
18
100
AcDbEntity
  8
1
 62
     1
100
AcDbLine
 10
62.97113247308101
 20
7.999901311718805
 30
0.0
 11
62.97113247308103
 21
7.970570551738435
 31
0.0
  0
LINE
  5
50B
330
18
100
AcDbEntity
  8
1
 62
     1
100
AcDbLine
 10
62.97113247308103
 20
7.970570551738435
 30
0.0
 11
62.97113247308103
 21
7.550778797222691
 31
0.0
  0
LINE
  5
50C
330
18
100
AcDbEntity
  8
1
 62
     1
100
AcDbLine
 10
58.00000000000001
 20
6.264927471398458
 30
0.0
 11
58.00000000000001
 21
6.317950000000001
 31
0.0
  0
ARC
  5
50D
330
18
100
AcDbEntity
  8
1
 62
     1
100
AcDbCircle
 10
95.40410811751431
 20
-15.77507792616131
 30
0.0
 40
43.41448094187088
100
AcDbArc
 50
147.0561807218406
 51
149.4916968298554
  0
LINE
  5
50E
330
18
100
AcDbEntity
  8
1
 62
     1
100
AcDbLine
 10
58.97113247308106
 20
8.0
 30
0.0
 11
58.97113247308106
 21
7.999962267908873
 31
0.0
  0
LINE
  5
50F
330
18
100
AcDbEntity
  8
1
 62
     1
100
AcDbLine
 10
58.97113247308106
 20
7.999962267908873
 30
0.0
 11
58.97113247308104
 21
7.988877739067203
 31
0.0
  0
LINE
  5
510
330
18
100
AcDbEntity
  8
1
 62
     1
100
AcDbLine
 10
58.97113247308104
 20
7.988877739067203
 30
0.0
 11
58.97113247308104
 21
7.834015602397661
 31
0.0
  0
LINE
  5
511
330
18
100
AcDbEntity
  8
1
 62
     1
100
AcDbLine
 10
57.02886752691899
 20
8.0
 30
0.0
 11
57.028867526919
 21
7.999981937638642
 31
0.0
  0
LINE
  5
512
330
18
100
AcDbEntity
  8
1
 62
     1
100
AcDbLine
 10
57.028867526919
 20
7.999981937638642
 30
0.0
 11
57.028867526919
 21
7.994707424334181
 31
0.0
  0
LINE
  5
513
330
18
100
AcDbEntity
  8
1
 62
     1
100
AcDbLine
 10
57.028867526919
 20
7.994707424334181
 30
0.0
 11
57.028867526919
 21
7.922117701147064
 31
0.0
  0
ARC
  5
514
330
18
100
AcDbEntity
  8
1
 62
     1
100
AcDbCircle
 10
-34.20111469431763
 20
-46.64583630523899
 30
0.0
 40
106.3041677802618
100
AcDbArc
 50
29.84989855622506
 51
30.88517105851851
  0
LINE
  5
515
330
18
100
AcDbEntity
  8
1
 62
     1
100
AcDbLine
 10
64.0
 20
5.979870196884507
 30
0.0
 11
64.0
 21
6.317950000000001
 31
0.0
  0
ARC
  5
516
330
18
100
AcDbEntity
  8
1
 62
     1
100
AcDbCircle
 10
80.15051695510434
 20
-4.298891747056276
 30
0.0
 40
19.14387459515071
100
AcDbArc
 50
143.3822216002677
 51
147.5258781092235
  0
LINE
  5
517
330
18
100
AcDbEntity
  8
1
 62
     1
100
AcDbLine
 10
64.78550234651823
 20
7.678479339286914
 30
0.0
 11
64.78550234651823
 21
7.678357765959885
 31
0.0
  0
LINE
  5
518
330
18
100
AcDbEntity
  8
1
 62
     1
100
AcDbLine
 10
64.78550234651823
 20
7.678357765959885
 30
0.0
 11
64.78550234651823
 21
7.642082916724397
 31
0.0
  0
LINE
  5
519
330
18
100
AcDbEntity
  8
1
 62
     1
100
AcDbLine
 10
64.78550234651823
 20
7.642082916724397
 30
0.0
 11
64.78550234651823
 21
7.11957408751483
 31
0.0
  0
ARC
  5
51A
330
18
100
AcDbEntity
  8
1
 62
     1
100
AcDbCircle
 10
1406.998696945179
 20
-767.0839910422359
 30
0.0
 40
1560.175729904149
100
AcDbArc
 50
150.2154348572552
 51
150.2837582263495
  0
LINE
  5
51B
330
18
100
AcDbEntity
  8
1
 62
     1
100
AcDbLine
 10
52.97113247308103
 20
7.999999999993829
 30
0.0
 11
52.97113247308103
 21
7.999999998220837
 31
0.0
  0
LINE
  5
51C
330
18
100
AcDbEntity
  8
1
 62
     1
100
AcDbLine
 10
52.97113247308103
 20
7.999999998220837
 30
0.0
 11
52.97113247308103
 21
7.99999954118381
 31
0.0
  0
LINE
  5
51D
330
18
100
AcDbEntity
  8
1
 62
     1
100
AcDbLine
 10
52.97113247308103
 20
7.99999954118381
 30
0.0
 11
52.97113247308104
 21
7.999896463714689
 31
0.0
  0
ARC
  5
51E
330
18
100
AcDbEntity
  8
1
 62
     1
100
AcDbCircle
 10
245.3276442079786
 20
118.9673756013481
 30
0.0
 40
223.7607957911635
100
AcDbArc
 50
209.7345601345735
 51
210.2321391428749
  0
ARC
  5
51F
330
18
100
AcDbEntity
  8
1
 62
     1
100
AcDbCircle
 10
-123.5481134885163
 20
105.0269652059707
 30
0.0
 40
199.6845373337753
100
AcDbArc
 50
330.3555906200014
 51
330.9236186202594
  0
ARC
  5
520
330
18
100
AcDbEntity
  8
1
 62
     1
100
AcDbCircle
 10
145.5837154371408
 20
62.72970028387546
 30
0.0
 40
111.0183979052519
100
AcDbArc
 50
209.5739628036583
 51
210.5741183307076
  0
LINE
  5
521
330
18
100
AcDbEntity
  8
1
 62
     1
100
AcDbLine
 10
53.02886752691898
 20
7.999999999997078
 30
0.0
 11
53.02886752691898
 21
7.999999999157875
 31
0.0
  0
LINE
  5
522
330
18
100
AcDbEntity
  8
1
 62
     1
100
AcDbLine
 10
53.02886752691898
 20
7.999999999157875
 30
0.0
 11
53.02886752691898
 21
7.999999782846037
 31
0.0
  0
LINE
  5
523
330
18
100
AcDbEntity
  8
1
 62
     1
100
AcDbLine
 10
53.02886752691898
 20
7.999999782846037
 30
0.0
 11
53.02886752691898
 21
7.999984292670708
 31
0.0
  0
LINE
  5
524
330
18
100
AcDbEntity
  8
1
 62
     1
100
AcDbLine
 10
53.02886752691898
 20
7.999984292670708
 30
0.0
 11
53.02886752691897
 21
7.999803874084092
 31
0.0
  0
LINE
  5
525
330
18
100
AcDbEntity
  8
1
 62
     1
100
AcDbLine
 10
53.02886752691897
 20
7.999803874084098
 30
0.0
 11
53.2203187450679
 21
7.66839700020444
 31
0.0
  0
LINE
  5
526
330
18
100
AcDbEntity
  8
1
 62
     1
100
AcDbLine
 10
43.00000000000001
 20
-7.999986549186622
 30
0.0
 11
43.0
 21
-8.0
 31
0.0
  0
ARC
  5
527
330
18
100
AcDbEntity
  8
1
 62
     1
100
AcDbCircle
 10
176.9328505749186
 20
69.31116995010801
 30
0.0
 40
154.6448124370435
100
AcDbArc
 50
209.0619605182943
 51
209.9951835986818
  0
ARC
  5
528
330
18
100
AcDbEntity
  8
1
 62
     1
100
AcDbCircle
 10
79.17766783241703
 20
28.2223898137059
 30
0.0
 40
41.62634698487744
100
AcDbArc
 50
209.7254631892306
 51
212.3191607596404
  0
ARC
  5
529
330
18
100
AcDbEntity
  8
1
 62
     1
100
AcDbCircle
 10
4.437263994145731
 20
28.89113693325428
 30
0.0
 40
45.72429625099668
100
AcDbArc
 50
329.9109508643872
 51
332.4334784518324
  0
ARC
  5
52A
330
18
100
AcDbEntity
  8
1
 62
     1
100
AcDbCircle
 10
91.64824927623486
 20
34.18530788459591
 30
0.0
 40
53.60041795087493
100
AcDbArc
 50
209.5695103983663
 51
211.6094698637902
  0
ARC
  5
52B
330
18
100
AcDbEntity
  8
1
 62
     1
100
AcDbCircle
 10
-7.208704554452353
 20
36.60864819775811
 30
0.0
 40
61.33880073514577
100
AcDbArc
 50
330.1644812049132
 51
332.0407322916656
  0
ARC
  5
52C
330
18
100
AcDbEntity
  8
1
 62
     1
100
AcDbCircle
 10
110.5652629004145
 20
43.82838275312206
 30
0.0
 40
73.01436704024245
100
AcDbArc
 50
209.519244730942
 51
211.0308456182851
  0
ARC
  5
52D
330
18
100
AcDbEntity
  8
1
 62
     1
100
AcDbCircle
 10
-32.94674229248089
 20
52.3385098741897
 30
0.0
 40
93.17789818326389
100
AcDbArc
 50
330.3118678529604
 51
331.540133898717
  0
LINE
  5
52E
330
18
100
AcDbEntity
  8
1
 62
     1
100
AcDbLine
 10
68.0
 20
-0.7850685882078385
 30
0.0
 11
68.0
 21
5.657657582219787
 31
0.0
  0
LINE
  5
52F
330
18
100
AcDbEntity
  8
1
 62
     1
100
AcDbLine
 10
65.28790210763006
 20
6.966948877791451
 30
0.0
 11
64.78550234651823
 21
7.119574087514831
 31
0.0
  0
LINE
  5
530
330
18
100
AcDbEntity
  8
1
 62
     1
100
AcDbLine
 10
63.02886752691899
 20
7.54570449019623
 30
0.0
 11
62.97113247308106
 21
7.550778790872008
 31
0.0
  0
LINE
  5
531
330
18
100
AcDbEntity
  8
1
 62
     1
100
AcDbLine
 10
61.02886752691897
 20
7.705242173301204
 30
0.0
 11
60.97113247308104
 21
7.709347454252312
 31
0.0
  0
LINE
  5
532
330
18
100
AcDbEntity
  8
1
 62
     1
100
AcDbLine
 10
59.02886752691898
 20
7.830897329125303
 30
0.0
 11
58.97113247308106
 21
7.834015602058395
 31
0.0
  0
LINE
  5
533
330
18
100
AcDbEntity
  8
1
 62
     1
100
AcDbLine
 10
57.02886752691898
 20
7.922117701147071
 30
0.0
 11
56.97113247308106
 21
7.9242352477911
 31
0.0
  0
LINE
  5
534
330
18
100
AcDbEntity
  8
1
 62
     1
100
AcDbLine
 10
55.02886752691899
 20
7.978502635990078
 30
0.0
 11
54.97113247308104
 21
7.979610131960984
 31
0.0
  0
LINE
  5
535
330
18
100
AcDbEntity
  8
1
 62
     1
100
AcDbLine
 10
53.02886752691899
 20
7.999803874084093
 30
0.0
 11
52.97113247308103
 21
7.999896463714684
 31
0.0
  0
LINE
  5
536
330
18
100
AcDbEntity
  8
1
 62
     1
100
AcDbLine
 10
51.02886752691899
 20
7.985927855512095
 30
0.0
 11
50.97113247308104
 21
7.985005133263121
 31
0.0
  0
LINE
  5
537
330
18
100
AcDbEntity
  8
1
 62
     1
100
AcDbLine
 10
49.02886752691897
 20
7.936935464517527
 30
0.0
 11
48.97113247308103
 21
7.935001481152215
 31
0.0
  0
LINE
  5
538
330
18
100
AcDbEntity
  8
1
 62
     1
100
AcDbLine
 10
47.02886752691897
 20
7.853042431284909
 30
0.0
 11
46.97113247308101
 21
7.850105679995999
 31
0.0
  0
LINE
  5
539
330
18
100
AcDbEntity
  8
1
 62
     1
100
AcDbLine
 10
45.02886752691896
 20
7.734617350046599
 30
0.0
 11
44.97113247308102
 21
7.730690775084526
 31
0.0
  0
LINE
  5
53A
330
18
100
AcDbEntity
  8
1
 62
     1
100
AcDbLine
 10
43.02886752691898
 20
7.582180924029667
 30
0.0
 11
43.0
 21
7.579734807862937
 31
0.0
  0
LINE
  5
53B
330
18
100
AcDbEntity
  8
1
 62
     1
100
AcDbLine
 10
43.02886752691898
 20
4.006070761913924
 30
0.0
 11
43.00000000000001
 21
4.012697983359742
 31
0.0
  0
LINE
  5
53C
330
18
100
AcDbEntity
  8
1
 62
     1
100
AcDbLine
 10
45.02886752691896
 20
3.538325318405291
 30
0.0
 11
44.97113247308101
 21
3.552056086688865
 31
0.0
  0
LINE
  5
53D
330
18
100
AcDbEntity
  8
1
 62
     1
100
AcDbLine
 10
47.02886752691897
 20
3.055021256140511
 30
0.0
 11
46.97113247308103
 21
3.069171742150045
 31
0.0
  0
LINE
  5
53E
330
18
100
AcDbEntity
  8
1
 62
     1
100
AcDbLine
 10
49.02886752691897
 20
2.558283813146398
 30
0.0
 11
48.97113247308101
 21
2.572791697393393
 31
0.0
  0
LINE
  5
53F
330
18
100
AcDbEntity
  8
1
 62
     1
100
AcDbLine
 10
51.02886752691897
 20
2.050296011992671
 30
0.0
 11
50.97113247308103
 21
2.06509755879464
 31
0.0
  0
LINE
  5
540
330
18
100
AcDbEntity
  8
1
 62
     1
100
AcDbLine
 10
53.02886752691899
 20
1.533293405028584
 30
0.0
 11
52.97113247308102
 21
1.548323547857285
 31
0.0
  0
LINE
  5
541
330
18
100
AcDbEntity
  8
1
 62
     1
100
AcDbLine
 10
55.02886752691898
 20
1.009548033643644
 30
0.0
 11
54.97113247308106
 21
1.024740581670612
 31
0.0
  0
LINE
  5
542
330
18
100
AcDbEntity
  8
1
 62
     1
100
AcDbLine
 10
57.02886752691896
 20
0.4813632786539864
 30
0.0
 11
56.97113247308103
 21
0.4966515450467447
 31
0.0
  0
LINE
  5
543
330
18
100
AcDbEntity
  8
1
 62
     1
100
AcDbLine
 10
59.02886752691902
 20
-0.0489374443863808
 30
0.0
 11
58.97113247308104
 21
-0.0336207522627356
 31
0.0
  0
LINE
  5
544
330
18
100
AcDbEntity
  8
1
 62
     1
100
AcDbLine
 10
61.02886752691899
 20
-0.5790238308741747
 30
0.0
 11
60.97113247308102
 21
-0.5637460821936305
 31
0.0
  0
LINE
  5
545
330
18
100
AcDbEntity
  8
1
 62
     1
100
AcDbLine
 10
63.02886752691899
 20
-1.106564403697887
 30
0.0
 11
62.97113247308101
 21
-1.091392646275159
 31
0.0
  0
LINE
  5
546
330
18
100
AcDbEntity
  8
1
 62
     1
100
AcDbLine
 10
68.0
 20
-0.7850685882078356
 30
0.0
 11
68.0
 21
-1.553064171520952
 31
0.0
  0
LINE
  5
547
330
18
100
AcDbEntity
  8
1
 62
     1
100
AcDbLine
 10
41.75869692
 20
-4.726138423042574
 30
0.0
 11
41.75869692000001
 21
-0.682280075260415
 31
0.0
  0
LINE
  5
548
330
18
100
AcDbEntity
  8
1
 62
     1
100
AcDbLine
 10
63.02886752691899
 20
-6.074320865343525
 30
0.0
 11
62.97113247308101
 21
-6.064342138563729
 31
0.0
  0
LINE
  5
549
330
18
100
AcDbEntity
  8
1
 62
     1
100
AcDbLine
 10
61.02886752691897
 20
-5.715933268783644
 30
0.0
 11
60.97113247308104
 21
-5.70520644897928
 31
0.0
  0
LINE
  5
54A
330
18
100
AcDbEntity
  8
1
 62
     1
100
AcDbLine
 10
59.02886752691898
 20
-5.332412060534359
 30
0.0
 11
58.971132473081
 21
-5.320984173999193
 31
0.0
  0
LINE
  5
54B
330
18
100
AcDbEntity
  8
1
 62
     1
100
AcDbLine
 10
57.028867526919
 20
-4.925443807544666
 30
0.0
 11
56.97113247308103
 21
-4.913365117446551
 31
0.0
  0
LINE
  5
54C
330
18
100
AcDbEntity
  8
1
 62
     1
100
AcDbLine
 10
55.02886752691898
 20
-4.496815861304098
 30
0.0
 11
54.97113247308106
 21
-4.484139563104407
 31
0.0
  0
LINE
  5
54D
330
18
100
AcDbEntity
  8
1
 62
     1
100
AcDbLine
 10
53.02886752691897
 20
-4.048414637872526
 30
0.0
 11
52.97113247308103
 21
-4.035196315047632
 31
0.0
  0
LINE
  5
54E
330
18
100
AcDbEntity
  8
1
 62
     1
100
AcDbLine
 10
51.02886752691897
 20
-3.582211992363368
 30
0.0
 11
50.97113247308105
 21
-3.568509917322178
 31
0.0
  0
LINE
  5
54F
330
18
100
AcDbEntity
  8
1
 62
     1
100
AcDbLine
 10
49.02886752691898
 20
-3.100256054095175
 30
0.0
 11
48.97113247308102
 21
-3.086130431483628
 31
0.0
  0
LINE
  5
550
330
18
100
AcDbEntity
  8
1
 62
     1
100
AcDbLine
 10
47.02886752691898
 20
-2.60466896236776
 30
0.0
 11
46.97113247308101
 21
-2.590181830680272
 31
0.0
  0
LINE
  5
551
330
18
100
AcDbEntity
  8
1
 62
     1
100
AcDbLine
 10
45.02886752691897
 20
-2.097627686770292
 30
0.0
 11
44.97113247308102
 21
-2.082842902672444
 31
0.0
  0
LINE
  5
552
330
18
100
AcDbEntity
  8
1
 62
     1
100
AcDbLine
 10
43.02886752691898
 20
-1.581362125661926
 30
0.0
 11
43.00000000000001
 21
-1.573854050665468
 31
0.0
  0
LINE
  5
553
330
18
100
AcDbEntity
  8
1
 62
     1
100
AcDbLine
 10
43.02886752691897
 20
-7.999996927264967
 30
0.0
 11
43.00000000000001
 21
-7.999986549186625
 31
0.0
  0
LINE
  5
554
330
18
100
AcDbEntity
  8
1
 62
     1
100
AcDbLine
 10
45.02886752691897
 20
-7.982872537837876
 30
0.0
 11
44.97113247308101
 21
-7.983859640945112
 31
0.0
  0
LINE
  5
555
330
18
100
AcDbEntity
  8
1
 62
     1
100
AcDbLine
 10
47.02886752691898
 20
-7.930645316908
 30
0.0
 11
46.97113247308103
 21
-7.932643279060113
 31
0.0
  0
LINE
  5
556
330
18
100
AcDbEntity
  8
1
 62
     1
100
AcDbLine
 10
49.02886752691898
 20
-7.843544998137947
 30
0.0
 11
48.97113247308101
 21
-7.846545019936936
 31
0.0
  0
LINE
  5
557
330
18
100
AcDbEntity
  8
1
 62
     1
100
AcDbLine
 10
51.02886752691897
 20
-7.721954311796527
 30
0.0
 11
50.97113247308104
 21
-7.725943213216163
 31
0.0
  0
LINE
  5
558
330
18
100
AcDbEntity
  8
1
 62
     1
100
AcDbLine
 10
53.02886752691899
 20
-7.566408352790859
 30
0.0
 11
52.97113247308101
 21
-7.57136860030227
 31
0.0
  0
LINE
  5
559
330
18
100
AcDbEntity
  8
1
 62
     1
100
AcDbLine
 10
55.02886752691898
 20
-7.377590730209771
 30
0.0
 11
54.97113247308102
 21
-7.383500478445533
 31
0.0
  0
LINE
  5
55A
330
18
100
AcDbEntity
  8
1
 62
     1
100
AcDbLine
 10
57.02886752691899
 20
-7.15633179203991
 30
0.0
 11
56.97113247308103
 21
-7.163165097878275
 31
0.0
  0
LINE
  5
55B
330
18
100
AcDbEntity
  8
1
 62
     1
100
AcDbLine
 10
59.02886752691896
 20
-6.903604880536788
 30
0.0
 11
58.97113247308103
 21
-6.911331671623124
 31
0.0
  0
LINE
  5
55C
330
18
100
AcDbEntity
  8
1
 62
     1
100
AcDbLine
 10
61.028867526919
 20
-6.620520540939937
 30
0.0
 11
60.97113247308102
 21
-6.629106829088636
 31
0.0
  0
LINE
  5
55D
330
18
100
AcDbEntity
  8
1
 62
     1
100
AcDbLine
 10
63.02886752691897
 20
-6.308323762317214
 30
0.0
 11
62.97113247308103
 21
-6.317731871638965
 31
0.0
  0
LINE
  5
55E
330
18
100
AcDbEntity
  8
1
 62
     1
100
AcDbLine
 10
41.75869691999999
 20
-5.808295855691667
 30
0.0
 11
41.75869692
 21
-5.85
 31
0.0
  0
LINE
  5
55F
330
18
100
AcDbEntity
  8
1
 62
     1
100
AcDbLine
 10
41.75869691999999
 20
-5.808295855691659
 30
0.0
 11
41.75869691999999
 21
-4.726138423042581
 31
0.0
  0
LINE
  5
560
330
18
100
AcDbEntity
  8
1
 62
     1
100
AcDbLine
 10
41.75869692
 20
3.508010030950677
 30
0.0
 11
41.75869692
 21
-0.6822800752575124
 31
0.0
  0
LINE
  5
561
330
18
100
AcDbEntity
  8
1
 62
     1
100
AcDbLine
 10
68.0
 20
6.317950000000001
 30
0.0
 11
67.63011775874226
 21
6.958604535970472
 31
0.0
  0
LINE
  5
562
330
18
100
AcDbEntity
  8
1
 62
     1
100
AcDbLine
 10
66.53053910657343
 20
7.236870259540506
 30
0.0
 11
66.0
 21
6.317950000000001
 31
0.0
  0
LINE
  5
563
330
18
100
AcDbEntity
  8
1
 62
     1
100
AcDbLine
 10
65.99999999999999
 20
6.317950000000001
 30
0.0
 11
65.28790210763006
 21
7.551339154479354
 31
0.0
  0
LINE
  5
564
330
18
100
AcDbEntity
  8
1
 62
     1
100
AcDbLine
 10
43.0
 20
-8.0
 30
0.0
 11
43.02886752691897
 21
-8.0
 31
0.0
  0
LINE
  5
565
330
18
100
AcDbEntity
  8
1
 62
     1
100
AcDbLine
 10
60.97113247308104
 20
7.999999999999999
 30
0.0
 11
60.00000000000001
 21
6.317950000000002
 31
0.0
  0
LINE
  5
566
330
18
100
AcDbEntity
  8
1
 62
     1
100
AcDbLine
 10
60.0
 20
6.317950000000001
 30
0.0
 11
59.02886752691897
 21
7.999999999999995
 31
0.0
  0
LINE
  5
567
330
18
100
AcDbEntity
  8
1
 62
     1
100
AcDbLine
 10
56.97113247308103
 20
7.999999999999999
 30
0.0
 11
56.00000000000001
 21
6.317950000000001
 31
0.0
  0
LINE
  5
568
330
18
100
AcDbEntity
  8
1
 62
     1
100
AcDbLine
 10
56.00000000000001
 20
6.317950000000001
 30
0.0
 11
55.02886752691898
 21
7.999999999999999
 31
0.0
  0
LINE
  5
569
330
18
100
AcDbEntity
  8
1
 62
     1
100
AcDbLine
 10
54.07122164606685
 20
6.441309606129767
 30
0.0
 11
54.07125756712536
 21
6.441371823196637
 31
0.0
  0
ARC
  5
56A
330
18
100
AcDbEntity
  8
1
 62
     1
100
AcDbCircle
 10
158.8323003280321
 20
-53.76800159499148
 30
0.0
 40
120.8305585985675
100
AcDbArc
 50
149.2676413891284
 51
150.1127011441054
  0
LINE
  5
56B
330
18
100
AcDbEntity
  8
1
 62
     1
100
AcDbLine
 10
54.97113247308103
 20
7.999999999999999
 30
0.0
 11
54.07122171277668
 21
6.44130956761482
 31
0.0
  0
LINE
  5
56C
330
18
100
AcDbEntity
  8
1
 62
     1
100
AcDbLine
 10
64.0
 20
6.317950000000001
 30
0.0
 11
63.02886752691897
 21
7.999999999999999
 31
0.0
  0
LINE
  5
56D
330
18
100
AcDbEntity
  8
1
 62
     1
100
AcDbLine
 10
62.00000000000001
 20
6.31795
 30
0.0
 11
61.02886752691897
 21
7.999999999999991
 31
0.0
  0
LINE
  5
56E
330
18
100
AcDbEntity
  8
1
 62
     1
100
AcDbLine
 10
62.97113247308104
 20
8.0
 30
0.0
 11
62.00000000000001
 21
6.317950000000001
 31
0.0
  0
LINE
  5
56F
330
18
100
AcDbEntity
  8
1
 62
     1
100
AcDbLine
 10
58.97113247308106
 20
8.000000000000032
 30
0.0
 11
58.00000000000001
 21
6.31795
 31
0.0
  0
LINE
  5
570
330
18
100
AcDbEntity
  8
1
 62
     1
100
AcDbLine
 10
58.00000000000001
 20
6.317950000000001
 30
0.0
 11
57.02886752691897
 21
7.999999999999997
 31
0.0
  0
LINE
  5
571
330
18
100
AcDbEntity
  8
1
 62
     1
100
AcDbLine
 10
64.78550234651824
 20
7.678479339286912
 30
0.0
 11
64.0
 21
6.317950000000001
 31
0.0
  0
LINE
  5
572
330
18
100
AcDbEntity
  8
1
 62
     1
100
AcDbLine
 10
52.92365066263589
 20
7.917759130122444
 30
0.0
 11
52.92365684353026
 21
7.917769835738678
 31
0.0
  0
LINE
  5
573
330
18
100
AcDbEntity
  8
1
 62
     1
100
AcDbLine
 10
52.92365684353026
 20
7.917769835738677
 30
0.0
 11
52.97113247308104
 21
7.999896463714689
 31
0.0
  0
LINE
  5
574
330
18
100
AcDbEntity
  8
1
 62
     1
100
AcDbLine
 10
52.97113247308103
 20
7.999999999999998
 30
0.0
 11
52.92365066259431
 21
7.91775913014646
 31
0.0
  0
LINE
  5
575
330
18
100
AcDbEntity
  8
1
 62
     1
100
AcDbLine
 10
53.2203187450679
 20
7.66839700020444
 30
0.0
 11
54.00000000000001
 21
6.317921541873432
 31
0.0
  0
LINE
  5
576
330
18
100
AcDbEntity
  8
1
 62
     1
100
AcDbLine
 10
53.22031870930137
 20
7.668396979554597
 30
0.0
 11
53.02886752691897
 21
8.000000000000007
 31
0.0
  0
LINE
  5
577
330
18
100
AcDbEntity
  8
1
 62
     1
100
AcDbLine
 10
41.75869692
 20
-5.85
 30
0.0
 11
43.0
 21
-8.0
 31
0.0
  0
LINE
  5
578
330
18
100
AcDbEntity
  8
1
 62
     1
100
AcDbLine
 10
41.75869692
 20
3.508010030950676
 30
0.0
 11
41.75869691999998
 21
5.372814254445655
 31
0.0
  0
LINE
  5
579
330
18
100
AcDbEntity
  8
1
 62
     1
100
AcDbLine
 10
52.71089454417613
 20
1.615999901587021
 30
0.0
 11
52.97113247308104
 21
1.548323548316654
 31
0.0
  0
LINE
  5
57A
330
18
100
AcDbEntity
  8
SK1
100
AcDbLine
 10
0.0
 20
6.0
 30
0.0
 11
-30.0
 21
6.0
 31
0.0
  0
LINE
  5
57B
330
18
100
AcDbEntity
  8
SK1
100
AcDbLine
 10
-41.39999999999999
 20
-4.5
 30
0.0
 11
-30.0
 21
-4.5
 31
0.0
  0
LINE
  5
57C
330
18
100
AcDbEntity
  8
SK1
100
AcDbLine
 10
-30.0
 20
-4.499999999999998
 30
0.0
 11
-30.0
 21
-6.0
 31
0.0
  0
LINE
  5
57D
330
18
100
AcDbEntity
  8
SK1
100
AcDbLine
 10
-41.40000000000001
 20
3.968626966596888
 30
0.0
 11
-30.0
 21
3.968626966596888
 31
0.0
  0
ARC
  5
57E
330
18
100
AcDbEntity
  8
SK1
100
AcDbCircle
 10
-29.53085183012942
 20
-3.951274661339079
 30
0.0
 40
14.26859395823295
100
AcDbArc
 50
146.2860902044525
 51
150.914041196625
  0
LINE
  5
57F
330
18
100
AcDbEntity
  8
SK1
100
AcDbLine
 10
-41.4
 20
4.500000000000001
 30
0.0
 11
-41.4
 21
3.968626966596888
 31
0.0
  0
LINE
  5
580
330
18
100
AcDbEntity
  8
SK1
100
AcDbLine
 10
-42.0
 20
4.500000000000001
 30
0.0
 11
-41.39999999999999
 21
4.500000000000002
 31
0.0
  0
LINE
  5
581
330
18
100
AcDbEntity
  8
SK1
100
AcDbLine
 10
-30.0
 20
6.0
 30
0.0
 11
-30.0
 21
5.999685792802129
 31
0.0
  0
LINE
  5
582
330
18
100
AcDbEntity
  8
SK1
100
AcDbLine
 10
-30.0
 20
5.999685792802129
 30
0.0
 11
-30.0
 21
5.903486979349213
 31
0.0
  0
LINE
  5
583
330
18
100
AcDbEntity
  8
SK1
100
AcDbLine
 10
-30.0
 20
5.903486979349213
 30
0.0
 11
-30.0
 21
4.500000000000001
 31
0.0
  0
LINE
  5
584
330
18
100
AcDbEntity
  8
SK1
100
AcDbLine
 10
-41.40000000000001
 20
4.500000000000001
 30
0.0
 11
-30.00000000000001
 21
4.500000000000001
 31
0.0
  0
LINE
  5
585
330
18
100
AcDbEntity
  8
SK1
100
AcDbLine
 10
-41.40000000000001
 20
-3.968626966596883
 30
0.0
 11
-41.40000000000001
 21
-4.499999999999998
 31
0.0
  0
LINE
  5
586
330
18
100
AcDbEntity
  8
SK1
100
AcDbLine
 10
-42.0
 20
2.984962311319863
 30
0.0
 11
-42.00000000000001
 21
-2.984962311319861
 31
0.0
  0
LINE
  5
587
330
18
100
AcDbEntity
  8
SK1
100
AcDbLine
 10
-41.99999999999999
 20
4.5
 30
0.0
 11
-41.99999999999999
 21
2.984962311319863
 31
0.0
  0
LINE
  5
588
330
18
100
AcDbEntity
  8
SK1
100
AcDbLine
 10
-42.00000000000001
 20
-2.984962311319861
 30
0.0
 11
-41.99999999999999
 21
-4.499999999999999
 31
0.0
  0
ARC
  5
589
330
18
100
AcDbEntity
  8
SK1
100
AcDbCircle
 10
-29.53085183010492
 20
3.951274661353608
 30
0.0
 40
14.26859395826142
100
AcDbArc
 50
209.0859588033782
 51
213.7139097955415
  0
LINE
  5
58A
330
18
100
AcDbEntity
  8
SK1
100
AcDbLine
 10
-42.0
 20
-4.5
 30
0.0
 11
-41.39999999999999
 21
-4.5
 31
0.0
  0
LINE
  5
58B
330
18
100
AcDbEntity
  8
SK1
100
AcDbLine
 10
-30.0
 20
3.968626966596922
 30
0.0
 11
-30.0
 21
-3.968626966596921
 31
0.0
  0
LINE
  5
58C
330
18
100
AcDbEntity
  8
SK1
100
AcDbLine
 10
-41.4
 20
-3.968626966596884
 30
0.0
 11
-30.0
 21
-3.968626966596884
 31
0.0
  0
LINE
  5
58D
330
18
100
AcDbEntity
  8
SK1
100
AcDbLine
 10
-30.0
 20
-6.0
 30
0.0
 11
0.0
 21
-6.0
 31
0.0
  0
DIMENSION
  5
58E
330
18
100
AcDbEntity
  8
2
100
AcDbDimension
  2
*D0
 10
83.00000000000006
 20
-7.999999999999948
 30
0.0
 11
80.60925000000003
 21
0.0000000000000439
 31
0.0
 70
    32
  1
M16
 71
     5
 42
16.0
  3
STANDARD
100
AcDbAlignedDimension
 13
68.0
 23
8.0
 33
0.0
 14
68.0
 24
-8.0
 34
0.0
 50
90.0000000000002
100
AcDbRotatedDimension
  0
DIMENSION
  5
59B
330
18
100
AcDbEntity
  8
2
100
AcDbDimension
  2
*D1
 10
68.0
 20
75.0
 30
0.0
 11
34.0
 21
77.39075
 31
0.0
 70
    32
  1
<>
 71
     5
 42
68.0
  3
STANDARD
100
AcDbAlignedDimension
 13
0.0
 23
0.0
 33
0.0
 14
68.0
 24
0.0
 34
0.0
100
AcDbRotatedDimension
  0
DIMENSION
  5
5A8
330
18
100
AcDbEntity
  8
SK2
100
AcDbDimension
  2
*D2
 10
-56.99999999996938
 20
-6.000000000137792
 30
0.0
 11
-59.39075
 21
-0.0000000001499931
 31
0.0
 70
    32
  1
%%c<>
 71
     5
 42
12.0
  3
STANDARD
100
AcDbAlignedDimension
 13
-30.0
 23
6.0
 33
0.0
 14
-30.0
 24
-6.0
 34
0.0
 50
90.0000000002924
100
AcDbRotatedDimension
  0
DIMENSION
  5
5B5
330
18
100
AcDbEntity
  8
2
100
AcDbDimension
  2
*D3
 10
68.0
 20
60.0
 30
0.0
 11
54.87934846
 21
62.438
 31
0.0
 70
    32
  1
<>
 71
     5
 42
26.24130308
  3
STANDARD
100
AcDbAlignedDimension
 13
41.75869692
 23
5.85
 33
0.0
 14
68.0
 24
8.0
 34
0.0
100
AcDbRotatedDimension
  0
DIMENSION
  5
5C2
330
18
100
AcDbEntity
  8
SK2
100
AcDbDimension
  2
*D4
 10
68.0
 20
90.0
 30
0.0
 11
13.0
 21
92.39075
 31
0.0
 70
    32
  1
<>
 71
     5
 42
110.0
  3
STANDARD
100
AcDbAlignedDimension
 13
-42.0
 23
8.0
 33
0.0
 14
68.0
 24
8.0
 34
0.0
100
AcDbRotatedDimension
  0
ENDSEC
  0
SECTION
  2
OBJECTS
  0
DICTIONARY
  5
C
330
0
100
AcDbDictionary
281
     1
  3
ACAD_COLOR
350
387
  3
ACAD_GROUP
350
D
  3
ACAD_LAYOUT
350
301
  3
ACAD_MATERIAL
350
386
  3
ACAD_MLEADERSTYLE
350
5CF
  3
ACAD_MLINESTYLE
350
E
  3
ACAD_PLOTSETTINGS
350
302
  3
ACAD_PLOTSTYLENAME
350
2FF
  3
ACAD_SCALELIST
350
3A0
  3
ACAD_TABLESTYLE
350
388
  3
ACAD_VISUALSTYLE
350
3C5
  3
ACDBHEADERROUNDTRIPXREC
350
5D0
  3
AcDbVariableDictionary
350
357
  0
DICTIONARY
  5
387
102
{ACAD_REACTORS
330
C
102
}
330
C
100
AcDbDictionary
281
     1
  0
DICTIONARY
  5
D
102
{ACAD_REACTORS
330
C
102
}
330
C
100
AcDbDictionary
281
     1
  0
DICTIONARY
  5
301
102
{ACAD_REACTORS
330
C
102
}
330
C
100
AcDbDictionary
281
     1
  3
Layout1
350
33B
  3
Model
350
303
  0
DICTIONARY
  5
386
102
{ACAD_REACTORS
330
C
102
}
330
C
100
AcDbDictionary
281
     1
  3
ByBlock
350
3C3
  3
ByLayer
350
3C2
  3
Global
350
3C4
  0
DICTIONARY
  5
5CF
102
{ACAD_REACTORS
330
C
102
}
330
C
100
AcDbDictionary
281
     1
  0
DICTIONARY
  5
E
102
{ACAD_REACTORS
330
C
102
}
330
C
100
AcDbDictionary
281
     1
  3
STANDARD
350
1B
  0
DICTIONARY
  5
302
102
{ACAD_REACTORS
330
C
102
}
330
C
100
AcDbDictionary
281
     1
  0
ACDBDICTIONARYWDFLT
  5
2FF
102
{ACAD_REACTORS
330
C
102
}
330
C
100
AcDbDictionary
281
     1
  3
Normal
350
300
100
AcDbDictionaryWithDefault
340
300
  0
DICTIONARY
  5
3A0
102
{ACAD_REACTORS
330
C
102
}
330
C
100
AcDbDictionary
281
     1
  3
A0
350
3A1
  3
A1
350
3A2
  3
A2
350
3A3
  3
A3
350
3A4
  3
A4
350
3A5
  3
A5
350
3A6
  3
A6
350
3A7
  3
A7
350
3A8
  3
A8
350
3A9
  3
A9
350
3AA
  3
B0
350
3AB
  3
B1
350
3AC
  3
B2
350
3AD
  3
B3
350
3AE
  3
B4
350
3AF
  3
B5
350
3B0
  3
B6
350
3B1
  3
B7
350
3B2
  3
B8
350
3B3
  3
B9
350
3B4
  3
C0
350
3B5
  3
C1
350
3B6
  3
C2
350
3B7
  3
C3
350
3B8
  3
C4
350
3B9
  3
C5
350
3BA
  3
C6
350
3BB
  3
C7
350
3BC
  3
C8
350
3BD
  3
C9
350
3BE
  3
D0
350
3BF
  3
D1
350
3C0
  3
D2
350
3C1
  0
DICTIONARY
  5
388
102
{ACAD_REACTORS
330
C
102
}
330
C
100
AcDbDictionary
281
     1
  3
Standard
350
389
  0
DICTIONARY
  5
3C5
102
{ACAD_REACTORS
330
C
102
}
330
C
100
AcDbDictionary
281
     1
  3
2dWireframe
350
3CA
  3
3D Hidden
350
3CC
  3
3dWireframe
350
3CB
  3
Basic
350
3CD
  3
Brighten
350
3D1
  3
ColorChange
350
3D5
  3
Conceptual
350
3CF
  3
Dim
350
3D0
  3
Facepattern
350
3D4
  3
Flat
350
3C6
  3
FlatWithEdges
350
3C7
  3
Gouraud
350
3C8
  3
GouraudWithEdges
350
3C9
  3
Linepattern
350
3D3
  3
Realistic
350
3CE
  3
Thicken
350
3D2
  0
DICTIONARY
  5
5D0
102
{ACAD_REACTORS
330
C
102
}
330
C
100
AcDbDictionary
281
     1
  3
COLORDICT
350
5D1
  3
MATERIALDICT
350
5D2
  0
DICTIONARY
  5
357
102
{ACAD_REACTORS
330
C
102
}
330
C
100
AcDbDictionary
281
     1
  3
CANNOSCALE
350
5D3
  3
CTABLESTYLE
350
38D
  3
DIMASSOC
350
359
  3
HIDETEXT
350
358
  3
PROJECTNAME
350
38E
  0
LAYOUT
  5
33B
102
{ACAD_REACTORS
330
301
102
}
330
301
100
AcDbPlotSettings
  1

  2
Lexmark Optra PS2
  4

  6

 40
0.0
 41
0.0
 42
0.0
 43
0.0
 44
0.0
 45
0.0
 46
0.0
 47
0.0
 48
0.0
 49
0.0
140
0.0
141
0.0
142
1.0
143
1.0
 70
   688
 72
     0
 73
     0
 74
     5
  7
monochrome.ctb
 75
    16
147
1.0
148
0.0
149
0.0
100
AcDbLayout
  1
Layout1
 70
     1
 71
     1
 10
0.0
 20
0.0
 11
12.0
 21
9.0
 12
0.0
 22
0.0
 32
0.0
 14
0.0
 24
0.0
 34
0.0
 15
0.0
 25
0.0
 35
0.0
146
0.0
 13
0.0
 23
0.0
 33
0.0
 16
1.0
 26
0.0
 36
0.0
 17
0.0
 27
1.0
 37
0.0
 76
     0
330
338
  0
LAYOUT
  5
303
102
{ACAD_REACTORS
330
301
102
}
330
301
100
AcDbPlotSettings
  1

  2
Lexmark Optra Rx
  4
A4
  6

 40
6.805083274841307
 41
5.535083293914794
 42
6.974411010742187
 43
7.14373779296875
 44
209.9733276367186
 45
296.9259948730469
 46
0.0
 47
0.0
 48
0.0
 49
0.0
140
0.0
141
0.0
142
1.0
143
2.976565420630886
 70
 11952
 72
     1
 73
     1
 74
     0
  7
monochrome.ctb
 75
     0
147
0.335957675604539
148
204.1199660668592
149
172.3933209647495
100
AcDbLayout
  1
Model
 70
     1
 71
     0
 10
0.0
 20
0.0
 11
12.0
 21
9.0
 12
0.0
 22
0.0
 32
0.0
 14
0.0
 24
0.0
 34
0.0
 15
0.0
 25
0.0
 35
0.0
146
0.0
 13
0.0
 23
0.0
 33
0.0
 16
1.0
 26
0.0
 36
0.0
 17
0.0
 27
1.0
 37
0.0
 76
     0
330
18
331
39A
  0
MATERIAL
  5
3C3
102
{ACAD_REACTORS
330
386
102
}
102
{ACAD_XDICTIONARY
360
5D6
102
}
330
386
100
AcDbMaterial
  1
ByBlock
  0
MATERIAL
  5
3C2
102
{ACAD_REACTORS
330
386
102
}
102
{ACAD_XDICTIONARY
360
5D4
102
}
330
386
100
AcDbMaterial
  1
ByLayer
  0
MATERIAL
  5
3C4
102
{ACAD_REACTORS
330
386
102
}
102
{ACAD_XDICTIONARY
360
5D8
102
}
330
386
100
AcDbMaterial
  1
Global
  0
MLINESTYLE
  5
1B
102
{ACAD_REACTORS
330
E
102
}
330
E
100
AcDbMlineStyle
  2
STANDARD
 70
     0
  3

 62
     0
 51
90.0
 52
90.0
 71
     2
 49
0.5
 62
   256
  6
BYLAYER
 49
-0.5
 62
   256
  6
BYLAYER
  0
ACDBPLACEHOLDER
  5
300
102
{ACAD_REACTORS
330
2FF
102
}
330
2FF
  0
SCALE
  5
3A1
102
{ACAD_REACTORS
330
3A0
102
}
330
3A0
100
AcDbScale
 70
     0
300
1:1
140
1.0
141
1.0
290
     1
  0
SCALE
  5
3A2
102
{ACAD_REACTORS
330
3A0
102
}
330
3A0
100
AcDbScale
 70
     0
300
1:2
140
1.0
141
2.0
290
     0
  0
SCALE
  5
3A3
102
{ACAD_REACTORS
330
3A0
102
}
330
3A0
100
AcDbScale
 70
     0
300
1:4
140
1.0
141
4.0
290
     0
  0
SCALE
  5
3A4
102
{ACAD_REACTORS
330
3A0
102
}
330
3A0
100
AcDbScale
 70
     0
300
1:5
140
1.0
141
5.0
290
     0
  0
SCALE
  5
3A5
102
{ACAD_REACTORS
330
3A0
102
}
330
3A0
100
AcDbScale
 70
     0
300
1:8
140
1.0
141
8.0
290
     0
  0
SCALE
  5
3A6
102
{ACAD_REACTORS
330
3A0
102
}
330
3A0
100
AcDbScale
 70
     0
300
1:10
140
1.0
141
10.0
290
     0
  0
SCALE
  5
3A7
102
{ACAD_REACTORS
330
3A0
102
}
330
3A0
100
AcDbScale
 70
     0
300
1:16
140
1.0
141
16.0
290
     0
  0
SCALE
  5
3A8
102
{ACAD_REACTORS
330
3A0
102
}
330
3A0
100
AcDbScale
 70
     0
300
1:20
140
1.0
141
20.0
290
     0
  0
SCALE
  5
3A9
102
{ACAD_REACTORS
330
3A0
102
}
330
3A0
100
AcDbScale
 70
     0
300
1:30
140
1.0
141
30.0
290
     0
  0
SCALE
  5
3AA
102
{ACAD_REACTORS
330
3A0
102
}
330
3A0
100
AcDbScale
 70
     0
300
1:40
140
1.0
141
40.0
290
     0
  0
SCALE
  5
3AB
102
{ACAD_REACTORS
330
3A0
102
}
330
3A0
100
AcDbScale
 70
     0
300
1:50
140
1.0
141
50.0
290
     0
  0
SCALE
  5
3AC
102
{ACAD_REACTORS
330
3A0
102
}
330
3A0
100
AcDbScale
 70
     0
300
1:100
140
1.0
141
100.0
290
     0
  0
SCALE
  5
3AD
102
{ACAD_REACTORS
330
3A0
102
}
330
3A0
100
AcDbScale
 70
     0
300
2:1
140
2.0
141
1.0
290
     0
  0
SCALE
  5
3AE
102
{ACAD_REACTORS
330
3A0
102
}
330
3A0
100
AcDbScale
 70
     0
300
4:1
140
4.0
141
1.0
290
     0
  0
SCALE
  5
3AF
102
{ACAD_REACTORS
330
3A0
102
}
330
3A0
100
AcDbScale
 70
     0
300
8:1
140
8.0
141
1.0
290
     0
  0
SCALE
  5
3B0
102
{ACAD_REACTORS
330
3A0
102
}
330
3A0
100
AcDbScale
 70
     0
300
10:1
140
10.0
141
1.0
290
     0
  0
SCALE
  5
3B1
102
{ACAD_REACTORS
330
3A0
102
}
330
3A0
100
AcDbScale
 70
     0
300
100:1
140
100.0
141
1.0
290
     0
  0
SCALE
  5
3B2
102
{ACAD_REACTORS
330
3A0
102
}
330
3A0
100
AcDbScale
 70
     0
300
1/128" = 1'-0"
140
0.0078125
141
12.0
290
     0
  0
SCALE
  5
3B3
102
{ACAD_REACTORS
330
3A0
102
}
330
3A0
100
AcDbScale
 70
     0
300
1/64" = 1'-0"
140
0.015625
141
12.0
290
     0
  0
SCALE
  5
3B4
102
{ACAD_REACTORS
330
3A0
102
}
330
3A0
100
AcDbScale
 70
     0
300
1/32" = 1'-0"
140
0.03125
141
12.0
290
     0
  0
SCALE
  5
3B5
102
{ACAD_REACTORS
330
3A0
102
}
330
3A0
100
AcDbScale
 70
     0
300
1/16" = 1'-0"
140
0.0625
141
12.0
290
     0
  0
SCALE
  5
3B6
102
{ACAD_REACTORS
330
3A0
102
}
330
3A0
100
AcDbScale
 70
     0
300
3/32" = 1'-0"
140
0.09375
141
12.0
290
     0
  0
SCALE
  5
3B7
102
{ACAD_REACTORS
330
3A0
102
}
330
3A0
100
AcDbScale
 70
     0
300
1/8" = 1'-0"
140
0.125
141
12.0
290
     0
  0
SCALE
  5
3B8
102
{ACAD_REACTORS
330
3A0
102
}
330
3A0
100
AcDbScale
 70
     0
300
3/16" = 1'-0"
140
0.1875
141
12.0
290
     0
  0
SCALE
  5
3B9
102
{ACAD_REACTORS
330
3A0
102
}
330
3A0
100
AcDbScale
 70
     0
300
1/4" = 1'-0"
140
0.25
141
12.0
290
     0
  0
SCALE
  5
3BA
102
{ACAD_REACTORS
330
3A0
102
}
330
3A0
100
AcDbScale
 70
     0
300
3/8" = 1'-0"
140
0.375
141
12.0
290
     0
  0
SCALE
  5
3BB
102
{ACAD_REACTORS
330
3A0
102
}
330
3A0
100
AcDbScale
 70
     0
300
1/2" = 1'-0"
140
0.5
141
12.0
290
     0
  0
SCALE
  5
3BC
102
{ACAD_REACTORS
330
3A0
102
}
330
3A0
100
AcDbScale
 70
     0
300
3/4" = 1'-0"
140
0.75
141
12.0
290
     0
  0
SCALE
  5
3BD
102
{ACAD_REACTORS
330
3A0
102
}
330
3A0
100
AcDbScale
 70
     0
300
1" = 1'-0"
140
1.0
141
12.0
290
     0
  0
SCALE
  5
3BE
102
{ACAD_REACTORS
330
3A0
102
}
330
3A0
100
AcDbScale
 70
     0
300
1-1/2" = 1'-0"
140
1.5
141
12.0
290
     0
  0
SCALE
  5
3BF
102
{ACAD_REACTORS
330
3A0
102
}
330
3A0
100
AcDbScale
 70
     0
300
3" = 1'-0"
140
3.0
141
12.0
290
     0
  0
SCALE
  5
3C0
102
{ACAD_REACTORS
330
3A0
102
}
330
3A0
100
AcDbScale
 70
     0
300
6" = 1'-0"
140
6.0
141
12.0
290
     0
  0
SCALE
  5
3C1
102
{ACAD_REACTORS
330
3A0
102
}
330
3A0
100
AcDbScale
 70
     0
300
1'-0" = 1'-0"
140
12.0
141
12.0
290
     0
  0
TABLESTYLE
  5
389
102
{ACAD_REACTORS
330
388
102
}
330
388
100
AcDbTableStyle
  3
Standard
 70
     0
 71
     0
 40
1.5
 41
1.5
280
     0
281
     0
  7
STANDARD
140
4.5
170
     2
 62
     0
 63
   257
283
     0
274
    -2
284
     1
 64
     0
275
    -2
285
     1
 65
     0
276
    -2
286
     1
 66
     0
277
    -2
287
     1
 67
     0
278
    -2
288
     1
 68
     0
279
    -2
289
     1
 69
     0
  7
STANDARD
140
6.0
170
     5
 62
     0
 63
   257
283
     0
274
    -2
284
     1
 64
     0
275
    -2
285
     1
 65
     0
276
    -2
286
     1
 66
     0
277
    -2
287
     1
 67
     0
278
    -2
288
     1
 68
     0
279
    -2
289
     1
 69
     0
  7
STANDARD
140
4.5
170
     5
 62
     0
 63
   257
283
     0
274
    -2
284
     1
 64
     0
275
    -2
285
     1
 65
     0
276
    -2
286
     1
 66
     0
277
    -2
287
     1
 67
     0
278
    -2
288
     1
 68
     0
279
    -2
289
     1
 69
     0
  0
VISUALSTYLE
  5
3CA
102
{ACAD_REACTORS
330
3C5
102
}
102
{ACAD_XDICTIONARY
360
5E2
102
}
330
3C5
100
AcDbVisualStyle
  2
2dWireframe
 70
     4
 71
     0
 72
     2
 73
     0
 90
        0
 40
-0.6
 41
-30.0
 62
     5
 63
     7
 74
     1
 91
        4
 64
     7
 65
   257
 75
     1
175
     1
 42
1.0
 92
        0
 66
   257
 43
1.0
 76
     1
 77
     6
 78
     2
 67
     7
 79
     5
170
     0
171
     0
290
     0
174
     0
 93
        1
 44
0.0
173
     0
291
     0
 45
0.0
1001
ACAD
1000
AcDbSavedByObjectVersion
1070
     0
  0
VISUALSTYLE
  5
3CC
102
{ACAD_REACTORS
330
3C5
102
}
102
{ACAD_XDICTIONARY
360
5E6
102
}
330
3C5
100
AcDbVisualStyle
  2
3D Hidden
 70
     6
 71
     1
 72
     2
 73
     2
 90
        0
 40
-0.6
 41
-30.0
 62
     5
 63
     7
 74
     2
 91
        2
 64
     7
 65
   257
 75
     2
175
     1
 42
40.0
 92
        0
 66
   257
 43
1.0
 76
     1
 77
     6
 78
     2
 67
     7
 79
     3
170
     0
171
     0
290
     0
174
     0
 93
        1
 44
0.0
173
     0
291
     0
 45
0.0
1001
ACAD
1000
AcDbSavedByObjectVersion
1070
     0
  0
VISUALSTYLE
  5
3CB
102
{ACAD_REACTORS
330
3C5
102
}
102
{ACAD_XDICTIONARY
360
5E4
102
}
330
3C5
100
AcDbVisualStyle
  2
3dWireframe
 70
     5
 71
     0
 72
     2
 73
     0
 90
        0
 40
-0.6
 41
-30.0
 62
     5
 63
     7
 74
     1
 91
        4
 64
     7
 65
   257
 75
     1
175
     1
 42
1.0
 92
        0
 66
   257
 43
1.0
 76
     1
 77
     6
 78
     2
 67
     7
 79
     5
170
     0
171
     0
290
     0
174
     0
 93
        1
 44
0.0
173
     0
291
     0
 45
0.0
1001
ACAD
1000
AcDbSavedByObjectVersion
1070
     0
  0
VISUALSTYLE
  5
3CD
102
{ACAD_REACTORS
330
3C5
102
}
102
{ACAD_XDICTIONARY
360
5E8
102
}
330
3C5
100
AcDbVisualStyle
  2
Basic
 70
     7
 71
     1
 72
     0
 73
     1
 90
        0
 40
-0.6
 41
-30.0
 62
     5
 63
     7
 74
     0
 91
        4
 64
     7
 65
   257
 75
     1
175
     1
 42
1.0
 92
        8
 66
     7
 43
1.0
 76
     1
 77
     6
 78
     2
 67
     7
 79
     5
170
     0
171
     0
290
     0
174
     0
 93
        1
 44
0.0
173
     0
291
     1
 45
0.0
1001
ACAD
1000
AcDbSavedByObjectVersion
1070
     0
  0
VISUALSTYLE
  5
3D1
102
{ACAD_REACTORS
330
3C5
102
}
102
{ACAD_XDICTIONARY
360
5F0
102
}
330
3C5
100
AcDbVisualStyle
  2
Brighten
 70
    12
 71
     2
 72
     2
 73
     0
 90
        0
 40
-0.6
 41
-30.0
 62
     5
 63
     7
 74
     1
 91
        4
 64
     7
 65
   257
 75
     1
175
     1
 42
1.0
 92
        8
 66
     7
 43
1.0
 76
     1
 77
     6
 78
     2
 67
     7
 79
     5
170
     0
171
     0
290
     0
174
     0
 93
        1
 44
50.0
173
     0
291
     1
 45
0.0
1001
ACAD
1000
AcDbSavedByObjectVersion
1070
     0
  0
VISUALSTYLE
  5
3D5
102
{ACAD_REACTORS
330
3C5
102
}
102
{ACAD_XDICTIONARY
360
5F8
102
}
330
3C5
100
AcDbVisualStyle
  2
ColorChange
 70
    16
 71
     2
 72
     2
 73
     3
 90
        0
 40
-0.6
 41
-30.0
 62
     5
 63
     8
 74
     1
 91
        4
 64
     7
 65
   257
 75
     1
175
     1
 42
1.0
 92
        8
 66
     8
 43
1.0
 76
     1
 77
     6
 78
     2
 67
     7
 79
     5
170
     0
171
     0
290
     0
174
     0
 93
        1
 44
0.0
173
     0
291
     1
 45
0.0
1001
ACAD
1000
AcDbSavedByObjectVersion
1070
     0
  0
VISUALSTYLE
  5
3CF
102
{ACAD_REACTORS
330
3C5
102
}
102
{ACAD_XDICTIONARY
360
5EC
102
}
330
3C5
100
AcDbVisualStyle
  2
Conceptual
 70
     9
 71
     3
 72
     2
 73
     0
 90
        0
 40
-0.6
 41
-30.0
 62
     5
 63
     7
 74
     2
 91
        2
 64
     7
 65
   257
 75
     1
175
     1
 42
40.0
 92
        8
 66
     7
 43
1.0
 76
     1
 77
     6
 78
     2
 67
     7
 79
     3
170
     0
171
     0
290
     0
174
     0
 93
        1
 44
0.0
173
     0
291
     0
 45
0.0
1001
ACAD
1000
AcDbSavedByObjectVersion
1070
     0
  0
VISUALSTYLE
  5
3D0
102
{ACAD_REACTORS
330
3C5
102
}
102
{ACAD_XDICTIONARY
360
5EE
102
}
330
3C5
100
AcDbVisualStyle
  2
Dim
 70
    11
 71
     2
 72
     2
 73
     0
 90
        0
 40
-0.6
 41
-30.0
 62
     5
 63
     7
 74
     1
 91
        4
 64
     7
 65
   257
 75
     1
175
     1
 42
1.0
 92
        8
 66
     7
 43
1.0
 76
     1
 77
     6
 78
     2
 67
     7
 79
     5
170
     0
171
     0
290
     0
174
     0
 93
        1
 44
-50.0
173
     0
291
     1
 45
0.0
1001
ACAD
1000
AcDbSavedByObjectVersion
1070
     0
  0
VISUALSTYLE
  5
3D4
102
{ACAD_REACTORS
330
3C5
102
}
102
{ACAD_XDICTIONARY
360
5F6
102
}
330
3C5
100
AcDbVisualStyle
  2
Facepattern
 70
    15
 71
     2
 72
     2
 73
     0
 90
        0
 40
-0.6
 41
-30.0
 62
     5
 63
     7
 74
     1
 91
        4
 64
     7
 65
   257
 75
     1
175
     1
 42
1.0
 92
        8
 66
     7
 43
1.0
 76
     1
 77
     6
 78
     2
 67
     7
 79
     5
170
     0
171
     0
290
     0
174
     0
 93
        1
 44
0.0
173
     0
291
     1
 45
0.0
1001
ACAD
1000
AcDbSavedByObjectVersion
1070
     0
  0
VISUALSTYLE
  5
3C6
102
{ACAD_REACTORS
330
3C5
102
}
102
{ACAD_XDICTIONARY
360
5DA
102
}
330
3C5
100
AcDbVisualStyle
  2
Flat
 70
     0
 71
     2
 72
     1
 73
     1
 90
        2
 40
-0.6
 41
30.0
 62
     5
 63
     7
 74
     0
 91
        4
 64
     7
 65
   257
 75
     1
175
     1
 42
1.0
 92
        8
 66
     7
 43
1.0
 76
     1
 77
     6
 78
     2
 67
     7
 79
     5
170
     0
171
     0
290
     0
174
     0
 93
       13
 44
0.0
173
     0
291
     1
 45
0.0
1001
ACAD
1000
AcDbSavedByObjectVersion
1070
     0
  0
VISUALSTYLE
  5
3C7
102
{ACAD_REACTORS
330
3C5
102
}
102
{ACAD_XDICTIONARY
360
5DC
102
}
330
3C5
100
AcDbVisualStyle
  2
FlatWithEdges
 70
     1
 71
     2
 72
     1
 73
     1
 90
        2
 40
-0.6
 41
30.0
 62
     5
 63
     7
 74
     1
 91
        4
 64
     7
 65
   257
 75
     1
175
     1
 42
1.0
 92
        0
 66
   257
 43
1.0
 76
     1
 77
     6
 78
     2
 67
     7
 79
     5
170
     0
171
     0
290
     0
174
     0
 93
       13
 44
0.0
173
     0
291
     1
 45
0.0
1001
ACAD
1000
AcDbSavedByObjectVersion
1070
     0
  0
VISUALSTYLE
  5
3C8
102
{ACAD_REACTORS
330
3C5
102
}
102
{ACAD_XDICTIONARY
360
5DE
102
}
330
3C5
100
AcDbVisualStyle
  2
Gouraud
 70
     2
 71
     2
 72
     2
 73
     1
 90
        2
 40
-0.6
 41
30.0
 62
     5
 63
     7
 74
     0
 91
        4
 64
     7
 65
   257
 75
     1
175
     1
 42
1.0
 92
        0
 66
     7
 43
1.0
 76
     1
 77
     6
 78
     2
 67
     7
 79
     5
170
     0
171
     0
290
     0
174
     0
 93
       13
 44
0.0
173
     0
291
     1
 45
0.0
1001
ACAD
1000
AcDbSavedByObjectVersion
1070
     0
  0
VISUALSTYLE
  5
3C9
102
{ACAD_REACTORS
330
3C5
102
}
102
{ACAD_XDICTIONARY
360
5E0
102
}
330
3C5
100
AcDbVisualStyle
  2
GouraudWithEdges
 70
     3
 71
     2
 72
     2
 73
     1
 90
        2
 40
-0.6
 41
30.0
 62
     5
 63
     7
 74
     1
 91
        4
 64
     7
 65
   257
 75
     1
175
     1
 42
1.0
 92
        0
 66
   257
 43
1.0
 76
     1
 77
     6
 78
     2
 67
     7
 79
     5
170
     0
171
     0
290
     0
174
     0
 93
       13
 44
0.0
173
     0
291
     1
 45
0.0
1001
ACAD
1000
AcDbSavedByObjectVersion
1070
     0
  0
VISUALSTYLE
  5
3D3
102
{ACAD_REACTORS
330
3C5
102
}
102
{ACAD_XDICTIONARY
360
5F4
102
}
330
3C5
100
AcDbVisualStyle
  2
Linepattern
 70
    14
 71
     2
 72
     2
 73
     0
 90
        0
 40
-0.6
 41
-30.0
 62
     5
 63
     7
 74
     1
 91
        4
 64
     7
 65
   257
 75
     7
175
     7
 42
1.0
 92
        8
 66
     7
 43
1.0
 76
     1
 77
     6
 78
     2
 67
     7
 79
     5
170
     0
171
     0
290
     0
174
     0
 93
        1
 44
0.0
173
     0
291
     1
 45
0.0
1001
ACAD
1000
AcDbSavedByObjectVersion
1070
     0
  0
VISUALSTYLE
  5
3CE
102
{ACAD_REACTORS
330
3C5
102
}
102
{ACAD_XDICTIONARY
360
5EA
102
}
330
3C5
100
AcDbVisualStyle
  2
Realistic
 70
     8
 71
     2
 72
     2
 73
     0
 90
        0
 40
-0.6
 41
-30.0
 62
     5
 63
     7
 74
     1
 91
        0
 64
     7
 65
   257
 75
     1
175
     1
 42
1.0
 92
        8
 66
     8
 43
1.0
 76
     1
 77
     6
 78
     2
 67
     7
 79
     5
170
     0
171
     0
290
     0
174
     0
 93
       13
 44
0.0
173
     0
291
     0
 45
0.0
1001
ACAD
1000
AcDbSavedByObjectVersion
1070
     0
  0
VISUALSTYLE
  5
3D2
102
{ACAD_REACTORS
330
3C5
102
}
102
{ACAD_XDICTIONARY
360
5F2
102
}
330
3C5
100
AcDbVisualStyle
  2
Thicken
 70
    13
 71
     2
 72
     2
 73
     0
 90
        0
 40
-0.6
 41
-30.0
 62
     5
 63
     7
 74
     1
 91
        4
 64
     7
 65
   257
 75
     1
175
     1
 42
1.0
 92
       12
 66
     7
 43
1.0
 76
     1
 77
     6
 78
     2
 67
     7
 79
     5
170
     0
171
     0
290
     0
174
     0
 93
        1
 44
0.0
173
     0
291
     1
 45
0.0
1001
ACAD
1000
AcDbSavedByObjectVersion
1070
     0
  0
XRECORD
  5
5D1
102
{ACAD_REACTORS
330
5D0
102
}
330
5D0
100
AcDbXrecord
280
     1
340
387
  0
XRECORD
  5
5D2
102
{ACAD_REACTORS
330
5D0
102
}
330
5D0
100
AcDbXrecord
280
     1
340
386
  0
DICTIONARYVAR
  5
5D3
102
{ACAD_REACTORS
330
357
102
}
330
357
100
DictionaryVariables
280
     0
  1
1:1
  0
DICTIONARYVAR
  5
38D
102
{ACAD_REACTORS
330
357
102
}
330
357
100
DictionaryVariables
280
     0
  1
Standard
  0
DICTIONARYVAR
  5
359
102
{ACAD_REACTORS
330
357
102
}
330
357
100
DictionaryVariables
280
     0
  1
2
  0
DICTIONARYVAR
  5
358
102
{ACAD_REACTORS
330
357
102
}
330
357
100
DictionaryVariables
280
     0
  1
1
  0
DICTIONARYVAR
  5
38E
102
{ACAD_REACTORS
330
357
102
}
330
357
100
DictionaryVariables
280
     0
  1

  0
DICTIONARY
  5
5D6
330
3C3
100
AcDbDictionary
280
     1
281
     1
  3
ACAD_XREC_ROUNDTRIP
360
5D7
  0
DICTIONARY
  5
5D4
330
3C2
100
AcDbDictionary
280
     1
281
     1
  3
ACAD_XREC_ROUNDTRIP
360
5D5
  0
DICTIONARY
  5
5D8
330
3C4
100
AcDbDictionary
280
     1
281
     1
  3
ACAD_XREC_ROUNDTRIP
360
5D9
  0
DICTIONARY
  5
5E2
330
3CA
100
AcDbDictionary
280
     1
281
     1
  3
ACAD_XREC_ROUNDTRIP
360
5E3
  0
DICTIONARY
  5
5E6
330
3CC
100
AcDbDictionary
280
     1
281
     1
  3
ACAD_XREC_ROUNDTRIP
360
5E7
  0
DICTIONARY
  5
5E4
330
3CB
100
AcDbDictionary
280
     1
281
     1
  3
ACAD_XREC_ROUNDTRIP
360
5E5
  0
DICTIONARY
  5
5E8
330
3CD
100
AcDbDictionary
280
     1
281
     1
  3
ACAD_XREC_ROUNDTRIP
360
5E9
  0
DICTIONARY
  5
5F0
330
3D1
100
AcDbDictionary
280
     1
281
     1
  3
ACAD_XREC_ROUNDTRIP
360
5F1
  0
DICTIONARY
  5
5F8
330
3D5
100
AcDbDictionary
280
     1
281
     1
  3
ACAD_XREC_ROUNDTRIP
360
5F9
  0
DICTIONARY
  5
5EC
330
3CF
100
AcDbDictionary
280
     1
281
     1
  3
ACAD_XREC_ROUNDTRIP
360
5ED
  0
DICTIONARY
  5
5EE
330
3D0
100
AcDbDictionary
280
     1
281
     1
  3
ACAD_XREC_ROUNDTRIP
360
5EF
  0
DICTIONARY
  5
5F6
330
3D4
100
AcDbDictionary
280
     1
281
     1
  3
ACAD_XREC_ROUNDTRIP
360
5F7
  0
DICTIONARY
  5
5DA
330
3C6
100
AcDbDictionary
280
     1
281
     1
  3
ACAD_XREC_ROUNDTRIP
360
5DB
  0
DICTIONARY
  5
5DC
330
3C7
100
AcDbDictionary
280
     1
281
     1
  3
ACAD_XREC_ROUNDTRIP
360
5DD
  0
DICTIONARY
  5
5DE
330
3C8
100
AcDbDictionary
280
     1
281
     1
  3
ACAD_XREC_ROUNDTRIP
360
5DF
  0
DICTIONARY
  5
5E0
330
3C9
100
AcDbDictionary
280
     1
281
     1
  3
ACAD_XREC_ROUNDTRIP
360
5E1
  0
DICTIONARY
  5
5F4
330
3D3
100
AcDbDictionary
280
     1
281
     1
  3
ACAD_XREC_ROUNDTRIP
360
5F5
  0
DICTIONARY
  5
5EA
330
3CE
100
AcDbDictionary
280
     1
281
     1
  3
ACAD_XREC_ROUNDTRIP
360
5EB
  0
DICTIONARY
  5
5F2
330
3D2
100
AcDbDictionary
280
     1
281
     1
  3
ACAD_XREC_ROUNDTRIP
360
5F3
  0
XRECORD
  5
5D7
102
{ACAD_REACTORS
330
5D6
102
}
330
5D6
100
AcDbXrecord
280
     1
102
MATERIAL
148
0.0
149
0.0
149
0.0
 93
        0
 94
      127
282
     0
 72
     1
 77
     1
171
     1
175
     1
179
     1
273
     0
  0
XRECORD
  5
5D5
102
{ACAD_REACTORS
330
5D4
102
}
330
5D4
100
AcDbXrecord
280
     1
102
MATERIAL
148
0.0
149
0.0
149
0.0
 93
        0
 94
      127
282
     0
 72
     1
 77
     1
171
     1
175
     1
179
     1
273
     0
  0
XRECORD
  5
5D9
102
{ACAD_REACTORS
330
5D8
102
}
330
5D8
100
AcDbXrecord
280
     1
102
MATERIAL
148
0.0
149
0.0
149
0.0
 93
        0
 94
      127
282
     0
 72
     1
 77
     1
171
     1
175
     1
179
     1
273
     0
  0
XRECORD
  5
5E3
102
{ACAD_REACTORS
330
5E2
102
}
330
5E2
100
AcDbXrecord
280
     1
102
RTVSPropertyOp0
 70
     1
102
RTVSPropertyOp1
 70
     1
102
RTVSPropertyOp2
 70
     1
102
RTVSPropertyOp3
 70
     1
102
RTVSPropertyOp4
 70
     1
102
RTVSPropertyOp5
 70
     1
102
RTVSPropertyOp6
 70
     1
102
RTVSPropertyOp7
 70
     1
102
RTVSPropertyOp8
 70
     1
102
RTVSPropertyOp9
 70
     1
102
RTVSPropertyOp10
 70
     1
102
RTVSPropertyOp11
 70
     1
102
RTVSPropertyOp12
 70
     1
102
RTVSPropertyOp13
 70
     1
102
RTVSPropertyOp14
 70
     1
102
RTVSPropertyOp15
 70
     1
102
RTVSPropertyOp16
 70
     1
102
RTVSPropertyOp17
 70
     1
102
RTVSPropertyOp18
 70
     1
102
RTVSPropertyOp19
 70
     1
102
RTVSPropertyOp20
 70
     1
102
RTVSPropertyOp21
 70
     1
102
RTVSPropertyOp22
 70
     1
102
RTVSPropertyOp23
 70
     1
102
RTVSPropertyOp24
 70
     1
102
RTVSPropertyOp25
 70
     1
102
RTVSPropertyOp26
 70
     1
102
RTVSPropertyOp27
 70
     1
102
RTVSPropertyOp28
 70
     1
102
RTVSPropertyOp29
 70
     1
102
RTVSPropertyOp30
 70
     1
102
RTVSPropertyOp31
 70
     1
102
RTVSPropertyOp32
 70
     1
  0
XRECORD
  5
5E7
102
{ACAD_REACTORS
330
5E6
102
}
330
5E6
100
AcDbXrecord
280
     1
102
RTVSPropertyOp0
 70
     1
102
RTVSPropertyOp1
 70
     1
102
RTVSPropertyOp2
 70
     1
102
RTVSPropertyOp3
 70
     1
102
RTVSPropertyOp4
 70
     1
102
RTVSPropertyOp5
 70
     1
102
RTVSPropertyOp6
 70
     1
102
RTVSPropertyOp7
 70
     1
102
RTVSPropertyOp8
 70
     1
102
RTVSPropertyOp9
 70
     1
102
RTVSPropertyOp10
 70
     1
102
RTVSPropertyOp11
 70
     1
102
RTVSPropertyOp12
 70
     1
102
RTVSPropertyOp13
 70
     1
102
RTVSPropertyOp14
 70
     1
102
RTVSPropertyOp15
 70
     1
102
RTVSPropertyOp16
 70
     1
102
RTVSPropertyOp17
 70
     1
102
RTVSPropertyOp18
 70
     1
102
RTVSPropertyOp19
 70
     1
102
RTVSPropertyOp20
 70
     1
102
RTVSPropertyOp21
 70
     1
102
RTVSPropertyOp22
 70
     1
102
RTVSPropertyOp23
 70
     1
102
RTVSPropertyOp24
 70
     1
102
RTVSPropertyOp25
 70
     1
102
RTVSPropertyOp26
 70
     1
102
RTVSPropertyOp27
 70
     1
102
RTVSPropertyOp28
 70
     1
102
RTVSPropertyOp29
 70
     1
102
RTVSPropertyOp30
 70
     1
102
RTVSPropertyOp31
 70
     1
102
RTVSPropertyOp32
 70
     1
  0
XRECORD
  5
5E5
102
{ACAD_REACTORS
330
5E4
102
}
330
5E4
100
AcDbXrecord
280
     1
102
RTVSPropertyOp0
 70
     1
102
RTVSPropertyOp1
 70
     1
102
RTVSPropertyOp2
 70
     1
102
RTVSPropertyOp3
 70
     1
102
RTVSPropertyOp4
 70
     1
102
RTVSPropertyOp5
 70
     1
102
RTVSPropertyOp6
 70
     1
102
RTVSPropertyOp7
 70
     1
102
RTVSPropertyOp8
 70
     1
102
RTVSPropertyOp9
 70
     1
102
RTVSPropertyOp10
 70
     1
102
RTVSPropertyOp11
 70
     1
102
RTVSPropertyOp12
 70
     1
102
RTVSPropertyOp13
 70
     1
102
RTVSPropertyOp14
 70
     1
102
RTVSPropertyOp15
 70
     1
102
RTVSPropertyOp16
 70
     1
102
RTVSPropertyOp17
 70
     1
102
RTVSPropertyOp18
 70
     1
102
RTVSPropertyOp19
 70
     1
102
RTVSPropertyOp20
 70
     1
102
RTVSPropertyOp21
 70
     1
102
RTVSPropertyOp22
 70
     1
102
RTVSPropertyOp23
 70
     1
102
RTVSPropertyOp24
 70
     1
102
RTVSPropertyOp25
 70
     1
102
RTVSPropertyOp26
 70
     1
102
RTVSPropertyOp27
 70
     1
102
RTVSPropertyOp28
 70
     1
102
RTVSPropertyOp29
 70
     1
102
RTVSPropertyOp30
 70
     1
102
RTVSPropertyOp31
 70
     1
102
RTVSPropertyOp32
 70
     1
  0
XRECORD
  5
5E9
102
{ACAD_REACTORS
330
5E8
102
}
330
5E8
100
AcDbXrecord
280
     1
102
RTVSPropertyOp0
 70
     1
102
RTVSPropertyOp1
 70
     1
102
RTVSPropertyOp2
 70
     1
102
RTVSPropertyOp3
 70
     1
102
RTVSPropertyOp4
 70
     1
102
RTVSPropertyOp5
 70
     1
102
RTVSPropertyOp6
 70
     1
102
RTVSPropertyOp7
 70
     1
102
RTVSPropertyOp8
 70
     1
102
RTVSPropertyOp9
 70
     1
102
RTVSPropertyOp10
 70
     1
102
RTVSPropertyOp11
 70
     1
102
RTVSPropertyOp12
 70
     1
102
RTVSPropertyOp13
 70
     1
102
RTVSPropertyOp14
 70
     1
102
RTVSPropertyOp15
 70
     1
102
RTVSPropertyOp16
 70
     1
102
RTVSPropertyOp17
 70
     1
102
RTVSPropertyOp18
 70
     1
102
RTVSPropertyOp19
 70
     1
102
RTVSPropertyOp20
 70
     1
102
RTVSPropertyOp21
 70
     1
102
RTVSPropertyOp22
 70
     1
102
RTVSPropertyOp23
 70
     1
102
RTVSPropertyOp24
 70
     1
102
RTVSPropertyOp25
 70
     1
102
RTVSPropertyOp26
 70
     1
102
RTVSPropertyOp27
 70
     1
102
RTVSPropertyOp28
 70
     1
102
RTVSPropertyOp29
 70
     1
102
RTVSPropertyOp30
 70
     1
102
RTVSPropertyOp31
 70
     1
102
RTVSPropertyOp32
 70
     1
  0
XRECORD
  5
5F1
102
{ACAD_REACTORS
330
5F0
102
}
330
5F0
100
AcDbXrecord
280
     1
102
RTVSPropertyOp0
 70
     1
102
RTVSPropertyOp1
 70
     1
102
RTVSPropertyOp2
 70
     1
102
RTVSPropertyOp3
 70
     1
102
RTVSPropertyOp4
 70
     1
102
RTVSPropertyOp5
 70
     1
102
RTVSPropertyOp6
 70
     1
102
RTVSPropertyOp7
 70
     1
102
RTVSPropertyOp8
 70
     1
102
RTVSPropertyOp9
 70
     1
102
RTVSPropertyOp10
 70
     1
102
RTVSPropertyOp11
 70
     1
102
RTVSPropertyOp12
 70
     1
102
RTVSPropertyOp13
 70
     1
102
RTVSPropertyOp14
 70
     1
102
RTVSPropertyOp15
 70
     1
102
RTVSPropertyOp16
 70
     1
102
RTVSPropertyOp17
 70
     1
102
RTVSPropertyOp18
 70
     1
102
RTVSPropertyOp19
 70
     1
102
RTVSPropertyOp20
 70
     1
102
RTVSPropertyOp21
 70
     1
102
RTVSPropertyOp22
 70
     1
102
RTVSPropertyOp23
 70
     1
102
RTVSPropertyOp24
 70
     1
102
RTVSPropertyOp25
 70
     1
102
RTVSPropertyOp26
 70
     1
102
RTVSPropertyOp27
 70
     1
102
RTVSPropertyOp28
 70
     1
102
RTVSPropertyOp29
 70
     1
102
RTVSPropertyOp30
 70
     1
102
RTVSPropertyOp31
 70
     1
102
RTVSPropertyOp32
 70
     1
  0
XRECORD
  5
5F9
102
{ACAD_REACTORS
330
5F8
102
}
330
5F8
100
AcDbXrecord
280
     1
102
RTVSPropertyOp0
 70
     1
102
RTVSPropertyOp1
 70
     1
102
RTVSPropertyOp2
 70
     1
102
RTVSPropertyOp3
 70
     1
102
RTVSPropertyOp4
 70
     1
102
RTVSPropertyOp5
 70
     1
102
RTVSPropertyOp6
 70
     1
102
RTVSPropertyOp7
 70
     1
102
RTVSPropertyOp8
 70
     1
102
RTVSPropertyOp9
 70
     1
102
RTVSPropertyOp10
 70
     1
102
RTVSPropertyOp11
 70
     1
102
RTVSPropertyOp12
 70
     1
102
RTVSPropertyOp13
 70
     1
102
RTVSPropertyOp14
 70
     1
102
RTVSPropertyOp15
 70
     1
102
RTVSPropertyOp16
 70
     1
102
RTVSPropertyOp17
 70
     1
102
RTVSPropertyOp18
 70
     1
102
RTVSPropertyOp19
 70
     1
102
RTVSPropertyOp20
 70
     1
102
RTVSPropertyOp21
 70
     1
102
RTVSPropertyOp22
 70
     1
102
RTVSPropertyOp23
 70
     1
102
RTVSPropertyOp24
 70
     1
102
RTVSPropertyOp25
 70
     1
102
RTVSPropertyOp26
 70
     1
102
RTVSPropertyOp27
 70
     1
102
RTVSPropertyOp28
 70
     1
102
RTVSPropertyOp29
 70
     1
102
RTVSPropertyOp30
 70
     1
102
RTVSPropertyOp31
 70
     1
102
RTVSPropertyOp32
 70
     1
  0
XRECORD
  5
5ED
102
{ACAD_REACTORS
330
5EC
102
}
330
5EC
100
AcDbXrecord
280
     1
102
RTVSPropertyOp0
 70
     1
102
RTVSPropertyOp1
 70
     1
102
RTVSPropertyOp2
 70
     1
102
RTVSPropertyOp3
 70
     1
102
RTVSPropertyOp4
 70
     1
102
RTVSPropertyOp5
 70
     1
102
RTVSPropertyOp6
 70
     1
102
RTVSPropertyOp7
 70
     1
102
RTVSPropertyOp8
 70
     1
102
RTVSPropertyOp9
 70
     1
102
RTVSPropertyOp10
 70
     1
102
RTVSPropertyOp11
 70
     1
102
RTVSPropertyOp12
 70
     1
102
RTVSPropertyOp13
 70
     1
102
RTVSPropertyOp14
 70
     1
102
RTVSPropertyOp15
 70
     1
102
RTVSPropertyOp16
 70
     1
102
RTVSPropertyOp17
 70
     1
102
RTVSPropertyOp18
 70
     1
102
RTVSPropertyOp19
 70
     1
102
RTVSPropertyOp20
 70
     1
102
RTVSPropertyOp21
 70
     1
102
RTVSPropertyOp22
 70
     1
102
RTVSPropertyOp23
 70
     1
102
RTVSPropertyOp24
 70
     1
102
RTVSPropertyOp25
 70
     1
102
RTVSPropertyOp26
 70
     1
102
RTVSPropertyOp27
 70
     1
102
RTVSPropertyOp28
 70
     1
102
RTVSPropertyOp29
 70
     1
102
RTVSPropertyOp30
 70
     1
102
RTVSPropertyOp31
 70
     1
102
RTVSPropertyOp32
 70
     1
  0
XRECORD
  5
5EF
102
{ACAD_REACTORS
330
5EE
102
}
330
5EE
100
AcDbXrecord
280
     1
102
RTVSPropertyOp0
 70
     1
102
RTVSPropertyOp1
 70
     1
102
RTVSPropertyOp2
 70
     1
102
RTVSPropertyOp3
 70
     1
102
RTVSPropertyOp4
 70
     1
102
RTVSPropertyOp5
 70
     1
102
RTVSPropertyOp6
 70
     1
102
RTVSPropertyOp7
 70
     1
102
RTVSPropertyOp8
 70
     1
102
RTVSPropertyOp9
 70
     1
102
RTVSPropertyOp10
 70
     1
102
RTVSPropertyOp11
 70
     1
102
RTVSPropertyOp12
 70
     1
102
RTVSPropertyOp13
 70
     1
102
RTVSPropertyOp14
 70
     1
102
RTVSPropertyOp15
 70
     1
102
RTVSPropertyOp16
 70
     1
102
RTVSPropertyOp17
 70
     1
102
RTVSPropertyOp18
 70
     1
102
RTVSPropertyOp19
 70
     1
102
RTVSPropertyOp20
 70
     1
102
RTVSPropertyOp21
 70
     1
102
RTVSPropertyOp22
 70
     1
102
RTVSPropertyOp23
 70
     1
102
RTVSPropertyOp24
 70
     1
102
RTVSPropertyOp25
 70
     1
102
RTVSPropertyOp26
 70
     1
102
RTVSPropertyOp27
 70
     1
102
RTVSPropertyOp28
 70
     1
102
RTVSPropertyOp29
 70
     1
102
RTVSPropertyOp30
 70
     1
102
RTVSPropertyOp31
 70
     1
102
RTVSPropertyOp32
 70
     1
  0
XRECORD
  5
5F7
102
{ACAD_REACTORS
330
5F6
102
}
330
5F6
100
AcDbXrecord
280
     1
102
RTVSPropertyOp0
 70
     1
102
RTVSPropertyOp1
 70
     1
102
RTVSPropertyOp2
 70
     1
102
RTVSPropertyOp3
 70
     1
102
RTVSPropertyOp4
 70
     1
102
RTVSPropertyOp5
 70
     1
102
RTVSPropertyOp6
 70
     1
102
RTVSPropertyOp7
 70
     1
102
RTVSPropertyOp8
 70
     1
102
RTVSPropertyOp9
 70
     1
102
RTVSPropertyOp10
 70
     1
102
RTVSPropertyOp11
 70
     1
102
RTVSPropertyOp12
 70
     1
102
RTVSPropertyOp13
 70
     1
102
RTVSPropertyOp14
 70
     1
102
RTVSPropertyOp15
 70
     1
102
RTVSPropertyOp16
 70
     1
102
RTVSPropertyOp17
 70
     1
102
RTVSPropertyOp18
 70
     1
102
RTVSPropertyOp19
 70
     1
102
RTVSPropertyOp20
 70
     1
102
RTVSPropertyOp21
 70
     1
102
RTVSPropertyOp22
 70
     1
102
RTVSPropertyOp23
 70
     1
102
RTVSPropertyOp24
 70
     1
102
RTVSPropertyOp25
 70
     1
102
RTVSPropertyOp26
 70
     1
102
RTVSPropertyOp27
 70
     1
102
RTVSPropertyOp28
 70
     1
102
RTVSPropertyOp29
 70
     1
102
RTVSPropertyOp30
 70
     1
102
RTVSPropertyOp31
 70
     1
102
RTVSPropertyOp32
 70
     1
  0
XRECORD
  5
5DB
102
{ACAD_REACTORS
330
5DA
102
}
330
5DA
100
AcDbXrecord
280
     1
102
RTVSPropertyOp0
 70
     1
102
RTVSPropertyOp1
 70
     1
102
RTVSPropertyOp2
 70
     1
102
RTVSPropertyOp3
 70
     1
102
RTVSPropertyOp4
 70
     1
102
RTVSPropertyOp5
 70
     1
102
RTVSPropertyOp6
 70
     1
102
RTVSPropertyOp7
 70
     1
102
RTVSPropertyOp8
 70
     1
102
RTVSPropertyOp9
 70
     1
102
RTVSPropertyOp10
 70
     1
102
RTVSPropertyOp11
 70
     1
102
RTVSPropertyOp12
 70
     1
102
RTVSPropertyOp13
 70
     1
102
RTVSPropertyOp14
 70
     1
102
RTVSPropertyOp15
 70
     1
102
RTVSPropertyOp16
 70
     1
102
RTVSPropertyOp17
 70
     1
102
RTVSPropertyOp18
 70
     1
102
RTVSPropertyOp19
 70
     1
102
RTVSPropertyOp20
 70
     1
102
RTVSPropertyOp21
 70
     1
102
RTVSPropertyOp22
 70
     1
102
RTVSPropertyOp23
 70
     1
102
RTVSPropertyOp24
 70
     1
102
RTVSPropertyOp25
 70
     1
102
RTVSPropertyOp26
 70
     1
102
RTVSPropertyOp27
 70
     1
102
RTVSPropertyOp28
 70
     1
102
RTVSPropertyOp29
 70
     1
102
RTVSPropertyOp30
 70
     1
102
RTVSPropertyOp31
 70
     1
102
RTVSPropertyOp32
 70
     1
  0
XRECORD
  5
5DD
102
{ACAD_REACTORS
330
5DC
102
}
330
5DC
100
AcDbXrecord
280
     1
102
RTVSPropertyOp0
 70
     1
102
RTVSPropertyOp1
 70
     1
102
RTVSPropertyOp2
 70
     1
102
RTVSPropertyOp3
 70
     1
102
RTVSPropertyOp4
 70
     1
102
RTVSPropertyOp5
 70
     1
102
RTVSPropertyOp6
 70
     1
102
RTVSPropertyOp7
 70
     1
102
RTVSPropertyOp8
 70
     1
102
RTVSPropertyOp9
 70
     1
102
RTVSPropertyOp10
 70
     1
102
RTVSPropertyOp11
 70
     1
102
RTVSPropertyOp12
 70
     1
102
RTVSPropertyOp13
 70
     1
102
RTVSPropertyOp14
 70
     1
102
RTVSPropertyOp15
 70
     1
102
RTVSPropertyOp16
 70
     1
102
RTVSPropertyOp17
 70
     1
102
RTVSPropertyOp18
 70
     1
102
RTVSPropertyOp19
 70
     1
102
RTVSPropertyOp20
 70
     1
102
RTVSPropertyOp21
 70
     1
102
RTVSPropertyOp22
 70
     1
102
RTVSPropertyOp23
 70
     1
102
RTVSPropertyOp24
 70
     1
102
RTVSPropertyOp25
 70
     1
102
RTVSPropertyOp26
 70
     1
102
RTVSPropertyOp27
 70
     1
102
RTVSPropertyOp28
 70
     1
102
RTVSPropertyOp29
 70
     1
102
RTVSPropertyOp30
 70
     1
102
RTVSPropertyOp31
 70
     1
102
RTVSPropertyOp32
 70
     1
  0
XRECORD
  5
5DF
102
{ACAD_REACTORS
330
5DE
102
}
330
5DE
100
AcDbXrecord
280
     1
102
RTVSPropertyOp0
 70
     1
102
RTVSPropertyOp1
 70
     1
102
RTVSPropertyOp2
 70
     1
102
RTVSPropertyOp3
 70
     1
102
RTVSPropertyOp4
 70
     1
102
RTVSPropertyOp5
 70
     1
102
RTVSPropertyOp6
 70
     1
102
RTVSPropertyOp7
 70
     1
102
RTVSPropertyOp8
 70
     1
102
RTVSPropertyOp9
 70
     1
102
RTVSPropertyOp10
 70
     1
102
RTVSPropertyOp11
 70
     1
102
RTVSPropertyOp12
 70
     1
102
RTVSPropertyOp13
 70
     1
102
RTVSPropertyOp14
 70
     1
102
RTVSPropertyOp15
 70
     1
102
RTVSPropertyOp16
 70
     1
102
RTVSPropertyOp17
 70
     1
102
RTVSPropertyOp18
 70
     1
102
RTVSPropertyOp19
 70
     1
102
RTVSPropertyOp20
 70
     1
102
RTVSPropertyOp21
 70
     1
102
RTVSPropertyOp22
 70
     1
102
RTVSPropertyOp23
 70
     1
102
RTVSPropertyOp24
 70
     1
102
RTVSPropertyOp25
 70
     1
102
RTVSPropertyOp26
 70
     1
102
RTVSPropertyOp27
 70
     1
102
RTVSPropertyOp28
 70
     1
102
RTVSPropertyOp29
 70
     1
102
RTVSPropertyOp30
 70
     1
102
RTVSPropertyOp31
 70
     1
102
RTVSPropertyOp32
 70
     1
  0
XRECORD
  5
5E1
102
{ACAD_REACTORS
330
5E0
102
}
330
5E0
100
AcDbXrecord
280
     1
102
RTVSPropertyOp0
 70
     1
102
RTVSPropertyOp1
 70
     1
102
RTVSPropertyOp2
 70
     1
102
RTVSPropertyOp3
 70
     1
102
RTVSPropertyOp4
 70
     1
102
RTVSPropertyOp5
 70
     1
102
RTVSPropertyOp6
 70
     1
102
RTVSPropertyOp7
 70
     1
102
RTVSPropertyOp8
 70
     1
102
RTVSPropertyOp9
 70
     1
102
RTVSPropertyOp10
 70
     1
102
RTVSPropertyOp11
 70
     1
102
RTVSPropertyOp12
 70
     1
102
RTVSPropertyOp13
 70
     1
102
RTVSPropertyOp14
 70
     1
102
RTVSPropertyOp15
 70
     1
102
RTVSPropertyOp16
 70
     1
102
RTVSPropertyOp17
 70
     1
102
RTVSPropertyOp18
 70
     1
102
RTVSPropertyOp19
 70
     1
102
RTVSPropertyOp20
 70
     1
102
RTVSPropertyOp21
 70
     1
102
RTVSPropertyOp22
 70
     1
102
RTVSPropertyOp23
 70
     1
102
RTVSPropertyOp24
 70
     1
102
RTVSPropertyOp25
 70
     1
102
RTVSPropertyOp26
 70
     1
102
RTVSPropertyOp27
 70
     1
102
RTVSPropertyOp28
 70
     1
102
RTVSPropertyOp29
 70
     1
102
RTVSPropertyOp30
 70
     1
102
RTVSPropertyOp31
 70
     1
102
RTVSPropertyOp32
 70
     1
  0
XRECORD
  5
5F5
102
{ACAD_REACTORS
330
5F4
102
}
330
5F4
100
AcDbXrecord
280
     1
102
RTVSPropertyOp0
 70
     1
102
RTVSPropertyOp1
 70
     1
102
RTVSPropertyOp2
 70
     1
102
RTVSPropertyOp3
 70
     1
102
RTVSPropertyOp4
 70
     1
102
RTVSPropertyOp5
 70
     1
102
RTVSPropertyOp6
 70
     1
102
RTVSPropertyOp7
 70
     1
102
RTVSPropertyOp8
 70
     1
102
RTVSPropertyOp9
 70
     1
102
RTVSPropertyOp10
 70
     1
102
RTVSPropertyOp11
 70
     1
102
RTVSPropertyOp12
 70
     1
102
RTVSPropertyOp13
 70
     1
102
RTVSPropertyOp14
 70
     1
102
RTVSPropertyOp15
 70
     1
102
RTVSPropertyOp16
 70
     1
102
RTVSPropertyOp17
 70
     1
102
RTVSPropertyOp18
 70
     1
102
RTVSPropertyOp19
 70
     1
102
RTVSPropertyOp20
 70
     1
102
RTVSPropertyOp21
 70
     1
102
RTVSPropertyOp22
 70
     1
102
RTVSPropertyOp23
 70
     1
102
RTVSPropertyOp24
 70
     1
102
RTVSPropertyOp25
 70
     1
102
RTVSPropertyOp26
 70
     1
102
RTVSPropertyOp27
 70
     1
102
RTVSPropertyOp28
 70
     1
102
RTVSPropertyOp29
 70
     1
102
RTVSPropertyOp30
 70
     1
102
RTVSPropertyOp31
 70
     1
102
RTVSPropertyOp32
 70
     1
  0
XRECORD
  5
5EB
102
{ACAD_REACTORS
330
5EA
102
}
330
5EA
100
AcDbXrecord
280
     1
102
RTVSPropertyOp0
 70
     1
102
RTVSPropertyOp1
 70
     1
102
RTVSPropertyOp2
 70
     1
102
RTVSPropertyOp3
 70
     1
102
RTVSPropertyOp4
 70
     1
102
RTVSPropertyOp5
 70
     1
102
RTVSPropertyOp6
 70
     1
102
RTVSPropertyOp7
 70
     1
102
RTVSPropertyOp8
 70
     1
102
RTVSPropertyOp9
 70
     1
102
RTVSPropertyOp10
 70
     1
102
RTVSPropertyOp11
 70
     1
102
RTVSPropertyOp12
 70
     1
102
RTVSPropertyOp13
 70
     1
102
RTVSPropertyOp14
 70
     1
102
RTVSPropertyOp15
 70
     1
102
RTVSPropertyOp16
 70
     1
102
RTVSPropertyOp17
 70
     1
102
RTVSPropertyOp18
 70
     1
102
RTVSPropertyOp19
 70
     1
102
RTVSPropertyOp20
 70
     1
102
RTVSPropertyOp21
 70
     1
102
RTVSPropertyOp22
 70
     1
102
RTVSPropertyOp23
 70
     1
102
RTVSPropertyOp24
 70
     1
102
RTVSPropertyOp25
 70
     1
102
RTVSPropertyOp26
 70
     1
102
RTVSPropertyOp27
 70
     1
102
RTVSPropertyOp28
 70
     1
102
RTVSPropertyOp29
 70
     1
102
RTVSPropertyOp30
 70
     1
102
RTVSPropertyOp31
 70
     1
102
RTVSPropertyOp32
 70
     1
  0
XRECORD
  5
5F3
102
{ACAD_REACTORS
330
5F2
102
}
330
5F2
100
AcDbXrecord
280
     1
102
RTVSPropertyOp0
 70
     1
102
RTVSPropertyOp1
 70
     1
102
RTVSPropertyOp2
 70
     1
102
RTVSPropertyOp3
 70
     1
102
RTVSPropertyOp4
 70
     1
102
RTVSPropertyOp5
 70
     1
102
RTVSPropertyOp6
 70
     1
102
RTVSPropertyOp7
 70
     1
102
RTVSPropertyOp8
 70
     1
102
RTVSPropertyOp9
 70
     1
102
RTVSPropertyOp10
 70
     1
102
RTVSPropertyOp11
 70
     1
102
RTVSPropertyOp12
 70
     1
102
RTVSPropertyOp13
 70
     1
102
RTVSPropertyOp14
 70
     1
102
RTVSPropertyOp15
 70
     1
102
RTVSPropertyOp16
 70
     1
102
RTVSPropertyOp17
 70
     1
102
RTVSPropertyOp18
 70
     1
102
RTVSPropertyOp19
 70
     1
102
RTVSPropertyOp20
 70
     1
102
RTVSPropertyOp21
 70
     1
102
RTVSPropertyOp22
 70
     1
102
RTVSPropertyOp23
 70
     1
102
RTVSPropertyOp24
 70
     1
102
RTVSPropertyOp25
 70
     1
102
RTVSPropertyOp26
 70
     1
102
RTVSPropertyOp27
 70
     1
102
RTVSPropertyOp28
 70
     1
102
RTVSPropertyOp29
 70
     1
102
RTVSPropertyOp30
 70
     1
102
RTVSPropertyOp31
 70
     1
102
RTVSPropertyOp32
 70
     1
  0
ENDSEC
  0
EOF
