  0
SECTION
  2
HEADER
  9
$ACADVER
  1
AC1015
  9
$ACADMAINTVER
 70
     6
  9
$DWGCODEPAGE
  3
ANSI_1252
  9
$INSBASE
 10
0.0
 20
0.0
 30
0.0
  9
$EXTMIN
 10
1.000000000000000E+20
 20
1.000000000000000E+20
 30
1.000000000000000E+20
  9
$EXTMAX
 10
-1.000000000000000E+20
 20
-1.000000000000000E+20
 30
-1.000000000000000E+20
  9
$LIMMIN
 10
-170.0
 20
-170.0
  9
$LIMMAX
 10
519.0
 20
260.0
  9
$ORTHOMODE
 70
     0
  9
$REGENMODE
 70
     1
  9
$FILLMODE
 70
     1
  9
$QTEXTMODE
 70
     0
  9
$MIRRTEXT
 70
     0
  9
$LTSCALE
 40
1.0
  9
$ATTMODE
 70
     1
  9
$TEXTSIZE
 40
3.5
  9
$TRACEWID
 40
1.0
  9
$TEXTSTYLE
  7
SIMPLEX
  9
$CLAYER
  8
1
  9
$CELTYPE
  6
BYLAYER
  9
$CECOLOR
 62
   256
  9
$CELTSCALE
 40
1.0
  9
$DISPSILH
 70
     0
  9
$DIMSCALE
 40
1.0
  9
$DIMASZ
 40
2.5
  9
$DIMEXO
 40
0.0
  9
$DIMDLI
 40
3.75
  9
$DIMRND
 40
0.0
  9
$DIMDLE
 40
0.0
  9
$DIMEXE
 40
1.25
  9
$DIMTP
 40
0.0
  9
$DIMTM
 40
0.0
  9
$DIMTXT
 40
3.5
  9
$DIMCEN
 40
0.0
  9
$DIMTSZ
 40
0.0
  9
$DIMTOL
 70
     0
  9
$DIMLIM
 70
     0
  9
$DIMTIH
 70
     0
  9
$DIMTOH
 70
     0
  9
$DIMSE1
 70
     0
  9
$DIMSE2
 70
     0
  9
$DIMTAD
 70
     1
  9
$DIMZIN
 70
     8
  9
$DIMBLK
  1

  9
$DIMASO
 70
     1
  9
$DIMSHO
 70
     1
  9
$DIMPOST
  1

  9
$DIMAPOST
  1

  9
$DIMALT
 70
     0
  9
$DIMALTD
 70
     3
  9
$DIMALTF
 40
0.039370078
  9
$DIMLFAC
 40
1.0
  9
$DIMTOFL
 70
     0
  9
$DIMTVP
 40
0.0
  9
$DIMTIX
 70
     0
  9
$DIMSOXD
 70
     0
  9
$DIMSAH
 70
     0
  9
$DIMBLK1
  1

  9
$DIMBLK2
  1

  9
$DIMSTYLE
  2
STANDARD
  9
$DIMCLRD
 70
     0
  9
$DIMCLRE
 70
     0
  9
$DIMCLRT
 70
     0
  9
$DIMTFAC
 40
1.0
  9
$DIMGAP
 40
0.625
  9
$DIMJUST
 70
     0
  9
$DIMSD1
 70
     0
  9
$DIMSD2
 70
     0
  9
$DIMTOLJ
 70
     0
  9
$DIMTZIN
 70
     8
  9
$DIMALTZ
 70
     0
  9
$DIMALTTZ
 70
     0
  9
$DIMUPT
 70
     0
  9
$DIMDEC
 70
     2
  9
$DIMTDEC
 70
     2
  9
$DIMALTU
 70
     2
  9
$DIMALTTD
 70
     3
  9
$DIMTXSTY
  7
SIMPLEX
  9
$DIMAUNIT
 70
     0
  9
$DIMADEC
 70
     2
  9
$DIMALTRND
 40
0.0
  9
$DIMAZIN
 70
     2
  9
$DIMDSEP
 70
    46
  9
$DIMATFIT
 70
     3
  9
$DIMFRAC
 70
     0
  9
$DIMLDRBLK
  1

  9
$DIMLUNIT
 70
     2
  9
$DIMLWD
 70
    -2
  9
$DIMLWE
 70
    -2
  9
$DIMTMOVE
 70
     0
  9
$LUNITS
 70
     2
  9
$LUPREC
 70
     4
  9
$SKETCHINC
 40
1.0
  9
$FILLETRAD
 40
0.0
  9
$AUNITS
 70
     0
  9
$AUPREC
 70
     0
  9
$MENU
  1
c:\tdm21\cad\caduti13\tdm13
  9
$ELEVATION
 40
0.0
  9
$PELEVATION
 40
0.0
  9
$THICKNESS
 40
0.0
  9
$LIMCHECK
 70
     0
  9
$CHAMFERA
 40
0.0
  9
$CHAMFERB
 40
0.0
  9
$CHAMFERC
 40
0.0
  9
$CHAMFERD
 40
0.0
  9
$SKPOLY
 70
     0
  9
$TDCREATE
 40
2454957.593642639
  9
$TDUCREATE
 40
2454957.510309306
  9
$TDUPDATE
 40
2456860.783685544
  9
$TDUUPDATE
 40
2456860.700352211
  9
$TDINDWG
 40
0.0009643519
  9
$TDUSRTIMER
 40
0.0009475231
  9
$USRTIMER
 70
     1
  9
$ANGBASE
 50
0.0
  9
$ANGDIR
 70
     0
  9
$PDMODE
 70
     1
  9
$PDSIZE
 40
0.0
  9
$PLINEWID
 40
0.0
  9
$SPLFRAME
 70
     0
  9
$SPLINETYPE
 70
     6
  9
$SPLINESEGS
 70
     8
  9
$HANDSEED
  5
62B
  9
$SURFTAB1
 70
     6
  9
$SURFTAB2
 70
     6
  9
$SURFTYPE
 70
     6
  9
$SURFU
 70
     6
  9
$SURFV
 70
     6
  9
$UCSBASE
  2

  9
$UCSNAME
  2

  9
$UCSORG
 10
0.0
 20
0.0
 30
0.0
  9
$UCSXDIR
 10
1.0
 20
0.0
 30
0.0
  9
$UCSYDIR
 10
0.0
 20
1.0
 30
0.0
  9
$UCSORTHOREF
  2

  9
$UCSORTHOVIEW
 70
     0
  9
$UCSORGTOP
 10
0.0
 20
0.0
 30
0.0
  9
$UCSORGBOTTOM
 10
0.0
 20
0.0
 30
0.0
  9
$UCSORGLEFT
 10
0.0
 20
0.0
 30
0.0
  9
$UCSORGRIGHT
 10
0.0
 20
0.0
 30
0.0
  9
$UCSORGFRONT
 10
0.0
 20
0.0
 30
0.0
  9
$UCSORGBACK
 10
0.0
 20
0.0
 30
0.0
  9
$PUCSBASE
  2

  9
$PUCSNAME
  2

  9
$PUCSORG
 10
0.0
 20
0.0
 30
0.0
  9
$PUCSXDIR
 10
1.0
 20
0.0
 30
0.0
  9
$PUCSYDIR
 10
0.0
 20
1.0
 30
0.0
  9
$PUCSORTHOREF
  2

  9
$PUCSORTHOVIEW
 70
     0
  9
$PUCSORGTOP
 10
0.0
 20
0.0
 30
0.0
  9
$PUCSORGBOTTOM
 10
0.0
 20
0.0
 30
0.0
  9
$PUCSORGLEFT
 10
0.0
 20
0.0
 30
0.0
  9
$PUCSORGRIGHT
 10
0.0
 20
0.0
 30
0.0
  9
$PUCSORGFRONT
 10
0.0
 20
0.0
 30
0.0
  9
$PUCSORGBACK
 10
0.0
 20
0.0
 30
0.0
  9
$USERI1
 70
     0
  9
$USERI2
 70
     0
  9
$USERI3
 70
     0
  9
$USERI4
 70
     0
  9
$USERI5
 70
     0
  9
$USERR1
 40
0.0
  9
$USERR2
 40
0.0
  9
$USERR3
 40
0.0
  9
$USERR4
 40
0.0
  9
$USERR5
 40
0.0
  9
$WORLDVIEW
 70
     1
  9
$SHADEDGE
 70
     3
  9
$SHADEDIF
 70
    70
  9
$TILEMODE
 70
     1
  9
$MAXACTVP
 70
    64
  9
$PINSBASE
 10
0.0
 20
0.0
 30
0.0
  9
$PLIMCHECK
 70
     0
  9
$PEXTMIN
 10
0.0
 20
0.0
 30
0.0
  9
$PEXTMAX
 10
0.0
 20
0.0
 30
0.0
  9
$PLIMMIN
 10
0.0
 20
0.0
  9
$PLIMMAX
 10
12.0
 20
9.0
  9
$UNITMODE
 70
     0
  9
$VISRETAIN
 70
     0
  9
$PLINEGEN
 70
     0
  9
$PSLTSCALE
 70
     1
  9
$TREEDEPTH
 70
  3020
  9
$CMLSTYLE
  2
STANDARD
  9
$CMLJUST
 70
     0
  9
$CMLSCALE
 40
20.0
  9
$PROXYGRAPHICS
 70
     1
  9
$MEASUREMENT
 70
     1
  9
$CELWEIGHT
370
    -1
  9
$ENDCAPS
280
     0
  9
$JOINSTYLE
280
     0
  9
$LWDISPLAY
290
     0
  9
$INSUNITS
 70
     4
  9
$HYPERLINKBASE
  1

  9
$STYLESHEET
  1
MONOCHROME.CTB
  9
$XEDIT
290
     1
  9
$CEPSNTYPE
380
     0
  9
$PSTYLEMODE
290
     1
  9
$FINGERPRINTGUID
  2
{46B44192-1510-48B1-B61B-CBE2ADA013A7}
  9
$VERSIONGUID
  2
{6160D478-9A74-4C97-9D8A-D4A65CE74B12}
  9
$EXTNAMES
290
     1
  9
$PSVPSCALE
 40
0.0
  9
$OLESTARTUP
290
     0
  0
ENDSEC
  0
SECTION
  2
CLASSES
  0
CLASS
  1
ACDBDICTIONARYWDFLT
  2
AcDbDictionaryWithDefault
  3
ObjectDBX Classes
 90
        0
280
     0
281
     0
  0
CLASS
  1
ACDBPLACEHOLDER
  2
AcDbPlaceHolder
  3
ObjectDBX Classes
 90
        0
280
     0
281
     0
  0
CLASS
  1
LAYOUT
  2
AcDbLayout
  3
ObjectDBX Classes
 90
        0
280
     0
281
     0
  0
CLASS
  1
DICTIONARYVAR
  2
AcDbDictionaryVar
  3
ObjectDBX Classes
 90
        0
280
     0
281
     0
  0
CLASS
  1
TABLESTYLE
  2
AcDbTableStyle
  3
ObjectDBX Classes
 90
     4095
280
     0
281
     0
  0
CLASS
  1
SCALE
  2
AcDbScale
  3
ObjectDBX Classes
 90
     1153
280
     0
281
     0
  0
CLASS
  1
MATERIAL
  2
AcDbMaterial
  3
ObjectDBX Classes
 90
     1153
280
     0
281
     0
  0
CLASS
  1
VISUALSTYLE
  2
AcDbVisualStyle
  3
ObjectDBX Classes
 90
     4095
280
     0
281
     0
  0
ENDSEC
  0
SECTION
  2
TABLES
  0
TABLE
  2
VPORT
  5
8
330
0
100
AcDbSymbolTable
 70
     1
  0
VPORT
  5
39A
330
8
100
AcDbSymbolTableRecord
100
AcDbViewportTableRecord
  2
*Active
 70
     0
 10
0.0
 20
0.0
 11
1.0
 21
1.0
 12
218.9201881351169
 22
109.7549380673833
 13
0.0
 23
0.0
 14
5.0
 24
5.0
 15
5.0
 25
5.0
 16
0.0
 26
0.0
 36
1.0
 17
0.0
 27
0.0
 37
0.0
 40
564.6711112651689
 41
1.066073697585768
 42
50.0
 43
0.0
 44
0.0
 50
0.0
 51
0.0
 71
     0
 72
  2000
 73
     1
 74
     1
 75
     0
 76
     0
 77
     0
 78
     0
281
     0
 65
     1
110
0.0
120
0.0
130
0.0
111
1.0
121
0.0
131
0.0
112
0.0
122
1.0
132
0.0
 79
     0
146
0.0
  0
ENDTAB
  0
TABLE
  2
LTYPE
  5
5
330
0
100
AcDbSymbolTable
 70
     3
  0
LTYPE
  5
12
330
5
100
AcDbSymbolTableRecord
100
AcDbLinetypeTableRecord
  2
BYBLOCK
 70
     0
  3

 72
    65
 73
     0
 40
0.0
  0
LTYPE
  5
13
330
5
100
AcDbSymbolTableRecord
100
AcDbLinetypeTableRecord
  2
BYLAYER
 70
     0
  3

 72
    65
 73
     0
 40
0.0
  0
LTYPE
  5
14
330
5
100
AcDbSymbolTableRecord
100
AcDbLinetypeTableRecord
  2
CONTINUOUS
 70
     0
  3
Solid line
 72
    65
 73
     0
 40
0.0
  0
LTYPE
  5
20
330
5
100
AcDbSymbolTableRecord
100
AcDbLinetypeTableRecord
  2
HIDDEN
 70
     0
  3
Hidden __ __ __ __ __ __ __ __ __ __ __ __ __ _
 72
    65
 73
     2
 40
9.524999999999997
 49
6.349999999999998
 74
     0
 49
-3.174999999999998
 74
     0
  0
LTYPE
  5
351
330
5
100
AcDbSymbolTableRecord
100
AcDbLinetypeTableRecord
  2
CENTER
 70
     0
  3
Dash dot __ . __ . __ . __ . __ . __ . __ . __
 72
    65
 73
     4
 40
25.4
 49
12.7
 74
     0
 49
-6.349999999999998
 74
     0
 49
0.0
 74
     0
 49
-6.349999999999998
 74
     0
  0
ENDTAB
  0
TABLE
  2
LAYER
  5
2
330
0
100
AcDbSymbolTable
 70
    16
  0
LAYER
  5
F
330
2
100
AcDbSymbolTableRecord
100
AcDbLayerTableRecord
  2
0
 70
     0
 62
     7
  6
CONTINUOUS
370
    -3
390
300
  0
LAYER
  5
23
330
2
100
AcDbSymbolTableRecord
100
AcDbLayerTableRecord
  2
1
 70
     0
 62
     4
  6
CONTINUOUS
370
    -3
390
300
  0
LAYER
  5
24
330
2
100
AcDbSymbolTableRecord
100
AcDbLayerTableRecord
  2
SK1
 70
     0
 62
     4
  6
CONTINUOUS
370
    -3
390
300
  0
LAYER
  5
25
330
2
100
AcDbSymbolTableRecord
100
AcDbLayerTableRecord
  2
2
 70
     0
 62
     7
  6
CONTINUOUS
370
    -3
390
300
  0
LAYER
  5
26
330
2
100
AcDbSymbolTableRecord
100
AcDbLayerTableRecord
  2
2L
 70
     0
 62
     7
  6
CONTINUOUS
370
    -3
390
300
  0
LAYER
  5
27
330
2
100
AcDbSymbolTableRecord
100
AcDbLayerTableRecord
  2
SK2
 70
     0
 62
     7
  6
CONTINUOUS
370
    -3
390
300
  0
LAYER
  5
28
330
2
100
AcDbSymbolTableRecord
100
AcDbLayerTableRecord
  2
3
 70
     0
 62
     1
  6
HIDDEN
370
    -3
390
300
  0
LAYER
  5
29
330
2
100
AcDbSymbolTableRecord
100
AcDbLayerTableRecord
  2
SK3
 70
     0
 62
     1
  6
HIDDEN
370
    -3
390
300
  0
LAYER
  5
2A
330
2
100
AcDbSymbolTableRecord
100
AcDbLayerTableRecord
  2
4
 70
     0
 62
     2
  6
CENTER
370
    -3
390
300
  0
LAYER
  5
2B
330
2
100
AcDbSymbolTableRecord
100
AcDbLayerTableRecord
  2
SK4
 70
     0
 62
     2
  6
CENTER
370
    -3
390
300
  0
LAYER
  5
2C
330
2
100
AcDbSymbolTableRecord
100
AcDbLayerTableRecord
  2
5
 70
     0
 62
    -7
  6
CONTINUOUS
370
    -3
390
300
  0
LAYER
  5
2D
330
2
100
AcDbSymbolTableRecord
100
AcDbLayerTableRecord
  2
6
 70
     0
 62
     5
  6
CONTINUOUS
370
    -3
390
300
  0
LAYER
  5
2E
330
2
100
AcDbSymbolTableRecord
100
AcDbLayerTableRecord
  2
SK6
 70
     0
 62
     5
  6
CONTINUOUS
370
    -3
390
300
  0
LAYER
  5
2F
330
2
100
AcDbSymbolTableRecord
100
AcDbLayerTableRecord
  2
DEFPOINTS
 70
     0
 62
     7
  6
CONTINUOUS
290
     0
370
    -3
390
300
  0
LAYER
  5
375
330
2
100
AcDbSymbolTableRecord
100
AcDbLayerTableRecord
  2
CUT
 70
     0
 62
     1
  6
CONTINUOUS
370
    -3
390
300
  0
LAYER
  5
376
330
2
100
AcDbSymbolTableRecord
100
AcDbLayerTableRecord
  2
NOCUT
 70
     0
 62
     7
  6
CONTINUOUS
370
    -3
390
300
  0
ENDTAB
  0
TABLE
  2
STYLE
  5
3
330
0
100
AcDbSymbolTable
 70
     4
  0
STYLE
  5
10
330
3
100
AcDbSymbolTableRecord
100
AcDbTextStyleTableRecord
  2
STANDARD
 70
     0
 40
0.0
 41
1.0
 50
0.0
 71
     0
 42
5.0
  3
txt
  4

  0
STYLE
  5
1D
330
3
100
AcDbSymbolTableRecord
100
AcDbTextStyleTableRecord
  2
TXT
 70
     0
 40
8.0
 41
1.0
 50
0.0
 71
     0
 42
8.0
  3
txt
  4

  0
STYLE
  5
1E
330
3
100
AcDbSymbolTableRecord
100
AcDbTextStyleTableRecord
  2
SIMPLEX
 70
     0
 40
0.0
 41
1.0
 50
0.0
 71
     0
 42
3.5
  3
simplex
  4

  0
STYLE
  5
34C
330
3
100
AcDbSymbolTableRecord
100
AcDbTextStyleTableRecord
  2

 70
     1
 40
0.0
 41
1.0
 50
0.0
 71
     0
 42
2.5
  3
ltypeshp.shx
  4

  0
ENDTAB
  0
TABLE
  2
VIEW
  5
6
330
0
100
AcDbSymbolTable
 70
     0
  0
ENDTAB
  0
TABLE
  2
UCS
  5
7
330
0
100
AcDbSymbolTable
 70
     0
  0
ENDTAB
  0
TABLE
  2
APPID
  5
9
330
0
100
AcDbSymbolTable
 70
     1
  0
APPID
  5
11
330
9
100
AcDbSymbolTableRecord
100
AcDbRegAppTableRecord
  2
ACAD
 70
     0
  0
ENDTAB
  0
TABLE
  2
DIMSTYLE
  5
A
330
0
100
AcDbSymbolTable
 70
     1
100
AcDbDimStyleTable
  0
DIMSTYLE
105
3F
102
{ACAD_REACTORS
330
5BF
330
5CC
330
5D9
330
5E6
330
5F3
102
}
330
A
100
AcDbSymbolTableRecord
100
AcDbDimStyleTableRecord
  2
STANDARD
 70
     0
 41
2.5
 42
0.0
 43
3.75
 44
1.25
 73
     0
 74
     0
 77
     1
 78
     8
 79
     2
140
3.5
141
0.0
143
0.039370078
147
0.625
171
     3
178
     0
179
     2
271
     2
272
     2
274
     3
283
     0
284
     8
340
1E
  0
ENDTAB
  0
TABLE
  2
BLOCK_RECORD
  5
1
330
0
100
AcDbSymbolTable
 70
     5
  0
BLOCK_RECORD
  5
18
330
1
100
AcDbSymbolTableRecord
100
AcDbBlockTableRecord
  2
*MODEL_SPACE
340
303
  0
BLOCK_RECORD
  5
338
330
1
100
AcDbSymbolTableRecord
100
AcDbBlockTableRecord
  2
*Paper_Space
340
33B
  0
BLOCK_RECORD
  5
5C0
330
1
100
AcDbSymbolTableRecord
100
AcDbBlockTableRecord
  2
*D0
340
0
  0
BLOCK_RECORD
  5
5CD
330
1
100
AcDbSymbolTableRecord
100
AcDbBlockTableRecord
  2
*D1
340
0
  0
BLOCK_RECORD
  5
5DA
330
1
100
AcDbSymbolTableRecord
100
AcDbBlockTableRecord
  2
*D2
340
0
  0
BLOCK_RECORD
  5
5E7
330
1
100
AcDbSymbolTableRecord
100
AcDbBlockTableRecord
  2
*D3
340
0
  0
BLOCK_RECORD
  5
5F4
330
1
100
AcDbSymbolTableRecord
100
AcDbBlockTableRecord
  2
*D4
340
0
  0
ENDTAB
  0
ENDSEC
  0
SECTION
  2
BLOCKS
  0
BLOCK
  5
32
330
18
100
AcDbEntity
  8
0
100
AcDbBlockBegin
  2
*MODEL_SPACE
 70
     0
 10
0.0
 20
0.0
 30
0.0
  3
*MODEL_SPACE
  1

  0
ENDBLK
  5
33
330
18
100
AcDbEntity
  8
0
100
AcDbBlockEnd
  0
BLOCK
  5
339
330
338
100
AcDbEntity
 67
     1
  8
0
100
AcDbBlockBegin
  2
*Paper_Space
 70
     0
 10
0.0
 20
0.0
 30
0.0
  3
*Paper_Space
  1

  0
ENDBLK
  5
33A
330
338
100
AcDbEntity
 67
     1
  8
0
100
AcDbBlockEnd
  0
BLOCK
  5
5C1
330
5C0
100
AcDbEntity
  8
0
100
AcDbBlockBegin
  2
*D0
 70
     1
 10
0.0
 20
0.0
 30
0.0
  3
*D0
  1

  0
LINE
  5
5C3
330
5C0
100
AcDbEntity
  8
2
 62
     0
370
    -2
100
AcDbLine
 10
83.0
 20
6.0
 30
0.0
 11
99.25
 21
6.000000000000058
 31
0.0
  0
LINE
  5
5C4
330
5C0
100
AcDbEntity
  8
2
 62
     0
370
    -2
100
AcDbLine
 10
83.0
 20
-6.0
 30
0.0
 11
99.25000000000004
 21
-5.999999999999943
 31
0.0
  0
LINE
  5
5C5
330
5C0
100
AcDbEntity
  8
2
 62
     0
370
    -2
100
AcDbLine
 10
98.00000000000001
 20
3.500000000000053
 30
0.0
 11
98.00000000000003
 21
-3.499999999999948
 31
0.0
  0
SOLID
  5
5C6
330
5C0
100
AcDbEntity
  8
2
 62
     0
100
AcDbTrace
 10
98.41666666666669
 20
3.500000000000055
 30
0.0
 11
97.58333333333334
 21
3.500000000000052
 31
0.0
 12
98.0
 22
6.000000000000053
 32
0.0
 13
98.0
 23
6.000000000000053
 33
0.0
  0
SOLID
  5
5C7
330
5C0
100
AcDbEntity
  8
2
 62
     0
100
AcDbTrace
 10
97.58333333333336
 20
-3.499999999999949
 30
0.0
 11
98.4166666666667
 21
-3.499999999999946
 31
0.0
 12
98.00000000000004
 22
-5.999999999999948
 32
0.0
 13
98.00000000000004
 23
-5.999999999999948
 33
0.0
  0
MTEXT
  5
5C8
330
5C0
100
AcDbEntity
  8
2
 62
     0
100
AcDbMText
 10
95.60925000000003
 20
0.0000000000000444
 30
0.0
 40
3.5
 41
0.0
 71
     5
 72
     1
  1
M12
  7
SIMPLEX
 11
-3.552713678800501E-15
 21
1.0
 31
0.0
 73
     1
 44
1.0
  0
POINT
  5
5C9
330
5C0
100
AcDbEntity
  8
DEFPOINTS
 62
     0
100
AcDbPoint
 10
83.0
 20
6.0
 30
0.0
  0
POINT
  5
5CA
330
5C0
100
AcDbEntity
  8
DEFPOINTS
 62
     0
100
AcDbPoint
 10
83.0
 20
-6.0
 30
0.0
  0
POINT
  5
5CB
330
5C0
100
AcDbEntity
  8
DEFPOINTS
 62
     0
100
AcDbPoint
 10
98.00000000000004
 20
-5.999999999999948
 30
0.0
  0
ENDBLK
  5
5C2
330
5C0
100
AcDbEntity
  8
0
100
AcDbBlockEnd
  0
BLOCK
  5
5CE
330
5CD
100
AcDbEntity
  8
0
100
AcDbBlockBegin
  2
*D1
 70
     1
 10
0.0
 20
0.0
 30
0.0
  3
*D1
  1

  0
LINE
  5
5D0
330
5CD
100
AcDbEntity
  8
2
 62
     0
370
    -2
100
AcDbLine
 10
0.0
 20
0.0
 30
0.0
 11
0.0
 21
76.25
 31
0.0
  0
LINE
  5
5D1
330
5CD
100
AcDbEntity
  8
2
 62
     0
370
    -2
100
AcDbLine
 10
83.0
 20
0.0
 30
0.0
 11
83.0
 21
76.25
 31
0.0
  0
LINE
  5
5D2
330
5CD
100
AcDbEntity
  8
2
 62
     0
370
    -2
100
AcDbLine
 10
2.5
 20
75.0
 30
0.0
 11
80.5
 21
75.0
 31
0.0
  0
SOLID
  5
5D3
330
5CD
100
AcDbEntity
  8
2
 62
     0
100
AcDbTrace
 10
2.5
 20
75.41666666666667
 30
0.0
 11
2.5
 21
74.58333333333333
 31
0.0
 12
0.0
 22
75.0
 32
0.0
 13
0.0
 23
75.0
 33
0.0
  0
SOLID
  5
5D4
330
5CD
100
AcDbEntity
  8
2
 62
     0
100
AcDbTrace
 10
80.5
 20
74.58333333333333
 30
0.0
 11
80.5
 21
75.41666666666667
 31
0.0
 12
83.0
 22
75.0
 32
0.0
 13
83.0
 23
75.0
 33
0.0
  0
MTEXT
  5
5D5
330
5CD
100
AcDbEntity
  8
2
 62
     0
100
AcDbMText
 10
41.5
 20
77.39075
 30
0.0
 40
3.5
 41
0.0
 71
     5
 72
     1
  1
83
  7
SIMPLEX
 73
     1
 44
1.0
  0
POINT
  5
5D6
330
5CD
100
AcDbEntity
  8
DEFPOINTS
 62
     0
100
AcDbPoint
 10
0.0
 20
0.0
 30
0.0
  0
POINT
  5
5D7
330
5CD
100
AcDbEntity
  8
DEFPOINTS
 62
     0
100
AcDbPoint
 10
83.0
 20
0.0
 30
0.0
  0
POINT
  5
5D8
330
5CD
100
AcDbEntity
  8
DEFPOINTS
 62
     0
100
AcDbPoint
 10
83.0
 20
75.0
 30
0.0
  0
ENDBLK
  5
5CF
330
5CD
100
AcDbEntity
  8
0
100
AcDbBlockEnd
  0
BLOCK
  5
5DB
330
5DA
100
AcDbEntity
  8
0
100
AcDbBlockBegin
  2
*D2
 70
     1
 10
0.0
 20
0.0
 30
0.0
  3
*D2
  1

  0
LINE
  5
5DD
330
5DA
100
AcDbEntity
  8
SK2
 62
     0
370
    -2
100
AcDbLine
 10
-17.0
 20
4.5
 30
0.0
 11
-43.25000000002296
 21
4.499999999866036
 31
0.0
  0
LINE
  5
5DE
330
5DA
100
AcDbEntity
  8
SK2
 62
     0
370
    -2
100
AcDbLine
 10
-17.0
 20
-4.5
 30
0.0
 11
-43.24999999997704
 21
-4.500000000133964
 31
0.0
  0
LINE
  5
5DF
330
5DA
100
AcDbEntity
  8
SK2
 62
     0
370
    -2
100
AcDbLine
 10
-42.0000000000102
 20
1.999999999872415
 30
0.0
 11
-41.9999999999898
 21
-2.000000000127585
 31
0.0
  0
SOLID
  5
5E0
330
5DA
100
AcDbEntity
  8
SK2
 62
     0
100
AcDbTrace
 10
-41.58333333334354
 20
1.999999999874541
 30
0.0
 11
-42.41666666667687
 21
1.999999999870289
 31
0.0
 12
-42.00000000002296
 22
4.499999999872415
 32
0.0
 13
-42.00000000002296
 23
4.499999999872415
 33
0.0
  0
SOLID
  5
5E1
330
5DA
100
AcDbEntity
  8
SK2
 62
     0
100
AcDbTrace
 10
-42.41666666665646
 20
-2.000000000129711
 30
0.0
 11
-41.58333333332313
 21
-2.000000000125459
 31
0.0
 12
-41.99999999997704
 22
-4.500000000127585
 32
0.0
 13
-41.99999999997704
 23
-4.500000000127585
 33
0.0
  0
MTEXT
  5
5E2
330
5DA
100
AcDbEntity
  8
SK2
 62
     0
100
AcDbMText
 10
-44.39075
 20
-0.0000000001397857
 30
0.0
 40
3.5
 41
0.0
 71
     5
 72
     1
  1
%%c9
  7
SIMPLEX
 11
-5.103275826614764E-12
 21
1.0
 31
0.0
 73
     1
 44
1.0
  0
POINT
  5
5E3
330
5DA
100
AcDbEntity
  8
DEFPOINTS
 62
     0
100
AcDbPoint
 10
-17.0
 20
4.5
 30
0.0
  0
POINT
  5
5E4
330
5DA
100
AcDbEntity
  8
DEFPOINTS
 62
     0
100
AcDbPoint
 10
-17.0
 20
-4.5
 30
0.0
  0
POINT
  5
5E5
330
5DA
100
AcDbEntity
  8
DEFPOINTS
 62
     0
100
AcDbPoint
 10
-41.99999999997704
 20
-4.500000000127585
 30
0.0
  0
ENDBLK
  5
5DC
330
5DA
100
AcDbEntity
  8
0
100
AcDbBlockEnd
  0
BLOCK
  5
5E8
330
5E7
100
AcDbEntity
  8
0
100
AcDbBlockBegin
  2
*D3
 70
     1
 10
0.0
 20
0.0
 30
0.0
  3
*D3
  1

  0
LINE
  5
5EA
330
5E7
100
AcDbEntity
  8
2
 62
     0
370
    -2
100
AcDbLine
 10
59.04737206
 20
4.35
 30
0.0
 11
59.04737206
 21
61.25
 31
0.0
  0
LINE
  5
5EB
330
5E7
100
AcDbEntity
  8
2
 62
     0
370
    -2
100
AcDbLine
 10
83.0
 20
6.0
 30
0.0
 11
83.0
 21
61.25
 31
0.0
  0
LINE
  5
5EC
330
5E7
100
AcDbEntity
  8
2
 62
     0
370
    -2
100
AcDbLine
 10
61.54737206
 20
60.0
 30
0.0
 11
80.5
 21
60.0
 31
0.0
  0
SOLID
  5
5ED
330
5E7
100
AcDbEntity
  8
2
 62
     0
100
AcDbTrace
 10
61.54737206
 20
60.41666666666666
 30
0.0
 11
61.54737206
 21
59.58333333333334
 31
0.0
 12
59.04737206
 22
60.0
 32
0.0
 13
59.04737206
 23
60.0
 33
0.0
  0
SOLID
  5
5EE
330
5E7
100
AcDbEntity
  8
2
 62
     0
100
AcDbTrace
 10
80.5
 20
59.58333333333334
 30
0.0
 11
80.5
 21
60.41666666666666
 31
0.0
 12
83.0
 22
60.0
 32
0.0
 13
83.0
 23
60.0
 33
0.0
  0
MTEXT
  5
5EF
330
5E7
100
AcDbEntity
  8
2
 62
     0
100
AcDbMText
 10
71.02368603
 20
62.39775
 30
0.0
 40
3.5
 41
0.0
 71
     5
 72
     1
  1
23.95
  7
SIMPLEX
 73
     1
 44
1.0
  0
POINT
  5
5F0
330
5E7
100
AcDbEntity
  8
DEFPOINTS
 62
     0
100
AcDbPoint
 10
59.04737206
 20
4.35
 30
0.0
  0
POINT
  5
5F1
330
5E7
100
AcDbEntity
  8
DEFPOINTS
 62
     0
100
AcDbPoint
 10
83.0
 20
6.0
 30
0.0
  0
POINT
  5
5F2
330
5E7
100
AcDbEntity
  8
DEFPOINTS
 62
     0
100
AcDbPoint
 10
83.0
 20
60.0
 30
0.0
  0
ENDBLK
  5
5E9
330
5E7
100
AcDbEntity
  8
0
100
AcDbBlockEnd
  0
BLOCK
  5
5F5
330
5F4
100
AcDbEntity
  8
0
100
AcDbBlockBegin
  2
*D4
 70
     1
 10
0.0
 20
0.0
 30
0.0
  3
*D4
  1

  0
LINE
  5
5F7
330
5F4
100
AcDbEntity
  8
SK2
 62
     0
370
    -2
100
AcDbLine
 10
-27.0
 20
6.0
 30
0.0
 11
-27.0
 21
91.25
 31
0.0
  0
LINE
  5
5F8
330
5F4
100
AcDbEntity
  8
SK2
 62
     0
370
    -2
100
AcDbLine
 10
84.92
 20
6.0
 30
0.0
 11
84.92
 21
91.25
 31
0.0
  0
LINE
  5
5F9
330
5F4
100
AcDbEntity
  8
SK2
 62
     0
370
    -2
100
AcDbLine
 10
-24.5
 20
90.0
 30
0.0
 11
82.42
 21
90.0
 31
0.0
  0
SOLID
  5
5FA
330
5F4
100
AcDbEntity
  8
SK2
 62
     0
100
AcDbTrace
 10
-24.5
 20
90.41666666666667
 30
0.0
 11
-24.5
 21
89.58333333333333
 31
0.0
 12
-27.0
 22
90.0
 32
0.0
 13
-27.0
 23
90.0
 33
0.0
  0
SOLID
  5
5FB
330
5F4
100
AcDbEntity
  8
SK2
 62
     0
100
AcDbTrace
 10
82.42
 20
89.58333333333333
 30
0.0
 11
82.42
 21
90.41666666666667
 31
0.0
 12
84.92
 22
90.0
 32
0.0
 13
84.92
 23
90.0
 33
0.0
  0
MTEXT
  5
5FC
330
5F4
100
AcDbEntity
  8
SK2
 62
     0
100
AcDbMText
 10
28.96
 20
92.39775
 30
0.0
 40
3.5
 41
0.0
 71
     5
 72
     1
  1
111.92
  7
SIMPLEX
 73
     1
 44
1.0
  0
POINT
  5
5FD
330
5F4
100
AcDbEntity
  8
DEFPOINTS
 62
     0
100
AcDbPoint
 10
-27.0
 20
6.0
 30
0.0
  0
POINT
  5
5FE
330
5F4
100
AcDbEntity
  8
DEFPOINTS
 62
     0
100
AcDbPoint
 10
84.92
 20
6.0
 30
0.0
  0
POINT
  5
5FF
330
5F4
100
AcDbEntity
  8
DEFPOINTS
 62
     0
100
AcDbPoint
 10
84.92
 20
90.0
 30
0.0
  0
ENDBLK
  5
5F6
330
5F4
100
AcDbEntity
  8
0
100
AcDbBlockEnd
  0
ENDSEC
  0
SECTION
  2
ENTITIES
  0
LINE
  5
3D6
330
18
100
AcDbEntity
  8
SK4
100
AcDbLine
 10
-29.0
 20
0.0
 30
0.0
 11
39.0
 21
0.0
 31
0.0
  0
LINE
  5
3D7
330
18
100
AcDbEntity
  8
4
100
AcDbLine
 10
37.0
 20
0.0
 30
0.0
 11
86.92
 21
0.0
 31
0.0
  0
LINE
  5
3D8
330
18
100
AcDbEntity
  8
SK4
100
AcDbLine
 10
37.0
 20
0.0
 30
0.0
 11
86.92
 21
0.0
 31
0.0
  0
LINE
  5
3D9
330
18
100
AcDbEntity
  8
1
100
AcDbLine
 10
39.0
 20
4.5
 30
0.0
 11
39.00000000000001
 21
4.495526130175515
 31
0.0
  0
LINE
  5
3DA
330
18
100
AcDbEntity
  8
1
100
AcDbLine
 10
39.00000000000001
 20
4.495526130175515
 30
0.0
 11
39.0
 21
4.09623024490539
 31
0.0
  0
LINE
  5
3DB
330
18
100
AcDbEntity
  8
1
100
AcDbLine
 10
39.0
 20
4.09623024490539
 30
0.0
 11
39.0
 21
-4.5
 31
0.0
  0
LINE
  5
3DC
330
18
100
AcDbEntity
  8
1
100
AcDbLine
 10
39.0
 20
4.5
 30
0.0
 11
0.0000000000000018
 21
4.5
 31
0.0
  0
LINE
  5
3DD
330
18
100
AcDbEntity
  8
1
100
AcDbLine
 10
39.0
 20
4.35
 30
0.0
 11
44.43854710314699
 21
4.35
 31
0.0
  0
LINE
  5
3DE
330
18
100
AcDbEntity
  8
1
100
AcDbLine
 10
42.0
 20
-1.756964196596941
 30
0.0
 11
50.52369383716996
 21
-3.098169744986225
 31
0.0
  0
LINE
  5
3DF
330
18
100
AcDbEntity
  8
1
100
AcDbLine
 10
50.52369383716996
 20
-3.098169744986225
 30
0.0
 11
59.04737206
 21
-4.004489288456765
 31
0.0
  0
LINE
  5
3E0
330
18
100
AcDbEntity
  8
1
100
AcDbLine
 10
59.04737206
 20
-3.226878802221873
 30
0.0
 11
59.04737205999999
 21
0.700227571325214
 31
0.0
  0
LINE
  5
3E1
330
18
100
AcDbEntity
  8
1
100
AcDbLine
 10
42.00000000000001
 20
3.448820741745046
 30
0.0
 11
50.52369393928329
 21
2.231111040748581
 31
0.0
  0
LINE
  5
3E2
330
18
100
AcDbEntity
  8
1
100
AcDbLine
 10
50.52369393928329
 20
2.231111040748581
 30
0.0
 11
59.04737206
 21
0.7002275713252131
 31
0.0
  0
LINE
  5
3E3
330
18
100
AcDbEntity
  8
1
100
AcDbLine
 10
42.00000000000001
 20
3.448820741745047
 30
0.0
 11
41.99999999999999
 21
-1.756964196596941
 31
0.0
  0
LINE
  5
3E4
330
18
100
AcDbEntity
  8
1
100
AcDbLine
 10
59.04737206
 20
3.473612767430821
 30
0.0
 11
51.74295611953173
 21
4.125088216028939
 31
0.0
  0
LINE
  5
3E5
330
18
100
AcDbEntity
  8
1
100
AcDbLine
 10
51.74295611953173
 20
4.125088216028939
 30
0.0
 11
44.43854710314699
 21
4.349999999999993
 31
0.0
  0
ARC
  5
3E6
330
18
100
AcDbEntity
  8
1
100
AcDbCircle
 10
50.93298473494433
 20
116.6672370592126
 30
0.0
 40
121.0176051207281
100
AcDbArc
 50
265.7668313030833
 51
269.9664052208924
  0
LINE
  5
3E7
330
18
100
AcDbEntity
  8
1
100
AcDbLine
 10
42.00000000000001
 20
-4.020298351258731
 30
0.0
 11
42.0
 21
-4.35
 31
0.0
  0
LINE
  5
3E8
330
18
100
AcDbEntity
  8
1
100
AcDbLine
 10
59.04737206
 20
3.47361276743082
 30
0.0
 11
59.04737206
 21
0.7002275713252135
 31
0.0
  0
LINE
  5
3E9
330
18
100
AcDbEntity
  8
1
100
AcDbLine
 10
59.04737206
 20
-4.004489288456702
 30
0.0
 11
59.04737206
 21
-3.226878802221872
 31
0.0
  0
LINE
  5
3EA
330
18
100
AcDbEntity
  8
1
100
AcDbLine
 10
59.04737206
 20
-4.004489288456674
 30
0.0
 11
59.04737206
 21
-4.35
 31
0.0
  0
LINE
  5
3EB
330
18
100
AcDbEntity
  8
1
100
AcDbLine
 10
-0.000000000000004
 20
-4.5
 30
0.0
 11
39.0
 21
-4.5
 31
0.0
  0
LINE
  5
3EC
330
18
100
AcDbEntity
  8
1
100
AcDbLine
 10
39.0
 20
-4.35
 30
0.0
 11
41.99999999999999
 21
-4.35
 31
0.0
  0
LINE
  5
3ED
330
18
100
AcDbEntity
  8
1
100
AcDbLine
 10
50.86202753970813
 20
-4.35
 30
0.0
 11
59.04737206
 21
-4.35
 31
0.0
  0
LINE
  5
3EE
330
18
100
AcDbEntity
  8
1
 62
     1
100
AcDbLine
 10
83.0
 20
1.92
 30
0.0
 11
84.92
 21
-0.0000000000000004
 31
0.0
  0
LINE
  5
3EF
330
18
100
AcDbEntity
  8
1
 62
     1
100
AcDbLine
 10
76.84613247308103
 20
6.0
 30
0.0
 11
76.903867526919
 21
6.0
 31
0.0
  0
LINE
  5
3F0
330
18
100
AcDbEntity
  8
1
 62
     1
100
AcDbLine
 10
64.59613247308103
 20
-5.999999999999993
 30
0.0
 11
63.75000000000001
 21
-4.53445625
 31
0.0
  0
ARC
  5
3F1
330
18
100
AcDbEntity
  8
1
 62
     1
100
AcDbCircle
 10
87.8836494045688
 20
42.92383825443353
 30
0.0
 40
44.04996997675211
100
AcDbArc
 50
261.9418470810392
 51
263.2221066978922
  0
LINE
  5
3F2
330
18
100
AcDbEntity
  8
1
 62
     1
100
AcDbLine
 10
82.68483502472975
 20
-3.932043909875123
 30
0.0
 11
81.70880758724351
 21
-3.999382874072464
 31
0.0
  0
LINE
  5
3F3
330
18
100
AcDbEntity
  8
1
 62
     1
100
AcDbLine
 10
82.68483502472975
 20
-0.8182714162102751
 30
0.0
 11
82.68483502472974
 21
-3.932043909874824
 31
0.0
  0
LINE
  5
3F4
330
18
100
AcDbEntity
  8
1
 62
     1
100
AcDbLine
 10
80.63284180823945
 20
-0.5254397139541142
 30
0.0
 11
80.18331530798258
 21
-0.4482344469691427
 31
0.0
  0
LINE
  5
3F5
330
18
100
AcDbEntity
  8
1
 62
     1
100
AcDbLine
 10
80.63284180823945
 20
-4.065228784159044
 30
0.0
 11
80.1833153079826
 21
-4.090417331366591
 31
0.0
  0
ARC
  5
3F6
330
18
100
AcDbEntity
  8
1
 62
     1
100
AcDbCircle
 10
113.9868440696082
 20
-29.72244048271283
 30
0.0
 40
40.55742545743971
100
AcDbArc
 50
139.8202337425575
 51
140.5153330826495
  0
LINE
  5
3F7
330
18
100
AcDbEntity
  8
1
 62
     1
100
AcDbLine
 10
75.09613247308103
 20
0.8151589164207216
 30
0.0
 11
75.09613247308101
 21
-3.324066889212775
 31
0.0
  0
LINE
  5
3F8
330
18
100
AcDbEntity
  8
1
 62
     1
100
AcDbLine
 10
75.15386752691897
 20
0.7999814288157606
 30
0.0
 11
75.15386752691897
 21
-3.336807458679743
 31
0.0
  0
LINE
  5
3F9
330
18
100
AcDbEntity
  8
1
 62
     1
100
AcDbLine
 10
66.34613247308106
 20
2.997780421582977
 30
0.0
 11
66.34613247308104
 21
-1.193687632466101
 31
0.0
  0
LINE
  5
3FA
330
18
100
AcDbEntity
  8
1
 62
     1
100
AcDbLine
 10
61.15386752691898
 20
4.101903300345949
 30
0.0
 11
61.15386752691899
 21
0.17575745038917
 31
0.0
  0
ARC
  5
3FB
330
18
100
AcDbEntity
  8
1
 62
     1
100
AcDbCircle
 10
171.9671263572982
 20
-67.34389318469468
 30
0.0
 40
114.8534929129981
100
AcDbArc
 50
146.6742906941862
 51
147.4506500046896
  0
ARC
  5
3FC
330
18
100
AcDbEntity
  8
1
 62
     1
100
AcDbCircle
 10
104.2077967451008
 20
16.18397631230794
 30
0.0
 40
34.82766310425357
100
AcDbArc
 50
215.9113942224681
 51
218.2209670498266
  0
ARC
  5
3FD
330
18
100
AcDbEntity
  8
1
 62
     1
100
AcDbCircle
 10
148.9080021648503
 20
-53.20935590406932
 30
0.0
 40
86.45494270631802
100
AcDbArc
 50
145.3927251946247
 51
146.39279271426
  0
ARC
  5
3FE
330
18
100
AcDbEntity
  8
1
 62
     1
100
AcDbCircle
 10
133.2243366936705
 20
-43.19380961251247
 30
0.0
 40
66.53302662427575
100
AcDbArc
 50
143.8507797132678
 51
145.1049457086173
  0
ARC
  5
3FF
330
18
100
AcDbEntity
  8
1
 62
     1
100
AcDbCircle
 10
97.09785879333717
 20
11.06411221871699
 30
0.0
 40
23.13020391209248
100
AcDbArc
 50
220.4637074695946
 51
223.0065518158439
  0
ARC
  5
400
330
18
100
AcDbEntity
  8
1
 62
     1
100
AcDbCircle
 10
122.1631060946812
 20
-35.71453792987909
 30
0.0
 40
51.91178205920146
100
AcDbArc
 50
142.0108594576636
 51
143.1316470199363
  0
ARC
  5
401
330
18
100
AcDbEntity
  8
1
 62
     1
100
AcDbCircle
 10
94.94447375679626
 20
9.193208707392806
 30
0.0
 40
18.85155818013066
100
AcDbArc
 50
223.4114626181031
 51
225.4043071106292
  0
ARC
  5
402
330
18
100
AcDbEntity
  8
1
 62
     1
100
AcDbCircle
 10
124.2576026425689
 20
28.32535253533376
 30
0.0
 40
62.77257078898335
100
AcDbArc
 50
211.5258598941564
 51
212.9732608401289
  0
ARC
  5
403
330
18
100
AcDbEntity
  8
1
 62
     1
100
AcDbCircle
 10
274.327878383259
 20
-127.7573648964954
 30
0.0
 40
236.5202740917748
100
AcDbArc
 50
148.5747916379871
 51
148.9701808861275
  0
ARC
  5
404
330
18
100
AcDbEntity
  8
1
 62
     1
100
AcDbCircle
 10
116.0212863524768
 20
23.52679975352682
 30
0.0
 40
51.73199185087746
100
AcDbArc
 50
212.7240610560685
 51
214.4188477268042
  0
ARC
  5
405
330
18
100
AcDbEntity
  8
1
 62
     1
100
AcDbCircle
 10
208.4608291237191
 20
-89.11149738494608
 30
0.0
 40
158.7333981448702
100
AcDbArc
 50
147.7266950988172
 51
148.3033180517978
  0
ARC
  5
406
330
18
100
AcDbEntity
  8
1
 62
     1
100
AcDbCircle
 10
109.4387683816412
 20
19.53562808773987
 30
0.0
 40
42.53215604576567
100
AcDbArc
 50
214.1730309347291
 51
216.1523556166826
  0
ARC
  5
407
330
18
100
AcDbEntity
  8
1
 62
     1
100
AcDbCircle
 10
100.1169560266142
 20
13.35951946570896
 30
0.0
 40
28.37910961827657
100
AcDbArc
 50
217.9871781814803
 51
220.6824518551627
  0
LINE
  5
408
330
18
100
AcDbEntity
  8
1
 62
     1
100
AcDbLine
 10
67.24999999999999
 20
-4.532829878044745
 30
0.0
 11
67.43751189844085
 21
-4.859236233694455
 31
0.0
  0
LINE
  5
409
330
18
100
AcDbEntity
  8
1
 62
     1
100
AcDbLine
 10
67.25
 20
-4.53445625
 30
0.0
 11
67.24999999999999
 21
-4.532829878044745
 31
0.0
  0
ARC
  5
40A
330
18
100
AcDbEntity
  8
1
 62
     1
100
AcDbCircle
 10
149.5364691153147
 20
42.55363867134334
 30
0.0
 40
94.80622308581728
100
AcDbArc
 50
210.0068143212094
 51
210.7934087101131
  0
LINE
  5
40B
330
18
100
AcDbEntity
  8
1
 62
     1
100
AcDbLine
 10
67.43751189844085
 20
-4.859236233694458
 30
0.0
 11
67.25
 21
-4.53445625
 31
0.0
  0
LINE
  5
40C
330
18
100
AcDbEntity
  8
1
 62
     1
100
AcDbLine
 10
67.24999999999999
 20
-4.532829878044745
 30
0.0
 11
66.56666419355642
 21
-5.718028033516624
 31
0.0
  0
LINE
  5
40D
330
18
100
AcDbEntity
  8
1
 62
     1
100
AcDbLine
 10
66.56666419355642
 20
-5.718028033516624
 30
0.0
 11
66.56649844616331
 21
-5.718315116322843
 31
0.0
  0
LINE
  5
40E
330
18
100
AcDbEntity
  8
1
 62
     1
100
AcDbLine
 10
67.25
 20
-4.53445625
 30
0.0
 11
66.56649844616331
 21
-5.718315116322845
 31
0.0
  0
LINE
  5
40F
330
18
100
AcDbEntity
  8
1
 62
     1
100
AcDbLine
 10
66.40386752691896
 20
-5.999973360193488
 30
0.0
 11
66.56649844616331
 21
-5.718315116322843
 31
0.0
  0
ARC
  5
410
330
18
100
AcDbEntity
  8
1
 62
     1
100
AcDbCircle
 10
165.0318734956725
 20
51.02519307439319
 30
0.0
 40
113.9769269634911
100
AcDbArc
 50
209.1598874257161
 51
210.0171762174918
  0
LINE
  5
411
330
18
100
AcDbEntity
  8
1
 62
     1
100
AcDbLine
 10
66.34201889279055
 20
-5.992875073257871
 30
0.0
 11
66.34613247308106
 21
-5.999999452743415
 31
0.0
  0
LINE
  5
412
330
18
100
AcDbEntity
  8
1
 62
     1
100
AcDbLine
 10
66.34201889279053
 20
-5.99287507325787
 30
0.0
 11
65.5
 21
-4.53445625
 31
0.0
  0
ARC
  5
413
330
18
100
AcDbEntity
  8
1
 62
     1
100
AcDbCircle
 10
1250.715040872214
 20
-694.203890856283
 30
0.0
 40
1368.247858768302
100
AcDbArc
 50
149.731211778099
 51
149.8015846827439
  0
ARC
  5
414
330
18
100
AcDbEntity
  8
1
 62
     1
100
AcDbCircle
 10
134.6046837275489
 20
34.18900919581861
 30
0.0
 40
76.17763996614701
100
AcDbArc
 50
210.5476655889753
 51
211.7775664824512
  0
ARC
  5
415
330
18
100
AcDbEntity
  8
1
 62
     1
100
AcDbCircle
 10
429.2256746725308
 20
-217.8693917541632
 30
0.0
 40
417.1718798965279
100
AcDbArc
 50
149.2380313996119
 51
149.4660178348262
  0
ARC
  5
416
330
18
100
AcDbEntity
  8
1
 62
     1
100
AcDbCircle
 10
69.80221605320565
 20
-7.667355592415538
 30
0.0
 40
15.48506888231168
100
AcDbArc
 50
130.7121815346194
 51
133.9897153233343
  0
ARC
  5
417
330
18
100
AcDbEntity
  8
1
 62
     1
100
AcDbCircle
 10
59.27212111545326
 20
-0.4072683893549647
 30
0.0
 40
1.140721198977844
100
AcDbArc
 50
67.86509393474628
 51
77.08949663091325
  0
LINE
  5
418
330
18
100
AcDbEntity
  8
1
 62
     1
100
AcDbLine
 10
59.5269852752498
 20
0.7045903044344477
 30
0.0
 11
59.52697056462325
 21
0.7045936427734647
 31
0.0
  0
ARC
  5
419
330
18
100
AcDbEntity
  8
1
 62
     1
100
AcDbCircle
 10
280.8570764451328
 20
114.4353807628669
 30
0.0
 40
250.5213275922998
100
AcDbArc
 50
208.2861376049281
 51
208.6918619294626
  0
LINE
  5
41A
330
18
100
AcDbEntity
  8
1
 62
     1
100
AcDbLine
 10
61.09613247308104
 20
-6.000000000000006
 30
0.0
 11
60.25000000000001
 21
-4.53445625
 31
0.0
  0
LINE
  5
41B
330
18
100
AcDbEntity
  8
1
 62
     1
100
AcDbLine
 10
61.09613247308104
 20
-5.839654797186467
 30
0.0
 11
61.09613247308104
 21
-6.0
 31
0.0
  0
ARC
  5
41C
330
18
100
AcDbEntity
  8
1
 62
     1
100
AcDbCircle
 10
-52.94651350378658
 20
61.29241184502796
 30
0.0
 40
130.8176452375127
100
AcDbArc
 50
329.4414962615078
 51
329.916998666982
  0
LINE
  5
41D
330
18
100
AcDbEntity
  8
1
 62
     1
100
AcDbLine
 10
59.70193383359748
 20
-5.217621494843016
 30
0.0
 11
59.70193383359747
 21
-5.483734253517514
 31
0.0
  0
LINE
  5
41E
330
18
100
AcDbEntity
  8
1
 62
     1
100
AcDbLine
 10
60.25000000000001
 20
-4.53445625
 30
0.0
 11
59.70193383359748
 21
-5.48373425351751
 31
0.0
  0
LINE
  5
41F
330
18
100
AcDbEntity
  8
1
 62
     1
100
AcDbLine
 10
60.25000000000001
 20
-4.53445625
 30
0.0
 11
60.25000000000001
 21
-4.534400443149789
 31
0.0
  0
LINE
  5
420
330
18
100
AcDbEntity
  8
1
 62
     1
100
AcDbLine
 10
60.25000000000001
 20
-4.534400443149789
 30
0.0
 11
60.25000000000001
 21
-4.517814883513546
 31
0.0
  0
LINE
  5
421
330
18
100
AcDbEntity
  8
1
 62
     1
100
AcDbLine
 10
60.25000000000001
 20
-4.517814883513546
 30
0.0
 11
60.25000000000001
 21
-4.280451188823474
 31
0.0
  0
ARC
  5
422
330
18
100
AcDbEntity
  8
1
 62
     1
100
AcDbCircle
 10
-96.01163005829488
 20
86.2349857827442
 30
0.0
 40
182.1520613330338
100
AcDbArc
 50
329.6353537208665
 51
330.1661034786784
  0
LINE
  5
423
330
18
100
AcDbEntity
  8
1
 62
     1
100
AcDbLine
 10
61.15386752691899
 20
-5.843153120009925
 30
0.0
 11
61.15386752691899
 21
-6.0
 31
0.0
  0
LINE
  5
424
330
18
100
AcDbEntity
  8
1
 62
     1
100
AcDbLine
 10
62.00000000000001
 20
-4.53445625
 30
0.0
 11
61.15386752691899
 21
-5.999999999999981
 31
0.0
  0
ARC
  5
425
330
18
100
AcDbEntity
  8
1
 62
     1
100
AcDbCircle
 10
223.5632669276974
 20
83.078082013449
 30
0.0
 40
183.7176852320244
100
AcDbArc
 50
208.428657292388
 51
208.9781266130154
  0
LINE
  5
426
330
18
100
AcDbEntity
  8
1
 62
     1
100
AcDbLine
 10
62.00000000000001
 20
-4.53445625
 30
0.0
 11
62.0
 21
-4.534422411943078
 31
0.0
  0
LINE
  5
427
330
18
100
AcDbEntity
  8
1
 62
     1
100
AcDbLine
 10
62.0
 20
-4.534422411943078
 30
0.0
 11
62.00000000000001
 21
-4.52443283113894
 31
0.0
  0
LINE
  5
428
330
18
100
AcDbEntity
  8
1
 62
     1
100
AcDbLine
 10
62.00000000000001
 20
-4.52443283113894
 30
0.0
 11
62.0
 21
-4.383311552199596
 31
0.0
  0
LINE
  5
429
330
18
100
AcDbEntity
  8
1
 62
     1
100
AcDbLine
 10
62.84613247308106
 20
-6.000000000000031
 30
0.0
 11
62.00000000000001
 21
-4.53445625
 31
0.0
  0
LINE
  5
42A
330
18
100
AcDbEntity
  8
1
 62
     1
100
AcDbLine
 10
62.84613247308105
 20
-5.928689418410666
 30
0.0
 11
62.84613247308106
 21
-6.0
 31
0.0
  0
ARC
  5
42B
330
18
100
AcDbEntity
  8
1
 62
     1
100
AcDbCircle
 10
-159.3731145431263
 20
122.9091590821919
 30
0.0
 40
256.9179715618802
100
AcDbArc
 50
329.9017897209171
 51
330.2802561511299
  0
LINE
  5
42C
330
18
100
AcDbEntity
  8
1
 62
     1
100
AcDbLine
 10
62.90386752691897
 20
-5.931024563048198
 30
0.0
 11
62.90386752691898
 21
-6.0
 31
0.0
  0
LINE
  5
42D
330
18
100
AcDbEntity
  8
1
 62
     1
100
AcDbLine
 10
63.75000000000001
 20
-4.53445625
 30
0.0
 11
62.90386752691898
 21
-5.999999999999994
 31
0.0
  0
ARC
  5
42E
330
18
100
AcDbEntity
  8
1
 62
     1
100
AcDbCircle
 10
188.7552722313871
 20
64.02893893687998
 30
0.0
 40
142.5378795086688
100
AcDbArc
 50
208.7178027405783
 51
209.4178965042544
  0
LINE
  5
42F
330
18
100
AcDbEntity
  8
1
 62
     1
100
AcDbLine
 10
63.75000000000001
 20
-4.53445625
 30
0.0
 11
63.75000000000001
 21
-4.534439196311281
 31
0.0
  0
LINE
  5
430
330
18
100
AcDbEntity
  8
1
 62
     1
100
AcDbLine
 10
63.75000000000001
 20
-4.534439196311281
 30
0.0
 11
63.75
 21
-4.529439682502617
 31
0.0
  0
LINE
  5
431
330
18
100
AcDbEntity
  8
1
 62
     1
100
AcDbLine
 10
63.75
 20
-4.529439682502617
 30
0.0
 11
63.75
 21
-4.459940539052137
 31
0.0
  0
LINE
  5
432
330
18
100
AcDbEntity
  8
1
 62
     1
100
AcDbLine
 10
64.59613247308103
 20
-5.982244436069593
 30
0.0
 11
64.59613247308103
 21
-6.0
 31
0.0
  0
LINE
  5
433
330
18
100
AcDbEntity
  8
1
 62
     1
100
AcDbLine
 10
64.65386752691896
 20
-5.983402429890733
 30
0.0
 11
65.5
 21
-4.509879647898204
 31
0.0
  0
LINE
  5
434
330
18
100
AcDbEntity
  8
1
 62
     1
100
AcDbLine
 10
64.65386752691899
 20
-5.983402429890734
 30
0.0
 11
64.65386752691897
 21
-6.0
 31
0.0
  0
LINE
  5
435
330
18
100
AcDbEntity
  8
1
 62
     1
100
AcDbLine
 10
65.5
 20
-4.53445625
 30
0.0
 11
64.65386752691897
 21
-5.999999999999994
 31
0.0
  0
LINE
  5
436
330
18
100
AcDbEntity
  8
1
 62
     1
100
AcDbLine
 10
65.5
 20
-4.53445625
 30
0.0
 11
65.50000000000001
 21
-4.534450481380384
 31
0.0
  0
LINE
  5
437
330
18
100
AcDbEntity
  8
1
 62
     1
100
AcDbLine
 10
65.50000000000001
 20
-4.534450481380384
 30
0.0
 11
65.5
 21
-4.532771666191142
 31
0.0
  0
LINE
  5
438
330
18
100
AcDbEntity
  8
1
 62
     1
100
AcDbLine
 10
65.5
 20
-4.532771666191142
 30
0.0
 11
65.5
 21
-4.509879647898204
 31
0.0
  0
LINE
  5
439
330
18
100
AcDbEntity
  8
1
 62
     1
100
AcDbLine
 10
82.68483502472976
 20
4.751995164381745
 30
0.0
 11
81.70880758724385
 21
5.049847796272712
 31
0.0
  0
LINE
  5
43A
330
18
100
AcDbEntity
  8
1
 62
     1
100
AcDbLine
 10
81.70880758718454
 20
5.329133931382988
 30
0.0
 11
82.68483502472975
 21
5.080337745416836
 31
0.0
  0
LINE
  5
43B
330
18
100
AcDbEntity
  8
1
 62
     1
100
AcDbLine
 10
80.63284180823942
 20
5.372382004065344
 30
0.0
 11
80.18331530798258
 21
5.505402802485069
 31
0.0
  0
LINE
  5
43C
330
18
100
AcDbEntity
  8
1
 62
     1
100
AcDbLine
 10
80.1833153079826
 20
5.717992529191283
 30
0.0
 11
80.63284180823945
 21
5.603405096038886
 31
0.0
  0
ARC
  5
43D
330
18
100
AcDbEntity
  8
1
 62
     1
100
AcDbCircle
 10
79.00801784346234
 20
6.885168260576942
 30
0.0
 40
8.535922611922578
100
AcDbArc
 50
295.514933665106
 51
297.8830526405508
  0
ARC
  5
43E
330
18
100
AcDbEntity
  8
1
 62
     1
100
AcDbCircle
 10
90.45959475156225
 20
-9.814284445063324
 30
0.0
 40
9.749232795276992
100
AcDbArc
 50
139.9202443037951
 51
142.8895193636795
  0
LINE
  5
43F
330
18
100
AcDbEntity
  8
1
 62
     1
100
AcDbLine
 10
78.59613247308104
 20
6.0
 30
0.0
 11
78.65386752691902
 21
6.0
 31
0.0
  0
LINE
  5
440
330
18
100
AcDbEntity
  8
1
 62
     1
100
AcDbLine
 10
75.09613247308103
 20
6.0
 30
0.0
 11
75.15386752691897
 21
6.0
 31
0.0
  0
ARC
  5
441
330
18
100
AcDbEntity
  8
1
 62
     1
100
AcDbCircle
 10
72.81214940923697
 20
-8.914264191801784
 30
0.0
 40
10.53338305503735
100
AcDbArc
 50
56.69447213734717
 51
62.04473392107825
  0
LINE
  5
442
330
18
100
AcDbEntity
  8
1
 62
     1
100
AcDbLine
 10
77.74999999999999
 20
-2.789652085449611
 30
0.0
 11
77.75
 21
0.3899995897280786
 31
0.0
  0
LINE
  5
443
330
18
100
AcDbEntity
  8
1
 62
     1
100
AcDbLine
 10
77.75
 20
-2.789652085449612
 30
0.0
 11
77.96768032926516
 21
-3.063440905360977
 31
0.0
  0
LINE
  5
444
330
18
100
AcDbEntity
  8
1
 62
     1
100
AcDbLine
 10
77.96768032926516
 20
-3.063440905360977
 30
0.0
 11
78.18209367278432
 21
-3.36830082789623
 31
0.0
  0
LINE
  5
445
330
18
100
AcDbEntity
  8
1
 62
     1
100
AcDbLine
 10
78.18209367278432
 20
-3.36830082789623
 30
0.0
 11
78.39191288610178
 21
-3.699998719458624
 31
0.0
  0
LINE
  5
446
330
18
100
AcDbEntity
  8
1
 62
     1
100
AcDbLine
 10
78.39191288610178
 20
-3.699998719458624
 30
0.0
 11
78.59613247308104
 21
-4.054274755762686
 31
0.0
  0
LINE
  5
447
330
18
100
AcDbEntity
  8
1
 62
     1
100
AcDbLine
 10
78.59613247308103
 20
-0.1108425520482459
 30
0.0
 11
78.59613247308104
 21
-4.05427475576267
 31
0.0
  0
ARC
  5
448
330
18
100
AcDbEntity
  8
1
 62
     1
100
AcDbCircle
 10
72.49153250846587
 20
-5.973470485229257
 30
0.0
 40
7.271021349891893
100
AcDbArc
 50
69.00964225231651
 51
76.00443898824821
  0
LINE
  5
449
330
18
100
AcDbEntity
  8
1
 62
     1
100
AcDbLine
 10
74.25
 20
-2.205298014616822
 30
0.0
 11
74.25
 21
1.081685923952046
 31
0.0
  0
LINE
  5
44A
330
18
100
AcDbEntity
  8
1
 62
     1
100
AcDbLine
 10
74.25
 20
-2.205298014616833
 30
0.0
 11
74.35915307246535
 21
-2.315476389539334
 31
0.0
  0
LINE
  5
44B
330
18
100
AcDbEntity
  8
1
 62
     1
100
AcDbLine
 10
74.35915307246535
 20
-2.315476389539334
 30
0.0
 11
74.46768033040027
 21
-2.435087244224328
 31
0.0
  0
LINE
  5
44C
330
18
100
AcDbEntity
  8
1
 62
     1
100
AcDbLine
 10
74.46768033040027
 20
-2.435087244224328
 30
0.0
 11
74.575384019321
 21
-2.563663212991668
 31
0.0
  0
LINE
  5
44D
330
18
100
AcDbEntity
  8
1
 62
     1
100
AcDbLine
 10
74.575384019321
 20
-2.563663212991668
 30
0.0
 11
74.78764818820548
 21
-2.845800748927302
 31
0.0
  0
LINE
  5
44E
330
18
100
AcDbEntity
  8
1
 62
     1
100
AcDbLine
 10
74.78764818820548
 20
-2.845800748927302
 30
0.0
 11
74.94353080663667
 21
-3.077327142303806
 31
0.0
  0
LINE
  5
44F
330
18
100
AcDbEntity
  8
1
 62
     1
100
AcDbLine
 10
74.94353080663667
 20
-3.077327142303806
 30
0.0
 11
75.09613247308101
 21
-3.324066889212768
 31
0.0
  0
ARC
  5
450
330
18
100
AcDbEntity
  8
1
 62
     1
100
AcDbCircle
 10
71.8206859789267
 20
-5.011468032339906
 30
0.0
 40
6.466114673169892
100
AcDbArc
 50
76.35468905516953
 51
83.96950356121279
  0
LINE
  5
451
330
18
100
AcDbEntity
  8
1
 62
     1
100
AcDbLine
 10
72.49999999999999
 20
-1.892428334925232
 30
0.0
 11
72.5
 21
1.418847504749804
 31
0.0
  0
LINE
  5
452
330
18
100
AcDbEntity
  8
1
 62
     1
100
AcDbLine
 10
72.5
 20
-1.892428334925228
 30
0.0
 11
72.60915306444122
 21
-1.990295902332071
 31
0.0
  0
LINE
  5
453
330
18
100
AcDbEntity
  8
1
 62
     1
100
AcDbLine
 10
72.60915306444122
 20
-1.990295902332071
 30
0.0
 11
72.71768031701228
 21
-2.098086856809528
 31
0.0
  0
LINE
  5
454
330
18
100
AcDbEntity
  8
1
 62
     1
100
AcDbLine
 10
72.71768031701228
 20
-2.098086856809528
 30
0.0
 11
72.82538400424875
 21
-2.215362540028236
 31
0.0
  0
LINE
  5
455
330
18
100
AcDbEntity
  8
1
 62
     1
100
AcDbLine
 10
72.82538400424875
 20
-2.215362540028236
 30
0.0
 11
72.93209364984374
 21
-2.341679225245382
 31
0.0
  0
LINE
  5
456
330
18
100
AcDbEntity
  8
1
 62
     1
100
AcDbLine
 10
72.93209364984374
 20
-2.341679225245382
 30
0.0
 11
73.03764818088099
 21
-2.476569378346221
 31
0.0
  0
LINE
  5
457
330
18
100
AcDbEntity
  8
1
 62
     1
100
AcDbLine
 10
73.03764818088099
 20
-2.476569378346221
 30
0.0
 11
73.14191286702786
 21
-2.619563911969418
 31
0.0
  0
LINE
  5
458
330
18
100
AcDbEntity
  8
1
 62
     1
100
AcDbLine
 10
73.14191286702786
 20
-2.619563911969418
 30
0.0
 11
73.34613247308104
 21
-2.927998034870323
 31
0.0
  0
LINE
  5
459
330
18
100
AcDbEntity
  8
1
 62
     1
100
AcDbLine
 10
73.34613247308103
 20
1.272225030749137
 30
0.0
 11
73.34613247308104
 21
-2.927998034870305
 31
0.0
  0
ARC
  5
45A
330
18
100
AcDbEntity
  8
1
 62
     1
100
AcDbCircle
 10
74.59465840810888
 20
8.952648376419955
 30
0.0
 40
7.819678733396373
100
AcDbArc
 50
247.9092485767006
 51
254.4622214105547
  0
LINE
  5
45B
330
18
100
AcDbEntity
  8
1
 62
     1
100
AcDbLine
 10
71.65386752691896
 20
1.706998754795431
 30
0.0
 11
71.65386752691896
 21
-2.528306583090028
 31
0.0
  0
LINE
  5
45C
330
18
100
AcDbEntity
  8
1
 62
     1
100
AcDbLine
 10
71.65386752691896
 20
-2.528306583090045
 30
0.0
 11
71.75886590617039
 21
-2.423488871801187
 31
0.0
  0
LINE
  5
45D
330
18
100
AcDbEntity
  8
1
 62
     1
100
AcDbLine
 10
71.75886590617039
 20
-2.423488871801187
 30
0.0
 11
71.86436189724682
 21
-2.325978546774674
 31
0.0
  0
LINE
  5
45E
330
18
100
AcDbEntity
  8
1
 62
     1
100
AcDbLine
 10
71.86436189724682
 20
-2.325978546774674
 30
0.0
 11
71.97022270249417
 21
-2.23574607090841
 31
0.0
  0
LINE
  5
45F
330
18
100
AcDbEntity
  8
1
 62
     1
100
AcDbLine
 10
71.97022270249417
 20
-2.23574607090841
 30
0.0
 11
72.0763123495073
 21
-2.152756781308264
 31
0.0
  0
LINE
  5
460
330
18
100
AcDbEntity
  8
1
 62
     1
100
AcDbLine
 10
72.0763123495073
 20
-2.152756781308264
 30
0.0
 11
72.1824826239973
 21
-2.076976266554059
 31
0.0
  0
LINE
  5
461
330
18
100
AcDbEntity
  8
1
 62
     1
100
AcDbLine
 10
72.1824826239973
 20
-2.076976266554059
 30
0.0
 11
72.28859104717695
 21
-2.008357593349528
 31
0.0
  0
LINE
  5
462
330
18
100
AcDbEntity
  8
1
 62
     1
100
AcDbLine
 10
72.28859104717695
 20
-2.008357593349528
 30
0.0
 11
72.3944883073247
 21
-1.946853960282801
 31
0.0
  0
LINE
  5
463
330
18
100
AcDbEntity
  8
1
 62
     1
100
AcDbLine
 10
72.3944883073247
 20
-1.946853960282801
 30
0.0
 11
72.50000000000001
 21
-1.892428334925228
 31
0.0
  0
ARC
  5
464
330
18
100
AcDbEntity
  8
1
 62
     1
100
AcDbCircle
 10
70.9864682688769
 20
-4.361851351905443
 30
0.0
 40
6.113953431584311
100
AcDbArc
 50
84.27717883019054
 51
92.21657458012305
  0
LINE
  5
465
330
18
100
AcDbEntity
  8
1
 62
     1
100
AcDbLine
 10
70.75000000000001
 20
-1.56823365638542
 30
0.0
 11
70.75
 21
1.74751851432235
 31
0.0
  0
LINE
  5
466
330
18
100
AcDbEntity
  8
1
 62
     1
100
AcDbLine
 10
70.75
 20
-1.56823365638542
 30
0.0
 11
70.85915307769736
 21
-1.653204684554475
 31
0.0
  0
LINE
  5
467
330
18
100
AcDbEntity
  8
1
 62
     1
100
AcDbLine
 10
70.85915307769736
 20
-1.653204684554475
 30
0.0
 11
70.96768034434777
 21
-1.748530664888527
 31
0.0
  0
LINE
  5
468
330
18
100
AcDbEntity
  8
1
 62
     1
100
AcDbLine
 10
70.96768034434777
 20
-1.748530664888527
 30
0.0
 11
71.07538404382383
 21
-1.853804282992133
 31
0.0
  0
LINE
  5
469
330
18
100
AcDbEntity
  8
1
 62
     1
100
AcDbLine
 10
71.07538404382383
 20
-1.853804282992133
 30
0.0
 11
71.18209369706554
 21
-1.968612213956143
 31
0.0
  0
LINE
  5
46A
330
18
100
AcDbEntity
  8
1
 62
     1
100
AcDbLine
 10
71.18209369706554
 20
-1.968612213956143
 30
0.0
 11
71.28764822813483
 21
-2.092517511156964
 31
0.0
  0
LINE
  5
46B
330
18
100
AcDbEntity
  8
1
 62
     1
100
AcDbLine
 10
71.28764822813483
 20
-2.092517511156964
 30
0.0
 11
71.39191290570808
 21
-2.225079336913486
 31
0.0
  0
LINE
  5
46C
330
18
100
AcDbEntity
  8
1
 62
     1
100
AcDbLine
 10
71.39191290570808
 20
-2.225079336913486
 30
0.0
 11
71.59613247308104
 21
-2.514407698974873
 31
0.0
  0
LINE
  5
46D
330
18
100
AcDbEntity
  8
1
 62
     1
100
AcDbLine
 10
71.59613247308103
 20
1.721677144303108
 30
0.0
 11
71.59613247308104
 21
-2.514407698842133
 31
0.0
  0
ARC
  5
46E
330
18
100
AcDbEntity
  8
1
 62
     1
100
AcDbCircle
 10
72.26967916546374
 20
-10.80845517407895
 30
0.0
 40
13.03680947814797
100
AcDbArc
 50
52.62566409660296
 51
56.31624144901276
  0
LINE
  5
46F
330
18
100
AcDbEntity
  8
1
 62
     1
100
AcDbLine
 10
79.50000000000001
 20
-3.057639610616306
 30
0.0
 11
79.5
 21
0.0396139857836201
 31
0.0
  0
LINE
  5
470
330
18
100
AcDbEntity
  8
1
 62
     1
100
AcDbLine
 10
79.5
 20
-3.057639610616306
 30
0.0
 11
79.67437761332977
 21
-3.289973611309427
 31
0.0
  0
LINE
  5
471
330
18
100
AcDbEntity
  8
1
 62
     1
100
AcDbLine
 10
79.67437761332977
 20
-3.289973611309427
 30
0.0
 11
79.84685798960308
 21
-3.541046378470433
 31
0.0
  0
LINE
  5
472
330
18
100
AcDbEntity
  8
1
 62
     1
100
AcDbLine
 10
79.84685798960308
 20
-3.541046378470433
 30
0.0
 11
80.18331530798258
 21
-4.090417331366586
 31
0.0
  0
LINE
  5
473
330
18
100
AcDbEntity
  8
1
 62
     1
100
AcDbLine
 10
80.1833153079826
 20
-0.4482344469691423
 30
0.0
 11
80.18331530798261
 21
-4.09041733136659
 31
0.0
  0
ARC
  5
474
330
18
100
AcDbEntity
  8
1
 62
     1
100
AcDbCircle
 10
77.81592632155392
 20
6.392442931966586
 30
0.0
 40
6.572239018660495
100
AcDbArc
 50
277.3249848618826
 51
284.8470641948849
  0
LINE
  5
475
330
18
100
AcDbEntity
  8
1
 62
     1
100
AcDbLine
 10
78.65386752691902
 20
-0.1261564767825047
 30
0.0
 11
78.65386752691902
 21
-4.065552638471625
 31
0.0
  0
LINE
  5
476
330
18
100
AcDbEntity
  8
1
 62
     1
100
AcDbLine
 10
78.65386752691896
 20
-4.065552638471626
 30
0.0
 11
78.86436190290476
 21
-3.778935318028938
 31
0.0
  0
LINE
  5
477
330
18
100
AcDbEntity
  8
1
 62
     1
100
AcDbLine
 10
78.86436190290476
 20
-3.778935318028938
 30
0.0
 11
79.07631235848632
 21
-3.515071659727352
 31
0.0
  0
LINE
  5
478
330
18
100
AcDbEntity
  8
1
 62
     1
100
AcDbLine
 10
79.07631235848632
 20
-3.515071659727352
 30
0.0
 11
79.2885910539654
 21
-3.274520305234949
 31
0.0
  0
LINE
  5
479
330
18
100
AcDbEntity
  8
1
 62
     1
100
AcDbLine
 10
79.2885910539654
 20
-3.274520305234949
 30
0.0
 11
79.5
 21
-3.057639610616306
 31
0.0
  0
ARC
  5
47A
330
18
100
AcDbEntity
  8
1
 62
     1
100
AcDbCircle
 10
76.94136817302247
 20
6.631522193888612
 30
0.0
 40
6.293706622263548
100
AcDbArc
 50
269.6586049719155
 51
277.3819404285408
  0
LINE
  5
47B
330
18
100
AcDbEntity
  8
1
 62
     1
100
AcDbLine
 10
76.903867526919
 20
0.3379234414053953
 30
0.0
 11
76.90386752691899
 21
-3.712288237345393
 31
0.0
  0
LINE
  5
47C
330
18
100
AcDbEntity
  8
1
 62
     1
100
AcDbLine
 10
76.90386752691899
 20
-3.712288237344523
 30
0.0
 11
77.11436188967664
 21
-3.44446315757469
 31
0.0
  0
LINE
  5
47D
330
18
100
AcDbEntity
  8
1
 62
     1
100
AcDbLine
 10
77.11436188967664
 20
-3.44446315757469
 30
0.0
 11
77.32631234265347
 21
-3.201210256344333
 31
0.0
  0
LINE
  5
47E
330
18
100
AcDbEntity
  8
1
 62
     1
100
AcDbLine
 10
77.32631234265347
 20
-3.201210256344333
 30
0.0
 11
77.53859104452695
 21
-2.98287950750644
 31
0.0
  0
LINE
  5
47F
330
18
100
AcDbEntity
  8
1
 62
     1
100
AcDbLine
 10
77.53859104452695
 20
-2.98287950750644
 30
0.0
 11
77.75
 21
-2.789652085449612
 31
0.0
  0
ARC
  5
480
330
18
100
AcDbEntity
  8
1
 62
     1
100
AcDbCircle
 10
72.86876431733135
 20
-7.265830342054314
 30
0.0
 40
8.594600481038707
100
AcDbArc
 50
62.43410235040672
 51
68.63383542750594
  0
LINE
  5
481
330
18
100
AcDbEntity
  8
1
 62
     1
100
AcDbLine
 10
76.00000000000001
 20
-2.504970388807396
 30
0.0
 11
76.00000000000001
 21
0.7380513973104836
 31
0.0
  0
LINE
  5
482
330
18
100
AcDbEntity
  8
1
 62
     1
100
AcDbLine
 10
76.0
 20
-2.504970388807394
 30
0.0
 11
76.10915308359814
 21
-2.62680014691966
 31
0.0
  0
LINE
  5
483
330
18
100
AcDbEntity
  8
1
 62
     1
100
AcDbLine
 10
76.10915308359814
 20
-2.62680014691966
 30
0.0
 11
76.21768035337942
 21
-2.757515015480452
 31
0.0
  0
LINE
  5
484
330
18
100
AcDbEntity
  8
1
 62
     1
100
AcDbLine
 10
76.21768035337942
 20
-2.757515015480452
 30
0.0
 11
76.43209370267688
 21
-3.043623914503654
 31
0.0
  0
LINE
  5
485
330
18
100
AcDbEntity
  8
1
 62
     1
100
AcDbLine
 10
76.43209370267688
 20
-3.043623914503654
 30
0.0
 11
76.64191290341998
 21
-3.359237177240541
 31
0.0
  0
LINE
  5
486
330
18
100
AcDbEntity
  8
1
 62
     1
100
AcDbLine
 10
76.64191290341998
 20
-3.359237177240541
 30
0.0
 11
76.84613247308104
 21
-3.700242944469347
 31
0.0
  0
LINE
  5
487
330
18
100
AcDbEntity
  8
1
 62
     1
100
AcDbLine
 10
76.84613247308103
 20
0.3532149202062277
 30
0.0
 11
76.84613247308103
 21
-3.700242944733053
 31
0.0
  0
ARC
  5
488
330
18
100
AcDbEntity
  8
1
 62
     1
100
AcDbCircle
 10
76.04320717059015
 20
7.132502082569137
 30
0.0
 40
6.394654125302425
100
AcDbArc
 50
262.0056616470043
 51
269.6128594985546
  0
LINE
  5
489
330
18
100
AcDbEntity
  8
1
 62
     1
100
AcDbLine
 10
75.15386752691899
 20
-3.33680745867976
 30
0.0
 11
75.3643618872804
 21
-3.089377569475242
 31
0.0
  0
LINE
  5
48A
330
18
100
AcDbEntity
  8
1
 62
     1
100
AcDbLine
 10
75.3643618872804
 20
-3.089377569475242
 30
0.0
 11
75.57631234316383
 21
-2.868191408554172
 31
0.0
  0
LINE
  5
48B
330
18
100
AcDbEntity
  8
1
 62
     1
100
AcDbLine
 10
75.57631234316383
 20
-2.868191408554172
 30
0.0
 11
75.78859104522272
 21
-2.673388082591833
 31
0.0
  0
LINE
  5
48C
330
18
100
AcDbEntity
  8
1
 62
     1
100
AcDbLine
 10
75.78859104522272
 20
-2.673388082591833
 30
0.0
 11
75.89448830645424
 21
-2.585880233469556
 31
0.0
  0
LINE
  5
48D
330
18
100
AcDbEntity
  8
1
 62
     1
100
AcDbLine
 10
75.89448830645424
 20
-2.585880233469556
 30
0.0
 11
76.0
 21
-2.504970388807394
 31
0.0
  0
ARC
  5
48E
330
18
100
AcDbEntity
  8
1
 62
     1
100
AcDbCircle
 10
78.54767910543798
 20
6.47064326881503
 30
0.0
 40
7.300214010200039
100
AcDbArc
 50
286.5965385241215
 51
291.7260601708672
  0
LINE
  5
48F
330
18
100
AcDbEntity
  8
1
 62
     1
100
AcDbLine
 10
80.63284180823943
 20
-0.5254397139541155
 30
0.0
 11
80.63284180823945
 21
-4.065228784159049
 31
0.0
  0
ARC
  5
490
330
18
100
AcDbEntity
  8
1
 62
     1
100
AcDbCircle
 10
87.4731246871772
 20
-9.001524196743794
 30
0.0
 40
8.435378710244443
100
AcDbArc
 50
137.5413029828028
 51
144.183870787679
  0
ARC
  5
491
330
18
100
AcDbEntity
  8
1
 62
     1
100
AcDbCircle
 10
71.05693779596015
 20
-13.07823047951688
 30
0.0
 40
16.33709065561118
100
AcDbArc
 50
49.30707166688229
 51
51.39692133896109
  0
LINE
  5
492
330
18
100
AcDbEntity
  8
1
 62
     1
100
AcDbLine
 10
81.25
 20
-3.30732847937003
 30
0.0
 11
81.24999999999999
 21
-0.3110090572057501
 31
0.0
  0
ARC
  5
493
330
18
100
AcDbEntity
  8
1
 62
     1
100
AcDbCircle
 10
74.07201645727133
 20
-8.559971280029249
 30
0.0
 40
8.894641024197494
100
AcDbArc
 50
30.8450778519926
 51
36.19559721038672
  0
LINE
  5
494
330
18
100
AcDbEntity
  8
1
 62
     1
100
AcDbLine
 10
81.70880758718454
 20
-0.6911972104847208
 30
0.0
 11
81.70880758718454
 21
-3.999382873898838
 31
0.0
  0
LINE
  5
495
330
18
100
AcDbEntity
  8
1
 62
     1
100
AcDbLine
 10
73.40386752691896
 20
1.257252299834752
 30
0.0
 11
73.57817088591021
 21
1.211999973458649
 31
0.0
  0
LINE
  5
496
330
18
100
AcDbEntity
  8
1
 62
     1
100
AcDbLine
 10
73.40386752691897
 20
1.257252299834752
 30
0.0
 11
73.40386752691896
 21
-2.941357728006344
 31
0.0
  0
LINE
  5
497
330
18
100
AcDbEntity
  8
1
 62
     1
100
AcDbLine
 10
73.40386752691897
 20
-2.941357728006339
 30
0.0
 11
73.61436189898811
 21
-2.71580401345092
 31
0.0
  0
LINE
  5
498
330
18
100
AcDbEntity
  8
1
 62
     1
100
AcDbLine
 10
73.61436189898811
 20
-2.71580401345092
 30
0.0
 11
73.72022270621534
 21
-2.61343939143256
 31
0.0
  0
LINE
  5
499
330
18
100
AcDbEntity
  8
1
 62
     1
100
AcDbLine
 10
73.72022270621534
 20
-2.61343939143256
 30
0.0
 11
73.82631235406043
 21
-2.518008355142262
 31
0.0
  0
LINE
  5
49A
330
18
100
AcDbEntity
  8
1
 62
     1
100
AcDbLine
 10
73.82631235406043
 20
-2.518008355142262
 30
0.0
 11
73.93248262802493
 21
-2.429502644174346
 31
0.0
  0
LINE
  5
49B
330
18
100
AcDbEntity
  8
1
 62
     1
100
AcDbLine
 10
73.93248262802493
 20
-2.429502644174346
 30
0.0
 11
74.03859104980644
 21
-2.347898171945708
 31
0.0
  0
LINE
  5
49C
330
18
100
AcDbEntity
  8
1
 62
     1
100
AcDbLine
 10
74.03859104980644
 20
-2.347898171945708
 30
0.0
 11
74.14448830836199
 21
-2.273168835726739
 31
0.0
  0
LINE
  5
49D
330
18
100
AcDbEntity
  8
1
 62
     1
100
AcDbLine
 10
74.14448830836199
 20
-2.273168835726739
 30
0.0
 11
74.25
 21
-2.205298014616833
 31
0.0
  0
ARC
  5
49E
330
18
100
AcDbEntity
  8
1
 62
     1
100
AcDbCircle
 10
68.69921812524082
 20
-4.18922026368709
 30
0.0
 40
7.562474759626056
100
AcDbArc
 50
108.1288904421596
 51
115.0265271380447
  0
LINE
  5
49F
330
18
100
AcDbEntity
  8
1
 62
     1
100
AcDbLine
 10
65.5
 20
-0.5473693594396
 30
0.0
 11
65.50000000000001
 21
2.66324030579822
 31
0.0
  0
LINE
  5
4A0
330
18
100
AcDbEntity
  8
1
 62
     1
100
AcDbLine
 10
65.5
 20
-0.5473693594395492
 30
0.0
 11
65.55463626219031
 21
-0.567717874669173
 31
0.0
  0
LINE
  5
4A1
330
18
100
AcDbEntity
  8
1
 62
     1
100
AcDbLine
 10
65.55463626219031
 20
-0.567717874669173
 30
0.0
 11
65.60915306759361
 21
-0.5909234678086985
 31
0.0
  0
LINE
  5
4A2
330
18
100
AcDbEntity
  8
1
 62
     1
100
AcDbLine
 10
65.60915306759361
 20
-0.5909234678086985
 30
0.0
 11
65.66350436038756
 21
-0.6169426254722908
 31
0.0
  0
LINE
  5
4A3
330
18
100
AcDbEntity
  8
1
 62
     1
100
AcDbLine
 10
65.66350436038756
 20
-0.6169426254722908
 30
0.0
 11
65.71768032440515
 21
-0.645746889144086
 31
0.0
  0
LINE
  5
4A4
330
18
100
AcDbEntity
  8
1
 62
     1
100
AcDbLine
 10
65.71768032440515
 20
-0.645746889144086
 30
0.0
 11
65.77165119871583
 21
-0.6772938346227755
 31
0.0
  0
LINE
  5
4A5
330
18
100
AcDbEntity
  8
1
 62
     1
100
AcDbLine
 10
65.77165119871583
 20
-0.6772938346227755
 30
0.0
 11
65.82538401666322
 21
-0.7115400839027253
 31
0.0
  0
LINE
  5
4A6
330
18
100
AcDbEntity
  8
1
 62
     1
100
AcDbLine
 10
65.82538401666322
 20
-0.7115400839027253
 30
0.0
 11
65.87887587229187
 21
-0.7484572344896814
 31
0.0
  0
LINE
  5
4A7
330
18
100
AcDbEntity
  8
1
 62
     1
100
AcDbLine
 10
65.87887587229187
 20
-0.7484572344896814
 30
0.0
 11
65.98501988532048
 21
-0.8301144716706668
 31
0.0
  0
LINE
  5
4A8
330
18
100
AcDbEntity
  8
1
 62
     1
100
AcDbLine
 10
65.98501988532048
 20
-0.8301144716706668
 30
0.0
 11
66.08994671247868
 21
-0.9219391814198219
 31
0.0
  0
LINE
  5
4A9
330
18
100
AcDbEntity
  8
1
 62
     1
100
AcDbLine
 10
66.08994671247868
 20
-0.9219391814198219
 30
0.0
 11
66.19353083045172
 21
-1.023589670042955
 31
0.0
  0
LINE
  5
4AA
330
18
100
AcDbEntity
  8
1
 62
     1
100
AcDbLine
 10
66.19353083045172
 20
-1.023589670042955
 30
0.0
 11
66.27026063185293
 21
-1.106051472668749
 31
0.0
  0
LINE
  5
4AB
330
18
100
AcDbEntity
  8
1
 62
     1
100
AcDbLine
 10
66.27026063185293
 20
-1.106051472668749
 30
0.0
 11
66.34613247308104
 21
-1.193687632466112
 31
0.0
  0
ARC
  5
4AC
330
18
100
AcDbEntity
  8
1
 62
     1
100
AcDbCircle
 10
75.03520162987402
 20
14.00722758791741
 30
0.0
 40
13.99999780050018
100
AcDbArc
 50
231.9373146076061
 51
236.2142300982238
  0
LINE
  5
4AD
330
18
100
AcDbEntity
  8
1
 62
     1
100
AcDbLine
 10
66.40386752691899
 20
2.984502568034965
 30
0.0
 11
66.40386752691897
 21
-1.208694466185736
 31
0.0
  0
LINE
  5
4AE
330
18
100
AcDbEntity
  8
1
 62
     1
100
AcDbLine
 10
66.40386752691897
 20
-1.208694466185753
 30
0.0
 11
66.50886590769458
 21
-1.14163897126278
 31
0.0
  0
LINE
  5
4AF
330
18
100
AcDbEntity
  8
1
 62
     1
100
AcDbLine
 10
66.50886590769458
 20
-1.14163897126278
 30
0.0
 11
66.61436190058397
 21
-1.082717266479556
 31
0.0
  0
LINE
  5
4B0
330
18
100
AcDbEntity
  8
1
 62
     1
100
AcDbLine
 10
66.61436190058397
 20
-1.082717266479556
 30
0.0
 11
66.72022270675431
 21
-1.03181527048378
 31
0.0
  0
LINE
  5
4B1
330
18
100
AcDbEntity
  8
1
 62
     1
100
AcDbLine
 10
66.72022270675431
 20
-1.03181527048378
 30
0.0
 11
66.82631235375446
 21
-0.9888190897583614
 31
0.0
  0
LINE
  5
4B2
330
18
100
AcDbEntity
  8
1
 62
     1
100
AcDbLine
 10
66.82631235375446
 20
-0.9888190897583614
 30
0.0
 11
66.93248262743295
 21
-0.9536176776312701
 31
0.0
  0
LINE
  5
4B3
330
18
100
AcDbEntity
  8
1
 62
     1
100
AcDbLine
 10
66.93248262743295
 20
-0.9536176776312701
 30
0.0
 11
67.0385910491527
 21
-0.9260977571952671
 31
0.0
  0
LINE
  5
4B4
330
18
100
AcDbEntity
  8
1
 62
     1
100
AcDbLine
 10
67.0385910491527
 20
-0.9260977571952671
 30
0.0
 11
67.14448830776097
 21
-0.9061525817293336
 31
0.0
  0
LINE
  5
4B5
330
18
100
AcDbEntity
  8
1
 62
     1
100
AcDbLine
 10
67.14448830776097
 20
-0.9061525817293336
 30
0.0
 11
67.25000000000001
 21
-0.8936856889376429
 31
0.0
  0
ARC
  5
4B6
330
18
100
AcDbEntity
  8
1
 62
     1
100
AcDbCircle
 10
69.31218436869199
 20
-3.95613191142448
 30
0.0
 40
6.655258764903619
100
AcDbArc
 50
100.5283229177275
 51
108.0506454312325
  0
LINE
  5
4B7
330
18
100
AcDbEntity
  8
1
 62
     1
100
AcDbLine
 10
67.25
 20
-0.8936856889376421
 30
0.0
 11
67.25
 21
2.371581877276315
 31
0.0
  0
LINE
  5
4B8
330
18
100
AcDbEntity
  8
1
 62
     1
100
AcDbLine
 10
67.25
 20
-0.8936856889376428
 30
0.0
 11
67.3046362626848
 21
-0.9211504966131455
 31
0.0
  0
LINE
  5
4B9
330
18
100
AcDbEntity
  8
1
 62
     1
100
AcDbLine
 10
67.3046362626848
 20
-0.9211504966131455
 30
0.0
 11
67.35915306796636
 21
-0.9514185899325714
 31
0.0
  0
LINE
  5
4BA
330
18
100
AcDbEntity
  8
1
 62
     1
100
AcDbLine
 10
67.35915306796636
 20
-0.9514185899325714
 30
0.0
 11
67.41350435983752
 21
-0.9844392924574351
 31
0.0
  0
LINE
  5
4BB
330
18
100
AcDbEntity
  8
1
 62
     1
100
AcDbLine
 10
67.41350435983752
 20
-0.9844392924574351
 30
0.0
 11
67.46768032212768
 21
-1.020181433484724
 31
0.0
  0
LINE
  5
4BC
330
18
100
AcDbEntity
  8
1
 62
     1
100
AcDbLine
 10
67.46768032212768
 20
-1.020181433484724
 30
0.0
 11
67.57538400872421
 21
-1.099636648755597
 31
0.0
  0
LINE
  5
4BD
330
18
100
AcDbEntity
  8
1
 62
     1
100
AcDbLine
 10
67.57538400872421
 20
-1.099636648755597
 30
0.0
 11
67.68209365237138
 21
-1.189438900252739
 31
0.0
  0
LINE
  5
4BE
330
18
100
AcDbEntity
  8
1
 62
     1
100
AcDbLine
 10
67.68209365237138
 20
-1.189438900252739
 30
0.0
 11
67.78764817961962
 21
-1.289220049865008
 31
0.0
  0
LINE
  5
4BF
330
18
100
AcDbEntity
  8
1
 62
     1
100
AcDbLine
 10
67.78764817961962
 20
-1.289220049865008
 30
0.0
 11
67.89191286268856
 21
-1.398603498581588
 31
0.0
  0
LINE
  5
4C0
330
18
100
AcDbEntity
  8
1
 62
     1
100
AcDbLine
 10
67.89191286268856
 20
-1.398603498581588
 30
0.0
 11
67.99477588749473
 21
-1.517210975694719
 31
0.0
  0
LINE
  5
4C1
330
18
100
AcDbEntity
  8
1
 62
     1
100
AcDbLine
 10
67.99477588749473
 20
-1.517210975694719
 30
0.0
 11
68.09613247308107
 21
-1.644649966047389
 31
0.0
  0
LINE
  5
4C2
330
18
100
AcDbEntity
  8
1
 62
     1
100
AcDbLine
 10
68.09613247308104
 20
2.587044174440896
 30
0.0
 11
68.09613247308104
 21
-1.644649964101218
 31
0.0
  0
ARC
  5
4C3
330
18
100
AcDbEntity
  8
1
 62
     1
100
AcDbCircle
 10
74.26809491562855
 20
10.30158788576638
 30
0.0
 40
9.24938208416079
100
AcDbArc
 50
241.8462746026459
 51
247.6437447920522
  0
LINE
  5
4C4
330
18
100
AcDbEntity
  8
1
 62
     1
100
AcDbLine
 10
69.903867526919
 20
2.146529899993619
 30
0.0
 11
69.90386752691902
 21
-2.100125000053655
 31
0.0
  0
LINE
  5
4C5
330
18
100
AcDbEntity
  8
1
 62
     1
100
AcDbLine
 10
69.90386752691899
 20
-2.100125000053636
 30
0.0
 11
70.00886589988217
 21
-2.00736461278898
 31
0.0
  0
LINE
  5
4C6
330
18
100
AcDbEntity
  8
1
 62
     1
100
AcDbLine
 10
70.00886589988217
 20
-2.00736461278898
 30
0.0
 11
70.1143618882509
 21
-1.92223330467691
 31
0.0
  0
LINE
  5
4C7
330
18
100
AcDbEntity
  8
1
 62
     1
100
AcDbLine
 10
70.1143618882509
 20
-1.92223330467691
 30
0.0
 11
70.22022269356152
 21
-1.844672960272093
 31
0.0
  0
LINE
  5
4C8
330
18
100
AcDbEntity
  8
1
 62
     1
100
AcDbLine
 10
70.22022269356152
 20
-1.844672960272093
 30
0.0
 11
70.32631234250957
 21
-1.774622089343525
 31
0.0
  0
LINE
  5
4C9
330
18
100
AcDbEntity
  8
1
 62
     1
100
AcDbLine
 10
70.32631234250957
 20
-1.774622089343525
 30
0.0
 11
70.43248261964423
 21
-1.712020323175669
 31
0.0
  0
LINE
  5
4CA
330
18
100
AcDbEntity
  8
1
 62
     1
100
AcDbLine
 10
70.43248261964423
 20
-1.712020323175669
 30
0.0
 11
70.53859104517912
 21
-1.656798150412678
 31
0.0
  0
LINE
  5
4CB
330
18
100
AcDbEntity
  8
1
 62
     1
100
AcDbLine
 10
70.53859104517912
 20
-1.656798150412678
 30
0.0
 11
70.64448830678602
 21
-1.608888339300465
 31
0.0
  0
LINE
  5
4CC
330
18
100
AcDbEntity
  8
1
 62
     1
100
AcDbLine
 10
70.64448830678602
 20
-1.608888339300465
 30
0.0
 11
70.75
 21
-1.56823365638542
 31
0.0
  0
ARC
  5
4CD
330
18
100
AcDbEntity
  8
1
 62
     1
100
AcDbCircle
 10
70.11152667663207
 20
-4.012589581110304
 30
0.0
 40
6.179116508945691
100
AcDbArc
 50
92.46162117583421
 51
100.363027138856
  0
LINE
  5
4CE
330
18
100
AcDbEntity
  8
1
 62
     1
100
AcDbLine
 10
68.99999999999999
 20
-1.234653946287293
 30
0.0
 11
68.99999999999999
 21
2.065731356544648
 31
0.0
  0
LINE
  5
4CF
330
18
100
AcDbEntity
  8
1
 62
     1
100
AcDbLine
 10
69.0
 20
-1.234653946287293
 30
0.0
 11
69.05463626886035
 21
-1.269070636436738
 31
0.0
  0
LINE
  5
4D0
330
18
100
AcDbEntity
  8
1
 62
     1
100
AcDbLine
 10
69.05463626886035
 20
-1.269070636436738
 30
0.0
 11
69.10915308039422
 21
-1.306220042668792
 31
0.0
  0
LINE
  5
4D1
330
18
100
AcDbEntity
  8
1
 62
     1
100
AcDbLine
 10
69.10915308039422
 20
-1.306220042668792
 30
0.0
 11
69.2176803462534
 21
-1.388510706232257
 31
0.0
  0
LINE
  5
4D2
330
18
100
AcDbEntity
  8
1
 62
     1
100
AcDbLine
 10
69.2176803462534
 20
-1.388510706232257
 30
0.0
 11
69.32538404187189
 21
-1.481152370440016
 31
0.0
  0
LINE
  5
4D3
330
18
100
AcDbEntity
  8
1
 62
     1
100
AcDbLine
 10
69.32538404187189
 20
-1.481152370440016
 30
0.0
 11
69.43209368992612
 21
-1.583764559121592
 31
0.0
  0
LINE
  5
4D4
330
18
100
AcDbEntity
  8
1
 62
     1
100
AcDbLine
 10
69.43209368992612
 20
-1.583764559121592
 30
0.0
 11
69.53764821616603
 21
-1.695943514424093
 31
0.0
  0
LINE
  5
4D5
330
18
100
AcDbEntity
  8
1
 62
     1
100
AcDbLine
 10
69.53764821616603
 20
-1.695943514424093
 30
0.0
 11
69.64191289201479
 21
-1.817279284520492
 31
0.0
  0
LINE
  5
4D6
330
18
100
AcDbEntity
  8
1
 62
     1
100
AcDbLine
 10
69.64191289201479
 20
-1.817279284520492
 30
0.0
 11
69.74477590322637
 21
-1.94736248305646
 31
0.0
  0
LINE
  5
4D7
330
18
100
AcDbEntity
  8
1
 62
     1
100
AcDbLine
 10
69.74477590322637
 20
-1.94736248305646
 30
0.0
 11
69.84613247308103
 21
-2.085770203028882
 31
0.0
  0
LINE
  5
4D8
330
18
100
AcDbEntity
  8
1
 62
     1
100
AcDbLine
 10
69.84613247308103
 20
2.160826041712739
 30
0.0
 11
69.84613247308103
 21
-2.085770202342838
 31
0.0
  0
ARC
  5
4D9
330
18
100
AcDbEntity
  8
1
 62
     1
100
AcDbCircle
 10
74.36935449510969
 20
11.97460730813567
 30
0.0
 40
11.27022660846038
100
AcDbArc
 50
236.530346309101
 51
241.5479222724661
  0
LINE
  5
4DA
330
18
100
AcDbEntity
  8
1
 62
     1
100
AcDbLine
 10
68.15386752691896
 20
2.573215836431813
 30
0.0
 11
68.15386752691897
 21
-1.659374775658632
 31
0.0
  0
LINE
  5
4DB
330
18
100
AcDbEntity
  8
1
 62
     1
100
AcDbLine
 10
68.15386752691899
 20
-1.659374775658613
 30
0.0
 11
68.25886589944665
 21
-1.579226950206857
 31
0.0
  0
LINE
  5
4DC
330
18
100
AcDbEntity
  8
1
 62
     1
100
AcDbLine
 10
68.25886589944665
 20
-1.579226950206857
 30
0.0
 11
68.36436188918884
 21
-1.506984249788271
 31
0.0
  0
LINE
  5
4DD
330
18
100
AcDbEntity
  8
1
 62
     1
100
AcDbLine
 10
68.36436188918884
 20
-1.506984249788271
 30
0.0
 11
68.47022269611632
 21
-1.442560315930444
 31
0.0
  0
LINE
  5
4DE
330
18
100
AcDbEntity
  8
1
 62
     1
100
AcDbLine
 10
68.47022269611632
 20
-1.442560315930444
 30
0.0
 11
68.57631234586974
 21
-1.38586718672965
 31
0.0
  0
LINE
  5
4DF
330
18
100
AcDbEntity
  8
1
 62
     1
100
AcDbLine
 10
68.57631234586974
 20
-1.38586718672965
 30
0.0
 11
68.68248262247005
 21
-1.336818882921682
 31
0.0
  0
LINE
  5
4E0
330
18
100
AcDbEntity
  8
1
 62
     1
100
AcDbLine
 10
68.68248262247005
 20
-1.336818882921682
 30
0.0
 11
68.78859104652031
 21
-1.295323719733819
 31
0.0
  0
LINE
  5
4E1
330
18
100
AcDbEntity
  8
1
 62
     1
100
AcDbLine
 10
68.78859104652031
 20
-1.295323719733819
 30
0.0
 11
68.89448830670099
 21
-1.261294435624725
 31
0.0
  0
LINE
  5
4E2
330
18
100
AcDbEntity
  8
1
 62
     1
100
AcDbLine
 10
68.89448830670099
 20
-1.261294435624725
 30
0.0
 11
69.0
 21
-1.234653946287293
 31
0.0
  0
ARC
  5
4E3
330
18
100
AcDbEntity
  8
1
 62
     1
100
AcDbCircle
 10
76.42196973497849
 20
16.45028605934165
 30
0.0
 40
17.58903950385953
100
AcDbArc
 50
228.0055711620335
 51
231.6140613924524
  0
LINE
  5
4E4
330
18
100
AcDbEntity
  8
1
 62
     1
100
AcDbLine
 10
64.65386752691897
 20
3.377928507460073
 30
0.0
 11
64.65386752691897
 21
-0.7507815722189791
 31
0.0
  0
ARC
  5
4E5
330
18
100
AcDbEntity
  8
1
 62
     1
100
AcDbCircle
 10
65.43302003703728
 20
-2.124867445756176
 30
0.0
 40
1.579471836730033
100
AcDbArc
 50
87.568703565005
 51
119.5546824253344
  0
ARC
  5
4E6
330
18
100
AcDbEntity
  8
1
 62
     1
100
AcDbCircle
 10
49.14911936613125
 20
10.37819407289822
 30
0.0
 40
12.13293885241344
100
AcDbArc
 50
326.4895076728042
 51
330.4311356245386
  0
ARC
  5
4E7
330
18
100
AcDbEntity
  8
1
 62
     1
100
AcDbCircle
 10
69.01881775317472
 20
-6.654801951708611
 30
0.0
 40
13.36854439252945
100
AcDbArc
 50
126.3445519626231
 51
130.9900901041484
  0
LINE
  5
4E8
330
18
100
AcDbEntity
  8
1
 62
     1
100
AcDbLine
 10
60.25000000000001
 20
0.5028584737822162
 30
0.0
 11
60.25000000000001
 21
3.436093383750902
 31
0.0
  0
ARC
  5
4E9
330
18
100
AcDbEntity
  8
1
 62
     1
100
AcDbCircle
 10
60.30639336689781
 20
-0.5261040336011884
 30
0.0
 40
1.030513198389232
100
AcDbArc
 50
77.40412590036188
 51
93.13701677234474
  0
LINE
  5
4EA
330
18
100
AcDbEntity
  8
1
 62
     1
100
AcDbLine
 10
61.09613247308104
 20
4.113068316125162
 30
0.0
 11
61.09613247308103
 21
0.1910671420473017
 31
0.0
  0
ARC
  5
4EB
330
18
100
AcDbEntity
  8
1
 62
     1
100
AcDbCircle
 10
86.79138555554766
 20
26.92800740027297
 30
0.0
 40
35.44453601204744
100
AcDbArc
 50
220.1572664744052
 51
221.5122032448412
  0
LINE
  5
4EC
330
18
100
AcDbEntity
  8
1
 62
     1
100
AcDbLine
 10
59.70193383359747
 20
4.07025711140995
 30
0.0
 11
59.70193383359747
 21
0.6493854961924728
 31
0.0
  0
ARC
  5
4ED
330
18
100
AcDbEntity
  8
1
 62
     1
100
AcDbCircle
 10
59.58920518019358
 20
-0.8059393477744636
 30
0.0
 40
1.459689540278776
100
AcDbArc
 50
77.21937729778057
 51
85.57074509918777
  0
ARC
  5
4EE
330
18
100
AcDbEntity
  8
1
 62
     1
100
AcDbCircle
 10
82.1502086645155
 20
22.88759894415368
 30
0.0
 40
28.17354043880647
100
AcDbArc
 50
221.8194055415696
 51
224.3389203644263
  0
ARC
  5
4EF
330
18
100
AcDbEntity
  8
1
 62
     1
100
AcDbCircle
 10
61.53514041645151
 20
-1.162789986142684
 30
0.0
 40
1.391862040547418
100
AcDbArc
 50
77.38603157331268
 51
105.899113987508
  0
LINE
  5
4F0
330
18
100
AcDbEntity
  8
1
 62
     1
100
AcDbLine
 10
62.00000000000001
 20
0.1529984758268149
 30
0.0
 11
62.0
 21
3.197093486571323
 31
0.0
  0
ARC
  5
4F1
330
18
100
AcDbEntity
  8
1
 62
     1
100
AcDbCircle
 10
68.45226832410906
 20
-5.531484871703775
 30
0.0
 40
10.85447030381698
100
AcDbArc
 50
121.0968117905284
 51
126.4722499772957
  0
ARC
  5
4F2
330
18
100
AcDbEntity
  8
1
 62
     1
100
AcDbCircle
 10
61.91690231203444
 20
-0.8908599930501744
 30
0.0
 40
1.047162251517741
100
AcDbArc
 50
78.05383917937166
 51
85.44849456520078
  0
LINE
  5
4F3
330
18
100
AcDbEntity
  8
1
 62
     1
100
AcDbLine
 10
62.84613247308105
 20
3.763082047422651
 30
0.0
 11
62.84613247308106
 21
-0.2730751351832572
 31
0.0
  0
ARC
  5
4F4
330
18
100
AcDbEntity
  8
1
 62
     1
100
AcDbCircle
 10
78.71587526168088
 20
19.37586301302655
 30
0.0
 40
22.22951087350142
100
AcDbArc
 50
224.6586639247539
 51
227.6819938168595
  0
LINE
  5
4F5
330
18
100
AcDbEntity
  8
1
 62
     1
100
AcDbLine
 10
62.90386752691897
 20
3.751139880574167
 30
0.0
 11
62.90386752691898
 21
-0.2883752175750149
 31
0.0
  0
ARC
  5
4F6
330
18
100
AcDbEntity
  8
1
 62
     1
100
AcDbCircle
 10
63.47481761185081
 20
-1.628414995546195
 30
0.0
 40
1.456608230757809
100
AcDbArc
 50
79.11216551816665
 51
113.0773751426084
  0
ARC
  5
4F7
330
18
100
AcDbEntity
  8
1
 62
     1
100
AcDbCircle
 10
68.3786243334054
 20
-4.712724735734172
 30
0.0
 40
8.942717379242792
100
AcDbArc
 50
115.0224168963489
 51
121.1703993857871
  0
LINE
  5
4F8
330
18
100
AcDbEntity
  8
1
 62
     1
100
AcDbLine
 10
63.75000000000001
 20
-0.1977772570134068
 30
0.0
 11
63.75000000000001
 21
2.938961033543847
 31
0.0
  0
LINE
  5
4F9
330
18
100
AcDbEntity
  8
1
 62
     1
100
AcDbLine
 10
63.75
 20
-0.1977772570134069
 30
0.0
 11
63.80463626898162
 21
-0.2108876949733972
 31
0.0
  0
LINE
  5
4FA
330
18
100
AcDbEntity
  8
1
 62
     1
100
AcDbLine
 10
63.80463626898162
 20
-0.2108876949733972
 30
0.0
 11
63.85915308112118
 21
-0.2268919213583913
 31
0.0
  0
LINE
  5
4FB
330
18
100
AcDbEntity
  8
1
 62
     1
100
AcDbLine
 10
63.85915308112118
 20
-0.2268919213583913
 30
0.0
 11
63.91350438015281
 21
-0.2457538470703376
 31
0.0
  0
LINE
  5
4FC
330
18
100
AcDbEntity
  8
1
 62
     1
100
AcDbLine
 10
63.91350438015281
 20
-0.2457538470703376
 30
0.0
 11
63.96768034972482
 21
-0.2674478963094912
 31
0.0
  0
LINE
  5
4FD
330
18
100
AcDbEntity
  8
1
 62
     1
100
AcDbLine
 10
63.96768034972482
 20
-0.2674478963094912
 30
0.0
 11
64.02165122854797
 21
-0.2919374636628735
 31
0.0
  0
LINE
  5
4FE
330
18
100
AcDbEntity
  8
1
 62
     1
100
AcDbLine
 10
64.02165122854797
 20
-0.2919374636628735
 30
0.0
 11
64.07538404950036
 21
-0.3191854625723275
 31
0.0
  0
LINE
  5
4FF
330
18
100
AcDbEntity
  8
1
 62
     1
100
AcDbLine
 10
64.07538404950036
 20
-0.3191854625723275
 30
0.0
 11
64.12887590673586
 21
-0.3491660668653059
 31
0.0
  0
LINE
  5
500
330
18
100
AcDbEntity
  8
1
 62
     1
100
AcDbLine
 10
64.12887590673586
 20
-0.3491660668653059
 30
0.0
 11
64.18209370269331
 21
-0.3818355569169327
 31
0.0
  0
LINE
  5
501
330
18
100
AcDbEntity
  8
1
 62
     1
100
AcDbLine
 10
64.18209370269331
 20
-0.3818355569169327
 30
0.0
 11
64.23501991792466
 21
-0.4171598692569223
 31
0.0
  0
LINE
  5
502
330
18
100
AcDbEntity
  8
1
 62
     1
100
AcDbLine
 10
64.23501991792466
 20
-0.4171598692569223
 30
0.0
 11
64.28764823204403
 21
-0.4551076643525636
 31
0.0
  0
LINE
  5
503
330
18
100
AcDbEntity
  8
1
 62
     1
100
AcDbLine
 10
64.28764823204403
 20
-0.4551076643525636
 30
0.0
 11
64.39191290816443
 21
-0.5386984272401996
 31
0.0
  0
LINE
  5
504
330
18
100
AcDbEntity
  8
1
 62
     1
100
AcDbLine
 10
64.39191290816443
 20
-0.5386984272401996
 30
0.0
 11
64.49477591731099
 21
-0.6322983752273984
 31
0.0
  0
LINE
  5
505
330
18
100
AcDbEntity
  8
1
 62
     1
100
AcDbLine
 10
64.49477591731099
 20
-0.6322983752273984
 30
0.0
 11
64.59613247308103
 21
-0.7355825996109923
 31
0.0
  0
LINE
  5
506
330
18
100
AcDbEntity
  8
1
 62
     1
100
AcDbLine
 10
64.59613247308101
 20
3.390576383529143
 30
0.0
 11
64.59613247308103
 21
-0.735582600149749
 31
0.0
  0
LINE
  5
507
330
18
100
AcDbEntity
  8
1
 62
     1
100
AcDbLine
 10
82.99999999999999
 20
4.225642734261023
 30
0.0
 11
83.0
 21
4.53445625
 31
0.0
  0
LINE
  5
508
330
18
100
AcDbEntity
  8
1
 62
     1
100
AcDbLine
 10
83.0
 20
-0.2652873842889181
 30
0.0
 11
82.99999999999999
 21
-0.659769753006701
 31
0.0
  0
LINE
  5
509
330
18
100
AcDbEntity
  8
1
 62
     1
100
AcDbLine
 10
83.00000000000001
 20
-3.537225707254237
 30
0.0
 11
83.0
 21
-0.6597697530067014
 31
0.0
  0
LINE
  5
50A
330
18
100
AcDbEntity
  8
1
 62
     1
100
AcDbLine
 10
83.0
 20
-3.537225707254239
 30
0.0
 11
83.0
 21
-3.555278957511393
 31
0.0
  0
LINE
  5
50B
330
18
100
AcDbEntity
  8
1
 62
     1
100
AcDbLine
 10
82.68483502472975
 20
-3.933121495549456
 30
0.0
 11
81.70880758709441
 21
-4.230582789055752
 31
0.0
  0
LINE
  5
50C
330
18
100
AcDbEntity
  8
1
 62
     1
100
AcDbLine
 10
80.63284180823943
 20
-4.568589109854376
 30
0.0
 11
80.1833153079826
 21
-4.712571275228735
 31
0.0
  0
LINE
  5
50D
330
18
100
AcDbEntity
  8
1
 62
     1
100
AcDbLine
 10
82.68483502472975
 20
5.080337745416837
 30
0.0
 11
82.68483502472975
 21
5.080265997632574
 31
0.0
  0
LINE
  5
50E
330
18
100
AcDbEntity
  8
1
 62
     1
100
AcDbLine
 10
82.68483502472975
 20
5.080265997632574
 30
0.0
 11
82.68483502472975
 21
5.05889772374399
 31
0.0
  0
LINE
  5
50F
330
18
100
AcDbEntity
  8
1
 62
     1
100
AcDbLine
 10
82.68483502472975
 20
5.05889772374399
 30
0.0
 11
82.68483502472975
 21
4.751995164381744
 31
0.0
  0
ARC
  5
510
330
18
100
AcDbEntity
  8
1
 62
     1
100
AcDbCircle
 10
57.2809283043133
 20
-10.81651762592093
 30
0.0
 40
29.79491756013446
100
AcDbArc
 50
30.32183033240941
 51
31.50160475682153
  0
ARC
  5
511
330
18
100
AcDbEntity
  8
1
 62
     1
100
AcDbCircle
 10
582.321343851309
 20
298.8211942967271
 30
0.0
 40
587.1468897470475
100
AcDbArc
 50
209.9153155142565
 51
210.0804675908268
  0
LINE
  5
512
330
18
100
AcDbEntity
  8
1
 62
     1
100
AcDbLine
 10
81.24999999999999
 20
4.340140344089069
 30
0.0
 11
81.25
 21
4.53445625
 31
0.0
  0
ARC
  5
513
330
18
100
AcDbEntity
  8
1
 62
     1
100
AcDbCircle
 10
98.14333132731015
 20
-6.073127202057637
 30
0.0
 40
19.84489272729673
100
AcDbArc
 50
145.9096446009405
 51
148.3497835626082
  0
LINE
  5
514
330
18
100
AcDbEntity
  8
1
 62
     1
100
AcDbLine
 10
81.70880758718454
 20
5.329133931382988
 30
0.0
 11
81.70880758718454
 21
5.329072416082266
 31
0.0
  0
LINE
  5
515
330
18
100
AcDbEntity
  8
1
 62
     1
100
AcDbLine
 10
81.70880758718454
 20
5.329072416082266
 30
0.0
 11
81.70880758718454
 21
5.310807540721018
 31
0.0
  0
LINE
  5
516
330
18
100
AcDbEntity
  8
1
 62
     1
100
AcDbLine
 10
81.70880758718454
 20
5.310807540721018
 30
0.0
 11
81.70880758718454
 21
5.049847796052127
 31
0.0
  0
LINE
  5
517
330
18
100
AcDbEntity
  8
1
 62
     1
100
AcDbLine
 10
80.63284180823945
 20
5.603405096038887
 30
0.0
 11
80.63284180823943
 21
5.603353760232569
 31
0.0
  0
LINE
  5
518
330
18
100
AcDbEntity
  8
1
 62
     1
100
AcDbLine
 10
80.63284180823943
 20
5.603353760232569
 30
0.0
 11
80.63284180823943
 21
5.588159733847743
 31
0.0
  0
LINE
  5
519
330
18
100
AcDbEntity
  8
1
 62
     1
100
AcDbLine
 10
80.63284180823943
 20
5.588159733847743
 30
0.0
 11
80.63284180823943
 21
5.372382004065345
 31
0.0
  0
ARC
  5
51A
330
18
100
AcDbEntity
  8
1
 62
     1
100
AcDbCircle
 10
49.0153851485408
 20
-14.23000743721277
 30
0.0
 40
37.20104840911389
100
AcDbArc
 50
29.94595918109766
 51
31.79834513079925
  0
LINE
  5
51B
330
18
100
AcDbEntity
  8
1
 62
     1
100
AcDbLine
 10
79.5
 20
4.428664649617184
 30
0.0
 11
79.5
 21
4.53445625
 31
0.0
  0
ARC
  5
51C
330
18
100
AcDbEntity
  8
1
 62
     1
100
AcDbCircle
 10
100.6138343268836
 20
-8.202582542102189
 30
0.0
 40
24.60362248889953
100
AcDbArc
 50
146.1401154607507
 51
149.1102348034452
  0
LINE
  5
51D
330
18
100
AcDbEntity
  8
1
 62
     1
100
AcDbLine
 10
80.1833153079826
 20
5.717992529191283
 30
0.0
 11
80.18331530798261
 21
5.717945115274278
 31
0.0
  0
LINE
  5
51E
330
18
100
AcDbEntity
  8
1
 62
     1
100
AcDbLine
 10
80.18331530798261
 20
5.717945115274278
 30
0.0
 11
80.18331530798258
 21
5.703929716224485
 31
0.0
  0
LINE
  5
51F
330
18
100
AcDbEntity
  8
1
 62
     1
100
AcDbLine
 10
80.18331530798258
 20
5.703929716224485
 30
0.0
 11
80.1833153079826
 21
5.505402802485066
 31
0.0
  0
ARC
  5
520
330
18
100
AcDbEntity
  8
1
 62
     1
100
AcDbCircle
 10
-2.721959901205182
 20
46.69395178095893
 30
0.0
 40
84.7414543802088
100
AcDbArc
 50
330.1135042186351
 51
331.2816692695756
  0
ARC
  5
521
330
18
100
AcDbEntity
  8
1
 62
     1
100
AcDbCircle
 10
171.9377800830847
 20
63.05805709114898
 30
0.0
 40
115.3913910646862
100
AcDbArc
 50
209.6485333199824
 51
210.487122392563
  0
ARC
  5
522
330
18
100
AcDbEntity
  8
1
 62
     1
100
AcDbCircle
 10
-253.8000672261408
 20
191.3012101045764
 30
0.0
 40
375.9800028810186
100
AcDbArc
 50
330.2115614963009
 51
330.4719655606931
  0
LINE
  5
523
330
18
100
AcDbEntity
  8
1
 62
     1
100
AcDbLine
 10
77.75
 20
4.490686350294096
 30
0.0
 11
77.75
 21
4.53445625
 31
0.0
  0
LINE
  5
524
330
18
100
AcDbEntity
  8
1
 62
     1
100
AcDbLine
 10
77.75
 20
4.490686350294096
 30
0.0
 11
78.59613247308104
 21
5.857560612145308
 31
0.0
  0
LINE
  5
525
330
18
100
AcDbEntity
  8
1
 62
     1
100
AcDbLine
 10
78.59613247308104
 20
6.0
 30
0.0
 11
78.59613247308103
 21
5.999967753640346
 31
0.0
  0
LINE
  5
526
330
18
100
AcDbEntity
  8
1
 62
     1
100
AcDbLine
 10
78.59613247308103
 20
5.999967753640346
 30
0.0
 11
78.59613247308106
 21
5.990482492973651
 31
0.0
  0
LINE
  5
527
330
18
100
AcDbEntity
  8
1
 62
     1
100
AcDbLine
 10
78.59613247308106
 20
5.990482492973651
 30
0.0
 11
78.59613247308104
 21
5.857560612145295
 31
0.0
  0
ARC
  5
528
330
18
100
AcDbEntity
  8
1
 62
     1
100
AcDbCircle
 10
1792.659738638632
 20
-986.0717487635147
 30
0.0
 40
1983.489744450056
100
AcDbArc
 50
150.0215563049024
 51
150.0379917523315
  0
LINE
  5
529
330
18
100
AcDbEntity
  8
1
 62
     1
100
AcDbLine
 10
75.09613247308103
 20
6.0
 30
0.0
 11
75.09613247308104
 21
5.9999971129802
 31
0.0
  0
LINE
  5
52A
330
18
100
AcDbEntity
  8
1
 62
     1
100
AcDbLine
 10
75.09613247308104
 20
5.9999971129802
 30
0.0
 11
75.09613247308103
 21
5.999160258822211
 31
0.0
  0
LINE
  5
52B
330
18
100
AcDbEntity
  8
1
 62
     1
100
AcDbLine
 10
75.09613247308103
 20
5.999160258822211
 30
0.0
 11
75.09613247308103
 21
5.987878389519405
 31
0.0
  0
LINE
  5
52C
330
18
100
AcDbEntity
  8
1
 62
     1
100
AcDbLine
 10
78.65386752691902
 20
6.0
 30
0.0
 11
78.65386752691902
 21
5.999967022222864
 31
0.0
  0
LINE
  5
52D
330
18
100
AcDbEntity
  8
1
 62
     1
100
AcDbLine
 10
78.65386752691902
 20
5.999967022222864
 30
0.0
 11
78.65386752691903
 21
5.990264380025326
 31
0.0
  0
LINE
  5
52E
330
18
100
AcDbEntity
  8
1
 62
     1
100
AcDbLine
 10
78.65386752691903
 20
5.990264380025326
 30
0.0
 11
78.65386752691903
 21
5.854223860137328
 31
0.0
  0
ARC
  5
52F
330
18
100
AcDbEntity
  8
1
 62
     1
100
AcDbCircle
 10
36.91914516978656
 20
-19.87619794116536
 30
0.0
 40
49.02901871581282
100
AcDbArc
 50
29.71743090066423
 51
31.65479260406903
  0
LINE
  5
530
330
18
100
AcDbEntity
  8
1
 62
     1
100
AcDbLine
 10
76.903867526919
 20
6.0
 30
0.0
 11
76.90386752691899
 21
5.999985714072371
 31
0.0
  0
LINE
  5
531
330
18
100
AcDbEntity
  8
1
 62
     1
100
AcDbLine
 10
76.90386752691899
 20
5.999985714072371
 30
0.0
 11
76.90386752691899
 21
5.995812460134364
 31
0.0
  0
LINE
  5
532
330
18
100
AcDbEntity
  8
1
 62
     1
100
AcDbLine
 10
76.90386752691899
 20
5.995812460134364
 30
0.0
 11
76.903867526919
 21
5.938323320049274
 31
0.0
  0
ARC
  5
533
330
18
100
AcDbEntity
  8
1
 62
     1
100
AcDbCircle
 10
8.663299740670666
 20
-34.9154446992333
 30
0.0
 40
79.5349495577439
100
AcDbArc
 50
29.69985792203467
 51
30.90780752054864
  0
LINE
  5
534
330
18
100
AcDbEntity
  8
1
 62
     1
100
AcDbLine
 10
75.99999999999999
 20
4.525834034013009
 30
0.0
 11
76.0
 21
4.53445625
 31
0.0
  0
ARC
  5
535
330
18
100
AcDbEntity
  8
1
 62
     1
100
AcDbCircle
 10
124.0531024530167
 20
-23.22200800802788
 30
0.0
 40
55.48900105541529
100
AcDbArc
 50
148.2939525565692
 51
149.9960918872628
  0
LINE
  5
536
330
18
100
AcDbEntity
  8
1
 62
     1
100
AcDbLine
 10
76.84613247308103
 20
6.0
 30
0.0
 11
76.84613247308104
 21
5.999986205465994
 31
0.0
  0
LINE
  5
537
330
18
100
AcDbEntity
  8
1
 62
     1
100
AcDbLine
 10
76.84613247308104
 20
5.999986205465994
 30
0.0
 11
76.84613247308104
 21
5.995957472148391
 31
0.0
  0
LINE
  5
538
330
18
100
AcDbEntity
  8
1
 62
     1
100
AcDbLine
 10
76.84613247308104
 20
5.995957472148391
 30
0.0
 11
76.84613247308103
 21
5.940494513176724
 31
0.0
  0
LINE
  5
539
330
18
100
AcDbEntity
  8
1
 62
     1
100
AcDbLine
 10
75.15386752691897
 20
6.0
 30
0.0
 11
75.15386752691899
 21
5.99999687951474
 31
0.0
  0
LINE
  5
53A
330
18
100
AcDbEntity
  8
1
 62
     1
100
AcDbLine
 10
75.15386752691899
 20
5.99999687951474
 30
0.0
 11
75.15386752691897
 21
5.999092121598919
 31
0.0
  0
LINE
  5
53B
330
18
100
AcDbEntity
  8
1
 62
     1
100
AcDbLine
 10
75.15386752691897
 20
5.999092121598919
 30
0.0
 11
75.15386752691897
 21
5.986885752895651
 31
0.0
  0
ARC
  5
53C
330
18
100
AcDbEntity
  8
1
 62
     1
100
AcDbCircle
 10
-87.85731044358283
 20
-89.39178957820567
 30
0.0
 40
188.864339432873
100
AcDbArc
 50
29.81991703717067
 51
30.3321213148453
  0
ARC
  5
53D
330
18
100
AcDbEntity
  8
1
 62
     1
100
AcDbCircle
 10
105.2249095243427
 20
26.83575559967524
 30
0.0
 40
42.61209462280382
100
AcDbArc
 50
209.5454069782186
 51
211.7765160624358
  0
ARC
  5
53E
330
18
100
AcDbEntity
  8
1
 62
     1
100
AcDbCircle
 10
27.07533978386427
 20
28.72274930463108
 30
0.0
 40
48.47145737035826
100
AcDbArc
 50
329.8754936122256
 51
331.9309612444313
  0
ARC
  5
53F
330
18
100
AcDbEntity
  8
1
 62
     1
100
AcDbCircle
 10
124.8491316752967
 20
37.03712521883585
 30
0.0
 40
63.14595904292594
100
AcDbArc
 50
209.5261194005795
 51
211.0484905404819
  0
ARC
  5
540
330
18
100
AcDbEntity
  8
1
 62
     1
100
AcDbCircle
 10
43.3275931352005
 20
17.51812855040419
 30
0.0
 40
25.87940354593211
100
AcDbArc
 50
328.955062203247
 51
332.8018100590187
  0
ARC
  5
541
330
18
100
AcDbEntity
  8
1
 62
     1
100
AcDbCircle
 10
93.68180460570017
 20
21.25719609970752
 30
0.0
 40
31.40539759745058
100
AcDbArc
 50
209.7065959571783
 51
212.6869593307726
  0
ARC
  5
542
330
18
100
AcDbEntity
  8
1
 62
     1
100
AcDbCircle
 10
38.01760555279762
 20
21.5213810356718
 30
0.0
 40
33.92974586246573
100
AcDbArc
 50
329.4921263008197
 51
332.4340469005552
  0
ARC
  5
543
330
18
100
AcDbEntity
  8
1
 62
     1
100
AcDbCircle
 10
85.6265961636213
 20
17.64553482830846
 30
0.0
 40
24.22030849366883
100
AcDbArc
 50
210.0127451840823
 51
213.8000595321262
  0
ARC
  5
544
330
18
100
AcDbEntity
  8
1
 62
     1
100
AcDbCircle
 10
46.20246589665342
 20
14.87970940111037
 30
0.0
 40
20.63515902729756
100
AcDbArc
 50
328.2526917158498
 51
333.042250206108
  0
LINE
  5
545
330
18
100
AcDbEntity
  8
1
 62
     1
100
AcDbLine
 10
59.70193383359748
 20
-5.21762149484302
 30
0.0
 11
59.04737206
 21
-4.004489288456766
 31
0.0
  0
LINE
  5
546
330
18
100
AcDbEntity
  8
1
 62
     1
100
AcDbLine
 10
60.25000000000001
 20
3.651303155789966
 30
0.0
 11
60.68209364389187
 21
4.342118762130211
 31
0.0
  0
LINE
  5
547
330
18
100
AcDbEntity
  8
1
 62
     1
100
AcDbLine
 10
60.68209364389187
 20
4.342118762130211
 30
0.0
 11
61.09613247308104
 21
5.097983542688642
 31
0.0
  0
ARC
  5
548
330
18
100
AcDbEntity
  8
1
 62
     1
100
AcDbCircle
 10
69.30006376063459
 20
10.92801204098163
 30
0.0
 40
11.61278745641364
100
AcDbArc
 50
214.2578873282646
 51
218.8010412924203
  0
ARC
  5
549
330
18
100
AcDbEntity
  8
1
 62
     1
100
AcDbCircle
 10
74.31304593095422
 20
13.04028911889716
 30
0.0
 40
15.36601462276247
100
AcDbArc
 50
211.087616240971
 51
216.7424786002995
  0
LINE
  5
54A
330
18
100
AcDbEntity
  8
1
 62
     1
100
AcDbLine
 10
62.00000000000001
 20
3.84821905926017
 30
0.0
 11
62.43209367373484
 21
4.561732133285885
 31
0.0
  0
LINE
  5
54B
330
18
100
AcDbEntity
  8
1
 62
     1
100
AcDbLine
 10
62.43209367373484
 20
4.561732133285885
 30
0.0
 11
62.84613247308106
 21
5.327305572310134
 31
0.0
  0
ARC
  5
54C
330
18
100
AcDbEntity
  8
1
 62
     1
100
AcDbCircle
 10
79.41447980240312
 20
15.04817040929841
 30
0.0
 40
19.15613238586417
100
AcDbArc
 50
210.4699547823631
 51
215.1413163274162
  0
LINE
  5
54D
330
18
100
AcDbEntity
  8
1
 62
     1
100
AcDbLine
 10
83.0
 20
-0.2652873842889221
 30
0.0
 11
83.00000000000001
 21
4.225642734261025
 31
0.0
  0
LINE
  5
54E
330
18
100
AcDbEntity
  8
1
 62
     1
100
AcDbLine
 10
78.65386752691902
 20
5.854223860137328
 30
0.0
 11
78.59613247308106
 21
5.857560612145291
 31
0.0
  0
LINE
  5
54F
330
18
100
AcDbEntity
  8
1
 62
     1
100
AcDbLine
 10
76.90386752691896
 20
5.938323320049279
 30
0.0
 11
76.84613247308103
 21
5.940494512026564
 31
0.0
  0
LINE
  5
550
330
18
100
AcDbEntity
  8
1
 62
     1
100
AcDbLine
 10
75.15386752691897
 20
5.986885752895651
 30
0.0
 11
75.096132473081
 21
5.987878386133649
 31
0.0
  0
LINE
  5
551
330
18
100
AcDbEntity
  8
1
 62
     1
100
AcDbLine
 10
73.40386752691902
 20
5.999620355088046
 30
0.0
 11
73.34613247308104
 21
5.999428504357722
 31
0.0
  0
LINE
  5
552
330
18
100
AcDbEntity
  8
1
 62
     1
100
AcDbLine
 10
71.65386752691894
 20
5.97645096533725
 30
0.0
 11
71.59613247308104
 21
5.975075768096759
 31
0.0
  0
LINE
  5
553
330
18
100
AcDbEntity
  8
1
 62
     1
100
AcDbLine
 10
69.90386752691902
 20
5.917516263876601
 30
0.0
 11
69.84613247308101
 21
5.914965970621362
 31
0.0
  0
LINE
  5
554
330
18
100
AcDbEntity
  8
1
 62
     1
100
AcDbLine
 10
68.15386752691896
 20
5.823168785018244
 30
0.0
 11
68.09613247308103
 21
5.819458648124638
 31
0.0
  0
LINE
  5
555
330
18
100
AcDbEntity
  8
1
 62
     1
100
AcDbLine
 10
66.40386752691897
 20
5.693973274264243
 30
0.0
 11
66.34613247308103
 21
5.689125463694538
 31
0.0
  0
LINE
  5
556
330
18
100
AcDbEntity
  8
1
 62
     1
100
AcDbLine
 10
64.65386752691897
 20
5.530703116410763
 30
0.0
 11
64.59613247308104
 21
5.524746668951343
 31
0.0
  0
LINE
  5
557
330
18
100
AcDbEntity
  8
1
 62
     1
100
AcDbLine
 10
62.90386752691899
 20
5.334334983879844
 30
0.0
 11
62.84613247308106
 21
5.3273055723101
 31
0.0
  0
LINE
  5
558
330
18
100
AcDbEntity
  8
1
 62
     1
100
AcDbLine
 10
61.15386752691899
 20
5.106043875031152
 30
0.0
 11
61.09613247308104
 21
5.097983542688634
 31
0.0
  0
LINE
  5
559
330
18
100
AcDbEntity
  8
1
 62
     1
100
AcDbLine
 10
61.15386752691899
 20
4.101903300118953
 30
0.0
 11
61.09613247308104
 21
4.113068316125162
 31
0.0
  0
LINE
  5
55A
330
18
100
AcDbEntity
  8
1
 62
     1
100
AcDbLine
 10
62.90386752691897
 20
3.751139880574168
 30
0.0
 11
62.84613247308106
 21
3.763082042261211
 31
0.0
  0
LINE
  5
55B
330
18
100
AcDbEntity
  8
1
 62
     1
100
AcDbLine
 10
64.65386752691897
 20
3.377928507460069
 30
0.0
 11
64.59613247308103
 21
3.390576380846821
 31
0.0
  0
LINE
  5
55C
330
18
100
AcDbEntity
  8
1
 62
     1
100
AcDbLine
 10
66.40386752691899
 20
2.984502568034963
 30
0.0
 11
66.34613247308104
 21
2.997780420789891
 31
0.0
  0
LINE
  5
55D
330
18
100
AcDbEntity
  8
1
 62
     1
100
AcDbLine
 10
68.15386752691897
 20
2.573215836431813
 30
0.0
 11
68.09613247308107
 21
2.587044172781665
 31
0.0
  0
LINE
  5
55E
330
18
100
AcDbEntity
  8
1
 62
     1
100
AcDbLine
 10
69.90386752691899
 20
2.146529899993626
 30
0.0
 11
69.84613247308103
 21
2.160826041182135
 31
0.0
  0
LINE
  5
55F
330
18
100
AcDbEntity
  8
1
 62
     1
100
AcDbLine
 10
71.65386752691896
 20
1.706998754795429
 30
0.0
 11
71.59613247308103
 21
1.721677144200454
 31
0.0
  0
LINE
  5
560
330
18
100
AcDbEntity
  8
1
 62
     1
100
AcDbLine
 10
73.40386752691899
 20
1.257252299834744
 30
0.0
 11
73.34613247308101
 21
1.272225030749135
 31
0.0
  0
LINE
  5
561
330
18
100
AcDbEntity
  8
1
 62
     1
100
AcDbLine
 10
75.15386752691896
 20
0.7999814288157178
 30
0.0
 11
75.09613247308101
 21
0.815158915365899
 31
0.0
  0
LINE
  5
562
330
18
100
AcDbEntity
  8
1
 62
     1
100
AcDbLine
 10
76.903867526919
 20
0.3379234414053983
 30
0.0
 11
76.84613247308101
 21
0.3532149199476268
 31
0.0
  0
LINE
  5
563
330
18
100
AcDbEntity
  8
1
 62
     1
100
AcDbLine
 10
78.65386752691902
 20
-0.1261564767825045
 30
0.0
 11
78.59613247308107
 21
-0.1108425520388756
 31
0.0
  0
LINE
  5
564
330
18
100
AcDbEntity
  8
1
 62
     1
100
AcDbLine
 10
59.04737206
 20
-3.226878802221873
 30
0.0
 11
59.04737205999999
 21
0.700227571325214
 31
0.0
  0
LINE
  5
565
330
18
100
AcDbEntity
  8
1
 62
     1
100
AcDbLine
 10
78.65386752691894
 20
-4.065552638471615
 30
0.0
 11
78.59613247308101
 21
-4.05427475576267
 31
0.0
  0
LINE
  5
566
330
18
100
AcDbEntity
  8
1
 62
     1
100
AcDbLine
 10
76.903867526919
 20
-3.712288237325627
 30
0.0
 11
76.84613247308103
 21
-3.700242939790862
 31
0.0
  0
LINE
  5
567
330
18
100
AcDbEntity
  8
1
 62
     1
100
AcDbLine
 10
75.15386752691897
 20
-3.336807458679743
 30
0.0
 11
75.09613247308101
 21
-3.32406688921277
 31
0.0
  0
LINE
  5
568
330
18
100
AcDbEntity
  8
1
 62
     1
100
AcDbLine
 10
73.40386752691896
 20
-2.941357728006341
 30
0.0
 11
73.34613247308104
 21
-2.927998034870302
 31
0.0
  0
LINE
  5
569
330
18
100
AcDbEntity
  8
1
 62
     1
100
AcDbLine
 10
71.65386752691897
 20
-2.528306583090032
 30
0.0
 11
71.59613247308106
 21
-2.51440769812847
 31
0.0
  0
LINE
  5
56A
330
18
100
AcDbEntity
  8
1
 62
     1
100
AcDbLine
 10
69.90386752691899
 20
-2.100125000053651
 30
0.0
 11
69.84613247308101
 21
-2.085770200880638
 31
0.0
  0
LINE
  5
56B
330
18
100
AcDbEntity
  8
1
 62
     1
100
AcDbLine
 10
68.15386752691899
 20
-1.659374775658611
 30
0.0
 11
68.09613247308104
 21
-1.644649962063651
 31
0.0
  0
LINE
  5
56C
330
18
100
AcDbEntity
  8
1
 62
     1
100
AcDbLine
 10
66.403867526919
 20
-1.208694466185735
 30
0.0
 11
66.34613247308104
 21
-1.193687632466099
 31
0.0
  0
LINE
  5
56D
330
18
100
AcDbEntity
  8
1
 62
     1
100
AcDbLine
 10
64.65386752691896
 20
-0.7507815716373633
 30
0.0
 11
64.59613247308101
 21
-0.7355825999636268
 31
0.0
  0
LINE
  5
56E
330
18
100
AcDbEntity
  8
1
 62
     1
100
AcDbLine
 10
62.90386752691896
 20
-0.2883752175750098
 30
0.0
 11
62.84613247308106
 21
-0.2730751351235285
 31
0.0
  0
LINE
  5
56F
330
18
100
AcDbEntity
  8
1
 62
     1
100
AcDbLine
 10
61.15386752691899
 20
0.1757574503568132
 30
0.0
 11
61.09613247308105
 21
0.1910671420473017
 31
0.0
  0
LINE
  5
570
330
18
100
AcDbEntity
  8
1
 62
     1
100
AcDbLine
 10
61.15386752691899
 20
-5.843153118081403
 30
0.0
 11
61.09613247308104
 21
-5.839654797186517
 31
0.0
  0
LINE
  5
571
330
18
100
AcDbEntity
  8
1
 62
     1
100
AcDbLine
 10
62.90386752691896
 20
-5.931024563048199
 30
0.0
 11
62.84613247308104
 21
-5.928689413837495
 31
0.0
  0
LINE
  5
572
330
18
100
AcDbEntity
  8
1
 62
     1
100
AcDbLine
 10
64.65386752691897
 20
-5.983402429890734
 30
0.0
 11
64.59613247308103
 21
-5.982244434068787
 31
0.0
  0
LINE
  5
573
330
18
100
AcDbEntity
  8
1
 62
     1
100
AcDbLine
 10
66.40386752691897
 20
-5.999973359869006
 30
0.0
 11
66.34613247308107
 21
-5.99999945274094
 31
0.0
  0
LINE
  5
574
330
18
100
AcDbEntity
  8
1
 62
     1
100
AcDbLine
 10
68.15386752691897
 20
-5.980638190205255
 30
0.0
 11
68.09613247308107
 21
-5.981848202219225
 31
0.0
  0
LINE
  5
575
330
18
100
AcDbEntity
  8
1
 62
     1
100
AcDbLine
 10
69.90386752691897
 20
-5.925512577779739
 30
0.0
 11
69.84613247308104
 21
-5.927899284217523
 31
0.0
  0
LINE
  5
576
330
18
100
AcDbEntity
  8
1
 62
     1
100
AcDbLine
 10
71.65386752691897
 20
-5.834926526151889
 30
0.0
 11
71.59613247308103
 21
-5.83847564627554
 31
0.0
  0
LINE
  5
577
330
18
100
AcDbEntity
  8
1
 62
     1
100
AcDbLine
 10
73.40386752691897
 20
-5.709422100447189
 30
0.0
 11
73.34613247308104
 21
-5.714112377855024
 31
0.0
  0
LINE
  5
578
330
18
100
AcDbEntity
  8
1
 62
     1
100
AcDbLine
 10
75.15386752691899
 20
-5.549750153137714
 30
0.0
 11
75.09613247308106
 21
-5.555553521046201
 31
0.0
  0
LINE
  5
579
330
18
100
AcDbEntity
  8
1
 62
     1
100
AcDbLine
 10
76.90386752691902
 20
-5.356866481822709
 30
0.0
 11
76.84613247308101
 21
-5.363748227136831
 31
0.0
  0
LINE
  5
57A
330
18
100
AcDbEntity
  8
1
 62
     1
100
AcDbLine
 10
78.653867526919
 20
-5.131925456997313
 30
0.0
 11
78.59613247308101
 21
-5.139844400180379
 31
0.0
  0
LINE
  5
57B
330
18
100
AcDbEntity
  8
1
 62
     1
100
AcDbLine
 10
59.04737206
 20
-4.004489288456674
 30
0.0
 11
59.04737206
 21
-4.35
 31
0.0
  0
LINE
  5
57C
330
18
100
AcDbEntity
  8
1
 62
     1
100
AcDbLine
 10
59.04737206
 20
-4.004489288456702
 30
0.0
 11
59.04737206
 21
-3.226878802221872
 31
0.0
  0
LINE
  5
57D
330
18
100
AcDbEntity
  8
1
 62
     1
100
AcDbLine
 10
59.04737206
 20
3.47361276743082
 30
0.0
 11
59.04737206
 21
0.7002275713252135
 31
0.0
  0
LINE
  5
57E
330
18
100
AcDbEntity
  8
1
 62
     1
100
AcDbLine
 10
83.0
 20
-1.92
 30
0.0
 11
84.92
 21
-0.0000000000000004
 31
0.0
  0
LINE
  5
57F
330
18
100
AcDbEntity
  8
1
 62
     1
100
AcDbLine
 10
83.0
 20
4.53445625
 30
0.0
 11
82.68483502472974
 21
5.080337745416836
 31
0.0
  0
LINE
  5
580
330
18
100
AcDbEntity
  8
1
 62
     1
100
AcDbLine
 10
64.59613247308103
 20
-6.000000000000001
 30
0.0
 11
64.65386752691896
 21
-6.000000000000001
 31
0.0
  0
LINE
  5
581
330
18
100
AcDbEntity
  8
1
 62
     1
100
AcDbLine
 10
62.84613247308106
 20
-6.0
 30
0.0
 11
62.90386752691899
 21
-6.000000000000001
 31
0.0
  0
LINE
  5
582
330
18
100
AcDbEntity
  8
1
 62
     1
100
AcDbLine
 10
61.09613247308104
 20
-6.0
 30
0.0
 11
61.15386752691898
 21
-5.999999999999999
 31
0.0
  0
LINE
  5
583
330
18
100
AcDbEntity
  8
1
 62
     1
100
AcDbLine
 10
81.70880758718454
 20
5.329133931382987
 30
0.0
 11
81.25
 21
4.53445625
 31
0.0
  0
LINE
  5
584
330
18
100
AcDbEntity
  8
1
 62
     1
100
AcDbLine
 10
81.25
 20
4.53445625
 30
0.0
 11
80.63284180823945
 21
5.603405096038881
 31
0.0
  0
LINE
  5
585
330
18
100
AcDbEntity
  8
1
 62
     1
100
AcDbLine
 10
80.18331530798261
 20
5.717992529191277
 30
0.0
 11
79.5
 21
4.53445625
 31
0.0
  0
LINE
  5
586
330
18
100
AcDbEntity
  8
1
 62
     1
100
AcDbLine
 10
78.59613247308106
 20
6.00000000000002
 30
0.0
 11
77.74999999999999
 21
4.53445625
 31
0.0
  0
ARC
  5
587
330
18
100
AcDbEntity
  8
1
 62
     1
100
AcDbCircle
 10
146.3883083895372
 20
-36.31458237460686
 30
0.0
 40
82.89818034000362
100
AcDbArc
 50
149.3164831597653
 51
150.0859550386683
  0
LINE
  5
588
330
18
100
AcDbEntity
  8
1
 62
     1
100
AcDbLine
 10
75.09613247308103
 20
6.0
 30
0.0
 11
74.53424274555704
 21
5.026778897442096
 31
0.0
  0
LINE
  5
589
330
18
100
AcDbEntity
  8
1
 62
     1
100
AcDbLine
 10
79.5
 20
4.53445625
 30
0.0
 11
78.65386752691897
 21
5.999999999999986
 31
0.0
  0
LINE
  5
58A
330
18
100
AcDbEntity
  8
1
 62
     1
100
AcDbLine
 10
77.74999999999999
 20
4.53445625
 30
0.0
 11
76.90386752691897
 21
5.999999999999991
 31
0.0
  0
LINE
  5
58B
330
18
100
AcDbEntity
  8
1
 62
     1
100
AcDbLine
 10
76.84613247308104
 20
6.0
 30
0.0
 11
76.0
 21
4.53445625
 31
0.0
  0
LINE
  5
58C
330
18
100
AcDbEntity
  8
1
 62
     1
100
AcDbLine
 10
76.0
 20
4.53445625
 30
0.0
 11
75.15386752691897
 21
5.999999999999998
 31
0.0
  0
LINE
  5
58D
330
18
100
AcDbEntity
  8
1
 62
     1
100
AcDbLine
 10
59.04737205999999
 20
-4.35
 30
0.0
 11
59.70193383359748
 21
-5.483734253517515
 31
0.0
  0
ARC
  5
58E
330
18
100
AcDbEntity
  8
1
 62
     1
100
AcDbCircle
 10
75.20912445388122
 20
7.820654806390713
 30
0.0
 40
6.806924008355821
100
AcDbArc
 50
256.13695774518
 51
261.8997737209421
  0
LINE
  5
58F
330
18
100
AcDbEntity
  8
1
 62
     1
100
AcDbLine
 10
62.13365865689454
 20
0.1336311893831284
 30
0.0
 11
62.13366980338171
 21
0.1336288414474246
 31
0.0
  0
LINE
  5
590
330
18
100
AcDbEntity
  8
1
 62
     1
100
AcDbLine
 10
62.13366980338173
 20
0.1336288414474246
 30
0.0
 11
62.17964132126028
 21
0.122903128483212
 31
0.0
  0
LINE
  5
591
330
18
100
AcDbEntity
  8
1
 62
     1
100
AcDbLine
 10
62.17964132126028
 20
0.122903128483212
 30
0.0
 11
62.22548530499915
 21
0.1101301446057943
 31
0.0
  0
LINE
  5
592
330
18
100
AcDbEntity
  8
1
 62
     1
100
AcDbLine
 10
62.22548530499915
 20
0.1101301446057943
 30
0.0
 11
62.2711778647755
 21
0.095329941007848
 31
0.0
  0
LINE
  5
593
330
18
100
AcDbEntity
  8
1
 62
     1
100
AcDbLine
 10
62.2711778647755
 20
0.095329941007848
 30
0.0
 11
62.3166982872031
 21
0.0785212882919277
 31
0.0
  0
LINE
  5
594
330
18
100
AcDbEntity
  8
1
 62
     1
100
AcDbLine
 10
62.3166982872031
 20
0.0785212882919277
 30
0.0
 11
62.36204893088006
 21
0.0597164628805529
 31
0.0
  0
LINE
  5
595
330
18
100
AcDbEntity
  8
1
 62
     1
100
AcDbLine
 10
62.36204893088006
 20
0.0597164628805529
 30
0.0
 11
62.4072113799993
 21
0.0389371844425046
 31
0.0
  0
LINE
  5
596
330
18
100
AcDbEntity
  8
1
 62
     1
100
AcDbLine
 10
62.4072113799993
 20
0.0389371844425046
 30
0.0
 11
62.45216474627267
 21
0.0162060127963633
 31
0.0
  0
LINE
  5
597
330
18
100
AcDbEntity
  8
1
 62
     1
100
AcDbLine
 10
62.45216474627267
 20
0.0162060127963633
 30
0.0
 11
62.49690784543063
 21
-0.008462475876229
 31
0.0
  0
LINE
  5
598
330
18
100
AcDbEntity
  8
1
 62
     1
100
AcDbLine
 10
62.49690784543063
 20
-0.008462475876229
 30
0.0
 11
62.58572031795538
 21
-0.0635303773926655
 31
0.0
  0
LINE
  5
599
330
18
100
AcDbEntity
  8
1
 62
     1
100
AcDbLine
 10
62.58572031795538
 20
-0.0635303773926655
 30
0.0
 11
62.67357833606765
 21
-0.126106167729962
 31
0.0
  0
LINE
  5
59A
330
18
100
AcDbEntity
  8
1
 62
     1
100
AcDbLine
 10
62.67357833606765
 20
-0.126106167729962
 30
0.0
 11
62.76040603528101
 21
-0.1960172756701169
 31
0.0
  0
LINE
  5
59B
330
18
100
AcDbEntity
  8
1
 62
     1
100
AcDbLine
 10
62.76040603528101
 20
-0.1960172756701169
 30
0.0
 11
62.84613247308104
 21
-0.2730751353716135
 31
0.0
  0
LINE
  5
59C
330
18
100
AcDbEntity
  8
1
 62
     1
100
AcDbLine
 10
62.13366983754106
 20
0.133629003679179
 30
0.0
 11
62.13365869108019
 21
0.1336313516709625
 31
0.0
  0
ARC
  5
59D
330
18
100
AcDbEntity
  8
1
 62
     1
100
AcDbCircle
 10
61.4990452844131
 20
-1.399427537588
 30
0.0
 40
1.631240964535006
100
AcDbArc
 50
72.11554948477414
 51
77.9639470796573
  0
LINE
  5
59E
330
18
100
AcDbEntity
  8
1
 62
     1
100
AcDbLine
 10
60.53112985089477
 20
0.4796493937083341
 30
0.0
 11
60.53113995833002
 21
0.4796471599103306
 31
0.0
  0
LINE
  5
59F
330
18
100
AcDbEntity
  8
1
 62
     1
100
AcDbLine
 10
60.53113995833001
 20
0.4796471599103306
 30
0.0
 11
60.60372548741518
 21
0.4609800015901946
 31
0.0
  0
LINE
  5
5A0
330
18
100
AcDbEntity
  8
1
 62
     1
100
AcDbLine
 10
60.60372548741518
 20
0.4609800015901946
 30
0.0
 11
60.67583997302233
 21
0.4372034836507923
 31
0.0
  0
LINE
  5
5A1
330
18
100
AcDbEntity
  8
1
 62
     1
100
AcDbLine
 10
60.67583997302233
 20
0.4372034836507923
 30
0.0
 11
60.74742422833653
 21
0.4083831529427442
 31
0.0
  0
LINE
  5
5A2
330
18
100
AcDbEntity
  8
1
 62
     1
100
AcDbLine
 10
60.74742422833653
 20
0.4083831529427442
 30
0.0
 11
60.81844825767324
 21
0.3745835196831008
 31
0.0
  0
LINE
  5
5A3
330
18
100
AcDbEntity
  8
1
 62
     1
100
AcDbLine
 10
60.81844825767324
 20
0.3745835196831008
 30
0.0
 11
60.88886137407954
 21
0.3358780692916331
 31
0.0
  0
LINE
  5
5A4
330
18
100
AcDbEntity
  8
1
 62
     1
100
AcDbLine
 10
60.88886137407954
 20
0.3358780692916331
 30
0.0
 11
60.95863926105211
 21
0.2923364805213536
 31
0.0
  0
LINE
  5
5A5
330
18
100
AcDbEntity
  8
1
 62
     1
100
AcDbLine
 10
60.95863926105211
 20
0.2923364805213536
 30
0.0
 11
61.02773692981243
 21
0.2440407830943363
 31
0.0
  0
LINE
  5
5A6
330
18
100
AcDbEntity
  8
1
 62
     1
100
AcDbLine
 10
61.02773692981243
 20
0.2440407830943363
 30
0.0
 11
61.09613247308104
 21
0.191067142047305
 31
0.0
  0
LINE
  5
5A7
330
18
100
AcDbEntity
  8
1
 62
     1
100
AcDbLine
 10
60.53113995994242
 20
0.4796472315184836
 30
0.0
 11
60.53112986606965
 21
0.4796494623699658
 31
0.0
  0
ARC
  5
5A8
330
18
100
AcDbEntity
  8
1
 62
     1
100
AcDbCircle
 10
59.52850948239924
 20
-1.064315075826112
 30
0.0
 40
1.72514515136419
100
AcDbArc
 50
65.27974845096719
 51
77.15181036957678
  0
ARC
  5
5A9
330
18
100
AcDbEntity
  8
1
 62
     1
100
AcDbCircle
 10
59.29668919493481
 20
-0.302935028510572
 30
0.0
 40
1.033526522720771
100
AcDbArc
 50
77.12558741632635
 51
103.9570066953037
  0
LINE
  5
5AA
330
18
100
AcDbEntity
  8
1
 62
     1
100
AcDbLine
 10
59.52698536678159
 20
0.7045907077622744
 30
0.0
 11
59.52697065617818
 21
0.7045940462050775
 31
0.0
  0
LINE
  5
5AB
330
18
100
AcDbEntity
  8
SK1
100
AcDbLine
 10
0.0000000000000018
 20
4.5
 30
0.0
 11
-17.0
 21
4.5
 31
0.0
  0
LINE
  5
5AC
330
18
100
AcDbEntity
  8
SK1
100
AcDbLine
 10
-26.55
 20
-3.5
 30
0.0
 11
-17.0
 21
-3.5
 31
0.0
  0
LINE
  5
5AD
330
18
100
AcDbEntity
  8
SK1
100
AcDbLine
 10
-17.0
 20
-3.499999999999964
 30
0.0
 11
-17.0
 21
-4.5
 31
0.0
  0
LINE
  5
5AE
330
18
100
AcDbEntity
  8
SK1
100
AcDbLine
 10
-26.55
 20
2.828427124746192
 30
0.0
 11
-17.0
 21
2.828427124746192
 31
0.0
  0
LINE
  5
5AF
330
18
100
AcDbEntity
  8
SK1
100
AcDbLine
 10
-26.55
 20
3.5
 30
0.0
 11
-17.0
 21
3.5
 31
0.0
  0
ARC
  5
5B0
330
18
100
AcDbEntity
  8
SK1
100
AcDbCircle
 10
-18.60494415543276
 20
-2.221132645436342
 30
0.0
 40
9.41362387468697
100
AcDbArc
 50
147.5615924265876
 51
153.1008352577538
  0
LINE
  5
5B1
330
18
100
AcDbEntity
  8
SK1
100
AcDbLine
 10
-26.55
 20
3.499999999999965
 30
0.0
 11
-26.55
 21
2.828427124746192
 31
0.0
  0
LINE
  5
5B2
330
18
100
AcDbEntity
  8
SK1
100
AcDbLine
 10
-26.99999999999999
 20
3.5
 30
0.0
 11
-26.55
 21
3.500000000000001
 31
0.0
  0
LINE
  5
5B3
330
18
100
AcDbEntity
  8
SK1
100
AcDbLine
 10
-17.0
 20
4.5
 30
0.0
 11
-17.0
 21
4.499790197742024
 31
0.0
  0
LINE
  5
5B4
330
18
100
AcDbEntity
  8
SK1
100
AcDbLine
 10
-17.0
 20
4.499790197742024
 30
0.0
 11
-17.0
 21
4.435752692613256
 31
0.0
  0
LINE
  5
5B5
330
18
100
AcDbEntity
  8
SK1
100
AcDbLine
 10
-17.0
 20
4.435752692613256
 30
0.0
 11
-17.0
 21
3.499999999999965
 31
0.0
  0
LINE
  5
5B6
330
18
100
AcDbEntity
  8
SK1
100
AcDbLine
 10
-27.0
 20
3.499999999999999
 30
0.0
 11
-27.0
 21
2.037768387231484
 31
0.0
  0
LINE
  5
5B7
330
18
100
AcDbEntity
  8
SK1
100
AcDbLine
 10
-27.0
 20
-2.037768387231483
 30
0.0
 11
-27.0
 21
-3.499999999999998
 31
0.0
  0
ARC
  5
5B8
330
18
100
AcDbEntity
  8
SK1
100
AcDbCircle
 10
-18.60494415543322
 20
2.221132645436361
 30
0.0
 40
9.413623874686566
100
AcDbArc
 50
206.8991647422476
 51
212.4384075734138
  0
LINE
  5
5B9
330
18
100
AcDbEntity
  8
SK1
100
AcDbLine
 10
-27.0
 20
-3.5
 30
0.0
 11
-26.55
 21
-3.5
 31
0.0
  0
LINE
  5
5BA
330
18
100
AcDbEntity
  8
SK1
100
AcDbLine
 10
-26.55
 20
-2.828427124746232
 30
0.0
 11
-26.55
 21
-3.499999999999964
 31
0.0
  0
LINE
  5
5BB
330
18
100
AcDbEntity
  8
SK1
100
AcDbLine
 10
-17.0
 20
2.828427124746195
 30
0.0
 11
-17.0
 21
-2.828427124746189
 31
0.0
  0
LINE
  5
5BC
330
18
100
AcDbEntity
  8
SK1
100
AcDbLine
 10
-27.00000000000001
 20
2.037768387231484
 30
0.0
 11
-27.0
 21
-2.037768387231482
 31
0.0
  0
LINE
  5
5BD
330
18
100
AcDbEntity
  8
SK1
100
AcDbLine
 10
-26.55
 20
-2.828427124746188
 30
0.0
 11
-17.0
 21
-2.828427124746188
 31
0.0
  0
LINE
  5
5BE
330
18
100
AcDbEntity
  8
SK1
100
AcDbLine
 10
-17.0
 20
-4.5
 30
0.0
 11
0.0000000000000004
 21
-4.5
 31
0.0
  0
DIMENSION
  5
5BF
330
18
100
AcDbEntity
  8
2
100
AcDbDimension
  2
*D0
 10
98.00000000000004
 20
-5.999999999999948
 30
0.0
 11
95.60925000000003
 21
0.0000000000000444
 31
0.0
 70
    32
  1
M12
 71
     5
 42
12.0
  3
STANDARD
100
AcDbAlignedDimension
 13
83.0
 23
6.0
 33
0.0
 14
83.0
 24
-6.0
 34
0.0
 50
90.0000000000002
100
AcDbRotatedDimension
  0
DIMENSION
  5
5CC
330
18
100
AcDbEntity
  8
2
100
AcDbDimension
  2
*D1
 10
83.0
 20
75.0
 30
0.0
 11
41.5
 21
77.39075
 31
0.0
 70
    32
  1
<>
 71
     5
 42
83.0
  3
STANDARD
100
AcDbAlignedDimension
 13
0.0
 23
0.0
 33
0.0
 14
83.0
 24
0.0
 34
0.0
100
AcDbRotatedDimension
  0
DIMENSION
  5
5D9
330
18
100
AcDbEntity
  8
SK2
100
AcDbDimension
  2
*D2
 10
-41.99999999997704
 20
-4.500000000127585
 30
0.0
 11
-44.39075
 21
-0.0000000001397857
 31
0.0
 70
    32
  1
%%c<>
 71
     5
 42
9.0
  3
STANDARD
100
AcDbAlignedDimension
 13
-17.0
 23
4.5
 33
0.0
 14
-17.0
 24
-4.5
 34
0.0
 50
90.0000000002924
100
AcDbRotatedDimension
  0
DIMENSION
  5
5E6
330
18
100
AcDbEntity
  8
2
100
AcDbDimension
  2
*D3
 10
83.0
 20
60.0
 30
0.0
 11
71.02368603
 21
62.39775
 31
0.0
 70
    32
  1
<>
 71
     5
 42
23.95262794
  3
STANDARD
100
AcDbAlignedDimension
 13
59.04737206
 23
4.35
 33
0.0
 14
83.0
 24
6.0
 34
0.0
100
AcDbRotatedDimension
  0
DIMENSION
  5
5F3
330
18
100
AcDbEntity
  8
SK2
100
AcDbDimension
  2
*D4
 10
84.92
 20
90.0
 30
0.0
 11
28.96
 21
92.39775
 31
0.0
 70
    32
  1
<>
 71
     5
 42
111.92
  3
STANDARD
100
AcDbAlignedDimension
 13
-27.0
 23
6.0
 33
0.0
 14
84.92
 24
6.0
 34
0.0
100
AcDbRotatedDimension
  0
ENDSEC
  0
SECTION
  2
OBJECTS
  0
DICTIONARY
  5
C
330
0
100
AcDbDictionary
281
     1
  3
ACAD_COLOR
350
387
  3
ACAD_GROUP
350
D
  3
ACAD_LAYOUT
350
301
  3
ACAD_MATERIAL
350
386
  3
ACAD_MLEADERSTYLE
350
600
  3
ACAD_MLINESTYLE
350
E
  3
ACAD_PLOTSETTINGS
350
302
  3
ACAD_PLOTSTYLENAME
350
2FF
  3
ACAD_SCALELIST
350
3A0
  3
ACAD_TABLESTYLE
350
388
  3
ACAD_VISUALSTYLE
350
3C5
  3
ACDBHEADERROUNDTRIPXREC
350
601
  3
AcDbVariableDictionary
350
357
  0
DICTIONARY
  5
387
102
{ACAD_REACTORS
330
C
102
}
330
C
100
AcDbDictionary
281
     1
  0
DICTIONARY
  5
D
102
{ACAD_REACTORS
330
C
102
}
330
C
100
AcDbDictionary
281
     1
  0
DICTIONARY
  5
301
102
{ACAD_REACTORS
330
C
102
}
330
C
100
AcDbDictionary
281
     1
  3
Layout1
350
33B
  3
Model
350
303
  0
DICTIONARY
  5
386
102
{ACAD_REACTORS
330
C
102
}
330
C
100
AcDbDictionary
281
     1
  3
ByBlock
350
3C3
  3
ByLayer
350
3C2
  3
Global
350
3C4
  0
DICTIONARY
  5
600
102
{ACAD_REACTORS
330
C
102
}
330
C
100
AcDbDictionary
281
     1
  0
DICTIONARY
  5
E
102
{ACAD_REACTORS
330
C
102
}
330
C
100
AcDbDictionary
281
     1
  3
STANDARD
350
1B
  0
DICTIONARY
  5
302
102
{ACAD_REACTORS
330
C
102
}
330
C
100
AcDbDictionary
281
     1
  0
ACDBDICTIONARYWDFLT
  5
2FF
102
{ACAD_REACTORS
330
C
102
}
330
C
100
AcDbDictionary
281
     1
  3
Normal
350
300
100
AcDbDictionaryWithDefault
340
300
  0
DICTIONARY
  5
3A0
102
{ACAD_REACTORS
330
C
102
}
330
C
100
AcDbDictionary
281
     1
  3
A0
350
3A1
  3
A1
350
3A2
  3
A2
350
3A3
  3
A3
350
3A4
  3
A4
350
3A5
  3
A5
350
3A6
  3
A6
350
3A7
  3
A7
350
3A8
  3
A8
350
3A9
  3
A9
350
3AA
  3
B0
350
3AB
  3
B1
350
3AC
  3
B2
350
3AD
  3
B3
350
3AE
  3
B4
350
3AF
  3
B5
350
3B0
  3
B6
350
3B1
  3
B7
350
3B2
  3
B8
350
3B3
  3
B9
350
3B4
  3
C0
350
3B5
  3
C1
350
3B6
  3
C2
350
3B7
  3
C3
350
3B8
  3
C4
350
3B9
  3
C5
350
3BA
  3
C6
350
3BB
  3
C7
350
3BC
  3
C8
350
3BD
  3
C9
350
3BE
  3
D0
350
3BF
  3
D1
350
3C0
  3
D2
350
3C1
  0
DICTIONARY
  5
388
102
{ACAD_REACTORS
330
C
102
}
330
C
100
AcDbDictionary
281
     1
  3
Standard
350
389
  0
DICTIONARY
  5
3C5
102
{ACAD_REACTORS
330
C
102
}
330
C
100
AcDbDictionary
281
     1
  3
2dWireframe
350
3CA
  3
3D Hidden
350
3CC
  3
3dWireframe
350
3CB
  3
Basic
350
3CD
  3
Brighten
350
3D1
  3
ColorChange
350
3D5
  3
Conceptual
350
3CF
  3
Dim
350
3D0
  3
Facepattern
350
3D4
  3
Flat
350
3C6
  3
FlatWithEdges
350
3C7
  3
Gouraud
350
3C8
  3
GouraudWithEdges
350
3C9
  3
Linepattern
350
3D3
  3
Realistic
350
3CE
  3
Thicken
350
3D2
  0
DICTIONARY
  5
601
102
{ACAD_REACTORS
330
C
102
}
330
C
100
AcDbDictionary
281
     1
  3
COLORDICT
350
602
  3
MATERIALDICT
350
603
  0
DICTIONARY
  5
357
102
{ACAD_REACTORS
330
C
102
}
330
C
100
AcDbDictionary
281
     1
  3
CANNOSCALE
350
604
  3
CTABLESTYLE
350
38D
  3
DIMASSOC
350
359
  3
HIDETEXT
350
358
  3
PROJECTNAME
350
38E
  0
LAYOUT
  5
33B
102
{ACAD_REACTORS
330
301
102
}
330
301
100
AcDbPlotSettings
  1

  2
Lexmark Optra PS2
  4

  6

 40
0.0
 41
0.0
 42
0.0
 43
0.0
 44
0.0
 45
0.0
 46
0.0
 47
0.0
 48
0.0
 49
0.0
140
0.0
141
0.0
142
1.0
143
1.0
 70
   688
 72
     0
 73
     0
 74
     5
  7
monochrome.ctb
 75
    16
147
1.0
148
0.0
149
0.0
100
AcDbLayout
  1
Layout1
 70
     1
 71
     1
 10
0.0
 20
0.0
 11
12.0
 21
9.0
 12
0.0
 22
0.0
 32
0.0
 14
0.0
 24
0.0
 34
0.0
 15
0.0
 25
0.0
 35
0.0
146
0.0
 13
0.0
 23
0.0
 33
0.0
 16
1.0
 26
0.0
 36
0.0
 17
0.0
 27
1.0
 37
0.0
 76
     0
330
338
  0
LAYOUT
  5
303
102
{ACAD_REACTORS
330
301
102
}
330
301
100
AcDbPlotSettings
  1

  2
Lexmark Optra Rx
  4
A4
  6

 40
6.805083274841307
 41
5.535083293914794
 42
6.974411010742187
 43
7.14373779296875
 44
209.9733276367186
 45
296.9259948730469
 46
0.0
 47
0.0
 48
0.0
 49
0.0
140
0.0
141
0.0
142
1.0
143
2.976565420630886
 70
 11952
 72
     1
 73
     1
 74
     0
  7
monochrome.ctb
 75
     0
147
0.335957675604539
148
204.1199660668592
149
172.3933209647495
100
AcDbLayout
  1
Model
 70
     1
 71
     0
 10
0.0
 20
0.0
 11
12.0
 21
9.0
 12
0.0
 22
0.0
 32
0.0
 14
0.0
 24
0.0
 34
0.0
 15
0.0
 25
0.0
 35
0.0
146
0.0
 13
0.0
 23
0.0
 33
0.0
 16
1.0
 26
0.0
 36
0.0
 17
0.0
 27
1.0
 37
0.0
 76
     0
330
18
331
39A
  0
MATERIAL
  5
3C3
102
{ACAD_REACTORS
330
386
102
}
102
{ACAD_XDICTIONARY
360
607
102
}
330
386
100
AcDbMaterial
  1
ByBlock
  0
MATERIAL
  5
3C2
102
{ACAD_REACTORS
330
386
102
}
102
{ACAD_XDICTIONARY
360
605
102
}
330
386
100
AcDbMaterial
  1
ByLayer
  0
MATERIAL
  5
3C4
102
{ACAD_REACTORS
330
386
102
}
102
{ACAD_XDICTIONARY
360
609
102
}
330
386
100
AcDbMaterial
  1
Global
  0
MLINESTYLE
  5
1B
102
{ACAD_REACTORS
330
E
102
}
330
E
100
AcDbMlineStyle
  2
STANDARD
 70
     0
  3

 62
     0
 51
90.0
 52
90.0
 71
     2
 49
0.5
 62
   256
  6
BYLAYER
 49
-0.5
 62
   256
  6
BYLAYER
  0
ACDBPLACEHOLDER
  5
300
102
{ACAD_REACTORS
330
2FF
102
}
330
2FF
  0
SCALE
  5
3A1
102
{ACAD_REACTORS
330
3A0
102
}
330
3A0
100
AcDbScale
 70
     0
300
1:1
140
1.0
141
1.0
290
     1
  0
SCALE
  5
3A2
102
{ACAD_REACTORS
330
3A0
102
}
330
3A0
100
AcDbScale
 70
     0
300
1:2
140
1.0
141
2.0
290
     0
  0
SCALE
  5
3A3
102
{ACAD_REACTORS
330
3A0
102
}
330
3A0
100
AcDbScale
 70
     0
300
1:4
140
1.0
141
4.0
290
     0
  0
SCALE
  5
3A4
102
{ACAD_REACTORS
330
3A0
102
}
330
3A0
100
AcDbScale
 70
     0
300
1:5
140
1.0
141
5.0
290
     0
  0
SCALE
  5
3A5
102
{ACAD_REACTORS
330
3A0
102
}
330
3A0
100
AcDbScale
 70
     0
300
1:8
140
1.0
141
8.0
290
     0
  0
SCALE
  5
3A6
102
{ACAD_REACTORS
330
3A0
102
}
330
3A0
100
AcDbScale
 70
     0
300
1:10
140
1.0
141
10.0
290
     0
  0
SCALE
  5
3A7
102
{ACAD_REACTORS
330
3A0
102
}
330
3A0
100
AcDbScale
 70
     0
300
1:16
140
1.0
141
16.0
290
     0
  0
SCALE
  5
3A8
102
{ACAD_REACTORS
330
3A0
102
}
330
3A0
100
AcDbScale
 70
     0
300
1:20
140
1.0
141
20.0
290
     0
  0
SCALE
  5
3A9
102
{ACAD_REACTORS
330
3A0
102
}
330
3A0
100
AcDbScale
 70
     0
300
1:30
140
1.0
141
30.0
290
     0
  0
SCALE
  5
3AA
102
{ACAD_REACTORS
330
3A0
102
}
330
3A0
100
AcDbScale
 70
     0
300
1:40
140
1.0
141
40.0
290
     0
  0
SCALE
  5
3AB
102
{ACAD_REACTORS
330
3A0
102
}
330
3A0
100
AcDbScale
 70
     0
300
1:50
140
1.0
141
50.0
290
     0
  0
SCALE
  5
3AC
102
{ACAD_REACTORS
330
3A0
102
}
330
3A0
100
AcDbScale
 70
     0
300
1:100
140
1.0
141
100.0
290
     0
  0
SCALE
  5
3AD
102
{ACAD_REACTORS
330
3A0
102
}
330
3A0
100
AcDbScale
 70
     0
300
2:1
140
2.0
141
1.0
290
     0
  0
SCALE
  5
3AE
102
{ACAD_REACTORS
330
3A0
102
}
330
3A0
100
AcDbScale
 70
     0
300
4:1
140
4.0
141
1.0
290
     0
  0
SCALE
  5
3AF
102
{ACAD_REACTORS
330
3A0
102
}
330
3A0
100
AcDbScale
 70
     0
300
8:1
140
8.0
141
1.0
290
     0
  0
SCALE
  5
3B0
102
{ACAD_REACTORS
330
3A0
102
}
330
3A0
100
AcDbScale
 70
     0
300
10:1
140
10.0
141
1.0
290
     0
  0
SCALE
  5
3B1
102
{ACAD_REACTORS
330
3A0
102
}
330
3A0
100
AcDbScale
 70
     0
300
100:1
140
100.0
141
1.0
290
     0
  0
SCALE
  5
3B2
102
{ACAD_REACTORS
330
3A0
102
}
330
3A0
100
AcDbScale
 70
     0
300
1/128" = 1'-0"
140
0.0078125
141
12.0
290
     0
  0
SCALE
  5
3B3
102
{ACAD_REACTORS
330
3A0
102
}
330
3A0
100
AcDbScale
 70
     0
300
1/64" = 1'-0"
140
0.015625
141
12.0
290
     0
  0
SCALE
  5
3B4
102
{ACAD_REACTORS
330
3A0
102
}
330
3A0
100
AcDbScale
 70
     0
300
1/32" = 1'-0"
140
0.03125
141
12.0
290
     0
  0
SCALE
  5
3B5
102
{ACAD_REACTORS
330
3A0
102
}
330
3A0
100
AcDbScale
 70
     0
300
1/16" = 1'-0"
140
0.0625
141
12.0
290
     0
  0
SCALE
  5
3B6
102
{ACAD_REACTORS
330
3A0
102
}
330
3A0
100
AcDbScale
 70
     0
300
3/32" = 1'-0"
140
0.09375
141
12.0
290
     0
  0
SCALE
  5
3B7
102
{ACAD_REACTORS
330
3A0
102
}
330
3A0
100
AcDbScale
 70
     0
300
1/8" = 1'-0"
140
0.125
141
12.0
290
     0
  0
SCALE
  5
3B8
102
{ACAD_REACTORS
330
3A0
102
}
330
3A0
100
AcDbScale
 70
     0
300
3/16" = 1'-0"
140
0.1875
141
12.0
290
     0
  0
SCALE
  5
3B9
102
{ACAD_REACTORS
330
3A0
102
}
330
3A0
100
AcDbScale
 70
     0
300
1/4" = 1'-0"
140
0.25
141
12.0
290
     0
  0
SCALE
  5
3BA
102
{ACAD_REACTORS
330
3A0
102
}
330
3A0
100
AcDbScale
 70
     0
300
3/8" = 1'-0"
140
0.375
141
12.0
290
     0
  0
SCALE
  5
3BB
102
{ACAD_REACTORS
330
3A0
102
}
330
3A0
100
AcDbScale
 70
     0
300
1/2" = 1'-0"
140
0.5
141
12.0
290
     0
  0
SCALE
  5
3BC
102
{ACAD_REACTORS
330
3A0
102
}
330
3A0
100
AcDbScale
 70
     0
300
3/4" = 1'-0"
140
0.75
141
12.0
290
     0
  0
SCALE
  5
3BD
102
{ACAD_REACTORS
330
3A0
102
}
330
3A0
100
AcDbScale
 70
     0
300
1" = 1'-0"
140
1.0
141
12.0
290
     0
  0
SCALE
  5
3BE
102
{ACAD_REACTORS
330
3A0
102
}
330
3A0
100
AcDbScale
 70
     0
300
1-1/2" = 1'-0"
140
1.5
141
12.0
290
     0
  0
SCALE
  5
3BF
102
{ACAD_REACTORS
330
3A0
102
}
330
3A0
100
AcDbScale
 70
     0
300
3" = 1'-0"
140
3.0
141
12.0
290
     0
  0
SCALE
  5
3C0
102
{ACAD_REACTORS
330
3A0
102
}
330
3A0
100
AcDbScale
 70
     0
300
6" = 1'-0"
140
6.0
141
12.0
290
     0
  0
SCALE
  5
3C1
102
{ACAD_REACTORS
330
3A0
102
}
330
3A0
100
AcDbScale
 70
     0
300
1'-0" = 1'-0"
140
12.0
141
12.0
290
     0
  0
TABLESTYLE
  5
389
102
{ACAD_REACTORS
330
388
102
}
330
388
100
AcDbTableStyle
  3
Standard
 70
     0
 71
     0
 40
1.5
 41
1.5
280
     0
281
     0
  7
STANDARD
140
4.5
170
     2
 62
     0
 63
   257
283
     0
274
    -2
284
     1
 64
     0
275
    -2
285
     1
 65
     0
276
    -2
286
     1
 66
     0
277
    -2
287
     1
 67
     0
278
    -2
288
     1
 68
     0
279
    -2
289
     1
 69
     0
  7
STANDARD
140
6.0
170
     5
 62
     0
 63
   257
283
     0
274
    -2
284
     1
 64
     0
275
    -2
285
     1
 65
     0
276
    -2
286
     1
 66
     0
277
    -2
287
     1
 67
     0
278
    -2
288
     1
 68
     0
279
    -2
289
     1
 69
     0
  7
STANDARD
140
4.5
170
     5
 62
     0
 63
   257
283
     0
274
    -2
284
     1
 64
     0
275
    -2
285
     1
 65
     0
276
    -2
286
     1
 66
     0
277
    -2
287
     1
 67
     0
278
    -2
288
     1
 68
     0
279
    -2
289
     1
 69
     0
  0
VISUALSTYLE
  5
3CA
102
{ACAD_REACTORS
330
3C5
102
}
102
{ACAD_XDICTIONARY
360
613
102
}
330
3C5
100
AcDbVisualStyle
  2
2dWireframe
 70
     4
 71
     0
 72
     2
 73
     0
 90
        0
 40
-0.6
 41
-30.0
 62
     5
 63
     7
 74
     1
 91
        4
 64
     7
 65
   257
 75
     1
175
     1
 42
1.0
 92
        0
 66
   257
 43
1.0
 76
     1
 77
     6
 78
     2
 67
     7
 79
     5
170
     0
171
     0
290
     0
174
     0
 93
        1
 44
0.0
173
     0
291
     0
 45
0.0
1001
ACAD
1000
AcDbSavedByObjectVersion
1070
     0
  0
VISUALSTYLE
  5
3CC
102
{ACAD_REACTORS
330
3C5
102
}
102
{ACAD_XDICTIONARY
360
617
102
}
330
3C5
100
AcDbVisualStyle
  2
3D Hidden
 70
     6
 71
     1
 72
     2
 73
     2
 90
        0
 40
-0.6
 41
-30.0
 62
     5
 63
     7
 74
     2
 91
        2
 64
     7
 65
   257
 75
     2
175
     1
 42
40.0
 92
        0
 66
   257
 43
1.0
 76
     1
 77
     6
 78
     2
 67
     7
 79
     3
170
     0
171
     0
290
     0
174
     0
 93
        1
 44
0.0
173
     0
291
     0
 45
0.0
1001
ACAD
1000
AcDbSavedByObjectVersion
1070
     0
  0
VISUALSTYLE
  5
3CB
102
{ACAD_REACTORS
330
3C5
102
}
102
{ACAD_XDICTIONARY
360
615
102
}
330
3C5
100
AcDbVisualStyle
  2
3dWireframe
 70
     5
 71
     0
 72
     2
 73
     0
 90
        0
 40
-0.6
 41
-30.0
 62
     5
 63
     7
 74
     1
 91
        4
 64
     7
 65
   257
 75
     1
175
     1
 42
1.0
 92
        0
 66
   257
 43
1.0
 76
     1
 77
     6
 78
     2
 67
     7
 79
     5
170
     0
171
     0
290
     0
174
     0
 93
        1
 44
0.0
173
     0
291
     0
 45
0.0
1001
ACAD
1000
AcDbSavedByObjectVersion
1070
     0
  0
VISUALSTYLE
  5
3CD
102
{ACAD_REACTORS
330
3C5
102
}
102
{ACAD_XDICTIONARY
360
619
102
}
330
3C5
100
AcDbVisualStyle
  2
Basic
 70
     7
 71
     1
 72
     0
 73
     1
 90
        0
 40
-0.6
 41
-30.0
 62
     5
 63
     7
 74
     0
 91
        4
 64
     7
 65
   257
 75
     1
175
     1
 42
1.0
 92
        8
 66
     7
 43
1.0
 76
     1
 77
     6
 78
     2
 67
     7
 79
     5
170
     0
171
     0
290
     0
174
     0
 93
        1
 44
0.0
173
     0
291
     1
 45
0.0
1001
ACAD
1000
AcDbSavedByObjectVersion
1070
     0
  0
VISUALSTYLE
  5
3D1
102
{ACAD_REACTORS
330
3C5
102
}
102
{ACAD_XDICTIONARY
360
621
102
}
330
3C5
100
AcDbVisualStyle
  2
Brighten
 70
    12
 71
     2
 72
     2
 73
     0
 90
        0
 40
-0.6
 41
-30.0
 62
     5
 63
     7
 74
     1
 91
        4
 64
     7
 65
   257
 75
     1
175
     1
 42
1.0
 92
        8
 66
     7
 43
1.0
 76
     1
 77
     6
 78
     2
 67
     7
 79
     5
170
     0
171
     0
290
     0
174
     0
 93
        1
 44
50.0
173
     0
291
     1
 45
0.0
1001
ACAD
1000
AcDbSavedByObjectVersion
1070
     0
  0
VISUALSTYLE
  5
3D5
102
{ACAD_REACTORS
330
3C5
102
}
102
{ACAD_XDICTIONARY
360
629
102
}
330
3C5
100
AcDbVisualStyle
  2
ColorChange
 70
    16
 71
     2
 72
     2
 73
     3
 90
        0
 40
-0.6
 41
-30.0
 62
     5
 63
     8
 74
     1
 91
        4
 64
     7
 65
   257
 75
     1
175
     1
 42
1.0
 92
        8
 66
     8
 43
1.0
 76
     1
 77
     6
 78
     2
 67
     7
 79
     5
170
     0
171
     0
290
     0
174
     0
 93
        1
 44
0.0
173
     0
291
     1
 45
0.0
1001
ACAD
1000
AcDbSavedByObjectVersion
1070
     0
  0
VISUALSTYLE
  5
3CF
102
{ACAD_REACTORS
330
3C5
102
}
102
{ACAD_XDICTIONARY
360
61D
102
}
330
3C5
100
AcDbVisualStyle
  2
Conceptual
 70
     9
 71
     3
 72
     2
 73
     0
 90
        0
 40
-0.6
 41
-30.0
 62
     5
 63
     7
 74
     2
 91
        2
 64
     7
 65
   257
 75
     1
175
     1
 42
40.0
 92
        8
 66
     7
 43
1.0
 76
     1
 77
     6
 78
     2
 67
     7
 79
     3
170
     0
171
     0
290
     0
174
     0
 93
        1
 44
0.0
173
     0
291
     0
 45
0.0
1001
ACAD
1000
AcDbSavedByObjectVersion
1070
     0
  0
VISUALSTYLE
  5
3D0
102
{ACAD_REACTORS
330
3C5
102
}
102
{ACAD_XDICTIONARY
360
61F
102
}
330
3C5
100
AcDbVisualStyle
  2
Dim
 70
    11
 71
     2
 72
     2
 73
     0
 90
        0
 40
-0.6
 41
-30.0
 62
     5
 63
     7
 74
     1
 91
        4
 64
     7
 65
   257
 75
     1
175
     1
 42
1.0
 92
        8
 66
     7
 43
1.0
 76
     1
 77
     6
 78
     2
 67
     7
 79
     5
170
     0
171
     0
290
     0
174
     0
 93
        1
 44
-50.0
173
     0
291
     1
 45
0.0
1001
ACAD
1000
AcDbSavedByObjectVersion
1070
     0
  0
VISUALSTYLE
  5
3D4
102
{ACAD_REACTORS
330
3C5
102
}
102
{ACAD_XDICTIONARY
360
627
102
}
330
3C5
100
AcDbVisualStyle
  2
Facepattern
 70
    15
 71
     2
 72
     2
 73
     0
 90
        0
 40
-0.6
 41
-30.0
 62
     5
 63
     7
 74
     1
 91
        4
 64
     7
 65
   257
 75
     1
175
     1
 42
1.0
 92
        8
 66
     7
 43
1.0
 76
     1
 77
     6
 78
     2
 67
     7
 79
     5
170
     0
171
     0
290
     0
174
     0
 93
        1
 44
0.0
173
     0
291
     1
 45
0.0
1001
ACAD
1000
AcDbSavedByObjectVersion
1070
     0
  0
VISUALSTYLE
  5
3C6
102
{ACAD_REACTORS
330
3C5
102
}
102
{ACAD_XDICTIONARY
360
60B
102
}
330
3C5
100
AcDbVisualStyle
  2
Flat
 70
     0
 71
     2
 72
     1
 73
     1
 90
        2
 40
-0.6
 41
30.0
 62
     5
 63
     7
 74
     0
 91
        4
 64
     7
 65
   257
 75
     1
175
     1
 42
1.0
 92
        8
 66
     7
 43
1.0
 76
     1
 77
     6
 78
     2
 67
     7
 79
     5
170
     0
171
     0
290
     0
174
     0
 93
       13
 44
0.0
173
     0
291
     1
 45
0.0
1001
ACAD
1000
AcDbSavedByObjectVersion
1070
     0
  0
VISUALSTYLE
  5
3C7
102
{ACAD_REACTORS
330
3C5
102
}
102
{ACAD_XDICTIONARY
360
60D
102
}
330
3C5
100
AcDbVisualStyle
  2
FlatWithEdges
 70
     1
 71
     2
 72
     1
 73
     1
 90
        2
 40
-0.6
 41
30.0
 62
     5
 63
     7
 74
     1
 91
        4
 64
     7
 65
   257
 75
     1
175
     1
 42
1.0
 92
        0
 66
   257
 43
1.0
 76
     1
 77
     6
 78
     2
 67
     7
 79
     5
170
     0
171
     0
290
     0
174
     0
 93
       13
 44
0.0
173
     0
291
     1
 45
0.0
1001
ACAD
1000
AcDbSavedByObjectVersion
1070
     0
  0
VISUALSTYLE
  5
3C8
102
{ACAD_REACTORS
330
3C5
102
}
102
{ACAD_XDICTIONARY
360
60F
102
}
330
3C5
100
AcDbVisualStyle
  2
Gouraud
 70
     2
 71
     2
 72
     2
 73
     1
 90
        2
 40
-0.6
 41
30.0
 62
     5
 63
     7
 74
     0
 91
        4
 64
     7
 65
   257
 75
     1
175
     1
 42
1.0
 92
        0
 66
     7
 43
1.0
 76
     1
 77
     6
 78
     2
 67
     7
 79
     5
170
     0
171
     0
290
     0
174
     0
 93
       13
 44
0.0
173
     0
291
     1
 45
0.0
1001
ACAD
1000
AcDbSavedByObjectVersion
1070
     0
  0
VISUALSTYLE
  5
3C9
102
{ACAD_REACTORS
330
3C5
102
}
102
{ACAD_XDICTIONARY
360
611
102
}
330
3C5
100
AcDbVisualStyle
  2
GouraudWithEdges
 70
     3
 71
     2
 72
     2
 73
     1
 90
        2
 40
-0.6
 41
30.0
 62
     5
 63
     7
 74
     1
 91
        4
 64
     7
 65
   257
 75
     1
175
     1
 42
1.0
 92
        0
 66
   257
 43
1.0
 76
     1
 77
     6
 78
     2
 67
     7
 79
     5
170
     0
171
     0
290
     0
174
     0
 93
       13
 44
0.0
173
     0
291
     1
 45
0.0
1001
ACAD
1000
AcDbSavedByObjectVersion
1070
     0
  0
VISUALSTYLE
  5
3D3
102
{ACAD_REACTORS
330
3C5
102
}
102
{ACAD_XDICTIONARY
360
625
102
}
330
3C5
100
AcDbVisualStyle
  2
Linepattern
 70
    14
 71
     2
 72
     2
 73
     0
 90
        0
 40
-0.6
 41
-30.0
 62
     5
 63
     7
 74
     1
 91
        4
 64
     7
 65
   257
 75
     7
175
     7
 42
1.0
 92
        8
 66
     7
 43
1.0
 76
     1
 77
     6
 78
     2
 67
     7
 79
     5
170
     0
171
     0
290
     0
174
     0
 93
        1
 44
0.0
173
     0
291
     1
 45
0.0
1001
ACAD
1000
AcDbSavedByObjectVersion
1070
     0
  0
VISUALSTYLE
  5
3CE
102
{ACAD_REACTORS
330
3C5
102
}
102
{ACAD_XDICTIONARY
360
61B
102
}
330
3C5
100
AcDbVisualStyle
  2
Realistic
 70
     8
 71
     2
 72
     2
 73
     0
 90
        0
 40
-0.6
 41
-30.0
 62
     5
 63
     7
 74
     1
 91
        0
 64
     7
 65
   257
 75
     1
175
     1
 42
1.0
 92
        8
 66
     8
 43
1.0
 76
     1
 77
     6
 78
     2
 67
     7
 79
     5
170
     0
171
     0
290
     0
174
     0
 93
       13
 44
0.0
173
     0
291
     0
 45
0.0
1001
ACAD
1000
AcDbSavedByObjectVersion
1070
     0
  0
VISUALSTYLE
  5
3D2
102
{ACAD_REACTORS
330
3C5
102
}
102
{ACAD_XDICTIONARY
360
623
102
}
330
3C5
100
AcDbVisualStyle
  2
Thicken
 70
    13
 71
     2
 72
     2
 73
     0
 90
        0
 40
-0.6
 41
-30.0
 62
     5
 63
     7
 74
     1
 91
        4
 64
     7
 65
   257
 75
     1
175
     1
 42
1.0
 92
       12
 66
     7
 43
1.0
 76
     1
 77
     6
 78
     2
 67
     7
 79
     5
170
     0
171
     0
290
     0
174
     0
 93
        1
 44
0.0
173
     0
291
     1
 45
0.0
1001
ACAD
1000
AcDbSavedByObjectVersion
1070
     0
  0
XRECORD
  5
602
102
{ACAD_REACTORS
330
601
102
}
330
601
100
AcDbXrecord
280
     1
340
387
  0
XRECORD
  5
603
102
{ACAD_REACTORS
330
601
102
}
330
601
100
AcDbXrecord
280
     1
340
386
  0
DICTIONARYVAR
  5
604
102
{ACAD_REACTORS
330
357
102
}
330
357
100
DictionaryVariables
280
     0
  1
1:1
  0
DICTIONARYVAR
  5
38D
102
{ACAD_REACTORS
330
357
102
}
330
357
100
DictionaryVariables
280
     0
  1
Standard
  0
DICTIONARYVAR
  5
359
102
{ACAD_REACTORS
330
357
102
}
330
357
100
DictionaryVariables
280
     0
  1
2
  0
DICTIONARYVAR
  5
358
102
{ACAD_REACTORS
330
357
102
}
330
357
100
DictionaryVariables
280
     0
  1
1
  0
DICTIONARYVAR
  5
38E
102
{ACAD_REACTORS
330
357
102
}
330
357
100
DictionaryVariables
280
     0
  1

  0
DICTIONARY
  5
607
330
3C3
100
AcDbDictionary
280
     1
281
     1
  3
ACAD_XREC_ROUNDTRIP
360
608
  0
DICTIONARY
  5
605
330
3C2
100
AcDbDictionary
280
     1
281
     1
  3
ACAD_XREC_ROUNDTRIP
360
606
  0
DICTIONARY
  5
609
330
3C4
100
AcDbDictionary
280
     1
281
     1
  3
ACAD_XREC_ROUNDTRIP
360
60A
  0
DICTIONARY
  5
613
330
3CA
100
AcDbDictionary
280
     1
281
     1
  3
ACAD_XREC_ROUNDTRIP
360
614
  0
DICTIONARY
  5
617
330
3CC
100
AcDbDictionary
280
     1
281
     1
  3
ACAD_XREC_ROUNDTRIP
360
618
  0
DICTIONARY
  5
615
330
3CB
100
AcDbDictionary
280
     1
281
     1
  3
ACAD_XREC_ROUNDTRIP
360
616
  0
DICTIONARY
  5
619
330
3CD
100
AcDbDictionary
280
     1
281
     1
  3
ACAD_XREC_ROUNDTRIP
360
61A
  0
DICTIONARY
  5
621
330
3D1
100
AcDbDictionary
280
     1
281
     1
  3
ACAD_XREC_ROUNDTRIP
360
622
  0
DICTIONARY
  5
629
330
3D5
100
AcDbDictionary
280
     1
281
     1
  3
ACAD_XREC_ROUNDTRIP
360
62A
  0
DICTIONARY
  5
61D
330
3CF
100
AcDbDictionary
280
     1
281
     1
  3
ACAD_XREC_ROUNDTRIP
360
61E
  0
DICTIONARY
  5
61F
330
3D0
100
AcDbDictionary
280
     1
281
     1
  3
ACAD_XREC_ROUNDTRIP
360
620
  0
DICTIONARY
  5
627
330
3D4
100
AcDbDictionary
280
     1
281
     1
  3
ACAD_XREC_ROUNDTRIP
360
628
  0
DICTIONARY
  5
60B
330
3C6
100
AcDbDictionary
280
     1
281
     1
  3
ACAD_XREC_ROUNDTRIP
360
60C
  0
DICTIONARY
  5
60D
330
3C7
100
AcDbDictionary
280
     1
281
     1
  3
ACAD_XREC_ROUNDTRIP
360
60E
  0
DICTIONARY
  5
60F
330
3C8
100
AcDbDictionary
280
     1
281
     1
  3
ACAD_XREC_ROUNDTRIP
360
610
  0
DICTIONARY
  5
611
330
3C9
100
AcDbDictionary
280
     1
281
     1
  3
ACAD_XREC_ROUNDTRIP
360
612
  0
DICTIONARY
  5
625
330
3D3
100
AcDbDictionary
280
     1
281
     1
  3
ACAD_XREC_ROUNDTRIP
360
626
  0
DICTIONARY
  5
61B
330
3CE
100
AcDbDictionary
280
     1
281
     1
  3
ACAD_XREC_ROUNDTRIP
360
61C
  0
DICTIONARY
  5
623
330
3D2
100
AcDbDictionary
280
     1
281
     1
  3
ACAD_XREC_ROUNDTRIP
360
624
  0
XRECORD
  5
608
102
{ACAD_REACTORS
330
607
102
}
330
607
100
AcDbXrecord
280
     1
102
MATERIAL
148
0.0
149
0.0
149
0.0
 93
        0
 94
      127
282
     0
 72
     1
 77
     1
171
     1
175
     1
179
     1
273
     0
  0
XRECORD
  5
606
102
{ACAD_REACTORS
330
605
102
}
330
605
100
AcDbXrecord
280
     1
102
MATERIAL
148
0.0
149
0.0
149
0.0
 93
        0
 94
      127
282
     0
 72
     1
 77
     1
171
     1
175
     1
179
     1
273
     0
  0
XRECORD
  5
60A
102
{ACAD_REACTORS
330
609
102
}
330
609
100
AcDbXrecord
280
     1
102
MATERIAL
148
0.0
149
0.0
149
0.0
 93
        0
 94
      127
282
     0
 72
     1
 77
     1
171
     1
175
     1
179
     1
273
     0
  0
XRECORD
  5
614
102
{ACAD_REACTORS
330
613
102
}
330
613
100
AcDbXrecord
280
     1
102
RTVSPropertyOp0
 70
     1
102
RTVSPropertyOp1
 70
     1
102
RTVSPropertyOp2
 70
     1
102
RTVSPropertyOp3
 70
     1
102
RTVSPropertyOp4
 70
     1
102
RTVSPropertyOp5
 70
     1
102
RTVSPropertyOp6
 70
     1
102
RTVSPropertyOp7
 70
     1
102
RTVSPropertyOp8
 70
     1
102
RTVSPropertyOp9
 70
     1
102
RTVSPropertyOp10
 70
     1
102
RTVSPropertyOp11
 70
     1
102
RTVSPropertyOp12
 70
     1
102
RTVSPropertyOp13
 70
     1
102
RTVSPropertyOp14
 70
     1
102
RTVSPropertyOp15
 70
     1
102
RTVSPropertyOp16
 70
     1
102
RTVSPropertyOp17
 70
     1
102
RTVSPropertyOp18
 70
     1
102
RTVSPropertyOp19
 70
     1
102
RTVSPropertyOp20
 70
     1
102
RTVSPropertyOp21
 70
     1
102
RTVSPropertyOp22
 70
     1
102
RTVSPropertyOp23
 70
     1
102
RTVSPropertyOp24
 70
     1
102
RTVSPropertyOp25
 70
     1
102
RTVSPropertyOp26
 70
     1
102
RTVSPropertyOp27
 70
     1
102
RTVSPropertyOp28
 70
     1
102
RTVSPropertyOp29
 70
     1
102
RTVSPropertyOp30
 70
     1
102
RTVSPropertyOp31
 70
     1
102
RTVSPropertyOp32
 70
     1
  0
XRECORD
  5
618
102
{ACAD_REACTORS
330
617
102
}
330
617
100
AcDbXrecord
280
     1
102
RTVSPropertyOp0
 70
     1
102
RTVSPropertyOp1
 70
     1
102
RTVSPropertyOp2
 70
     1
102
RTVSPropertyOp3
 70
     1
102
RTVSPropertyOp4
 70
     1
102
RTVSPropertyOp5
 70
     1
102
RTVSPropertyOp6
 70
     1
102
RTVSPropertyOp7
 70
     1
102
RTVSPropertyOp8
 70
     1
102
RTVSPropertyOp9
 70
     1
102
RTVSPropertyOp10
 70
     1
102
RTVSPropertyOp11
 70
     1
102
RTVSPropertyOp12
 70
     1
102
RTVSPropertyOp13
 70
     1
102
RTVSPropertyOp14
 70
     1
102
RTVSPropertyOp15
 70
     1
102
RTVSPropertyOp16
 70
     1
102
RTVSPropertyOp17
 70
     1
102
RTVSPropertyOp18
 70
     1
102
RTVSPropertyOp19
 70
     1
102
RTVSPropertyOp20
 70
     1
102
RTVSPropertyOp21
 70
     1
102
RTVSPropertyOp22
 70
     1
102
RTVSPropertyOp23
 70
     1
102
RTVSPropertyOp24
 70
     1
102
RTVSPropertyOp25
 70
     1
102
RTVSPropertyOp26
 70
     1
102
RTVSPropertyOp27
 70
     1
102
RTVSPropertyOp28
 70
     1
102
RTVSPropertyOp29
 70
     1
102
RTVSPropertyOp30
 70
     1
102
RTVSPropertyOp31
 70
     1
102
RTVSPropertyOp32
 70
     1
  0
XRECORD
  5
616
102
{ACAD_REACTORS
330
615
102
}
330
615
100
AcDbXrecord
280
     1
102
RTVSPropertyOp0
 70
     1
102
RTVSPropertyOp1
 70
     1
102
RTVSPropertyOp2
 70
     1
102
RTVSPropertyOp3
 70
     1
102
RTVSPropertyOp4
 70
     1
102
RTVSPropertyOp5
 70
     1
102
RTVSPropertyOp6
 70
     1
102
RTVSPropertyOp7
 70
     1
102
RTVSPropertyOp8
 70
     1
102
RTVSPropertyOp9
 70
     1
102
RTVSPropertyOp10
 70
     1
102
RTVSPropertyOp11
 70
     1
102
RTVSPropertyOp12
 70
     1
102
RTVSPropertyOp13
 70
     1
102
RTVSPropertyOp14
 70
     1
102
RTVSPropertyOp15
 70
     1
102
RTVSPropertyOp16
 70
     1
102
RTVSPropertyOp17
 70
     1
102
RTVSPropertyOp18
 70
     1
102
RTVSPropertyOp19
 70
     1
102
RTVSPropertyOp20
 70
     1
102
RTVSPropertyOp21
 70
     1
102
RTVSPropertyOp22
 70
     1
102
RTVSPropertyOp23
 70
     1
102
RTVSPropertyOp24
 70
     1
102
RTVSPropertyOp25
 70
     1
102
RTVSPropertyOp26
 70
     1
102
RTVSPropertyOp27
 70
     1
102
RTVSPropertyOp28
 70
     1
102
RTVSPropertyOp29
 70
     1
102
RTVSPropertyOp30
 70
     1
102
RTVSPropertyOp31
 70
     1
102
RTVSPropertyOp32
 70
     1
  0
XRECORD
  5
61A
102
{ACAD_REACTORS
330
619
102
}
330
619
100
AcDbXrecord
280
     1
102
RTVSPropertyOp0
 70
     1
102
RTVSPropertyOp1
 70
     1
102
RTVSPropertyOp2
 70
     1
102
RTVSPropertyOp3
 70
     1
102
RTVSPropertyOp4
 70
     1
102
RTVSPropertyOp5
 70
     1
102
RTVSPropertyOp6
 70
     1
102
RTVSPropertyOp7
 70
     1
102
RTVSPropertyOp8
 70
     1
102
RTVSPropertyOp9
 70
     1
102
RTVSPropertyOp10
 70
     1
102
RTVSPropertyOp11
 70
     1
102
RTVSPropertyOp12
 70
     1
102
RTVSPropertyOp13
 70
     1
102
RTVSPropertyOp14
 70
     1
102
RTVSPropertyOp15
 70
     1
102
RTVSPropertyOp16
 70
     1
102
RTVSPropertyOp17
 70
     1
102
RTVSPropertyOp18
 70
     1
102
RTVSPropertyOp19
 70
     1
102
RTVSPropertyOp20
 70
     1
102
RTVSPropertyOp21
 70
     1
102
RTVSPropertyOp22
 70
     1
102
RTVSPropertyOp23
 70
     1
102
RTVSPropertyOp24
 70
     1
102
RTVSPropertyOp25
 70
     1
102
RTVSPropertyOp26
 70
     1
102
RTVSPropertyOp27
 70
     1
102
RTVSPropertyOp28
 70
     1
102
RTVSPropertyOp29
 70
     1
102
RTVSPropertyOp30
 70
     1
102
RTVSPropertyOp31
 70
     1
102
RTVSPropertyOp32
 70
     1
  0
XRECORD
  5
622
102
{ACAD_REACTORS
330
621
102
}
330
621
100
AcDbXrecord
280
     1
102
RTVSPropertyOp0
 70
     1
102
RTVSPropertyOp1
 70
     1
102
RTVSPropertyOp2
 70
     1
102
RTVSPropertyOp3
 70
     1
102
RTVSPropertyOp4
 70
     1
102
RTVSPropertyOp5
 70
     1
102
RTVSPropertyOp6
 70
     1
102
RTVSPropertyOp7
 70
     1
102
RTVSPropertyOp8
 70
     1
102
RTVSPropertyOp9
 70
     1
102
RTVSPropertyOp10
 70
     1
102
RTVSPropertyOp11
 70
     1
102
RTVSPropertyOp12
 70
     1
102
RTVSPropertyOp13
 70
     1
102
RTVSPropertyOp14
 70
     1
102
RTVSPropertyOp15
 70
     1
102
RTVSPropertyOp16
 70
     1
102
RTVSPropertyOp17
 70
     1
102
RTVSPropertyOp18
 70
     1
102
RTVSPropertyOp19
 70
     1
102
RTVSPropertyOp20
 70
     1
102
RTVSPropertyOp21
 70
     1
102
RTVSPropertyOp22
 70
     1
102
RTVSPropertyOp23
 70
     1
102
RTVSPropertyOp24
 70
     1
102
RTVSPropertyOp25
 70
     1
102
RTVSPropertyOp26
 70
     1
102
RTVSPropertyOp27
 70
     1
102
RTVSPropertyOp28
 70
     1
102
RTVSPropertyOp29
 70
     1
102
RTVSPropertyOp30
 70
     1
102
RTVSPropertyOp31
 70
     1
102
RTVSPropertyOp32
 70
     1
  0
XRECORD
  5
62A
102
{ACAD_REACTORS
330
629
102
}
330
629
100
AcDbXrecord
280
     1
102
RTVSPropertyOp0
 70
     1
102
RTVSPropertyOp1
 70
     1
102
RTVSPropertyOp2
 70
     1
102
RTVSPropertyOp3
 70
     1
102
RTVSPropertyOp4
 70
     1
102
RTVSPropertyOp5
 70
     1
102
RTVSPropertyOp6
 70
     1
102
RTVSPropertyOp7
 70
     1
102
RTVSPropertyOp8
 70
     1
102
RTVSPropertyOp9
 70
     1
102
RTVSPropertyOp10
 70
     1
102
RTVSPropertyOp11
 70
     1
102
RTVSPropertyOp12
 70
     1
102
RTVSPropertyOp13
 70
     1
102
RTVSPropertyOp14
 70
     1
102
RTVSPropertyOp15
 70
     1
102
RTVSPropertyOp16
 70
     1
102
RTVSPropertyOp17
 70
     1
102
RTVSPropertyOp18
 70
     1
102
RTVSPropertyOp19
 70
     1
102
RTVSPropertyOp20
 70
     1
102
RTVSPropertyOp21
 70
     1
102
RTVSPropertyOp22
 70
     1
102
RTVSPropertyOp23
 70
     1
102
RTVSPropertyOp24
 70
     1
102
RTVSPropertyOp25
 70
     1
102
RTVSPropertyOp26
 70
     1
102
RTVSPropertyOp27
 70
     1
102
RTVSPropertyOp28
 70
     1
102
RTVSPropertyOp29
 70
     1
102
RTVSPropertyOp30
 70
     1
102
RTVSPropertyOp31
 70
     1
102
RTVSPropertyOp32
 70
     1
  0
XRECORD
  5
61E
102
{ACAD_REACTORS
330
61D
102
}
330
61D
100
AcDbXrecord
280
     1
102
RTVSPropertyOp0
 70
     1
102
RTVSPropertyOp1
 70
     1
102
RTVSPropertyOp2
 70
     1
102
RTVSPropertyOp3
 70
     1
102
RTVSPropertyOp4
 70
     1
102
RTVSPropertyOp5
 70
     1
102
RTVSPropertyOp6
 70
     1
102
RTVSPropertyOp7
 70
     1
102
RTVSPropertyOp8
 70
     1
102
RTVSPropertyOp9
 70
     1
102
RTVSPropertyOp10
 70
     1
102
RTVSPropertyOp11
 70
     1
102
RTVSPropertyOp12
 70
     1
102
RTVSPropertyOp13
 70
     1
102
RTVSPropertyOp14
 70
     1
102
RTVSPropertyOp15
 70
     1
102
RTVSPropertyOp16
 70
     1
102
RTVSPropertyOp17
 70
     1
102
RTVSPropertyOp18
 70
     1
102
RTVSPropertyOp19
 70
     1
102
RTVSPropertyOp20
 70
     1
102
RTVSPropertyOp21
 70
     1
102
RTVSPropertyOp22
 70
     1
102
RTVSPropertyOp23
 70
     1
102
RTVSPropertyOp24
 70
     1
102
RTVSPropertyOp25
 70
     1
102
RTVSPropertyOp26
 70
     1
102
RTVSPropertyOp27
 70
     1
102
RTVSPropertyOp28
 70
     1
102
RTVSPropertyOp29
 70
     1
102
RTVSPropertyOp30
 70
     1
102
RTVSPropertyOp31
 70
     1
102
RTVSPropertyOp32
 70
     1
  0
XRECORD
  5
620
102
{ACAD_REACTORS
330
61F
102
}
330
61F
100
AcDbXrecord
280
     1
102
RTVSPropertyOp0
 70
     1
102
RTVSPropertyOp1
 70
     1
102
RTVSPropertyOp2
 70
     1
102
RTVSPropertyOp3
 70
     1
102
RTVSPropertyOp4
 70
     1
102
RTVSPropertyOp5
 70
     1
102
RTVSPropertyOp6
 70
     1
102
RTVSPropertyOp7
 70
     1
102
RTVSPropertyOp8
 70
     1
102
RTVSPropertyOp9
 70
     1
102
RTVSPropertyOp10
 70
     1
102
RTVSPropertyOp11
 70
     1
102
RTVSPropertyOp12
 70
     1
102
RTVSPropertyOp13
 70
     1
102
RTVSPropertyOp14
 70
     1
102
RTVSPropertyOp15
 70
     1
102
RTVSPropertyOp16
 70
     1
102
RTVSPropertyOp17
 70
     1
102
RTVSPropertyOp18
 70
     1
102
RTVSPropertyOp19
 70
     1
102
RTVSPropertyOp20
 70
     1
102
RTVSPropertyOp21
 70
     1
102
RTVSPropertyOp22
 70
     1
102
RTVSPropertyOp23
 70
     1
102
RTVSPropertyOp24
 70
     1
102
RTVSPropertyOp25
 70
     1
102
RTVSPropertyOp26
 70
     1
102
RTVSPropertyOp27
 70
     1
102
RTVSPropertyOp28
 70
     1
102
RTVSPropertyOp29
 70
     1
102
RTVSPropertyOp30
 70
     1
102
RTVSPropertyOp31
 70
     1
102
RTVSPropertyOp32
 70
     1
  0
XRECORD
  5
628
102
{ACAD_REACTORS
330
627
102
}
330
627
100
AcDbXrecord
280
     1
102
RTVSPropertyOp0
 70
     1
102
RTVSPropertyOp1
 70
     1
102
RTVSPropertyOp2
 70
     1
102
RTVSPropertyOp3
 70
     1
102
RTVSPropertyOp4
 70
     1
102
RTVSPropertyOp5
 70
     1
102
RTVSPropertyOp6
 70
     1
102
RTVSPropertyOp7
 70
     1
102
RTVSPropertyOp8
 70
     1
102
RTVSPropertyOp9
 70
     1
102
RTVSPropertyOp10
 70
     1
102
RTVSPropertyOp11
 70
     1
102
RTVSPropertyOp12
 70
     1
102
RTVSPropertyOp13
 70
     1
102
RTVSPropertyOp14
 70
     1
102
RTVSPropertyOp15
 70
     1
102
RTVSPropertyOp16
 70
     1
102
RTVSPropertyOp17
 70
     1
102
RTVSPropertyOp18
 70
     1
102
RTVSPropertyOp19
 70
     1
102
RTVSPropertyOp20
 70
     1
102
RTVSPropertyOp21
 70
     1
102
RTVSPropertyOp22
 70
     1
102
RTVSPropertyOp23
 70
     1
102
RTVSPropertyOp24
 70
     1
102
RTVSPropertyOp25
 70
     1
102
RTVSPropertyOp26
 70
     1
102
RTVSPropertyOp27
 70
     1
102
RTVSPropertyOp28
 70
     1
102
RTVSPropertyOp29
 70
     1
102
RTVSPropertyOp30
 70
     1
102
RTVSPropertyOp31
 70
     1
102
RTVSPropertyOp32
 70
     1
  0
XRECORD
  5
60C
102
{ACAD_REACTORS
330
60B
102
}
330
60B
100
AcDbXrecord
280
     1
102
RTVSPropertyOp0
 70
     1
102
RTVSPropertyOp1
 70
     1
102
RTVSPropertyOp2
 70
     1
102
RTVSPropertyOp3
 70
     1
102
RTVSPropertyOp4
 70
     1
102
RTVSPropertyOp5
 70
     1
102
RTVSPropertyOp6
 70
     1
102
RTVSPropertyOp7
 70
     1
102
RTVSPropertyOp8
 70
     1
102
RTVSPropertyOp9
 70
     1
102
RTVSPropertyOp10
 70
     1
102
RTVSPropertyOp11
 70
     1
102
RTVSPropertyOp12
 70
     1
102
RTVSPropertyOp13
 70
     1
102
RTVSPropertyOp14
 70
     1
102
RTVSPropertyOp15
 70
     1
102
RTVSPropertyOp16
 70
     1
102
RTVSPropertyOp17
 70
     1
102
RTVSPropertyOp18
 70
     1
102
RTVSPropertyOp19
 70
     1
102
RTVSPropertyOp20
 70
     1
102
RTVSPropertyOp21
 70
     1
102
RTVSPropertyOp22
 70
     1
102
RTVSPropertyOp23
 70
     1
102
RTVSPropertyOp24
 70
     1
102
RTVSPropertyOp25
 70
     1
102
RTVSPropertyOp26
 70
     1
102
RTVSPropertyOp27
 70
     1
102
RTVSPropertyOp28
 70
     1
102
RTVSPropertyOp29
 70
     1
102
RTVSPropertyOp30
 70
     1
102
RTVSPropertyOp31
 70
     1
102
RTVSPropertyOp32
 70
     1
  0
XRECORD
  5
60E
102
{ACAD_REACTORS
330
60D
102
}
330
60D
100
AcDbXrecord
280
     1
102
RTVSPropertyOp0
 70
     1
102
RTVSPropertyOp1
 70
     1
102
RTVSPropertyOp2
 70
     1
102
RTVSPropertyOp3
 70
     1
102
RTVSPropertyOp4
 70
     1
102
RTVSPropertyOp5
 70
     1
102
RTVSPropertyOp6
 70
     1
102
RTVSPropertyOp7
 70
     1
102
RTVSPropertyOp8
 70
     1
102
RTVSPropertyOp9
 70
     1
102
RTVSPropertyOp10
 70
     1
102
RTVSPropertyOp11
 70
     1
102
RTVSPropertyOp12
 70
     1
102
RTVSPropertyOp13
 70
     1
102
RTVSPropertyOp14
 70
     1
102
RTVSPropertyOp15
 70
     1
102
RTVSPropertyOp16
 70
     1
102
RTVSPropertyOp17
 70
     1
102
RTVSPropertyOp18
 70
     1
102
RTVSPropertyOp19
 70
     1
102
RTVSPropertyOp20
 70
     1
102
RTVSPropertyOp21
 70
     1
102
RTVSPropertyOp22
 70
     1
102
RTVSPropertyOp23
 70
     1
102
RTVSPropertyOp24
 70
     1
102
RTVSPropertyOp25
 70
     1
102
RTVSPropertyOp26
 70
     1
102
RTVSPropertyOp27
 70
     1
102
RTVSPropertyOp28
 70
     1
102
RTVSPropertyOp29
 70
     1
102
RTVSPropertyOp30
 70
     1
102
RTVSPropertyOp31
 70
     1
102
RTVSPropertyOp32
 70
     1
  0
XRECORD
  5
610
102
{ACAD_REACTORS
330
60F
102
}
330
60F
100
AcDbXrecord
280
     1
102
RTVSPropertyOp0
 70
     1
102
RTVSPropertyOp1
 70
     1
102
RTVSPropertyOp2
 70
     1
102
RTVSPropertyOp3
 70
     1
102
RTVSPropertyOp4
 70
     1
102
RTVSPropertyOp5
 70
     1
102
RTVSPropertyOp6
 70
     1
102
RTVSPropertyOp7
 70
     1
102
RTVSPropertyOp8
 70
     1
102
RTVSPropertyOp9
 70
     1
102
RTVSPropertyOp10
 70
     1
102
RTVSPropertyOp11
 70
     1
102
RTVSPropertyOp12
 70
     1
102
RTVSPropertyOp13
 70
     1
102
RTVSPropertyOp14
 70
     1
102
RTVSPropertyOp15
 70
     1
102
RTVSPropertyOp16
 70
     1
102
RTVSPropertyOp17
 70
     1
102
RTVSPropertyOp18
 70
     1
102
RTVSPropertyOp19
 70
     1
102
RTVSPropertyOp20
 70
     1
102
RTVSPropertyOp21
 70
     1
102
RTVSPropertyOp22
 70
     1
102
RTVSPropertyOp23
 70
     1
102
RTVSPropertyOp24
 70
     1
102
RTVSPropertyOp25
 70
     1
102
RTVSPropertyOp26
 70
     1
102
RTVSPropertyOp27
 70
     1
102
RTVSPropertyOp28
 70
     1
102
RTVSPropertyOp29
 70
     1
102
RTVSPropertyOp30
 70
     1
102
RTVSPropertyOp31
 70
     1
102
RTVSPropertyOp32
 70
     1
  0
XRECORD
  5
612
102
{ACAD_REACTORS
330
611
102
}
330
611
100
AcDbXrecord
280
     1
102
RTVSPropertyOp0
 70
     1
102
RTVSPropertyOp1
 70
     1
102
RTVSPropertyOp2
 70
     1
102
RTVSPropertyOp3
 70
     1
102
RTVSPropertyOp4
 70
     1
102
RTVSPropertyOp5
 70
     1
102
RTVSPropertyOp6
 70
     1
102
RTVSPropertyOp7
 70
     1
102
RTVSPropertyOp8
 70
     1
102
RTVSPropertyOp9
 70
     1
102
RTVSPropertyOp10
 70
     1
102
RTVSPropertyOp11
 70
     1
102
RTVSPropertyOp12
 70
     1
102
RTVSPropertyOp13
 70
     1
102
RTVSPropertyOp14
 70
     1
102
RTVSPropertyOp15
 70
     1
102
RTVSPropertyOp16
 70
     1
102
RTVSPropertyOp17
 70
     1
102
RTVSPropertyOp18
 70
     1
102
RTVSPropertyOp19
 70
     1
102
RTVSPropertyOp20
 70
     1
102
RTVSPropertyOp21
 70
     1
102
RTVSPropertyOp22
 70
     1
102
RTVSPropertyOp23
 70
     1
102
RTVSPropertyOp24
 70
     1
102
RTVSPropertyOp25
 70
     1
102
RTVSPropertyOp26
 70
     1
102
RTVSPropertyOp27
 70
     1
102
RTVSPropertyOp28
 70
     1
102
RTVSPropertyOp29
 70
     1
102
RTVSPropertyOp30
 70
     1
102
RTVSPropertyOp31
 70
     1
102
RTVSPropertyOp32
 70
     1
  0
XRECORD
  5
626
102
{ACAD_REACTORS
330
625
102
}
330
625
100
AcDbXrecord
280
     1
102
RTVSPropertyOp0
 70
     1
102
RTVSPropertyOp1
 70
     1
102
RTVSPropertyOp2
 70
     1
102
RTVSPropertyOp3
 70
     1
102
RTVSPropertyOp4
 70
     1
102
RTVSPropertyOp5
 70
     1
102
RTVSPropertyOp6
 70
     1
102
RTVSPropertyOp7
 70
     1
102
RTVSPropertyOp8
 70
     1
102
RTVSPropertyOp9
 70
     1
102
RTVSPropertyOp10
 70
     1
102
RTVSPropertyOp11
 70
     1
102
RTVSPropertyOp12
 70
     1
102
RTVSPropertyOp13
 70
     1
102
RTVSPropertyOp14
 70
     1
102
RTVSPropertyOp15
 70
     1
102
RTVSPropertyOp16
 70
     1
102
RTVSPropertyOp17
 70
     1
102
RTVSPropertyOp18
 70
     1
102
RTVSPropertyOp19
 70
     1
102
RTVSPropertyOp20
 70
     1
102
RTVSPropertyOp21
 70
     1
102
RTVSPropertyOp22
 70
     1
102
RTVSPropertyOp23
 70
     1
102
RTVSPropertyOp24
 70
     1
102
RTVSPropertyOp25
 70
     1
102
RTVSPropertyOp26
 70
     1
102
RTVSPropertyOp27
 70
     1
102
RTVSPropertyOp28
 70
     1
102
RTVSPropertyOp29
 70
     1
102
RTVSPropertyOp30
 70
     1
102
RTVSPropertyOp31
 70
     1
102
RTVSPropertyOp32
 70
     1
  0
XRECORD
  5
61C
102
{ACAD_REACTORS
330
61B
102
}
330
61B
100
AcDbXrecord
280
     1
102
RTVSPropertyOp0
 70
     1
102
RTVSPropertyOp1
 70
     1
102
RTVSPropertyOp2
 70
     1
102
RTVSPropertyOp3
 70
     1
102
RTVSPropertyOp4
 70
     1
102
RTVSPropertyOp5
 70
     1
102
RTVSPropertyOp6
 70
     1
102
RTVSPropertyOp7
 70
     1
102
RTVSPropertyOp8
 70
     1
102
RTVSPropertyOp9
 70
     1
102
RTVSPropertyOp10
 70
     1
102
RTVSPropertyOp11
 70
     1
102
RTVSPropertyOp12
 70
     1
102
RTVSPropertyOp13
 70
     1
102
RTVSPropertyOp14
 70
     1
102
RTVSPropertyOp15
 70
     1
102
RTVSPropertyOp16
 70
     1
102
RTVSPropertyOp17
 70
     1
102
RTVSPropertyOp18
 70
     1
102
RTVSPropertyOp19
 70
     1
102
RTVSPropertyOp20
 70
     1
102
RTVSPropertyOp21
 70
     1
102
RTVSPropertyOp22
 70
     1
102
RTVSPropertyOp23
 70
     1
102
RTVSPropertyOp24
 70
     1
102
RTVSPropertyOp25
 70
     1
102
RTVSPropertyOp26
 70
     1
102
RTVSPropertyOp27
 70
     1
102
RTVSPropertyOp28
 70
     1
102
RTVSPropertyOp29
 70
     1
102
RTVSPropertyOp30
 70
     1
102
RTVSPropertyOp31
 70
     1
102
RTVSPropertyOp32
 70
     1
  0
XRECORD
  5
624
102
{ACAD_REACTORS
330
623
102
}
330
623
100
AcDbXrecord
280
     1
102
RTVSPropertyOp0
 70
     1
102
RTVSPropertyOp1
 70
     1
102
RTVSPropertyOp2
 70
     1
102
RTVSPropertyOp3
 70
     1
102
RTVSPropertyOp4
 70
     1
102
RTVSPropertyOp5
 70
     1
102
RTVSPropertyOp6
 70
     1
102
RTVSPropertyOp7
 70
     1
102
RTVSPropertyOp8
 70
     1
102
RTVSPropertyOp9
 70
     1
102
RTVSPropertyOp10
 70
     1
102
RTVSPropertyOp11
 70
     1
102
RTVSPropertyOp12
 70
     1
102
RTVSPropertyOp13
 70
     1
102
RTVSPropertyOp14
 70
     1
102
RTVSPropertyOp15
 70
     1
102
RTVSPropertyOp16
 70
     1
102
RTVSPropertyOp17
 70
     1
102
RTVSPropertyOp18
 70
     1
102
RTVSPropertyOp19
 70
     1
102
RTVSPropertyOp20
 70
     1
102
RTVSPropertyOp21
 70
     1
102
RTVSPropertyOp22
 70
     1
102
RTVSPropertyOp23
 70
     1
102
RTVSPropertyOp24
 70
     1
102
RTVSPropertyOp25
 70
     1
102
RTVSPropertyOp26
 70
     1
102
RTVSPropertyOp27
 70
     1
102
RTVSPropertyOp28
 70
     1
102
RTVSPropertyOp29
 70
     1
102
RTVSPropertyOp30
 70
     1
102
RTVSPropertyOp31
 70
     1
102
RTVSPropertyOp32
 70
     1
  0
ENDSEC
  0
EOF
